osu file format v14

[General]
AudioFilename: audio.mp3
AudioLeadIn: 0
PreviewTime: 114760
Countdown: 0
SampleSet: Soft
StackLeniency: 0.9
Mode: 0
LetterboxInBreaks: 0
WidescreenStoryboard: 1

[Editor]
DistanceSpacing: 1.3
BeatDivisor: 4
GridSize: 32
TimelineZoom: 2.599999

[Metadata]
Title:Shuuten no Saki ga Aru to Suru naraba.
TitleUnicode:終点の先が在るとするならば。
Artist:TUYU
ArtistUnicode:ツユ
Creator:Keqing
Version:Seclusion.
Source:
Tags:some hero heroine bongo stratos SnowNiNo_ frozz -keqing captin1 seros fuju yogurtt deca guanineso iljaaz kowari if there was an endpoint. endpoint naraba 貴方を不幸に誘いますね 2nd album ぷす Pusu 礼衣 Reii おむたつ omutatsu Japanese Pop jpop J-pop rock jrock J-rock
BeatmapID:3109881
BeatmapSetID:1519316

[Difficulty]
HPDrainRate:6
CircleSize:4
OverallDifficulty:9
ApproachRate:9.7
SliderMultiplier:1.74
SliderTickRate:1

[Events]
//Background and Video events
Video,-381,"shuuten.mp4"
0,0,"a.jpg",0,0
//Break Periods
2,147576,148541
//Storyboard Layer 0 (Background)
//Storyboard Layer 1 (Fail)
//Storyboard Layer 2 (Pass)
//Storyboard Layer 3 (Foreground)
//Storyboard Layer 4 (Overlay)
//Storyboard Sound Samples

[TimingPoints]
441,255.31914893617,4,2,4,50,1,0
441,-185.185185185185,4,2,4,50,0,0
6823,-416.666666666665,4,2,4,60,0,0
7589,-80.6451612903225,4,2,4,90,0,0
23930,-106.382978723404,4,2,4,70,0,0
28015,-80.6451612903225,4,2,4,90,0,0
31717,-227.272727272727,4,2,4,90,0,0
33121,-80.6451612903225,4,2,4,80,0,0
35164,-96.1538461538461,4,2,4,80,0,0
35675,-80.6451612903225,4,2,4,80,0,0
36440,-119.047619047619,4,2,4,80,0,0
37206,-156.25,4,2,4,60,0,0
53547,-119.047619047619,4,2,4,70,0,0
56611,-96.1538461538461,4,2,4,70,0,0
59675,-80.6451612903226,4,2,4,80,0,0
61717,-80.6451612903226,4,2,4,90,0,0
78058,-106.382978723404,4,2,4,70,0,0
81121,-80.6451612903226,4,2,4,70,0,0
82143,-80.6451612903226,4,2,4,90,0,0
86228,-80.6451612903226,4,2,4,5,0,0
86738,-80.6451612903226,4,2,4,90,0,0
87249,-69.4444444444444,4,2,4,95,0,1
95419,-69.4444444444444,4,2,4,95,0,0
99504,-69.4444444444444,4,2,4,80,0,0
102568,-185.185185185185,4,2,4,70,0,0
106653,-80.6451612903225,4,2,4,95,0,0
110738,-185.185185185185,4,2,4,70,0,0
114823,-69.4444444444444,4,2,4,80,0,0
118143,-80.6451612903226,4,2,4,90,0,0
135249,-106.382978723404,4,2,4,70,0,0
139334,-80.6451612903225,4,2,4,90,0,0
149547,-69.4444444444444,4,2,4,95,0,1
157717,-69.4444444444444,4,2,4,90,0,0

[Colours]
Combo1 : 252,169,254
Combo2 : 196,108,253
Combo3 : 206,187,255
Combo4 : 255,43,43
Combo5 : 238,123,123
Combo6 : 255,74,165

[HitObjects]
501,268,441,22,0,P|461:233|418:235,1,93.9600022939454,2|0,0:0|0:0,0:0:0:0:
305,375,951,1,2,0:0:0:0:
379,348,1206,1,2,0:0:0:0:
272,207,1462,22,0,L|291:105,1,93.9600022939454,2|2,0:0|0:0,0:0:0:0:
145,316,1972,2,0,L|33:344,1,93.9600022939454,2|2,0:0|0:0,0:0:0:0:
119,241,2483,54,0,B|225:220|200:315|307:291,1,187.920004587891,2|2,0:0|0:0,0:0:0:0:
340,236,3249,1,2,0:0:0:0:
460,61,3504,22,0,B|354:40|379:135|272:111,1,187.920004587891,2|2,0:0|0:0,0:0:0:0:
238,56,4270,1,2,0:0:0:0:
409,173,4526,54,0,P|417:217|431:268,1,93.9600022939454,2|2,0:0|0:0,0:0:0:0:
287,113,5036,1,2,0:0:0:0:
466,347,5292,22,0,P|416:279|319:290,1,187.920004587891,2|2,0:0|0:0,0:0:0:0:
496,211,6058,1,2,0:0:0:0:
106,250,6823,54,0,B|98:208,2,41.7600010195313,2|2|2,0:0|0:0|0:0,0:0:0:0:
31,330,7589,70,0,B|73:324|104:271|104:271|107:344|178:367,1,215.759991440186,4|8,3:2|0:0,0:0:0:0:
18,243,7972,1,2,0:0:0:0:
198,114,8100,1,0,3:2:0:0:
174,183,8228,1,0,3:2:0:0:
58,110,8355,21,8,0:0:0:0:
213,275,8483,1,2,0:0:0:0:
213,275,8547,1,2,0:0:0:0:
213,275,8611,2,0,L|196:98,1,161.819993580139,0|0,3:2|0:0,0:0:0:0:
198,98,8866,53,10,0:0:0:0:
106,250,8994,1,2,0:0:0:0:
255,174,9121,21,2,3:2:0:0:
58,110,9249,1,2,0:0:0:0:
222,285,9377,53,10,0:0:0:0:
127,28,9504,1,2,0:0:0:0:
255,174,9632,22,0,B|329:189|329:189|392:155|356:110,1,161.819993580139,4|0,3:2|0:0,0:0:0:0:
349,111,9887,1,8,0:0:0:0:
223,284,10015,1,2,0:0:0:0:
343,221,10143,53,0,3:2:0:0:
279,68,10270,1,0,3:2:0:0:
460,160,10398,21,8,0:0:0:0:
223,284,10526,1,2,0:0:0:0:
342,222,10653,54,0,B|416:252|416:252|442:307|442:307|516:333,1,215.759991440186,4|8,3:2|0:0,0:0:0:0:
363,121,11036,1,2,0:0:0:0:
440,72,11164,2,0,B|478:105|478:105|452:182,1,107.879995720093,0|0,3:2|3:2,0:0:0:0:
223,284,11419,2,0,L|235:221,1,53.9399978600465,8|0,0:0|0:0,0:0:0:0:
251,155,11547,2,0,L|264:85,1,53.9399978600465,2|0,0:0|0:0,0:0:0:0:
72,5,11675,53,4,3:2:0:0:
72,5,11930,6,0,B|-3:63|33:152|33:152,1,161.819993580139,8|0,0:0|0:0,0:0:0:0:
32,150,12185,2,0,P|84:161|143:180,1,107.879995720093,0|0,3:2|3:2,0:0:0:0:
311,315,12440,70,0,B|228:272|164:344|164:344,1,161.819993580139,8|0,0:0|0:0,0:0:0:0:
163,344,12696,2,0,P|111:333|53:312,1,107.879995720093,0|0,3:2|0:0,0:0:0:0:
246,213,12951,5,8,0:0:0:0:
245,384,13079,1,2,0:0:0:0:
128,257,13206,1,2,3:2:0:0:
335,178,13334,1,2,3:2:0:0:
398,239,13462,70,0,P|389:290|384:347,1,107.879995720093,8|0,0:0|0:0,0:0:0:0:
246,213,13717,2,0,B|214:129|283:62,1,161.819993580139,0|0,3:2|0:0,0:0:0:0:
280,64,13972,2,0,P|331:80|407:98,1,107.879995720093,10|2,0:0|0:0,0:0:0:0:
246,213,14228,5,2,3:2:0:0:
112,145,14355,1,0,3:2:0:0:
15,268,14483,1,8,0:0:0:0:
148,384,14611,69,2,0:0:0:0:
148,384,14675,1,2,0:0:0:0:
148,384,14738,2,0,B|188:298|136:227|136:227,1,161.819993580139,2|0,3:2|0:0,0:0:0:0:
125,221,14994,5,8,0:0:0:0:
278,295,15121,1,2,0:0:0:0:
148,384,15249,1,0,3:2:0:0:
246,213,15377,1,0,3:2:0:0:
366,384,15504,69,8,0:0:0:0:
125,306,15632,1,8,0:0:0:0:
278,295,15760,22,0,B|347:272|347:272|374:209|374:209|446:181,1,215.759991440186,4|8,3:2|0:0,0:0:0:0:
223,120,16143,1,2,0:0:0:0:
280,69,16270,2,0,P|319:109|303:170,1,107.879995720093,0|0,3:2|3:2,0:0:0:0:
125,306,16526,1,8,0:0:0:0:
83,241,16653,1,2,0:0:0:0:
83,241,16717,1,2,0:0:0:0:
83,241,16781,22,0,P|94:190|102:128,1,107.879995720093,0|2,3:2|0:0,0:0:0:0:
198,262,17036,1,10,0:0:0:0:
58,362,17164,1,2,0:0:0:0:
203,343,17292,53,2,3:2:0:0:
83,241,17419,1,2,3:2:0:0:
20,293,17547,21,8,0:0:0:0:
208,158,17675,1,2,0:0:0:0:
43,23,17802,54,0,B|-5:31|-5:31|116:59,1,161.819993580139,4|0,3:2|0:0,0:0:0:0:
121,60,18058,1,8,0:0:0:0:
0,135,18185,1,2,0:0:0:0:
249,165,18313,22,0,B|278:143|278:143|185:162,1,107.879995720093,4|0,3:2|0:0,0:0:0:0:
83,241,18568,1,8,0:0:0:0:
123,60,18696,53,2,0:0:0:0:
249,165,18823,2,0,B|261:203|261:203|259:232|259:232|270:275,1,107.879995720093,4|0,3:2|0:0,0:0:0:0:
358,106,19079,21,8,0:0:0:0:
143,338,19206,1,2,0:0:0:0:
143,338,19270,1,2,0:0:0:0:
143,338,19334,2,0,B|152:300|152:300|150:271|150:271|162:233,1,107.879995720093,4|0,3:2|3:2,0:0:0:0:
332,313,19589,54,0,B|391:328|391:328|415:355|415:355|484:375,1,161.819993580139,8|2,0:0|0:0,0:0:0:0:
477,373,19845,54,0,B|523:327|492:274|492:274,1,107.879995720093,4|0,3:2|0:0,0:0:0:0:
358,106,20100,2,0,B|265:198|327:306|327:306,1,215.759991440186,8|0,0:2|3:2,0:0:0:0:
503,160,20483,1,0,3:2:0:0:
439,209,20611,6,0,P|387:214|323:227,1,107.879995720093,8|0,0:0|0:0,0:0:0:0:
75,60,20866,2,0,B|139:-12|234:33|234:33,1,161.819993580139,0|0,3:2|0:0,0:0:0:0:
223,28,21121,2,0,P|230:84|244:146,1,107.879995720093,8|0,0:0|0:0,0:0:0:0:
52,310,21377,69,0,3:2:0:0:
132,170,21504,1,0,3:2:0:0:
52,310,21632,6,0,B|68:253|32:202|32:202,1,107.879995720093,8|0,0:0|0:0,0:0:0:0:
198,369,21887,1,0,3:2:0:0:
124,343,22015,1,0,3:2:0:0:
332,224,22143,2,0,B|316:281|352:332|352:332,1,107.879995720093,8|0,0:0|0:0,0:0:0:0:
132,170,22398,70,0,B|192:178|235:142|235:142,1,107.879995720093,0|0,3:2|3:2,0:0:0:0:
471,264,22653,2,0,B|419:176|331:224|331:224,1,161.819993580139,8|0,0:0|0:0,0:0:0:0:
331,223,22909,6,0,B|328:218|364:269|348:326,1,107.879995720093,2|0,3:2|0:0,0:0:0:0:
448,137,23164,2,0,B|432:80|468:29|465:33,1,107.879995720093,10|0,0:2|0:0,0:0:0:0:
512,192,23419,69,2,3:2:0:0:
346,72,23547,1,0,3:2:0:0:
471,28,23675,1,8,0:0:0:0:
338,231,23802,1,8,0:0:0:0:
338,231,23866,1,8,0:0:0:0:
338,231,23930,38,0,P|259:211|173:195,1,163.559997504273,4|8,3:2|0:0,0:0:0:0:
273,133,24313,1,0,0:0:0:0:
119,254,24440,22,0,P|99:220|105:163,1,81.7799987521363,0|0,3:2|3:2,0:0:0:0:
6,44,24696,2,0,P|44:54|86:61,1,81.7799987521363,8|0,0:2|0:2,0:2:0:0:
98,178,24951,54,0,P|85:259|62:350,1,163.559997504273,2|8,3:2|0:0,0:0:0:0:
65,338,25334,1,0,0:0:0:0:
260,212,25462,2,0,P|265:172|276:121,1,81.7799987521363,0|0,3:2|3:2,0:0:0:0:
220,26,25717,2,0,P|169:51|167:119,1,122.669998128204,8|0,0:0|0:0,0:0:0:0:
168,119,25972,21,2,3:2:0:0:
317,40,26100,1,2,0:0:0:0:
368,99,26228,2,0,P|410:104|475:122,1,81.7799987521363,8|0,0:0|0:0,0:0:0:0:
256,211,26483,2,0,P|250:254|247:299,1,81.7799987521363,0|0,3:2|3:2,0:0:0:0:
372,350,26738,54,0,P|378:312|380:263,1,81.7799987521363,10|0,0:0|0:0,0:0:0:0:
265,125,26994,1,2,3:2:0:0:
331,165,27121,1,2,0:0:0:0:
184,237,27249,1,8,0:0:0:0:
256,211,27377,1,2,0:0:0:0:
147,164,27504,21,0,3:2:0:0:
247,292,27632,1,0,3:2:0:0:
265,125,27760,53,8,0:0:0:0:
95,244,27887,1,2,0:0:0:0:
95,244,27951,1,2,0:0:0:0:
95,244,28015,38,0,B|146:170|108:83|108:83,1,161.819993580139,4|0,3:2|0:0,0:0:0:0:
110,88,28270,2,0,P|55:86|-6:72,1,107.879995720093,8|0,0:0|0:0,0:0:0:0:
256,211,28526,6,0,B|310:123|397:172|397:172,1,161.819993580139,2|0,3:2|0:0,0:0:0:0:
396,171,28781,1,8,0:0:0:0:
271,48,28909,1,2,0:0:0:0:
344,30,29036,70,0,B|378:88|325:134|325:134,1,107.879995720093,2|0,3:2|0:0,0:0:0:0:
443,260,29292,1,8,0:0:0:0:
478,191,29419,1,2,0:0:0:0:
361,243,29547,1,0,3:2:0:0:
504,317,29675,1,0,3:2:0:0:
359,350,29802,1,8,0:0:0:0:
432,382,29930,1,0,0:0:0:0:
361,243,30058,6,0,B|275:229|205:281|205:281,1,161.819993580139,2|0,3:2|0:0,0:0:0:0:
200,290,30313,1,8,0:0:0:0:
40,187,30440,1,2,0:0:0:0:
177,140,30568,1,2,3:2:0:0:
74,302,30696,1,2,0:0:0:0:
182,384,30823,69,8,0:0:0:0:
129,215,30951,1,2,0:0:0:0:
0,351,31079,6,0,B|45:319|106:321|106:321,1,107.879995720093,4|0,3:2|0:0,0:0:0:0:
40,187,31334,1,8,0:0:0:0:
299,75,31462,70,0,B|215:109|155:25|155:25,1,161.819993580139,4|0,3:2|0:0,0:0:0:0:
156,27,31717,6,0,P|170:81|176:141,1,114.840003504639,4|0,3:2|0:0,0:0:0:0:
132,354,33121,5,4,3:2:0:0:
0,254,33249,1,10,0:0:0:0:
137,199,33377,2,0,P|126:227|119:264,1,53.9399978600465,2|0,0:0|0:0,0:0:0:0:
69,303,33504,1,0,3:2:0:0:
35,126,33632,22,0,P|44:151|50:182,1,53.9399978600465,8|0,0:0|0:0,0:0:0:0:
196,303,33760,1,0,3:2:0:0:
218,277,33823,1,0,0:0:0:0:
206,242,33887,1,8,0:0:0:0:
33,377,34015,1,0,3:2:0:0:
33,377,34079,1,0,3:2:0:0:
33,377,34143,54,0,P|75:351|152:364,1,107.879995720093,12|0,3:2|3:2,0:0:0:0:
398,175,34398,22,0,B|389:105|252:74|241:196|321:203|342:188,1,215.759991440186,12|0,0:0|0:0,0:0:0:0:
330,193,34909,53,2,0:0:0:0:
235,70,35036,1,2,0:0:0:0:
355,1,35164,22,0,B|345:30|345:30|350:63|350:63|337:102,1,90.4799994477539,4|8,3:2|0:0,0:0:0:0:
201,192,35419,1,2,0:0:0:0:
359,318,35547,53,2,3:2:0:0:
359,318,35611,1,2,3:2:0:0:
359,318,35675,2,0,P|336:299|294:288,1,53.9399978600465,8|0,0:2|0:0,0:2:0:0:
207,199,35802,1,0,3:2:0:0:
207,199,35866,1,0,3:2:0:0:
207,199,35930,2,0,P|177:205|145:224,1,53.9399978600465,8|0,0:0|0:0,0:0:0:0:
349,96,36058,1,0,3:2:0:0:
349,96,36121,1,0,3:2:0:0:
349,96,36185,2,0,P|388:136|373:200,1,107.879995720093,8|0,0:0|3:2,0:0:0:0:
92,323,36440,21,12,0:0:0:0:
92,323,36568,2,0,B|59:283|0:296|0:296|-5:292|-5:292|88:248|155:334|100:306|163:394|239:351,1,365.399988848877,2|4,0:2|3:2,0:0:0:0:
77,115,37717,69,2,3:2:0:0:
164,23,37972,1,2,0:0:0:0:
164,23,38228,2,0,P|221:69|196:165,1,167.04,2|0,3:2|0:0,0:0:0:0:
159,214,38738,1,2,3:2:0:0:
369,335,38994,1,2,0:0:0:0:
303,370,39121,1,0,0:0:0:0:
262,309,39249,22,0,P|268:251|279:196,1,111.36,2|2,3:2|0:0,0:0:0:0:
458,104,39760,1,0,3:2:0:0:
391,59,40015,2,0,P|370:134|364:226,1,167.04,2|0,0:0|0:0,0:0:0:0:
425,281,40526,54,0,P|456:285|488:294,1,55.68,2|0,0:0|0:0,0:0:0:0:
295,123,40781,2,0,P|269:116|239:111,1,55.68,2|0,3:2|0:0,0:0:0:0:
482,30,41036,22,0,P|472:62|467:98,1,55.68,2|0,0:0|0:0,0:0:0:0:
274,265,41292,2,0,P|312:223|381:232,1,111.36,2|2,3:2|0:0,0:0:0:0:
240,111,41802,1,2,3:2:0:0:
343,319,42058,54,0,P|262:300|157:287,1,167.04,2|0,0:0|0:0,0:0:0:0:
119,240,42568,22,0,P|106:269|106:312,1,55.68,2|0,0:0|0:0,0:0:0:0:
237,380,42823,2,0,P|245:358|247:317,1,55.68,2|0,3:2|0:0,0:0:0:0:
294,171,43079,54,0,P|270:181|237:187,1,55.68,2|0,0:0|0:0,0:0:0:0:
38,378,43334,2,0,P|91:361|150:349,1,111.36,2|2,3:2|0:0,0:0:0:0:
6,263,43845,1,2,3:2:0:0:
51,325,44100,2,0,P|41:351|36:378,1,55.68,2|0,0:0|0:0,0:0:0:0:
203,256,44355,22,0,P|204:183|116:140,1,167.04,2|2,3:2|0:0,0:0:0:0:
17,68,44866,2,0,P|24:95|32:143,1,55.68,2|0,3:2|0:0,0:0:0:0:
121,13,45121,2,0,P|152:8|181:-1,1,55.68,2|0,0:0|0:0,0:0:0:0:
341,144,45377,54,0,P|271:152|218:170,1,111.36,2|2,3:2|0:0,0:0:0:0:
394,56,45887,1,2,3:2:0:0:
232,164,46143,1,2,0:0:0:0:
411,268,46398,1,0,3:2:0:0:
447,201,46653,22,0,P|440:174|436:137,1,55.68,2|0,0:0|0:0,0:0:0:0:
294,316,46909,2,0,P|302:342|306:374,1,55.68,2|0,3:2|0:0,0:0:0:0:
390,294,47164,54,0,P|420:287|452:285,1,55.68,2|0,0:0|0:0,0:0:0:0:
224,255,47419,2,0,P|171:267|110:273,1,111.36,0|2,3:2|0:0,0:0:0:0:
341,144,47930,1,2,3:2:0:0:
294,316,48185,1,2,0:0:0:0:
341,144,48440,22,0,P|349:88|366:27,1,111.36,2|2,3:2|0:0,0:0:0:0:
295,0,48823,1,0,0:0:0:0:
246,59,48951,2,0,P|240:88|230:120,1,55.68,2|0,3:2|0:0,0:0:0:0:
353,221,49206,2,0,P|379:225|414:237,1,55.68,2|0,0:0|0:0,0:0:0:0:
214,337,49462,54,0,P|163:344|112:392,2,111.36,2|2|2,3:2|0:0|3:2,0:0:0:0:
270,190,50228,2,0,P|276:217|278:253,1,55.68,2|0,0:0|0:0,0:0:0:0:
119,174,50483,22,0,P|106:123|103:49,1,111.36,0|2,3:2|0:0,0:0:0:0:
270,190,50994,1,2,3:2:0:0:
48,298,51249,2,0,P|77:285|115:276,1,55.68,2|0,0:0|0:0,0:0:0:0:
270,190,51504,54,0,P|321:210|352:264,1,111.36,2|2,3:2|0:0,0:0:0:0:
407,308,51887,1,0,0:0:0:0:
270,190,52015,22,0,P|260:136|300:81,1,111.36,2|0,3:2|0:0,0:0:0:0:
312,14,52398,1,2,0:0:0:0:
270,190,52526,54,0,P|226:230|151:236,1,111.36,2|2,3:2|0:0,0:0:0:0:
120,286,52909,1,2,0:0:0:0:
32,111,53036,22,0,L|92:131,1,55.68,2|0,3:2|0:0,0:0:0:0:
270,190,53292,1,2,0:0:0:0:
75,374,53547,54,0,B|92:295|92:295|31:248,1,146.159995539551,4|0,3:2|0:0,0:0:0:0:
8,324,53930,1,0,0:0:0:0:
176,240,54058,2,0,B|190:207|190:207|186:152,1,73.0799977697755,8|0,0:0|0:0,0:0:0:0:
43,40,54313,2,0,B|29:73|29:73|33:128,1,73.0799977697755,2|0,0:0|0:0,0:0:0:0:
187,169,54568,22,0,B|237:148|237:148|255:111|255:111|317:85,1,146.159995539551,2|0,3:2|3:2,0:0:0:0:
301,91,54951,1,0,0:0:0:0:
390,198,55079,2,0,B|361:178|361:178|317:176,1,73.0799977697755,8|0,0:0|0:0,0:0:0:0:
486,87,55334,2,0,B|466:116|466:116|464:160,1,73.0799977697755,2|0,0:0|0:0,0:0:0:0:
349,320,55589,54,0,L|321:164,1,146.159995539551,2|2,3:2|0:0,0:0:0:0:
459,234,55972,1,2,0:0:0:0:
282,375,56100,22,0,B|265:344|265:344|271:295,1,73.0799977697755,8|0,0:0|0:0,0:0:0:0:
323,176,56355,2,0,B|327:138|327:138|310:107,1,73.0799977697755,2|0,0:0|0:0,0:0:0:0:
512,324,56611,54,0,B|461:339|461:339|442:362|442:362|372:383,1,135.719999171631,4|0,3:2|0:0,0:0:0:0:
378,384,56866,1,8,0:0:0:0:
459,234,56994,1,0,3:2:0:0:
246,218,57121,21,8,0:0:0:0:
436,317,57249,1,0,3:2:0:0:
282,375,57377,53,8,0:0:0:0:
336,254,57504,1,2,0:0:0:0:
336,254,57632,22,0,P|326:211|320:157,1,90.4799994477539,4|0,3:2|0:0,0:0:0:0:
173,323,57887,2,0,P|158:229|131:136,1,180.959998895508,2|2,3:2|3:2,0:0:0:0:
179,81,58270,1,2,0:0:0:0:
45,162,58398,1,2,3:2:0:0:
77,90,58526,1,2,0:0:0:0:
185,233,58653,54,0,P|176:275|172:326,1,90.4799994477539,2|0,3:2|0:0,0:0:0:0:
36,384,58909,1,2,3:2:0:0:
103,352,59036,1,2,0:0:0:0:
12,226,59164,2,0,P|7:276|-3:326,1,90.4799994477539,2|0,3:2|0:0,0:0:0:0:
185,233,59419,1,2,3:2:0:0:
0,316,59547,1,2,0:0:0:0:
185,233,59675,70,0,B|242:224|305:199|305:199|283:248|292:303,1,215.759991440186,4|8,3:2|0:0,0:0:0:0:
111,148,60058,1,0,3:2:0:0:
290,287,60185,2,0,L|275:357,1,53.9399978600465,8|0,0:0|0:0,0:0:0:0:
471,167,60313,1,0,3:2:0:0:
471,167,60377,1,0,3:2:0:0:
471,167,60440,2,0,L|456:90,1,53.9399978600465,8|0,0:0|0:0,0:0:0:0:
320,25,60568,1,0,3:2:0:0:
321,7,60632,1,0,3:2:0:0:
336,0,60696,22,0,B|377:41|337:96|346:60|290:108|322:150,1,161.819993580139,4|0,3:2|0:0,0:0:0:0:
466,252,60951,54,0,B|432:252|382:216|382:216|397:259|393:289,1,161.819993580139,4|0,3:2|0:0,0:2:0:0:
160,352,61206,22,0,B|195:336|231:292|231:292|250:324|286:344,1,161.819993580139,4|0,3:2|0:0,0:0:0:0:
285,347,61462,53,2,0:0:0:0:
73,90,61717,22,0,B|63:66|37:53|37:53|164:84,1,161.819993580139,4|0,3:2|0:0,0:0:0:0:
156,83,61972,1,8,0:0:0:0:
22,155,62100,1,2,0:0:0:0:
141,261,62228,2,0,B|132:225|132:225|136:196|136:196|124:155,1,107.879995720093,0|0,3:2|3:2,0:0:0:0:
0,52,62483,1,8,0:0:0:0:
217,228,62611,1,2,0:0:0:0:
217,228,62675,1,2,0:0:0:0:
217,228,62738,54,0,P|277:219|322:108,1,161.819993580139,0|0,3:2|0:0,0:0:0:0:
334,127,62994,1,8,0:0:0:0:
141,260,63121,1,2,0:0:0:0:
337,218,63249,21,2,3:2:0:0:
156,83,63377,1,0,3:2:0:0:
263,337,63504,53,10,0:0:0:0:
334,127,63632,1,2,0:0:0:0:
141,260,63760,22,0,B|267:234|233:343|371:312,1,215.759991440186,2|8,3:2|0:0,0:0:0:0:
124,156,64143,1,2,0:0:0:0:
288,43,64270,54,0,P|336:89|332:130,1,107.879995720093,0|0,3:2|3:2,0:0:0:0:
141,260,64526,1,8,0:0:0:0:
204,182,64653,21,2,0:0:0:0:
340,316,64781,2,0,P|323:265|308:201,1,107.879995720093,2|2,3:2|0:0,0:0:0:0:
189,383,65036,53,10,0:0:0:0:
320,204,65164,2,0,P|386:204|426:306,1,161.819993580139,2|0,0:0|0:0,0:0:0:0:
437,292,65419,1,0,3:2:0:0:
257,119,65547,1,8,0:0:0:0:
402,51,65675,1,2,0:0:0:0:
257,119,65802,54,0,B|187:73|100:79|100:79,1,161.819993580139,4|0,3:2|0:0,0:0:0:0:
102,78,66058,2,0,B|108:134|89:187|89:187,1,107.879995720093,10|0,0:0|0:0,0:0:0:0:
0,292,66313,1,2,3:2:0:0:
168,221,66440,1,2,3:2:0:0:
17,158,66568,1,8,0:0:0:0:
103,342,66696,1,2,0:0:0:0:
232,266,66823,6,0,B|196:221|216:151|216:151,1,107.879995720093,2|0,3:2|0:0,0:0:0:0:
23,282,67079,2,0,B|20:270|40:340|4:385,1,107.879995720093,10|0,0:2|0:0,0:0:0:0:
168,221,67334,69,2,3:2:0:0:
17,158,67462,1,2,3:2:0:0:
187,339,67589,6,0,B|254:279|345:305|345:305,1,161.819993580139,8|0,0:0|0:0,0:0:0:0:
338,303,67845,2,0,B|379:258|357:201,1,107.879995720093,2|0,3:2|0:0,0:0:0:0:
427,341,68100,1,10,0:0:0:0:
281,207,68228,1,2,0:0:0:0:
448,253,68355,1,0,3:2:0:0:
302,381,68483,1,0,3:2:0:0:
366,178,68611,1,8,0:0:0:0:
237,281,68738,1,2,0:0:0:0:
366,178,68866,70,0,B|397:130|378:71|378:71,1,107.879995720093,0|0,3:2|0:0,0:0:0:0:
209,15,69121,2,0,B|146:82|184:169|184:169,1,161.819993580139,8|0,0:0|0:0,0:0:0:0:
190,177,69377,1,0,3:2:0:0:
297,102,69504,1,0,3:2:0:0:
138,70,69632,5,8,0:0:0:0:
286,193,69760,1,8,0:0:0:0:
68,338,69887,6,0,B|116:326|165:301|165:301|245:340|195:387,1,215.759991440186,4|8,3:2|0:0,0:0:0:0:
37,253,70270,1,2,0:0:0:0:
189,177,70398,22,0,B|175:218|175:218|180:250|180:250|164:299,1,107.879995720093,0|0,3:2|3:2,0:0:0:0:
68,338,70653,1,8,0:0:0:0:
260,227,70781,53,2,0:0:0:0:
260,227,70845,1,2,0:0:0:0:
260,227,70909,2,0,P|287:169|231:61,1,161.819993580139,0|0,3:2|0:0,0:0:0:0:
244,72,71164,1,8,0:0:0:0:
372,222,71292,1,2,0:0:0:0:
189,178,71419,21,2,3:2:0:0:
363,72,71547,1,2,3:2:0:0:
278,264,71675,53,10,0:0:0:0:
244,72,71802,1,2,3:2:0:0:
475,278,71930,22,0,B|428:225|364:255|364:255|364:309|321:338,1,215.759991440186,4|8,3:2|0:0,0:0:0:0:
488,178,72313,1,2,0:0:0:0:
326,12,72440,54,0,L|305:132,1,107.879995720093,4|0,3:2|0:0,0:0:0:0:
475,278,72696,1,8,0:0:0:0:
408,128,72823,21,2,0:0:0:0:
278,264,72951,2,0,B|238:268|204:287|204:287|151:252|182:214,1,161.819993580139,4|0,3:2|0:0,0:0:0:0:
186,213,73206,1,8,0:0:0:0:
325,335,73334,1,2,0:0:0:0:
264,184,73462,53,4,3:2:0:0:
111,358,73589,2,0,P|163:356|200:315,1,107.879995720093,2|8,0:0|0:0,0:0:0:0:
385,223,73845,21,2,0:0:0:0:
385,223,73909,1,2,0:0:0:0:
385,223,73972,22,0,B|329:157|361:69|361:69,1,161.819993580139,4|0,3:2|0:0,0:0:0:0:
360,69,74228,2,0,B|418:80|463:45|463:45,1,107.879995720093,8|0,0:0|0:0,0:0:0:0:
385,223,74483,1,0,3:2:0:0:
241,157,74611,1,0,3:2:0:0:
389,229,74738,2,0,B|418:280|408:342|408:342,1,107.879995720093,8|0,0:0|0:0,0:0:0:0:
193,250,74994,6,0,B|225:179|196:86|196:86,1,161.819993580139,2|0,3:2|0:0,0:0:0:0:
197,91,75249,2,0,B|142:104|90:66|90:66,1,107.879995720093,10|0,0:0|0:0,0:0:0:0:
0,231,75504,1,2,3:2:0:0:
121,175,75632,1,0,3:2:0:0:
16,2,75760,2,0,B|29:59|-2:108|-2:108,1,107.879995720093,10|0,0:0|0:0,0:0:0:0:
180,290,76015,70,0,B|146:242|85:252|85:252,1,107.879995720093,2|0,3:2|0:0,0:0:0:0:
247,372,76270,2,0,B|345:391|381:302,1,161.819993580139,8|0,0:0|0:0,0:0:0:0:
379,306,76526,2,0,B|365:246|396:193|396:193,1,107.879995720093,0|0,3:2|3:2,0:0:0:0:
205,19,76781,6,0,B|292:16|323:120,1,161.819993580139,10|0,0:0|0:0,0:0:0:0:
320,112,77036,2,0,B|285:155|293:221|293:221,1,107.879995720093,2|0,3:2|0:0,0:0:0:0:
106,349,77292,2,0,B|107:351|63:304|82:248,1,107.879995720093,10|0,0:0|0:0,0:0:0:0:
12,136,77547,1,0,3:2:0:0:
178,240,77675,1,0,3:2:0:0:
8,367,77802,1,8,0:0:0:0:
91,259,77930,1,8,0:0:0:0:
91,259,77994,1,8,0:0:0:0:
91,259,78058,22,0,P|165:269|271:295,1,163.559997504273,4|8,3:2|0:0,0:0:0:0:
293,352,78440,1,0,0:0:0:0:
415,214,78568,2,0,P|376:210|325:197,1,81.7799987521363,0|0,3:2|3:2,0:0:0:0:
395,296,78823,2,0,P|388:337|388:381,1,81.7799987521363,8|0,0:0|0:0,0:0:0:0:
246,198,79079,22,0,P|232:133|313:68,1,163.559997504273,2|8,3:2|0:0,0:0:0:0:
347,16,79462,1,0,0:0:0:0:
428,136,79589,2,0,P|418:176|415:236,1,81.7799987521363,2|0,3:2|3:0,0:0:0:0:
238,371,79845,2,0,P|248:331|251:271,1,81.7799987521363,10|0,0:2|0:0,0:0:0:0:
87,158,80100,54,0,P|173:175|247:198,1,163.559997504273,2|8,3:2|0:2,0:0:0:0:
318,166,80483,1,0,0:0:0:0:
171,253,80611,2,0,P|154:296|150:337,1,81.7799987521363,0|0,3:2|3:2,0:0:0:0:
87,158,80866,2,0,P|98:121|106:69,1,81.7799987521363,8|0,0:0|0:0,0:0:0:0:
172,35,81121,21,2,3:2:0:0:
26,105,81249,1,2,0:0:0:0:
43,30,81377,53,8,0:0:0:0:
185,145,81504,1,0,0:0:0:0:
234,84,81632,21,2,3:2:0:0:
87,158,81760,1,0,3:2:0:0:
278,384,81887,54,0,B|365:321|303:235|303:235,1,161.819993580139,8|0,0:0|0:0,0:0:0:0:
307,241,82143,38,0,B|253:251|205:216|205:216,1,107.879995720093,4|0,3:2|0:0,0:0:0:0:
0,344,82398,2,0,B|94:366|130:272,1,161.819993580139,8|0,0:0|0:0,0:0:0:0:
125,267,82653,1,2,3:2:0:0:
0,186,82781,1,2,3:2:0:0:
35,256,82909,1,8,0:0:0:0:
161,127,83036,1,2,0:0:0:0:
93,19,83164,6,0,B|41:55|63:114,1,107.879995720093,2|0,3:2|0:0,0:0:0:0:
204,215,83419,1,8,0:0:0:0:
91,190,83547,1,2,0:0:0:0:
237,55,83675,1,0,3:2:0:0:
62,113,83802,1,0,3:0:0:0:
223,311,83930,2,0,B|253:256|198:209,1,107.879995720093,8|0,0:0|0:0,0:0:0:0:
422,38,84185,70,0,B|333:79|373:181,1,161.819993580139,2|0,3:2|0:0,0:0:0:0:
369,172,84440,2,0,B|430:170|478:213|478:213,1,107.879995720093,10|2,0:0|0:0,0:0:0:0:
318,255,84696,1,2,3:2:0:0:
476,111,84823,1,2,3:2:0:0:
272,156,84951,1,10,0:0:0:0:
440,306,85079,1,2,0:0:0:0:
334,379,85206,6,0,B|323:346|323:346|331:311|331:311|313:267,1,107.879995720093,4|0,3:2|0:0,0:0:0:0:
476,111,85462,1,8,0:0:0:0:
218,237,85589,70,0,B|179:236|146:254|146:254|95:218|125:179,1,161.819993580139,4|0,3:2|0:0,0:0:0:0:
190,139,85845,2,0,B|238:198|180:258|172:232|119:285|184:351,1,215.759991440186,6|0,3:2|0:0,0:2:0:0:
169,332,86738,53,2,0:1:0:0:
217,263,86866,5,2,0:1:0:0:
322,273,86994,69,2,0:1:0:0:
367,384,87121,5,2,0:1:0:0:
217,263,87249,70,0,B|200:247|200:247|196:203|196:203|223:178|223:178|219:128|219:128|194:106,1,187.920004587891,4|0,3:2|0:0,0:0:0:0:
142,46,87504,2,0,B|114:57|114:57|102:117|102:117|124:143,1,125.280003058594,8|0,0:0|3:2,0:0:0:0:
322,273,87760,1,2,0:0:0:0:
169,332,87887,1,0,3:2:0:0:
397,263,88015,6,0,B|448:282|448:282|409:299|409:299|317:271,1,187.920004587891,8|0,0:0|0:0,0:0:0:0:
120,221,88270,70,0,B|109:238|109:238|19:259|19:259|-4:291|-4:291|26:323,1,187.920004587891,2|0,3:2|0:0,0:0:0:0:
29,323,88526,1,8,0:0:0:0:
267,130,88653,6,0,B|276:98|276:98|249:45|249:45|261:5,1,125.280003058594,2|0,3:2|0:0,0:0:0:0:
333,38,88909,1,2,3:2:0:0:
194,106,89036,1,8,0:0:0:0:
322,193,89164,1,2,0:0:0:0:
182,374,89292,70,0,B|155:313|155:313|211:256|211:256|228:298,1,187.920004587891,2|0,3:2|0:0,0:0:0:0:
231,306,89547,1,8,0:0:0:0:
371,261,89675,6,0,B|398:200|398:200|342:143|342:143|325:185,1,187.920004587891,2|0,3:2|0:0,0:0:0:0:
322,193,89930,1,0,3:2:0:0:
167,34,90058,1,8,0:0:0:0:
194,106,90185,1,2,0:0:0:0:
426,81,90313,70,0,B|368:37|368:37|254:63,1,187.920004587891,2|0,3:2|0:0,0:0:0:0:
194,106,90568,2,0,B|153:140|153:140|79:120,1,125.280003058594,8|0,0:0|3:0,0:0:0:0:
231,179,90823,5,2,0:2:0:0:
80,40,90951,1,2,3:2:0:0:
231,179,91079,70,0,B|217:222|217:222|224:260|224:260|212:306,1,125.280003058594,8|2,0:0|0:0,0:0:0:0:
117,318,91334,5,4,3:2:0:0:
301,229,91462,1,2,0:0:0:0:
139,242,91589,69,8,0:0:0:0:
311,309,91717,1,2,3:2:0:0:
208,194,91845,5,2,0:2:0:0:
252,371,91972,1,2,3:2:0:0:
304,234,92100,69,8,0:0:0:0:
172,384,92228,1,2,0:0:0:0:
304,234,92355,6,0,B|264:112|264:112|361:138|361:138|348:175,1,250.560006117188,2|8,3:2|0:0,0:0:0:0:
139,242,92738,2,0,B|94:226|94:226|79:205|79:205|23:186,1,125.280003058594,2|0,3:2|0:0,0:2:0:0:
117,318,92994,1,2,3:2:0:0:
165,106,93121,70,0,B|147:135|147:135|148:168,1,62.6400015292969,8|0,0:0|0:0,0:0:0:0:
25,268,93249,2,0,B|21:303|21:303|6:330,1,62.6400015292969,2|0,0:0|0:0,0:0:0:0:
208,288,93377,6,0,B|322:264|322:264|285:332,1,187.920004587891,4|0,3:2|0:0,0:0:0:0:
287,326,93632,2,0,B|251:275|251:275|277:208,1,125.280003058594,8|0,0:0|0:0,0:0:0:0:
444,27,93887,70,0,B|451:-2|451:-2|374:47|374:47|405:130,1,187.920004587891,4|0,3:2|0:0,0:0:0:0:
412,184,94143,2,0,B|454:166|454:166|469:138|469:138|517:117,1,125.280003058594,8|0,0:0|0:0,0:0:0:0:
273,216,94398,6,0,B|237:223|237:223|189:202|189:202|188:200|188:200|132:212|132:212|92:197,1,187.920004587891,4|0,3:2|0:0,0:0:0:0:
57,130,94653,2,0,B|7:167|7:167|26:233,1,125.280003058594,8|0,0:0|0:0,0:0:0:0:
176,286,94909,69,6,3:2:0:0:
147,112,95036,1,2,0:0:0:0:
278,203,95164,5,8,0:0:0:0:
80,305,95292,1,8,0:0:0:0:
24,227,95419,70,0,B|40:235|40:235|183:198|183:198|174:299,1,250.560006117188,4|8,3:2|0:0,0:0:0:0:
57,130,95802,1,2,3:2:0:0:
252,32,95930,6,0,B|295:43|295:43|197:61,1,125.280003058594,2|0,0:2|3:2,0:0:0:0:
323,234,96185,2,0,B|277:201|277:201|409:233,1,187.920004587891,8|0,0:0|0:0,0:0:0:0:
458,172,96440,70,0,B|494:220|494:220|472:292,1,125.280003058594,2|0,3:2|0:0,0:0:0:0:
315,373,96696,1,8,0:0:0:0:
215,57,96823,6,0,B|179:105|179:105|201:177,1,125.280003058594,2|0,3:2|0:0,0:0:0:0:
359,306,97079,1,2,3:2:0:0:
386,118,97206,70,0,B|352:114|352:114|314:139,1,62.6400015292969,8|0,0:0|0:0,0:0:0:0:
210,251,97334,2,0,B|176:255|176:255|138:230,1,62.6400015292969,2|0,0:0|0:0,0:0:0:0:
110,40,97462,6,0,B|132:22|132:22|202:34|202:34|224:72,1,125.280003058594,2|0,3:2|0:0,0:0:0:0:
46,222,97717,1,8,0:0:0:0:
210,251,97845,70,0,B|180:189|180:189|43:220,1,187.920004587891,2|0,3:2|0:0,0:0:0:0:
46,222,98100,1,2,3:2:0:0:
214,56,98228,2,0,B|226:82|226:82|223:118,1,62.6400015292969,8|0,0:0|0:0,0:0:0:0:
45,0,98355,2,0,B|28:31|28:31|33:69,1,62.6400015292969,2|2,0:0|0:0,0:0:0:0:
103,126,98483,6,0,B|195:152|195:152|228:217|228:217|312:244,1,250.560006117188,2|8,3:2|0:0,0:0:0:0:
366,191,98866,1,2,3:2:0:0:
370,302,98994,69,2,0:2:0:0:
305,143,99121,1,2,3:2:0:0:
430,241,99249,5,8,0:0:0:0:
286,325,99377,1,2,0:0:0:0:
202,117,99504,70,0,L|218:35,1,62.6400015292969,4|0,3:2|0:0,0:0:0:0:
218,37,99632,1,2,0:0:0:0:
292,58,99760,1,8,0:0:0:0:
103,126,99887,1,2,0:0:0:0:
31,107,100015,1,2,3:2:0:0:
139,60,100143,1,2,3:2:0:0:
227,209,100270,1,8,0:0:0:0:
154,192,100398,1,2,0:0:0:0:
292,58,100526,6,0,B|330:110|330:110|309:176,1,125.280003058594,2|0,3:2|0:0,0:0:0:0:
179,265,100781,1,8,0:0:0:0:
280,372,100909,70,0,B|310:319|310:319|286:256,1,125.280003058594,2|0,0:0|3:2,0:0:0:0:
206,133,101164,1,0,3:2:0:0:
0,273,101292,6,0,B|69:258|69:258|117:278|117:278|196:262,1,187.920004587891,8|0,0:0|0:0,0:0:0:0:
196,261,101547,69,0,3:2:0:0:
31,107,101802,5,8,0:0:0:0:
292,58,102058,69,2,3:2:0:0:
238,112,102185,1,0,3:2:0:0:
172,85,102313,1,10,0:0:0:0:
224,34,102440,1,2,0:0:0:0:
305,166,102568,70,0,P|293:215|285:274,2,93.9600022939454,4|0|2,3:2|0:0|3:2,0:0:0:0:
370,127,103334,1,0,0:0:0:0:
138,244,103589,22,0,P|149:290|155:345,1,93.9600022939454,2|2,3:2|0:0,0:0:0:0:
215,384,103972,1,2,0:0:0:0:
62,222,104228,53,0,0:0:0:0:
138,244,104355,1,2,0:0:0:0:
180,177,104483,1,0,0:0:0:0:
101,89,104611,22,0,P|56:79|-1:64,1,93.9600022939454,2|0,3:2|0:0,0:0:0:0:
180,177,104994,2,0,P|228:186|281:207,1,93.9600022939454
465,90,105504,53,0,0:0:0:0:
418,32,105632,2,0,P|365:53|373:141,1,140.940003440918,2|2,3:2|0:0,0:0:0:0:
348,203,106143,1,2,3:2:0:0:
474,357,106398,22,0,L|467:330,3,23.4900005734863,2|2|2|2,0:0|0:0|0:0|0:0,0:0:0:0:
512,270,106653,69,14,3:2:0:0:
442,243,106738,1,2,0:1:0:0:
394,302,106823,1,2,0:1:0:0:
316,329,106909,5,8,0:0:0:0:
290,353,106994,1,2,0:1:0:0:
258,346,107079,1,2,0:1:0:0:
191,291,107164,69,2,3:2:0:0:
176,287,107249,1,2,0:1:0:0:
163,299,107334,1,2,0:1:0:0:
90,355,107419,5,10,0:1:0:0:
86,359,107504,1,2,0:1:0:0:
81,358,107589,1,2,0:1:0:0:
28,297,107675,70,0,P|31:261|63:226,1,71.9199971467286,2|0,3:1|0:0,0:0:0:0:
191,291,107845,1,2,0:1:0:0:
0,179,107930,6,0,P|34:158|75:160,1,71.9199971467286,8|0,0:0|0:0,0:0:0:0:
191,291,108100,1,2,0:1:0:0:
95,76,108185,70,0,P|151:130|140:209,1,143.839994293457,2|0,3:1|0:0,0:0:0:0:
120,260,108440,1,8,0:0:0:0:
274,109,108568,1,2,0:0:0:0:
386,304,108696,5,6,3:1:0:0:
382,293,108781,1,2,0:1:0:0:
378,280,108866,1,2,0:1:0:0:
361,203,108951,69,10,0:1:0:0:
435,222,109036,1,2,0:1:0:0:
510,243,109121,1,2,0:1:0:0:
500,169,109206,5,6,3:1:0:0:
496,152,109292,1,2,0:1:0:0:
493,138,109377,1,2,0:1:0:0:
512,61,109462,69,10,0:1:0:0:
439,80,109547,1,2,0:1:0:0:
367,96,109632,1,2,0:1:0:0:
414,153,109717,6,0,P|429:186|434:234,1,71.9199971467286,6|2,3:1|0:1,0:0:0:0:
395,288,109887,1,2,0:1:0:0:
274,109,109972,70,0,L|294:26,1,71.9199971467286,10|2,0:1|0:1,0:0:0:0:
230,0,110143,1,2,0:1:0:0:
88,190,110228,6,2,B|8:257|-101:150|73:15|141:178|93:159|141:243|209:224,1,359.599985733643,6|0,3:1|0:0,0:1:0:0:
274,109,110738,54,0,P|232:113|194:155,1,93.9600022939454,4|0,3:2|0:0,0:0:0:0:
101,284,111249,2,0,L|118:380,1,93.9600022939454,2|0,3:2|0:0,0:0:0:0:
21,283,111760,1,2,3:2:0:0:
249,336,112015,21,2,0:0:0:0:
304,277,112143,1,2,0:0:0:0:
376,308,112270,1,0,3:2:0:0:
322,360,112398,1,0,0:0:0:0:
234,239,112526,2,0,L|242:181,1,46.9800011469727,2|0,0:0|0:0,0:0:0:0:
421,102,112781,54,0,L|408:45,1,46.9800011469727,2|0,3:2|0:0,0:0:0:0:
350,15,113036,1,0,0:0:0:0:
495,180,113164,22,0,L|504:121,1,46.9800011469727,2|0,0:0|3:2,0:0:0:0:
383,249,113419,2,0,L|398:311,1,46.9800011469727,2|0,0:0|0:0,0:0:0:0:
458,339,113675,1,0,0:0:0:0:
412,177,113802,53,2,3:2:0:0:
412,177,114313,1,0,3:2:0:0:
412,177,114823,69,4,3:2:0:0:
209,311,114951,1,0,3:2:0:0:
136,160,115079,21,8,0:0:0:0:
314,288,115206,2,0,P|317:258|331:219,1,62.6400015292969,2|0,3:2|0:0,0:0:0:0:
150,374,115334,54,0,P|105:325|128:262,1,125.280003058594,10|2,0:0|0:0,0:0:0:0:
336,124,115589,1,8,0:0:0:0:
143,25,115717,1,2,0:0:0:0:
143,25,115781,1,2,0:0:0:0:
143,25,115845,22,0,P|152:55|162:101,1,62.6400015292969,4|0,3:2|0:0,0:0:0:0:
209,146,115972,2,0,P|199:116|193:85,1,62.6400015292969,0|0,3:2|0:0,0:0:0:0:
8,215,116100,54,0,P|120:236|236:307,1,250.560006117188,12|0,0:0|3:2,0:0:0:0:
272,375,116440,1,0,3:2:0:0:
341,355,116526,1,0,3:2:0:0:
395,278,116611,21,8,3:0:0:0:
409,268,116696,1,8,3:0:0:0:
429,272,116781,1,8,3:0:0:0:
489,321,116866,53,4,3:2:0:0:
324,202,116994,1,2,0:0:0:0:
472,116,117121,1,8,0:0:0:0:
432,255,117249,22,0,P|427:224|415:190,1,62.6400015292969,2|0,0:0|0:0,0:0:0:0:
249,48,117377,2,0,P|196:75|216:157,1,125.280003058594,8|2,0:0|0:0,0:0:0:0:
150,238,117632,54,0,P|181:225|225:217,1,62.6400015292969,8|0,0:0|0:0,0:0:0:0:
269,174,117760,2,0,P|302:184|330:209,1,62.6400015292969,2|2,0:0|0:0,0:0:0:0:
400,374,117887,22,0,P|408:315|436:247,1,125.280003058594,4|0,3:2|0:0,0:0:0:0:
265,49,118143,54,0,B|258:24|235:11|235:11|322:-20|400:46|368:140|307:184|316:152|240:207|288:287|288:287|275:232|330:196,1,539.399978600465,12|0,3:2|0:0,0:0:0:0:
190,84,119036,21,0,3:2:0:0:
190,84,119100,1,0,3:2:0:0:
190,84,119164,2,0,B|157:84|115:64|115:64|53:95|90:136,1,161.819993580139,12|0,0:0|0:0,0:0:0:0:
21,173,119419,2,0,P|75:211|123:196,1,107.879995720093,2|2,3:2|0:0,0:0:0:0:
265,49,119675,1,8,0:0:0:0:
415,161,119802,1,2,0:0:0:0:
415,161,119866,1,2,0:0:0:0:
415,161,119930,54,0,B|376:150|376:150|363:137|363:137|299:118,1,107.879995720093,0|2,3:2|0:0,0:0:0:0:
433,68,120185,1,8,0:0:0:0:
310,207,120313,1,2,0:0:0:0:
348,6,120440,21,2,3:2:0:0:
438,172,120568,1,2,3:2:0:0:
265,49,120696,53,10,0:0:0:0:
448,76,120823,1,2,0:0:0:0:
316,123,120951,22,0,B|233:139|233:139|205:189|205:189|119:209,1,215.759991440186,2|8,3:2|0:0,0:0:0:0:
265,49,121334,1,2,0:0:0:0:
139,112,121462,53,0,3:2:0:0:
310,207,121589,1,0,3:2:0:0:
180,32,121717,1,8,0:0:0:0:
52,171,121845,2,0,P|46:202|38:232,1,53.9399978600465,2|0,0:0|0:0,0:0:0:0:
189,345,121972,2,0,P|207:283|129:217,1,161.819993580139,2|0,3:2|0:0,0:0:0:0:
134,206,122228,21,8,0:0:0:0:
0,367,122355,1,2,0:0:0:0:
124,299,122483,53,2,3:2:0:0:
32,160,122611,1,2,3:2:0:0:
223,245,122738,1,8,0:0:0:0:
2,368,122866,1,2,0:0:0:0:
223,245,122994,54,0,B|295:301|383:273|383:273,1,161.819993580139,4|0,3:2|0:0,0:0:0:0:
376,274,123249,2,0,B|353:218|392:170|392:170,1,107.879995720093,8|0,0:0|0:0,0:0:0:0:
234,16,123504,1,0,3:2:0:0:
349,92,123632,1,0,3:2:0:0:
148,176,123760,2,0,B|166:121|125:71,1,107.879995720093,8|0,0:0|0:0,0:0:0:0:
264,171,124015,6,0,B|218:236|236:344,1,161.819993580139,0|0,3:2|0:0,0:0:0:0:
243,337,124270,1,10,0:0:0:0:
90,252,124398,1,2,0:0:0:0:
141,384,124526,1,0,3:2:0:0:
271,257,124653,1,0,3:2:0:0:
141,384,124781,70,0,B|101:336|24:351,1,107.879995720093,8|0,0:0|0:0,0:0:0:0:
271,257,125036,2,0,B|365:285|413:199,1,161.819993580139,0|0,3:2|0:0,0:0:0:0:
417,193,125292,1,8,0:0:0:0:
366,345,125419,1,2,0:0:0:0:
502,263,125547,1,0,3:2:0:0:
319,173,125675,1,0,3:2:0:0:
465,62,125802,1,8,0:0:0:0:
392,122,125930,1,2,0:0:0:0:
392,122,125994,1,2,0:0:0:0:
392,122,126058,6,0,B|307:148|235:63,1,161.819993580139,0|0,3:2|0:0,0:0:0:0:
246,75,126313,2,0,B|213:120|148:120|148:120,1,107.879995720093,8|2,0:0|0:0,0:0:0:0:
4,178,126568,1,0,3:2:0:0:
110,49,126696,1,0,3:2:0:0:
182,235,126823,69,8,0:0:0:0:
0,92,126951,1,8,0:0:0:0:
182,235,127079,22,0,B|199:206|233:196|233:196|79:223,1,215.759991440186,4|8,3:2|0:0,0:0:0:0:
245,74,127462,1,2,0:0:0:0:
151,119,127589,21,0,3:2:0:0:
251,274,127717,1,0,3:2:0:0:
109,356,127845,54,0,L|122:290,1,53.9399978600465,8|0,0:0|0:0,0:0:0:0:
315,177,127972,1,2,0:0:0:0:
315,177,128036,1,2,0:0:0:0:
315,177,128100,2,0,B|360:170|386:209|386:209|390:266|438:284,1,161.819993580139,0|0,3:2|0:0,0:0:0:0:
434,285,128355,21,8,0:0:0:0:
327,98,128483,1,2,0:0:0:0:
482,211,128611,53,2,3:2:0:0:
232,152,128738,1,2,3:2:0:0:
442,120,128866,21,10,0:0:0:0:
251,274,128994,1,2,0:0:0:0:
412,372,129121,54,0,L|376:156,1,215.759991440186,4|8,3:2|0:0,0:0:0:0:
512,286,129504,1,2,0:0:0:0:
323,95,129632,22,0,B|282:144|282:144|300:188,1,107.879995720093,4|0,3:2|0:0,0:0:0:0:
183,319,129887,1,8,0:0:0:0:
284,384,130015,54,0,L|274:323,1,53.9399978600465,2|2,0:0|0:0,0:0:0:0:
159,242,130143,2,0,B|73:227|86:310|-27:277,1,161.819993580139,4|0,3:2|0:0,0:0:0:0:
0,284,130398,1,8,0:0:0:0:
185,158,130526,1,2,3:2:0:0:
34,76,130653,22,0,P|43:101|47:135,1,53.9399978600465,6|0,3:2|0:0,0:0:0:0:
159,242,130781,2,0,P|150:270|147:307,1,53.9399978600465,0|0,3:2|0:0,0:0:0:0:
23,372,130909,2,0,P|-11:322|19:276,1,107.879995720093,8|0,0:0|3:2,0:0:0:0:
190,162,131164,22,0,B|257:219|354:191,1,161.819993580139,4|0,3:2|0:0,0:0:0:0:
342,194,131419,2,0,B|306:236|323:296|323:296,1,107.879995720093,8|0,0:0|0:0,0:0:0:0:
250,358,131675,1,0,3:2:0:0:
401,255,131802,1,0,3:2:0:0:
276,115,131930,2,0,B|240:63|265:4|265:4,1,107.879995720093,8|0,0:0|0:0,0:0:0:0:
506,124,132185,6,0,B|469:175|401:151,1,107.879995720093,2|0,3:2|0:0,0:0:0:0:
206,274,132440,2,0,B|147:200|58:244,1,161.819993580139,10|0,0:0|0:0,0:0:0:0:
52,250,132696,1,0,3:2:0:0:
173,384,132823,1,0,3:2:0:0:
288,219,132951,2,0,B|258:166|278:106,1,107.879995720093,8|0,0:0|0:0,0:0:0:0:
167,43,133206,69,4,3:2:0:0:
409,153,133334,1,2,3:2:0:0:
224,292,133462,6,0,B|283:214|389:256,1,161.819993580139,8|0,0:0|0:0,0:0:0:0:
381,258,133717,1,0,3:2:0:0:
196,162,133845,1,0,3:2:0:0:
377,0,133972,2,0,B|457:54|416:150,1,161.819993580139,8|0,0:0|0:0,0:0:0:0:
419,141,134228,70,0,B|363:151|302:108|302:108,1,107.879995720093,2|0,3:2|0:0,0:0:0:0:
470,321,134483,2,0,B|457:265|503:212,1,107.879995720093,8|0,0:0|0:0,0:0:0:0:
286,274,134738,1,0,3:2:0:0:
424,384,134866,1,0,3:2:0:0:
350,206,134994,1,8,0:0:0:0:
237,346,135121,1,8,0:0:0:0:
237,346,135185,1,8,0:0:0:0:
237,346,135249,38,0,P|159:326|64:311,1,163.559997504273,4|8,3:2|0:0,0:0:0:0:
28,253,135632,1,0,0:0:0:0:
164,160,135760,2,0,P|156:198|150:248,1,81.7799987521363,0|0,3:2|3:0,0:0:0:0:
52,136,136015,2,0,P|59:95|62:48,1,81.7799987521363,8|0,0:0|0:0,0:0:0:0:
238,0,136270,22,0,P|286:25|284:134,1,163.559997504273,2|8,3:2|0:0,0:0:0:0:
320,194,136653,1,2,0:0:0:0:
216,85,136781,2,0,P|173:76|125:67,1,81.7799987521363,2|0,3:2|3:2,0:0:0:0:
343,46,137036,2,0,P|405:59|474:68,1,122.669998128204,8|0,0:0|0:0,0:0:0:0:
479,70,137292,53,2,3:2:0:0:
291,124,137419,1,2,0:0:0:0:
449,269,137547,2,0,P|454:229|468:183,1,81.7799987521363,8|0,0:0|0:0,0:0:0:0:
329,228,137802,2,0,P|325:272|312:318,1,81.7799987521363,0|0,3:2|3:0,0:0:0:0:
469,384,138058,2,0,P|433:372|384:368,1,81.7799987521363,8|0,0:0|0:0,0:0:0:0:
254,256,138313,21,2,3:2:0:0:
329,228,138440,1,0,0:0:0:0:
205,188,138568,53,10,0:0:0:0:
254,256,138696,1,2,0:0:0:0:
254,120,138823,21,2,3:2:0:0:
163,259,138951,1,2,3:2:0:0:
330,149,139079,53,10,0:0:0:0:
188,63,139206,1,2,0:0:0:0:
335,232,139334,38,0,B|420:271|483:175,1,161.819993580139,4|0,3:2|0:0,0:0:0:0:
474,186,139589,2,0,B|439:137|450:79|450:79,1,107.879995720093,8|0,0:0|0:0,0:0:0:0:
330,149,139845,1,2,3:2:0:0:
451,307,139972,1,2,3:2:0:0:
398,206,140100,1,8,0:0:0:0:
512,263,140228,1,2,0:0:0:0:
334,370,140355,6,0,B|272:305|181:333,1,161.819993580139,0|0,3:2|0:0,0:0:0:0:
185,331,140611,2,0,B|173:271|123:243,1,107.879995720093,8|0,0:0|0:0,0:0:0:0:
201,135,140866,1,2,3:2:0:0:
19,279,140994,1,2,3:2:0:0:
85,149,141121,1,10,0:0:0:0:
185,331,141249,1,2,0:0:0:0:
270,205,141377,70,0,B|211:130|259:29,1,161.819993580139,2|0,3:2|0:0,0:0:0:0:
249,52,141632,2,0,B|201:83|126:62,1,107.879995720093,10|2,0:0|0:0,0:0:0:0:
270,205,141887,1,2,3:2:0:0:
390,93,142015,1,0,3:2:0:0:
269,131,142143,1,8,0:0:0:0:
403,236,142270,1,2,0:0:0:0:
253,384,142398,6,0,B|214:336|245:271,1,107.879995720093,2|0,3:2|0:0,0:0:0:0:
352,171,142653,1,8,0:0:0:0:
170,95,142781,70,0,B|214:138|278:130,1,107.879995720093,2|0,3:2|0:0,0:0:0:0:
399,237,143036,1,2,3:2:0:0:
509,129,143164,6,0,B|424:107|342:179,1,161.819993580139,10|2,0:0|0:0,0:0:0:0:
352,171,143419,69,4,3:2:0:0:
484,280,143547,1,0,0:0:0:0:
325,350,143675,6,0,B|234:368|184:273,1,161.819993580139,8|0,0:0|0:0,0:0:0:0:
190,283,143930,2,0,B|217:229|203:157,1,107.879995720093,0|0,3:2|3:2,0:0:0:0:
10,260,144185,1,8,0:0:0:0:
80,121,144313,1,2,3:2:0:0:
106,232,144440,70,0,B|83:287|116:340|116:340,1,107.879995720093,0|0,3:2|0:0,0:0:0:0:
21,190,144696,1,8,0:0:0:0:
186,95,144823,1,2,0:0:0:0:
115,213,144951,1,0,3:2:0:0:
113,32,145079,1,2,3:2:0:0:
276,126,145206,2,0,B|330:90|392:107,1,107.879995720093,8|0,0:0|0:0,0:0:0:0:
445,158,145462,5,4,3:2:0:0:
304,27,145589,1,2,0:0:0:0:
394,229,145717,69,10,0:0:0:0:
432,22,145845,1,2,0:0:0:0:
313,217,145972,5,2,3:2:0:0:
512,129,146100,1,2,0:0:0:0:
281,141,146228,69,8,0:0:0:0:
479,275,146355,1,2,0:0:0:0:
281,141,146483,6,0,B|206:159|205:162|207:162|168:222|165:220|165:223|69:244,1,215.759991440186,4|8,3:2|0:0,0:0:0:0:
0,138,146866,70,0,B|36:113|36:113|109:140,1,107.879995720093,4|0,3:2|0:0,0:0:0:0:
215,297,147121,6,0,B|271:354|271:354|404:327,1,215.759991440186,4|0,3:2|0:0,0:0:0:0:
343,332,149036,5,2,0:1:0:0:
291,259,149164,5,2,0:1:0:0:
190,273,149292,69,2,0:1:0:0:
145,384,149419,5,2,0:1:0:0:
295,263,149547,70,0,B|325:218|291:176|281:201|241:139|284:86,1,187.920004587891,4|0,3:2|0:0,0:0:0:0:
326,29,149802,2,0,P|377:80|359:135,1,125.280003058594,8|0,0:0|3:2,0:0:0:0:
190,273,150058,1,2,0:2:0:0:
343,332,150185,1,0,3:2:0:0:
92,258,150313,6,0,B|61:242|26:291|115:346|196:267,1,187.920004587891,8|0,0:0|0:0,0:0:0:0:
398,264,150568,70,0,B|433:218|523:210|560:319|477:307|468:280,1,187.920004587891,2|0,3:2|0:0,0:0:0:0:
470,284,150823,1,8,0:0:0:0:
245,130,150951,6,0,B|225:64|280:80|251:5,1,125.280003058594,2|0,3:2|0:0,0:0:0:0:
179,38,151207,1,2,3:2:0:0:
318,106,151334,1,8,0:0:0:0:
190,193,151462,1,2,0:0:0:0:
332,382,151590,70,0,B|406:332|333:220|275:276|284:306,1,187.920004587891,2|0,3:2|0:0,0:0:0:0:
281,306,151845,1,8,0:0:0:0:
143,268,151972,6,0,B|67:220|142:106|200:162|191:192,1,187.920004587891,2|0,3:2|0:0,0:0:0:0:
190,193,152228,1,0,3:2:0:0:
345,34,152356,1,8,0:0:0:0:
318,106,152483,1,2,0:0:0:0:
100,63,152611,70,0,B|54:68|99:-5|195:1|229:59,1,187.920004587891,2|0,3:2|0:0,0:0:0:0:
318,106,152866,2,0,P|363:140|435:118,1,125.280003058594,10|0,0:2|3:2,0:0:0:0:
274,182,153121,5,2,0:2:0:0:
432,40,153249,1,2,3:2:0:0:
274,182,153377,70,0,B|307:247|256:243|284:312,1,125.280003058594,8|2,0:0|0:0,0:0:0:0:
395,318,153632,5,4,3:2:0:0:
206,222,153760,1,2,0:0:0:0:
373,242,153887,69,8,0:0:0:0:
201,309,154015,1,2,3:2:0:0:
304,194,154143,5,2,0:2:0:0:
260,371,154270,1,2,3:2:0:0:
206,222,154398,69,8,0:0:0:0:
340,384,154526,1,2,0:0:0:0:
206,222,154653,6,0,B|274:193|261:30|112:84|160:164,1,250.560006117188,2|8,3:2|0:0,0:0:0:0:
374,241,155036,2,0,B|443:220|405:208|490:185,1,125.280003058594,2|0,3:2|0:2,0:2:0:0:
413,335,155292,1,2,3:2:0:0:
348,103,155419,70,0,P|360:131|365:165,1,62.6400015292969,8|0,0:0|0:0,0:0:0:0:
490,266,155547,2,0,P|497:301|508:328,1,62.6400015292969,2|0,0:0|0:0,0:0:0:0:
323,314,155675,6,0,B|287:256|168:264|184:354|230:315,1,187.920004587891,4|0,3:2|0:0,0:0:0:0:
230,314,155930,2,0,B|274:256|240:196,1,125.280003058594,8|0,0:0|0:0,0:0:0:0:
68,27,156185,70,0,B|61:-2|141:-31|199:65|99:127,1,187.920004587891,4|0,3:2|0:0,0:0:0:0:
105,186,156441,2,0,B|39:170|73:136|0:119,1,125.280003058594,8|0,0:0|0:0,0:0:0:0:
241,198,156696,6,0,B|288:208|356:155|300:161|372:195|422:179,1,187.920004587891,4|0,3:2|0:0,0:0:0:0:
456,111,156951,2,0,P|496:154|488:221,1,125.280003058594,8|0,0:0|0:0,0:0:0:0:
340,273,157206,70,0,B|280:312|269:253|356:233|425:297,1,187.920004587891,6|0,3:2|0:0,0:0:0:0:
432,305,157462,5,8,0:0:0:0:
255,120,157590,1,8,0:0:0:0:
490,216,157717,70,0,B|443:226|399:191|423:194|386:153|302:169|283:265|358:280,1,250.560006117188,4|8,3:2|0:0,0:0:0:0:
474,137,158100,1,2,3:2:0:0:
340,273,158228,6,0,B|270:262|312:241|222:229,1,125.280003058594,0|0,0:2|3:2,0:0:0:0:
49,365,158483,1,8,0:0:0:0:
183,293,158611,1,2,0:0:0:0:
4,165,158738,70,0,B|-42:120|42:39|140:147|59:253,1,250.560006117188,2|8,3:2|0:0,0:0:0:0:
220,384,159121,1,0,3:2:0:0:
284,335,159249,2,0,B|272:266|241:307|222:219,1,125.280003058594,2|0,0:2|3:2,0:0:0:0:
391,57,159504,2,0,P|462:58|459:165,1,187.920004587891,8|2,0:0|0:0,0:0:0:0:
489,235,159760,6,0,B|415:252|373:172|410:186|363:108|281:127,1,250.560006117188,2|8,3:2|0:0,0:0:0:0:
69,236,160143,1,2,3:2:0:0:
101,145,160270,69,2,0:0:0:0:
224,228,160398,1,2,3:2:0:0:
142,302,160526,5,8,0:0:0:0:
195,140,160653,1,2,0:0:0:0:
371,358,160781,70,0,B|356:297|354:297|356:294|376:253|378:248|373:249|346:161,1,187.920004587891,2|0,3:2|0:0,0:0:0:0:
345,165,161036,1,8,0:0:0:0:
224,228,161164,1,2,3:2:0:0:
333,287,161292,5,2,0:2:0:0:
195,140,161419,1,0,3:2:0:0:
13,337,161547,70,0,B|119:304|119:304|93:346|97:392,1,187.920004587891,8|0,0:0|0:0,0:0:0:0:
176,367,161802,53,4,3:2:0:0:
28,242,161930,1,0,0:0:0:0:
66,179,162058,1,8,0:0:0:0:
137,200,162185,1,2,0:0:0:0:
13,337,162313,53,2,3:2:0:0:
141,204,162440,1,2,3:2:0:0:
193,262,162568,1,8,0:0:0:0:
261,224,162696,1,2,0:0:0:0:
147,77,162823,21,4,3:2:0:0:
265,228,162951,1,0,0:2:0:0:
320,171,163079,1,8,0:0:0:0:
386,203,163206,1,0,0:0:0:0:
256,341,163334,53,2,3:2:0:0:
390,207,163462,1,2,3:2:0:0:
437,266,163589,1,10,0:0:0:0:
506,235,163717,1,0,0:0:0:0:
503,362,163845,21,4,3:2:0:0:
390,207,163972,1,2,0:0:0:0:
456,178,164100,1,8,0:0:0:0:
506,235,164228,1,2,0:2:0:0:
327,89,164355,53,2,3:2:0:0:
265,228,164483,1,2,3:2:0:0:
334,263,164611,1,10,0:0:0:0:
390,207,164738,1,2,0:0:0:0:
256,341,164866,21,4,3:2:0:0:
141,204,164994,1,0,0:0:0:0:
211,170,165121,1,10,0:2:0:0:
265,228,165249,1,0,0:2:0:0:
147,77,165377,53,2,3:2:0:0:
28,242,165504,1,2,3:2:0:0:
98,266,165632,1,8,0:0:0:0:
137,200,165760,1,2,0:0:0:0:
13,337,165887,21,4,3:2:0:0:
141,204,166015,1,0,0:0:0:0:
66,179,166143,1,10,0:0:0:0:
28,242,166270,1,2,0:0:0:0:
147,77,166398,53,2,3:2:0:0:
98,266,166526,1,2,3:2:0:0:
141,204,166653,1,8,0:0:0:0:
66,179,166781,1,2,0:0:0:0:
256,341,166909,21,4,3:2:0:0:
28,242,167036,1,2,0:0:0:0:
98,266,167164,1,10,0:0:0:0:
141,204,167292,1,2,0:0:0:0:
327,89,167419,53,0,3:2:0:0:
506,235,167547,1,2,3:2:0:0:
437,266,167675,1,8,0:0:0:0:
390,207,167802,1,0,0:0:0:0:
503,362,167930,21,4,3:2:0:0:
456,178,168058,1,2,0:0:0:0:
506,235,168185,1,10,0:0:0:0:
437,266,168313,1,2,0:0:0:0:
509,90,168440,53,2,3:2:0:0:
390,207,168568,1,2,3:2:0:0:
456,178,168696,1,8,0:0:0:0:
506,235,168823,1,2,0:0:0:0:
327,348,168951,54,0,B|286:338|286:338|268:315|268:315|201:301,1,125.280003058594,12|0,0:0|3:2,0:0:0:0:
0,217,169143,1,0,3:2:0:0:
39,282,169206,2,0,B|82:261|115:255|115:255|158:179|158:179|204:168|261:142,1,250.560006117188,4|8,3:2|3:0,0:0:0:0:
290,99,169547,2,0,B|314:134|314:134|310:183,1,83.5200020390625,8|8,3:0|3:0,0:0:0:0:
215,303,169717,21,0,3:2:0:0:
152,261,169802,2,0,B|146:220|146:220|175:178,1,83.5200020390625,0|0,3:0|3:0,0:0:0:0:
290,99,169972,54,0,B|335:116|335:116|354:140|354:140|417:166,1,125.280003058594,12|0,0:0|0:0,0:0:0:0:
512,289,170164,1,0,3:2:0:0:
500,215,170228,2,0,B|455:231|406:237|406:237|372:296|372:296|326:303|282:321,1,250.560006117188,12|8,0:0|3:0,0:0:0:0:
229,366,170568,2,0,B|210:328|210:328|222:274,1,83.5200020390625,0|0,3:2|3:2,0:0:0:0:
397,157,170738,1,8,3:0:0:0:
340,101,170823,2,0,B|314:137|314:137|321:189,1,83.5200020390625,8|8,3:0|3:0,0:0:0:0:
475,363,170994,22,0,B|480:344|485:325|485:325|476:288|476:288|486:267|491:233,1,125.280003058594,12|0,0:0|3:2,0:0:0:0:
214,52,171249,2,0,B|220:96|234:131|234:131|196:202|196:202|211:243|219:300,1,250.560006117188,12|8,3:2|3:0,0:0:0:0:
207,366,171589,2,0,P|246:360|286:326,1,83.5200020390625,8|8,3:0|3:0,0:0:0:0:
419,182,171760,1,8,3:0:0:0:
395,253,171845,2,0,P|355:245|315:212,1,83.5200020390625,8|8,3:0|3:0,0:0:0:0:
83,80,172015,54,0,B|88:99|93:118|93:118|84:155|84:155|94:176|99:210,1,125.280003058594,12|0,0:0|3:2,0:0:0:0:
368,384,172270,2,0,B|373:330|396:275|396:275|330:185|330:185|361:109|360:31,1,375.840009175781,12|2,3:2|0:0,0:0:0:0:
198,197,172781,1,2,0:0:0:0:
