osu file format v14

[General]
AudioFilename: audio.mp3
AudioLeadIn: 0
PreviewTime: 114760
Countdown: 0
SampleSet: Soft
StackLeniency: 0.7
Mode: 0
LetterboxInBreaks: 0
WidescreenStoryboard: 1

[Editor]
DistanceSpacing: 0.9
BeatDivisor: 2
GridSize: 32
TimelineZoom: 2.4

[Metadata]
Title:Shuuten no Saki ga Aru to Suru naraba.
TitleUnicode:終点の先が在るとするならば。
Artist:TUYU
ArtistUnicode:ツユ
Creator:Keqing
Version:Normal.
Source:
Tags:some hero heroine bongo stratos SnowNiNo_ frozz -keqing captin1 seros fuju yogurtt deca guanineso iljaaz kowari if there was an endpoint. endpoint naraba 貴方を不幸に誘いますね 2nd album ぷす Pusu 礼衣 Reii おむたつ omutatsu Japanese Pop jpop J-pop rock jrock J-rock
BeatmapID:3552908
BeatmapSetID:1519316

[Difficulty]
HPDrainRate:3
CircleSize:3.4
OverallDifficulty:4
ApproachRate:5.5
SliderMultiplier:0.9
SliderTickRate:1

[Events]
//Background and Video events
Video,-381,"shuuten.mp4"
0,0,"a.jpg",0,0
//Break Periods
//Storyboard Layer 0 (Background)
//Storyboard Layer 1 (Fail)
//Storyboard Layer 2 (Pass)
//Storyboard Layer 3 (Foreground)
//Storyboard Layer 4 (Overlay)
//Storyboard Sound Samples

[TimingPoints]
441,255.31914893617,4,2,4,50,1,0
441,-111.111111111111,4,2,4,50,0,0
6823,-111.111111111111,4,2,4,60,0,0
7589,-99.9999999999999,4,2,4,90,0,0
23930,-99.9999999999999,4,2,4,70,0,0
28015,-99.9999999999999,4,2,4,90,0,0
33121,-99.9999999999999,4,2,4,80,0,0
37206,-111.111111111111,4,2,4,60,0,0
53547,-111.111111111111,4,2,4,70,0,0
59675,-99.9999999999999,4,2,4,80,0,0
61717,-99.9999999999999,4,2,4,90,0,0
78058,-99.9999999999999,4,2,4,70,0,0
82143,-99.9999999999999,4,2,4,90,0,0
86228,-99.9999999999999,4,2,4,5,0,0
86738,-99.9999999999999,4,2,4,90,0,0
87249,-99.9999999999999,4,2,4,95,0,0
99504,-99.9999999999999,4,2,4,80,0,0
102568,-111.111111111111,4,2,4,70,0,0
106653,-99.9999999999999,4,2,4,95,0,0
110738,-111.111111111111,4,2,4,70,0,0
114823,-99.9999999999999,4,2,4,80,0,0
118143,-99.9999999999999,4,2,4,90,0,0
135249,-99.9999999999999,4,2,4,70,0,0
139334,-99.9999999999999,4,2,4,90,0,0
149547,-99.9999999999999,4,2,4,95,0,0
157717,-99.9999999999999,4,2,4,90,0,0

[Colours]
Combo1 : 252,169,254
Combo2 : 196,108,253
Combo3 : 206,187,255
Combo4 : 255,43,43
Combo5 : 238,123,123
Combo6 : 255,74,165

[HitObjects]
43,95,6823,6,0,P|36:56|24:7,2,80.9999975280762,2|2|2,0:0|0:0|0:0,0:0:0:0:
105,146,7589,6,0,P|93:191|81:252,1,90,4|8,3:2|0:0,0:0:0:0:
82,277,7972,1,2,0:0:0:0:
82,277,8100,2,0,P|146:263|201:256,1,90,0|8,3:2|0:0,0:0:0:0:
214,190,8611,2,0,P|278:208|329:219,1,90,0|10,3:2|0:0,0:0:0:0:
340,283,9121,2,0,P|363:274|402:266,1,45,2|2,3:2|0:0,0:0:0:0:
412,241,9377,2,0,P|437:247|467:261,1,45,10|2,0:0|0:0,0:0:0:0:
493,242,9632,6,0,L|464:118,1,90,4|8,3:2|0:0,0:0:0:0:
447,122,10015,1,2,0:0:0:0:
447,122,10143,1,2,3:2:0:0:
466,38,10398,1,8,0:0:0:0:
394,0,10653,2,0,L|275:23,1,90,4|8,3:2|0:0,0:0:0:0:
245,71,11164,2,0,P|202:63|136:46,1,90,0|8,3:2|0:0,0:0:0:0:
116,41,11547,1,2,0:0:0:0:
116,41,11675,6,0,P|108:88|96:138,1,90,4|8,3:2|0:0,0:0:0:0:
109,209,12185,2,0,P|136:215|170:226,1,45,0|0,3:2|3:2,0:0:0:0:
190,234,12440,1,8,0:0:0:0:
255,282,12696,2,0,B|298:266|298:266|347:273,1,90,0|8,3:2|0:0,0:0:0:0:
383,290,13079,1,2,0:0:0:0:
383,290,13206,2,0,L|461:275,1,45,2|2,3:2|3:2,0:0:0:0:
467,276,13462,1,8,0:0:0:0:
496,200,13717,6,0,B|485:155|485:155|486:113|486:113|466:53,1,135,0|2,3:2|0:0,0:0:0:0:
444,37,14228,2,0,L|378:21,1,45,2|0,3:2|3:2,0:0:0:0:
360,20,14483,1,8,0:0:0:0:
296,70,14738,2,0,B|276:109|276:109|281:159,1,90,2|8,3:2|0:0,0:0:0:0:
303,194,15121,1,2,0:0:0:0:
303,194,15249,1,0,3:2:0:0:
354,256,15504,2,0,L|343:310,1,45,8|8,0:0|0:0,0:0:0:0:
348,340,15760,6,0,P|311:319|252:318,1,90,4|8,3:2|0:0,0:0:0:0:
229,294,16143,1,2,0:0:0:0:
229,294,16270,2,0,P|191:318|119:323,1,90,0|8,3:2|0:0,0:0:0:0:
88,270,16781,2,0,L|108:172,1,90,0|10,3:2|0:0,0:0:0:0:
79,105,17292,2,0,L|91:59,1,45,2|2,3:2|3:2,0:0:0:0:
102,22,17547,2,0,L|164:34,1,45,8|2,0:0|0:0,0:0:0:0:
178,55,17802,6,0,P|220:43|278:36,1,90,4|8,3:2|0:0,0:0:0:0:
329,87,18313,2,0,P|324:133|304:187,1,90,4|8,3:2|0:0,0:0:0:0:
255,234,18823,2,0,P|261:281|277:330,1,90,4|8,3:2|0:0,0:0:0:0:
326,384,19334,1,4,3:2:0:0:
393,338,19589,2,0,P|434:325|492:314,1,90,8|4,0:0|3:2,0:0:0:0:
501,237,20100,6,0,B|508:195|508:195|481:145,1,90,8|0,0:2|3:2,0:0:0:0:
449,148,20483,1,0,3:2:0:0:
449,148,20611,1,8,0:0:0:0:
378,187,20866,2,0,L|279:207,1,90,0|8,3:2|0:0,0:0:0:0:
221,248,21377,2,0,L|166:235,1,45,0|0,3:2|3:2,0:0:0:0:
137,229,21632,1,8,0:0:0:0:
76,175,21887,6,0,B|56:134|56:134|76:76,1,90,0|8,3:2|0:0,0:0:0:0:
131,38,22398,2,0,L|186:26,1,45,0|0,3:2|3:2,0:0:0:0:
212,44,22653,2,0,L|311:65,1,90,8|2,0:0|3:2,0:0:0:0:
355,122,23164,1,10,0:2:0:0:
292,173,23419,2,0,L|280:228,1,45,2|0,3:2|3:2,0:0:0:0:
296,255,23675,2,0,L|353:270,1,45,8|8,0:0|0:0,0:0:0:0:
379,261,23930,6,0,P|378:313|346:361,1,90,4|8,3:2|0:0,0:0:0:0:
285,374,24440,2,0,P|244:363|182:351,1,90,0|8,3:2|0:2,0:0:0:0:
152,285,24951,2,0,P|101:283|14:196,1,180,2|0,3:2|3:2,0:0:0:0:
15,159,25589,1,0,3:2:0:0:
15,159,25717,1,8,0:0:0:0:
71,101,25972,6,0,P|116:88|173:79,1,90,2|8,3:2|0:0,0:0:0:0:
217,25,26483,2,0,P|262:40|309:50,1,90,0|10,3:2|0:0,0:0:0:0:
339,121,26994,2,0,L|360:218,2,90,2|8|0,3:2|0:0|3:2,0:0:0:0:
406,75,27760,1,8,0:0:0:0:
469,125,28015,6,0,B|492:167|492:167|487:217,1,90,4|8,3:2|0:0,0:0:0:0:
430,265,28526,2,0,L|379:277,1,45,2|0,3:2|3:2,0:0:0:0:
354,300,28781,1,8,0:0:0:0:
354,300,28909,2,0,L|241:279,1,90,2|0,0:0|0:0,0:0:0:0:
225,278,29292,1,8,0:0:0:0:
161,227,29547,2,0,L|103:241,1,45,0|0,3:2|3:2,0:0:0:0:
96,272,29802,2,0,L|117:335,1,45,8|0,0:0|0:0,0:0:0:0:
135,346,30058,6,0,B|180:346|180:346|225:373,1,90,2|8,3:2|0:0,0:0:0:0:
261,362,30440,1,2,0:0:0:0:
261,362,30568,1,2,3:2:0:0:
339,342,30823,1,8,0:0:0:0:
382,273,31079,6,0,L|355:158,1,90,4|8,3:2|0:0,0:0:0:0:
352,145,31462,1,4,3:2:0:0:
389,73,31717,1,4,3:2:0:0:
133,28,33121,6,0,L|119:89,1,45,4|10,3:2|0:0,0:0:0:0:
115,115,33377,1,2,0:0:0:0:
115,115,33504,2,0,L|230:94,1,90,0|0,3:2|3:2,0:0:0:0:
243,92,33887,1,8,0:0:0:0:
306,142,34143,1,12,3:2:0:0:
262,210,34398,2,0,L|236:344,1,135,12|0,0:0|0:0,0:0:0:0:
265,371,34909,1,2,0:0:0:0:
340,335,35164,5,4,3:2:0:0:
340,335,35292,2,0,L|433:357,1,90,8|2,0:0|3:2,0:0:0:0:
465,339,35675,2,0,P|481:287|475:242,1,90,8|8,0:2|0:0,0:2:0:0:
414,201,36185,2,0,L|344:214,1,45,8|0,0:0|3:2,0:0:0:0:
338,235,36440,2,0,B|256:217|293:163|183:142,1,180,12|0,3:2|0:0,0:0:0:0:
120,170,37206,6,0,P|97:228|95:294,1,121.499996292114,6|0,3:2|0:0,0:0:0:0:
109,319,37717,1,2,3:2:0:0:
245,369,38228,2,0,P|287:361|344:356,1,80.9999975280763,2|2,3:2|0:0,0:0:0:0:
383,313,38738,1,2,3:2:0:0:
456,311,38994,6,0,P|453:272|439:208,1,80.9999975280763,2|2,0:0|3:2,0:0:0:0:
396,176,39504,1,2,0:0:0:0:
348,120,39760,1,0,3:2:0:0:
374,52,40015,2,0,P|414:43|468:41,1,80.9999975280763,2|0,0:0|3:0,0:0:0:0:
501,95,40526,1,2,0:0:0:0:
475,163,40781,2,0,P|434:171|381:176,1,80.9999975280763,2|2,3:2|0:0,0:0:0:0:
348,120,41292,6,0,P|281:130|241:224,1,161.999995056153,2|2,3:2|3:2,0:0:0:0:
201,270,42058,1,2,0:0:0:0:
137,234,42313,2,0,B|97:227|97:227|63:247,1,80.9999975280763,0|2,3:0|0:0,0:0:0:0:
17,305,42823,1,2,3:2:0:0:
76,347,43079,6,0,L|172:328,1,80.9999975280763,2|2,0:0|3:2,0:0:0:0:
212,287,43589,1,2,0:0:0:0:
270,330,43845,1,2,3:2:0:0:
338,305,44100,1,2,0:0:0:0:
405,332,44355,2,0,P|416:288|423:158,1,161.999995056153,2|2,3:2|3:2,0:0:0:0:
383,111,45121,1,2,0:0:0:0:
312,136,45377,6,0,L|223:151,1,80.9999975280763,2|2,3:2|0:0,0:0:0:0:
182,202,45887,1,2,3:2:0:0:
110,186,46143,2,0,P|87:140|98:23,1,161.999995056153,2|2,0:0|0:0,0:0:0:0:
161,5,46909,1,2,3:2:0:0:
217,50,47164,1,2,0:0:0:0:
355,3,47675,5,2,0:0:0:0:
413,46,47930,2,0,B|429:85|429:85|421:127,1,80.9999975280763,2|2,3:2|0:0,0:0:0:0:
365,169,48440,2,0,L|352:301,1,121.499996292114,2|0,3:2|0:0,0:0:0:0:
350,326,48951,1,2,3:2:0:0:
294,372,49206,1,2,0:0:0:0:
236,327,49462,6,0,B|229:288|229:288|246:245,1,80.9999975280763,2|2,3:2|0:0,0:0:0:0:
281,186,49972,1,2,3:2:0:0:
252,118,50228,2,0,L|156:98,1,80.9999975280763,2|0,0:0|3:2,0:0:0:0:
135,38,50738,2,0,L|38:56,1,80.9999975280763,2|2,0:0|3:2,0:0:0:0:
17,115,51249,1,2,0:0:0:0:
56,176,51504,6,0,P|96:210|119:317,1,161.999995056153,2|2,3:2|3:2,0:0:0:0:
252,375,52526,2,0,L|368:359,1,80.9999975280763,2|2,3:2|0:0,0:0:0:0:
386,315,53036,1,2,3:2:0:0:
448,353,53292,1,2,0:0:0:0:
490,294,53547,6,0,B|482:270|479:245|479:245|446:210|446:210|442:175|430:135,1,161.999995056153,4|8,3:2|0:0,0:0:0:0:
469,83,54313,1,2,0:0:0:0:
423,26,54568,2,0,L|331:43,1,80.9999975280763,2|0,3:2|3:2,0:0:0:0:
290,90,55079,1,8,0:0:0:0:
226,54,55334,1,2,0:0:0:0:
171,102,55589,6,0,L|148:229,1,121.499996292114,2|2,3:2|0:0,0:0:0:0:
144,258,56100,1,8,0:0:0:0:
90,306,56355,1,2,0:0:0:0:
139,360,56611,1,4,3:2:0:0:
201,322,56866,2,0,L|272:308,1,40.4999987640381,8|0,0:0|3:2,0:0:0:0:
269,291,57121,2,0,L|334:305,1,40.4999987640381,8|0,0:0|3:2,0:0:0:0:
334,325,57377,2,0,L|406:309,1,40.4999987640381,8|2,0:0|0:0,0:0:0:0:
402,294,57632,6,0,B|415:256|415:256|404:209,1,80.9999975280763,4|2,3:2|3:2,0:0:0:0:
363,156,58143,1,2,3:2:0:0:
398,92,58398,1,2,3:2:0:0:
340,46,58653,2,0,L|278:30,1,40.4999987640381,2|0,3:2|0:0,0:0:0:0:
264,27,58909,1,2,3:2:0:0:
201,64,59164,2,0,L|107:80,1,80.9999975280763,2|2,3:2|3:2,0:0:0:0:
89,91,59547,1,2,0:0:0:0:
89,91,59675,6,0,B|64:128|64:128|76:178,1,90,4|8,3:2|0:0,0:0:0:0:
145,211,60185,1,8,0:0:0:0:
93,273,60440,2,0,L|74:360,1,90,8|4,0:0|3:2,0:0:0:0:
154,384,60951,1,4,3:2:0:0:
207,322,61206,1,4,3:2:0:0:
362,364,61717,6,0,P|371:319|382:276,1,90,4|8,3:2|0:0,0:0:0:0:
372,242,62100,1,2,0:0:0:0:
372,242,62228,2,0,P|418:236|469:222,1,90,0|8,3:2|0:0,0:0:0:0:
487,148,62739,2,0,L|467:58,1,90,0|8,3:2|0:0,0:0:0:0:
400,14,63249,2,0,L|342:24,1,45,2|0,3:2|3:2,0:0:0:0:
325,48,63504,2,0,L|268:34,1,45,10|2,0:0|0:0,0:0:0:0:
241,29,63760,6,0,B|218:69|218:69|223:114,1,90,2|8,3:2|0:0,0:0:0:0:
255,186,64270,2,0,L|330:167,1,45,2|0,3:2|3:2,0:0:0:0:
336,163,64526,1,8,0:0:0:0:
414,143,64781,2,0,P|420:194|396:257,1,90,2|10,3:2|0:0,0:0:0:0:
438,307,65292,2,0,P|395:312|330:327,1,90,0|8,3:0|0:0,0:0:0:0:
317,344,65675,1,2,0:0:0:0:
317,344,65803,6,0,P|310:299|298:245,1,90,4|10,3:2|0:0,0:0:0:0:
226,223,66313,2,0,P|199:229|165:240,1,45,2|2,3:2|3:2,0:0:0:0:
145,248,66568,1,8,0:0:0:0:
77,203,66824,2,0,B|59:164|59:164|70:116,1,90,2|10,3:2|0:2,0:0:0:0:
100,91,67207,1,0,0:0:0:0:
100,91,67334,2,0,L|166:106,1,45,2|2,3:2|3:2,0:0:0:0:
184,107,67590,1,8,0:0:0:0:
247,57,67845,6,0,P|304:26|371:35,1,135,2|2,3:2|0:0,0:0:0:0:
401,62,68356,2,0,L|416:122,1,45,0|0,3:2|3:2,0:0:0:0:
422,144,68611,1,8,0:0:0:0:
355,190,68866,2,0,B|335:229|335:229|340:279,1,90,0|8,3:2|0:0,0:0:0:0:
369,309,69249,1,0,0:0:0:0:
369,309,69377,1,0,3:2:0:0:
303,356,69632,2,0,L|243:345,1,45,8|8,0:0|0:0,0:0:0:0:
218,357,69888,6,0,P|207:313|207:254,1,90,4|8,3:2|0:0,0:0:0:0:
221,233,70271,1,2,0:0:0:0:
221,233,70398,2,0,P|220:192|209:142,1,90,0|8,3:2|0:0,0:0:0:0:
142,99,70909,2,0,L|26:117,1,90,0|8,3:2|0:0,0:0:0:0:
25,189,71420,2,0,L|15:232,1,45,2|2,3:2|3:2,0:0:0:0:
27,272,71675,2,0,L|89:284,1,45,10|2,0:0|3:2,0:0:0:0:
107,297,71930,6,0,B|129:258|129:258|121:213,1,90,4|8,3:2|0:0,0:0:0:0:
199,192,72441,2,0,L|287:213,1,90,4|8,3:2|0:0,0:0:0:0:
346,267,72951,2,0,L|447:252,1,90,4|8,3:2|0:0,0:0:0:0:
493,197,73462,1,4,3:2:0:0:
450,128,73717,2,0,L|428:32,1,90,8|4,0:0|3:2,0:0:0:0:
350,21,74228,6,0,B|306:15|306:15|246:44,1,90,8|0,0:0|3:2,0:0:0:0:
253,76,74611,1,0,3:2:0:0:
253,76,74739,1,8,0:0:0:0:
271,157,74994,2,0,L|294:258,1,90,2|10,3:2|0:0,0:0:0:0:
257,318,75505,2,0,L|202:305,1,45,2|0,3:2|3:2,0:0:0:0:
173,298,75760,1,10,0:0:0:0:
109,247,76015,6,0,P|94:205|99:159,1,90,2|8,3:2|0:0,0:0:0:0:
139,90,76526,2,0,L|196:103,1,45,0|0,3:2|3:2,0:0:0:0:
222,106,76781,2,0,L|329:89,1,90,10|2,0:0|3:2,0:0:0:0:
390,77,77292,1,10,0:0:0:0:
451,129,77547,2,0,L|467:185,1,45,0|0,3:2|3:2,0:0:0:0:
451,211,77803,2,0,L|467:265,1,45,8|8,0:0|0:0,0:0:0:0:
472,293,78058,6,0,P|428:280|370:268,1,90,4|8,3:2|0:0,0:0:0:0:
325,324,78568,2,0,P|282:336|223:344,1,90,0|8,3:2|0:0,0:0:0:0:
183,281,79079,2,0,B|189:188|245:224|249:112,1,180,2|2,3:2|3:2,0:0:0:0:
257,82,79717,1,0,3:0:0:0:
257,82,79845,1,10,0:2:0:0:
184,46,80100,6,0,L|96:64,1,90,2|8,3:2|0:2,0:0:0:0:
50,132,80611,2,0,P|45:178|71:226,1,90,0|8,3:2|0:0,0:0:0:0:
124,269,81122,2,0,L|233:294,2,90,2|8|2,3:2|0:0|3:2,0:0:0:0:
54,310,81888,1,8,0:0:0:0:
111,367,82143,6,0,B|156:363|156:363|204:381,1,90,4|8,3:2|0:0,0:0:0:0:
265,333,82654,2,0,L|319:323,1,45,2|2,3:2|3:2,0:0:0:0:
352,338,82909,1,8,0:0:0:0:
352,338,83037,2,0,L|458:360,1,90,2|0,0:0|0:0,0:0:0:0:
478,368,83420,1,8,0:0:0:0:
496,289,83675,2,0,L|481:224,1,45,0|0,3:2|3:0,0:0:0:0:
466,209,83930,2,0,L|474:164,1,45,8|0,0:0|0:0,0:0:0:0:
493,128,84186,6,0,P|460:103|406:102,1,90,2|10,3:2|0:0,0:0:0:0:
359,160,84696,2,0,L|299:148,1,45,2|0,3:2|3:2,3:0:0:0:
289,119,84951,1,10,0:0:0:0:
220,165,85207,6,0,B|199:126|199:126|210:73,1,90,4|8,3:2|0:0,0:0:0:0:
223,43,85590,1,4,3:2:0:0:
147,13,85845,1,6,3:2:0:0:
27,279,87249,6,0,B|10:321|10:321|17:374,2,90,4|8|2,3:2|0:0|0:0,0:0:0:0:
89,226,88015,1,8,0:0:0:0:
158,268,88270,2,0,L|271:294,1,90,2|8,3:2|0:0,0:0:0:0:
278,312,88653,2,0,L|375:293,1,90,2|2,3:2|3:2,0:0:0:0:
396,267,89036,2,0,L|453:281,1,45,8|2,0:0|0:0,0:0:0:0:
475,298,89292,6,0,B|495:259|495:259|485:196,1,90,2|8,3:2|0:0,0:0:0:0:
467,182,89675,1,2,3:2:0:0:
410,123,89930,1,0,3:2:0:0:
341,162,90185,1,2,0:0:0:0:
341,162,90313,2,0,B|301:186|301:186|241:181,1,90,2|8,3:2|0:0,0:0:0:0:
194,132,90823,2,0,L|206:68,1,45,2|2,0:2|3:2,0:0:0:0:
195,47,91079,2,0,L|133:33,1,45,8|2,0:0|0:0,0:0:0:0:
116,58,91334,6,0,B|92:99|92:99|96:165,1,90,4|8,3:2|0:0,0:0:0:0:
141,205,91845,2,0,B|162:246|162:246|164:308,1,90,2|8,0:2|0:0,0:0:0:0:
150,327,92228,1,2,0:0:0:0:
150,327,92355,2,0,L|61:349,1,90,2|8,3:2|0:0,0:0:0:0:
24,333,92738,1,2,3:2:0:0:
30,255,92994,1,2,3:2:0:0:
30,255,93121,2,0,L|47:191,1,45,8|2,0:0|0:0,0:0:0:0:
54,172,93377,6,0,L|169:149,1,90,4|8,3:2|0:0,0:0:0:0:
209,198,93887,1,4,3:2:0:0:
182,274,94143,1,8,0:0:0:0:
239,330,94398,2,0,L|350:306,1,90,4|8,3:2|0:0,0:0:0:0:
406,295,94909,1,6,3:2:0:0:
431,218,95164,1,8,0:0:0:0:
364,172,95419,6,0,L|389:81,2,90,4|8|2,3:2|0:0|0:2,0:0:0:0:
287,198,96185,1,8,0:0:0:0:
257,122,96440,2,0,B|251:79|251:79|283:33,1,90,2|8,3:2|0:0,0:0:0:0:
315,27,96823,2,0,L|423:56,1,90,2|2,3:2|3:2,0:0:0:0:
424,83,97206,2,0,L|409:136,1,45,8|2,0:0|0:0,0:0:0:0:
400,165,97462,6,0,L|495:193,1,90,2|8,3:2|0:0,0:0:0:0:
504,226,97845,1,2,3:2:0:0:
442,277,98100,1,2,3:2:0:0:
491,341,98355,1,2,0:0:0:0:
491,341,98483,2,0,B|455:368|455:368|395:351,1,90,2|8,3:2|0:0,0:0:0:0:
376,347,98866,1,2,3:2:0:0:
376,347,98994,2,0,L|314:326,1,45,2|2,0:2|3:2,0:0:0:0:
301,307,99249,1,10,0:0:0:0:
220,335,99504,6,0,L|192:236,1,90,4|8,3:2|0:0,0:0:0:0:
135,194,100015,2,0,L|150:121,1,45,2|2,3:2|3:2,0:0:0:0:
154,110,100270,1,8,0:0:0:0:
215,57,100526,6,0,L|274:73,1,45,2|0,3:2|0:0,0:0:0:0:
287,96,100781,1,8,0:0:0:0:
339,157,101036,2,0,B|393:170,1,45,2|2,3:2|3:2,0:0:0:0:
422,156,101292,2,0,L|532:137,1,90,8|0,0:0|3:2,0:0:0:0:
505,61,101802,1,8,0:0:0:0:
434,20,102058,2,0,L|376:27,1,45,2|0,3:2|3:2,0:0:0:0:
348,26,102313,1,10,0:0:0:0:
286,64,102568,6,0,P|208:76|136:39,1,161.999995056153,4|2,3:2|3:2,0:0:0:0:
39,148,103589,2,0,P|48:186|54:242,1,80.9999975280763,2|2,3:2|0:0,0:0:0:0:
112,269,104100,2,0,P|118:310|134:366,1,80.9999975280763,0|2,3:0|0:0,0:0:0:0:
198,366,104611,2,0,B|294:348|267:381|376:359,1,161.999995056153,2|0,3:2|3:0,0:0:0:0:
463,264,105632,1,2,3:2:0:0:
432,197,105887,1,2,0:0:0:0:
472,136,106143,2,0,B|487:99|487:99|479:49,1,80.9999975280763,2|2,3:2|0:0,0:0:0:0:
412,14,106653,6,0,L|348:27,1,45,14|0,3:2|0:0,0:0:0:0:
332,38,106909,1,8,0:0:0:0:
332,38,107036,2,0,L|311:131,1,90
303,165,107419,1,10,0:1:0:0:
232,204,107675,2,0,L|248:303,1,90,2|8,3:1|0:0,0:0:0:0:
250,333,108058,2,0,L|153:311,1,90
126,331,108440,1,8,0:0:0:0:
68,273,108696,6,0,L|54:219,1,45,6|0,3:1|0:0,0:0:0:0:
49,189,108951,1,10,0:1:0:0:
114,141,109206,2,0,L|100:88,1,45,6|0,3:1|0:0,0:0:0:0:
91,58,109462,1,10,0:1:0:0:
155,9,109717,2,0,L|250:33,1,90,6|10,3:1|0:1,0:0:0:0:
270,60,110100,1,0,0:0:0:0:
270,60,110228,2,2,P|332:59|402:104,1,135,6|2,3:1|0:0,0:1:0:0:
416,123,110738,5,4,3:2:0:0:
500,241,111249,2,0,B|413:225|422:302|318:276,1,161.999995056153,2|2,3:2|3:2,0:0:0:0:
230,194,112270,1,0,3:2:0:0:
171,237,112526,1,2,0:0:0:0:
104,206,112781,6,0,P|91:247|87:299,1,80.9999975280763,2|0,3:2|0:0,0:0:0:0:
140,333,113292,2,0,P|181:340|227:354,1,80.9999975280763,0|0,3:2|0:0,0:0:0:0:
251,285,113802,2,0,L|220:99,1,161.999995056153,2|0,3:2|3:2,0:0:0:0:
342,14,114823,5,4,3:2:0:0:
342,14,114951,2,0,L|402:29,1,45,0|8,3:2|0:0,0:0:0:0:
424,36,115206,1,2,3:2:0:0:
424,36,115334,2,0,B|449:75|449:75|444:127,1,90,10|8,0:0|0:0,0:0:0:0:
436,161,115717,1,2,0:0:0:0:
436,161,115845,1,4,3:2:0:0:
366,201,116100,2,0,B|279:218|289:143|179:166,1,180,12|8,0:0|3:0,0:0:0:0:
135,216,116866,6,0,B|125:270,1,45,6|2,3:2|3:2,0:0:0:0:
91,277,117121,2,0,L|77:340,1,45,8|2,0:0|0:0,0:0:0:0:
103,355,117377,1,8,0:0:0:0:
185,344,117632,2,0,L|236:330,1,45,8|2,0:0|0:0,0:0:0:0:
259,306,117887,2,0,L|333:324,1,45,4|0,3:2|0:0,0:0:0:0:
338,336,118143,2,0,B|376:237|273:266|299:167,1,180,12|0,3:2|0:0,0:0:0:0:
172,70,119164,5,12,0:0:0:0:
99,105,119419,2,0,L|77:203,1,90,2|8,3:2|0:0,0:0:0:0:
121,262,119930,2,0,B|157:286|157:286|216:281,1,90,0|8,3:2|0:0,0:0:0:0:
262,227,120440,2,0,L|275:171,1,45,2|2,3:2|3:2,0:0:0:0:
302,156,120695,2,0,L|369:173,1,45,10|2,0:0|0:0,0:0:0:0:
375,195,120951,6,0,B|352:301,1,90,2|8,3:2|0:0,0:0:0:0:
396,353,121462,2,0,L|465:365,1,45,0|0,3:2|3:2,0:0:0:0:
479,351,121717,1,8,0:0:0:0:
501,274,121972,2,0,B|505:232|505:232|481:182,1,90,2|8,3:2|0:0,0:0:0:0:
491,108,122483,2,0,L|391:82,1,90,2|8,3:2|0:0,0:0:0:0:
381,58,122866,1,2,0:0:0:0:
381,58,122994,6,0,L|291:78,1,90,4|8,3:2|0:0,0:0:0:0:
246,143,123504,2,0,L|228:210,1,45,0|0,3:2|3:2,0:0:0:0:
225,225,123759,1,8,0:0:0:0:
165,280,124015,2,0,B|127:303|127:303|69:292,1,90,0|10,3:2|0:0,0:0:0:0:
61,265,124398,1,2,0:0:0:0:
61,265,124525,2,0,L|76:205,1,45,0|0,3:2|3:2,0:0:0:0:
83,182,124781,1,8,0:0:0:0:
162,164,125036,6,0,B|211:179|211:179|226:193|226:193|300:215,1,135,0|2,3:2|0:0,0:0:0:0:
321,232,125547,2,0,L|336:292,1,45,0|0,3:2|3:2,0:0:0:0:
342,314,125802,1,8,0:0:0:0:
392,377,126057,2,0,B|497:355,1,90,0|8,3:2|0:0,0:0:0:0:
512,334,126440,1,2,0:0:0:0:
512,334,126568,1,0,3:2:0:0:
475,261,126823,2,0,L|488:202,1,45,8|8,0:0|0:0,0:0:0:0:
493,177,127079,6,0,L|397:194,1,90,4|8,3:2|0:0,0:0:0:0:
370,180,127462,1,2,0:0:0:0:
370,180,127589,2,0,P|354:139|358:89,1,90,0|8,3:2|0:0,0:0:0:0:
311,26,128100,2,0,L|197:5,1,90,0|8,3:2|0:0,0:0:0:0:
156,56,128611,2,0,L|146:99,1,45,2|2,3:2|3:2,0:0:0:0:
117,129,128866,2,0,L|44:112,1,45,10|2,0:0|0:0,0:0:0:0:
33,126,129121,6,0,P|13:165|14:215,1,90,4|8,3:2|0:0,0:0:0:0:
93,214,129632,2,0,P|114:254|112:304,1,90,4|8,3:2|0:0,0:0:0:0:
81,372,130142,2,0,L|193:381,1,90,4|8,3:2|0:0,0:0:0:0:
246,348,130653,2,0,B|265:276,1,45,6|2,3:2|3:2,0:0:0:0:
282,270,130908,2,0,B|325:269|325:269|370:296,1,90,8|4,0:0|3:2,0:0:0:0:
446,285,131419,6,0,B|468:184,1,90,8|0,0:0|3:2,0:0:0:0:
476,161,131802,1,0,3:2:0:0:
476,161,131930,1,8,0:0:0:0:
414,108,132185,2,0,P|377:82|317:84,1,90,2|10,3:2|0:0,0:0:0:0:
263,120,132696,2,0,L|202:132,1,45,0|0,3:2|3:2,0:0:0:0:
178,136,132951,1,8,0:0:0:0:
100,116,133206,6,0,B|74:155|74:155|81:211,1,90,4|8,3:2|0:0,0:0:0:0:
133,258,133717,2,0,L|190:271,1,45,0|0,3:2|3:2,0:0:0:0:
216,275,133972,2,0,B|237:238|237:238|229:177,1,90,8|2,0:0|3:2,0:0:0:0:
276,123,134483,1,8,0:0:0:0:
352,150,134738,2,0,L|407:163,1,45,0|0,3:2|3:2,0:0:0:0:
435,151,134994,2,0,L|488:164,1,45,8|8,0:0|0:0,0:0:0:0:
499,196,135249,6,0,P|487:245|480:290,1,90,4|8,3:2|0:0,0:0:0:0:
427,344,135759,2,0,P|389:329|337:320,1,90,0|8,3:2|0:0,0:0:0:0:
287,258,136270,2,0,P|213:262|129:332,1,180,2|2,3:2|3:2,0:0:0:0:
116,365,136908,1,0,3:2:0:0:
116,365,137036,1,8,0:0:0:0:
44,327,137291,6,0,L|59:205,1,90,2|8,3:2|0:0,0:0:0:0:
103,172,137802,2,0,B|149:164|149:164|204:196,1,90,0|8,3:2|0:0,0:0:0:0:
240,246,138313,2,0,L|228:353,2,90,2|10|2,3:2|0:0|3:2,0:0:0:0:
297,188,139079,1,10,0:0:0:0:
256,117,139334,6,0,B|249:71|249:71|274:18,1,90,4|8,3:2|0:0,0:0:0:0:
347,15,139845,2,0,L|401:29,1,45,2|2,3:2|3:2,0:0:0:0:
422,59,140100,1,8,0:0:0:0:
422,59,140228,2,0,L|404:159,1,90,2|0,0:0|0:0,0:0:0:0:
398,187,140611,1,8,0:0:0:0:
337,241,140866,2,0,L|270:260,1,45,2|2,3:2|3:2,0:0:0:0:
254,265,141121,2,0,L|207:251,1,45,10|2,0:0|0:0,0:0:0:0:
174,232,141377,6,0,L|74:255,1,90,2|10,3:2|0:0,0:0:0:0:
17,209,141887,2,0,L|5:143,1,45,2|0,3:2|3:2,0:0:0:0:
3,124,142142,1,8,0:0:0:0:
77,92,142398,2,0,B|118:70|118:70|173:78,1,90,2|8,3:2|0:0,0:0:0:0:
192,102,142781,2,0,B|231:125|231:125|296:106,1,90,2|2,3:2|3:2,0:0:0:0:
314,109,143164,1,10,0:0:0:0:
390,144,143419,6,0,L|414:244,1,90,4|8,3:2|0:0,0:0:0:0:
470,286,143930,1,0,3:2:0:0:
399,326,144185,2,0,P|390:351|383:396,1,45,10|2,0:2|3:2,0:0:0:0:
345,373,144440,2,0,P|301:369|245:336,1,90,0|8,3:2|0:0,0:0:0:0:
228,280,144951,1,0,3:2:0:0:
228,280,145079,2,0,L|167:295,1,45,2|8,3:2|0:0,0:0:0:0:
157,321,145334,1,0,0:0:0:0:
157,321,145462,6,0,P|111:319|64:288,1,90,4|10,3:2|0:0,0:0:0:0:
42,223,145972,2,0,L|53:170,1,45,2|2,3:2|0:0,0:0:0:0:
47,138,146228,2,0,L|60:82,1,45,8|2,0:0|0:0,0:0:0:0:
96,83,146483,2,0,B|142:78|142:78|197:112,1,90,4|8,3:2|0:0,0:0:0:0:
208,129,146866,1,4,3:2:0:0:
283,99,147121,1,4,3:2:0:0:
485,105,149547,6,0,B|511:62|499:12,2,90,4|8|2,3:2|0:0|0:2,0:0:0:0:
423,158,150313,1,8,0:0:0:0:
354,116,150568,2,0,P|314:100|241:90,1,90,2|8,3:2|0:0,0:0:0:0:
234,72,150951,2,0,P|192:88|137:91,1,90,2|2,3:2|3:2,0:0:0:0:
116,117,151334,2,0,L|59:103,1,45,8|2,0:0|0:0,0:0:0:0:
37,86,151590,6,0,P|17:125|27:188,1,90,2|8,3:2|0:0,0:0:0:0:
45,202,151973,1,2,3:2:0:0:
102,261,152228,1,0,3:2:0:0:
171,222,152483,1,2,0:0:0:0:
171,222,152611,2,0,P|211:199|271:203,1,90,2|10,3:2|0:2,0:0:0:0:
318,252,153121,2,0,L|306:316,1,45,2|2,0:2|3:2,0:0:0:0:
317,337,153377,2,0,L|379:351,1,45,8|2,0:0|0:0,0:0:0:0:
396,326,153632,6,0,P|416:283|420:212,1,90,4|8,3:2|0:0,0:0:0:0:
371,179,154143,2,0,P|352:138|348:76,1,90,2|8,0:2|0:0,0:0:0:0:
362,57,154526,1,2,0:0:0:0:
362,57,154653,2,0,P|402:40|451:35,1,90,2|8,3:2|0:0,0:0:0:0:
488,51,155036,1,2,3:2:0:0:
482,129,155292,1,2,3:2:0:0:
482,129,155419,2,0,L|465:193,1,45,8|2,0:0|0:0,0:0:0:0:
458,212,155675,6,0,P|416:231|343:235,1,90,4|8,3:2|0:0,0:0:0:0:
307,189,156185,1,4,3:2:0:0:
330,110,156441,1,8,0:0:0:0:
272,53,156696,2,0,P|226:55|168:86,1,90,4|8,3:2|0:0,0:0:0:0:
139,140,157207,1,2,3:2:0:0:
175,212,157462,2,0,B|187:267,1,45,8|0,0:0|3:2,0:0:0:0:
197,294,157717,6,0,L|172:385,2,90,4|8|0,3:2|0:0|3:2,0:0:0:0:
277,280,158483,1,8,0:0:0:0:
333,222,158738,2,0,B|333:175|333:175|303:118,1,90,2|8,3:2|0:0,0:0:0:0:
273,125,159121,2,0,L|170:159,1,90,0|0,3:2|3:2,0:0:0:0:
148,165,159504,1,10,0:2:0:0:
110,236,159760,6,0,P|64:228|28:195,1,90,2|8,3:2|0:0,0:0:0:0:
6,168,160143,1,2,3:2:0:0:
30,91,160398,1,2,3:2:0:0:
81,29,160653,1,2,0:0:0:0:
81,29,160781,2,0,P|120:2|186:9,1,90,2|8,3:2|0:0,0:0:0:0:
196,30,161164,1,2,3:2:0:0:
196,30,161292,1,2,3:2:0:0:
275,14,161547,1,10,0:0:0:0:
343,56,161802,6,0,P|365:99|371:155,1,90,4|8,3:2|0:0,0:0:0:0:
417,207,162313,2,0,L|406:265,1,45,2|2,3:2|3:2,0:0:0:0:
376,275,162568,1,10,0:0:0:0:
304,237,162823,2,0,L|211:258,1,90,4|8,3:2|0:0,0:0:0:0:
150,305,163334,2,0,L|135:362,2,45,2|2|10,3:2|3:2|0:0,0:0:0:0:
98,241,163845,6,0,B|77:201|77:201|91:158,1,90,4|8,3:2|0:0,0:0:0:0:
105,78,164355,2,0,L|121:19,1,45,2|2,3:2|3:2,0:0:0:0:
160,37,164611,1,10,0:0:0:0:
189,113,164866,2,0,L|283:131,1,90,4|10,3:2|0:2,0:0:0:0:
340,180,165377,2,0,L|354:240,2,45,2|2|8,3:2|3:2|0:0,0:0:0:0:
383,112,165887,6,0,L|480:90,1,90,4|10,3:2|0:0,0:0:0:0:
512,85,166270,1,2,0:0:0:0:
512,85,166398,2,0,L|490:184,1,90,2|8,3:2|0:0,0:0:0:0:
433,228,166909,2,0,L|454:324,1,90,4|10,3:2|0:0,0:0:0:0:
461,360,167292,1,2,0:0:0:0:
461,360,167419,2,0,L|360:332,1,90,0|8,3:2|0:0,0:0:0:0:
308,288,167930,6,0,P|269:305|215:309,1,90,4|10,3:2|0:0,0:0:0:0:
189,295,168313,1,2,0:0:0:0:
189,295,168440,2,0,L|173:234,1,45,2|2,3:2|3:2,0:0:0:0:
170,211,168696,1,8,0:0:0:0:
225,152,168951,6,0,L|240:76,1,45,12|0,0:0|3:2,0:0:0:0:
238,67,169206,2,0,L|123:40,1,90,4|8,3:2|3:0,0:0:0:0:
85,3,169717,1,0,3:2:0:0:
39,70,169972,2,0,L|50:129,1,45,12|0,0:0|0:0,0:0:0:0:
75,143,170228,2,0,L|56:245,1,90,12|8,0:0|3:0,0:0:0:0:
100,300,170738,1,8,3:0:0:0:
176,271,170994,6,0,L|251:249,1,45,12|0,0:0|3:2,0:0:0:0:
251,233,171249,2,0,L|360:261,1,90,12|8,3:2|3:0,0:0:0:0:
397,310,171760,1,8,3:0:0:0:
452,251,172015,2,0,L|437:192,1,45,12|0,0:0|3:2,0:0:0:0:
422,171,172270,2,0,L|449:36,1,135,12|2,3:2|0:0,0:0:0:0:
458,0,172781,1,2,0:0:0:0:
