osu file format v14

[General]
AudioFilename: mv_audio.mp3
AudioLeadIn: 0
PreviewTime: 87048
Countdown: 0
SampleSet: Normal
StackLeniency: 0.7
Mode: 1
LetterboxInBreaks: 0
WidescreenStoryboard: 1

[Editor]
Bookmarks: 6313,56866
DistanceSpacing: 1.5
BeatDivisor: 4
GridSize: 32
TimelineZoom: 2.2

[Metadata]
Title:Shuuten no Saki ga Aru to Suru Naraba.
TitleUnicode:終点の先が在るとするならば。
Artist:TUYU
ArtistUnicode:ツユ
Creator:arcpotato
Version:Muzukashii.
Source:
Tags:japanese rock jrock j-rock anata o fuko ni sasoimasu ne 貴方を不幸に誘いますね rei pusu れい ぷす anoyo iki no bus ni notte saraba あの世行きのバスに乗ってさらば if there was an endpoint I'll put you in misery omutatsu おむたつ pop jpop j-pop miro ミロ female vocal
BeatmapID:3121241
BeatmapSetID:1523082

[Difficulty]
HPDrainRate:6
CircleSize:5
OverallDifficulty:5
ApproachRate:5
SliderMultiplier:1.4
SliderTickRate:1

[Events]
//Background and Video events
0,0,"0-25_screenshot.png",0,0
//Break Periods
//Storyboard Layer 0 (Background)
//Storyboard Layer 1 (Fail)
//Storyboard Layer 2 (Pass)
//Storyboard Layer 3 (Foreground)
//Storyboard Layer 4 (Overlay)
//Storyboard Sound Samples

[TimingPoints]
751,255.31914893617,4,1,0,50,1,0
751,-125,4,1,0,50,0,0
6878,-111.111111111111,4,1,0,50,0,0
7384,-108.695652173913,4,1,0,90,0,0
7511,-105.932203389831,4,1,0,90,0,0
7639,-104.166666666667,4,1,0,90,0,0
7899,-100,4,1,0,90,0,1
20155,-100,4,1,0,90,0,0
28325,-100,4,1,0,90,0,1
32027,-100,4,1,0,90,0,0
32155,-100,4,1,0,5,0,0
33304,-111.111111111111,4,1,0,90,0,0
34453,-100,4,1,0,100,0,0
34836,-111.111111111111,4,1,0,90,0,0
36495,-100,4,1,0,100,0,0
37516,-125,4,1,0,70,0,0
52325,-111.111111111111,4,1,0,100,0,0
53091,-125,4,1,0,90,0,0
57176,-121.951219512195,4,1,0,90,0,0
57431,-119.047619047619,4,1,0,90,0,0
57687,-116.279069767442,4,1,0,90,0,0
57814,-113.636363636364,4,1,0,90,0,0
59729,-108.108108108108,4,1,0,90,0,0
59857,-105.263157894737,4,1,0,95,0,0
59985,-103.092783505155,4,1,0,100,0,0
61261,-105.263157894737,4,1,0,95,0,0
61516,-107.52688172043,4,1,0,90,0,0
62027,-100,4,1,0,90,0,1
74282,-100,4,1,0,90,0,0
82453,-100,4,1,0,90,0,1
86155,-100,4,1,0,90,0,0
86282,-100,4,1,0,5,0,0
86985,-100,4,1,0,90,0,0
93304,-101.010101010101,4,1,0,90,0,0
93431,-102.040816326531,4,1,0,90,0,0
93559,-103.092783505155,4,1,0,90,0,0
93687,-104.166666666667,4,1,0,90,0,0
93942,-107.52688172043,4,1,0,90,0,0
94197,-111.111111111111,4,1,0,90,0,0
94453,-114.942528735632,4,1,0,90,0,0
94708,-119.047619047619,4,1,0,90,0,0
95219,-100,4,1,0,90,0,0
101921,-117.647058823529,4,1,0,70,0,0
106963,-100,4,1,0,90,0,1
110155,-102.040816326531,4,1,0,90,0,1
110282,-104.166666666667,4,1,0,90,0,1
110410,-106.382978723404,4,1,0,90,0,1
110538,-108.695652173913,4,1,0,90,0,1
110665,-111.111111111111,4,1,0,70,0,1
111048,-111.111111111111,4,1,0,70,0,0
116155,-100,4,1,0,100,0,0
116474,-111.111111111111,4,1,0,90,0,0
117176,-111.111111111111,4,1,0,100,0,0
118197,-100,4,1,0,100,0,0
118708,-100,4,1,0,90,0,0
119474,-100,4,1,0,90,0,1
131474,-100,4,1,0,90,0,0
139644,-100,4,1,0,90,0,1
147431,-100,4,1,0,90,0,0
147559,-100,4,1,0,70,0,0
149219,-100,4,1,0,90,0,0
155602,-101.010101010101,4,1,0,90,0,0
155729,-102.040816326531,4,1,0,90,0,0
155857,-103.092783505155,4,1,0,90,0,0
155985,-104.166666666667,4,1,0,90,0,0
156240,-107.52688172043,4,1,0,90,0,0
156495,-111.111111111111,4,1,0,90,0,0
156750,-114.942528735632,4,1,0,90,0,0
157006,-119.047619047619,4,1,0,90,0,0
157516,-100,4,1,0,90,0,0
162112,-100,4,1,0,90,0,0
169772,-111.111111111111,4,1,0,90,0,0
170282,-100,4,1,0,95,0,0
170793,-111.111111111111,4,1,0,95,0,0
171304,-100,4,1,0,100,0,0
171814,-111.111111111111,4,1,0,100,0,0
172325,-100,4,1,0,100,0,0
172708,-80,4,1,0,100,0,0
173091,-76.9230769230769,4,1,0,100,0,0

[HitObjects]
462,228,1261,5,0,0:0:0:0:
462,228,1516,1,8,0:0:0:0:
462,228,1772,1,0,0:0:0:0:
462,228,2027,1,0,0:0:0:0:
462,228,2282,1,8,0:0:0:0:
462,228,2538,1,8,0:0:0:0:
462,228,2793,1,0,0:0:0:0:
158,63,3304,1,8,0:0:0:0:
365,186,3814,1,0,0:0:0:0:
410,173,4325,1,8,0:0:0:0:
410,173,4836,1,0,0:0:0:0:
335,170,5346,1,8,0:0:0:0:
335,170,5857,1,0,0:0:0:0:
335,170,6368,1,8,0:0:0:0:
458,295,7133,1,0,0:0:0:0:
145,100,7389,1,8,0:0:0:0:
228,253,7516,1,8,0:0:0:0:
145,100,7644,1,0,0:0:0:0:
315,201,7899,1,12,0:0:0:0:
232,123,8155,1,0,0:0:0:0:
237,225,8282,1,8,0:0:0:0:
341,122,8410,1,0,0:0:0:0:
106,95,8665,1,8,0:0:0:0:
106,95,8793,1,0,0:0:0:0:
111,93,9048,1,0,0:0:0:0:
495,264,9176,1,0,0:0:0:0:
158,197,9304,1,8,0:0:0:0:
479,145,9431,1,0,0:0:0:0:
336,193,9559,1,8,0:0:0:0:
336,193,9687,1,0,0:0:0:0:
261,104,9814,1,8,0:0:0:0:
336,193,9942,1,8,0:0:0:0:
220,135,10325,1,8,0:0:0:0:
220,135,10453,1,0,0:0:0:0:
373,196,10836,1,0,0:0:0:0:
156,192,10963,1,8,0:0:0:0:
156,192,11219,1,8,0:0:0:0:
199,241,11346,1,0,0:0:0:0:
199,241,11602,1,0,0:0:0:0:
189,262,11729,1,8,0:0:0:0:
196,264,11857,1,8,0:0:0:0:
167,282,11985,1,4,0:0:0:0:
216,111,12240,1,8,0:0:0:0:
216,111,12495,1,0,0:0:0:0:
216,111,12750,1,8,0:0:0:0:
219,120,13006,1,0,0:0:0:0:
204,119,13261,1,0,0:0:0:0:
204,119,13389,1,0,0:0:0:0:
204,119,13516,1,8,0:0:0:0:
280,58,13644,1,0,0:0:0:0:
280,58,13772,1,8,0:0:0:0:
152,147,14155,1,0,0:0:0:0:
238,265,14282,1,8,0:0:0:0:
238,265,14410,1,0,0:0:0:0:
315,157,14538,1,8,0:0:0:0:
315,157,14665,1,8,0:0:0:0:
277,136,14921,1,0,0:0:0:0:
43,101,15176,1,0,0:0:0:0:
54,119,15304,1,8,0:0:0:0:
90,200,15431,1,0,0:0:0:0:
65,176,15559,1,8,0:0:0:0:
65,176,15687,1,8,0:0:0:0:
65,176,15814,1,0,0:0:0:0:
307,251,16070,1,12,0:0:0:0:
184,291,16325,1,8,0:0:0:0:
85,264,16453,1,0,0:0:0:0:
245,172,16580,1,8,0:0:0:0:
382,153,16836,1,0,0:0:0:0:
68,133,16963,1,8,0:0:0:0:
171,96,17219,1,0,0:0:0:0:
267,105,17346,1,8,0:0:0:0:
167,109,17474,1,8,0:0:0:0:
167,109,17602,1,0,0:0:0:0:
169,109,17729,1,0,0:0:0:0:
131,60,17857,1,8,0:0:0:0:
131,60,17985,1,8,0:0:0:0:
131,60,18112,1,4,0:0:0:0:
145,72,18495,1,0,0:0:0:0:
145,72,18623,1,12,0:0:0:0:
200,195,18878,1,8,0:0:0:0:
252,190,19133,1,4,0:0:0:0:
346,144,19389,1,0,0:0:0:0:
346,144,19516,1,0,0:0:0:0:
252,190,19644,1,12,0:0:0:0:
202,154,19899,1,8,0:0:0:0:
252,190,20155,1,4,0:0:0:0:
318,253,20410,1,8,0:0:0:0:
437,207,20665,1,0,0:0:0:0:
437,207,20921,1,8,0:0:0:0:
437,207,21176,1,0,0:0:0:0:
224,192,21431,1,8,0:0:0:0:
437,207,21687,1,8,0:0:0:0:
106,193,21942,1,0,0:0:0:0:
442,200,22197,1,8,0:0:0:0:
449,210,22325,1,0,0:0:0:0:
449,210,22453,1,0,0:0:0:0:
349,290,22963,1,8,0:0:0:0:
341,283,23219,1,0,0:0:0:0:
255,99,23474,1,8,0:0:0:0:
301,111,23729,1,0,0:0:0:0:
295,119,23985,1,8,0:0:0:0:
294,129,24240,1,8,0:0:0:0:
347,128,24368,1,0,0:0:0:0:
347,128,24495,1,8,0:0:0:0:
204,220,24750,1,0,0:0:0:0:
458,248,25261,1,8,0:0:0:0:
458,248,25772,1,0,0:0:0:0:
279,117,26282,1,8,0:0:0:0:
250,173,27048,1,0,0:0:0:0:
250,173,27304,1,8,0:0:0:0:
250,173,27559,1,8,0:0:0:0:
250,173,27814,1,0,0:0:0:0:
255,165,28070,1,0,0:0:0:0:
255,165,28325,1,12,0:0:0:0:
149,76,28580,1,8,0:0:0:0:
276,213,28836,1,0,0:0:0:0:
170,84,28963,1,0,0:0:0:0:
170,84,29091,1,8,0:0:0:0:
285,105,29219,1,0,0:0:0:0:
247,37,29474,1,0,0:0:0:0:
257,257,29602,1,0,0:0:0:0:
257,35,29857,1,0,0:0:0:0:
257,35,29985,1,8,0:0:0:0:
257,35,30112,1,0,0:0:0:0:
448,181,30240,1,0,0:0:0:0:
259,34,30368,1,8,0:0:0:0:
259,34,30623,1,8,0:0:0:0:
260,31,30750,1,0,0:0:0:0:
266,31,30878,1,8,0:0:0:0:
410,101,30942,1,8,0:0:0:0:
297,41,31006,1,8,0:0:0:0:
175,70,31133,1,0,0:0:0:0:
175,70,31261,1,0,0:0:0:0:
175,70,31389,1,12,0:0:0:0:
180,68,31644,1,0,0:0:0:0:
180,68,31772,1,12,0:0:0:0:
196,61,32027,1,4,0:0:0:0:
211,55,33431,1,8,0:0:0:0:
211,55,33559,1,0,0:0:0:0:
211,55,33687,1,0,0:0:0:0:
380,106,33814,1,8,0:0:0:0:
493,101,34070,1,0,0:0:0:0:
184,266,34325,1,0,0:0:0:0:
230,176,34453,1,12,0:0:0:0:
230,176,34708,1,12,0:0:0:0:
202,232,35219,1,0,0:0:0:0:
202,232,35346,1,8,0:0:0:0:
425,99,35474,1,0,0:0:0:0:
204,224,35602,1,0,0:0:0:0:
238,70,35729,1,8,0:0:0:0:
204,224,35857,1,8,0:0:0:0:
95,260,36112,1,0,0:0:0:0:
232,59,36240,1,8,0:0:0:0:
95,260,36368,1,8,0:0:0:0:
80,191,36495,1,4,0:0:0:0:
66,104,36750,1,4,0:0:0:0:
345,226,37516,1,0,0:0:0:0:
345,226,37772,1,8,0:0:0:0:
345,226,38027,1,0,0:0:0:0:
345,226,38282,1,8,0:0:0:0:
186,237,38793,1,0,0:0:0:0:
193,229,39048,1,0,0:0:0:0:
457,173,39304,1,8,0:0:0:0:
336,177,39814,1,8,0:0:0:0:
336,177,40070,1,8,0:0:0:0:
336,177,40325,1,0,0:0:0:0:
231,259,40836,1,8,0:0:0:0:
231,259,41091,1,0,0:0:0:0:
231,259,41346,1,0,0:0:0:0:
68,50,41602,1,8,0:0:0:0:
242,120,41857,1,8,0:0:0:0:
242,120,42112,1,0,0:0:0:0:
242,120,42368,1,0,0:0:0:0:
305,263,42878,1,8,0:0:0:0:
334,112,43133,1,0,0:0:0:0:
334,112,43389,1,8,0:0:0:0:
334,112,43899,1,0,0:0:0:0:
334,112,44155,1,8,0:0:0:0:
334,112,44410,1,8,0:0:0:0:
308,59,44921,1,8,0:0:0:0:
313,65,45176,1,0,0:0:0:0:
313,65,45431,1,0,0:0:0:0:
314,63,45687,1,8,0:0:0:0:
313,64,45942,1,8,0:0:0:0:
313,65,46197,1,0,0:0:0:0:
313,65,46453,1,0,0:0:0:0:
327,58,46963,1,0,0:0:0:0:
327,58,47219,1,8,0:0:0:0:
327,58,47474,1,8,0:0:0:0:
327,58,47985,1,8,0:0:0:0:
327,58,48240,1,0,0:0:0:0:
327,58,48495,1,0,0:0:0:0:
378,97,49006,1,0,0:0:0:0:
198,249,49261,1,8,0:0:0:0:
198,249,49516,1,0,0:0:0:0:
82,73,49772,1,8,0:0:0:0:
82,73,50027,1,8,0:0:0:0:
82,73,50282,1,0,0:0:0:0:
82,73,50538,1,0,0:0:0:0:
229,105,51048,1,8,0:0:0:0:
239,106,51304,1,0,0:0:0:0:
239,106,51559,1,8,0:0:0:0:
157,64,52070,1,0,0:0:0:0:
157,64,52325,1,12,0:0:0:0:
157,64,52836,1,12,0:0:0:0:
252,115,53091,1,0,0:0:0:0:
252,115,53346,1,8,0:0:0:0:
336,173,53602,1,8,0:0:0:0:
176,31,53857,1,4,0:0:0:0:
318,98,54368,1,8,0:0:0:0:
318,98,54623,1,0,0:0:0:0:
347,152,55133,1,8,0:0:0:0:
164,156,55389,1,8,0:0:0:0:
347,152,55644,1,0,0:0:0:0:
265,194,55899,1,8,0:0:0:0:
236,205,56155,1,0,0:0:0:0:
290,237,56282,1,0,0:0:0:0:
290,237,56410,1,8,0:0:0:0:
290,237,56665,1,8,0:0:0:0:
322,201,57176,1,8,0:0:0:0:
234,107,57431,1,8,0:0:0:0:
291,92,57687,1,0,0:0:0:0:
446,195,57814,1,8,0:0:0:0:
209,160,58070,1,0,0:0:0:0:
98,192,58197,1,8,0:0:0:0:
477,252,58325,1,8,0:0:0:0:
136,95,58453,1,0,0:0:0:0:
179,38,58580,1,0,0:0:0:0:
179,38,58708,1,8,0:0:0:0:
158,77,58836,1,0,0:0:0:0:
219,238,58963,1,8,0:0:0:0:
286,65,59219,1,8,0:0:0:0:
28,119,59346,1,8,0:0:0:0:
450,100,59474,1,0,0:0:0:0:
351,98,59729,1,0,0:0:0:0:
351,98,59857,1,0,0:0:0:0:
351,98,59985,1,12,0:0:0:0:
345,255,60240,1,8,0:0:0:0:
243,198,60368,1,0,0:0:0:0:
223,243,60495,1,8,0:0:0:0:
269,280,60623,1,0,0:0:0:0:
164,107,60750,1,8,0:0:0:0:
107,115,61006,1,0,0:0:0:0:
458,295,61261,1,0,0:0:0:0:
81,256,61516,1,8,0:0:0:0:
336,142,62027,1,4,0:0:0:0:
232,123,62282,1,0,0:0:0:0:
237,225,62410,1,8,0:0:0:0:
243,295,62538,1,0,0:0:0:0:
106,95,62793,1,8,0:0:0:0:
106,95,62921,1,0,0:0:0:0:
111,93,63176,1,0,0:0:0:0:
127,156,63304,1,0,0:0:0:0:
158,197,63431,1,8,0:0:0:0:
198,210,63559,1,0,0:0:0:0:
336,193,63687,1,8,0:0:0:0:
261,104,63814,1,0,0:0:0:0:
316,263,63942,1,8,0:0:0:0:
97,232,64070,1,8,0:0:0:0:
220,135,64453,1,8,0:0:0:0:
220,135,64580,1,0,0:0:0:0:
309,113,64836,1,8,0:0:0:0:
277,223,64963,1,0,0:0:0:0:
277,223,65091,1,8,0:0:0:0:
243,228,65155,1,8,0:0:0:0:
101,123,65219,1,8,0:0:0:0:
149,259,65346,1,0,0:0:0:0:
105,131,65474,1,8,0:0:0:0:
105,131,65729,1,8,0:0:0:0:
105,131,65857,1,0,0:0:0:0:
107,131,65985,1,0,0:0:0:0:
169,138,66112,1,12,0:0:0:0:
450,324,66368,1,0,0:0:0:0:
176,135,66623,1,8,0:0:0:0:
182,135,66878,1,0,0:0:0:0:
189,143,67006,1,0,0:0:0:0:
189,143,67133,1,8,0:0:0:0:
189,143,67261,1,8,0:0:0:0:
189,143,67389,1,0,0:0:0:0:
192,142,67644,1,8,0:0:0:0:
189,143,67772,1,8,0:0:0:0:
192,142,67899,1,0,0:0:0:0:
360,285,68282,1,8,0:0:0:0:
360,285,68410,1,8,0:0:0:0:
392,168,68538,1,0,0:0:0:0:
303,279,68665,1,8,0:0:0:0:
33,172,68729,1,8,0:0:0:0:
197,181,68793,1,8,0:0:0:0:
197,181,68921,1,8,0:0:0:0:
314,237,69048,1,0,0:0:0:0:
417,235,69304,1,0,0:0:0:0:
454,221,69431,1,8,0:0:0:0:
454,221,69559,1,0,0:0:0:0:
470,50,69687,1,8,0:0:0:0:
255,181,69814,1,8,0:0:0:0:
186,194,69942,1,0,0:0:0:0:
307,251,70197,1,4,0:0:0:0:
184,291,70453,1,8,0:0:0:0:
30,133,70580,1,0,0:0:0:0:
30,133,70708,1,8,0:0:0:0:
247,194,70963,1,0,0:0:0:0:
68,133,71091,1,8,0:0:0:0:
171,96,71346,1,0,0:0:0:0:
267,105,71474,1,8,0:0:0:0:
167,109,71602,1,8,0:0:0:0:
167,109,71729,1,0,0:0:0:0:
169,109,71857,1,0,0:0:0:0:
131,60,71985,1,8,0:0:0:0:
131,60,72112,1,8,0:0:0:0:
131,60,72240,1,4,0:0:0:0:
145,72,72623,1,0,0:0:0:0:
145,72,72750,1,12,0:0:0:0:
200,195,73006,1,8,0:0:0:0:
252,190,73261,1,4,0:0:0:0:
346,144,73516,1,0,0:0:0:0:
346,144,73644,1,0,0:0:0:0:
252,190,73772,1,12,0:0:0:0:
202,154,74027,1,8,0:0:0:0:
252,190,74282,1,4,0:0:0:0:
318,253,74538,1,8,0:0:0:0:
437,207,74793,1,0,0:0:0:0:
437,207,75048,1,8,0:0:0:0:
437,207,75304,1,0,0:0:0:0:
99,230,75814,1,8,0:0:0:0:
237,93,76070,1,0,0:0:0:0:
345,142,76325,1,8,0:0:0:0:
345,142,76453,1,0,0:0:0:0:
345,142,76580,1,0,0:0:0:0:
233,62,77091,1,0,0:0:0:0:
233,62,77346,1,0,0:0:0:0:
387,137,77602,1,8,0:0:0:0:
218,311,77857,1,8,0:0:0:0:
355,190,78112,1,0,0:0:0:0:
352,196,78368,1,8,0:0:0:0:
242,149,78495,1,0,0:0:0:0:
242,149,78623,1,8,0:0:0:0:
204,46,78878,1,0,0:0:0:0:
184,177,79389,1,8,0:0:0:0:
184,177,79899,1,0,0:0:0:0:
224,85,80410,1,8,0:0:0:0:
250,173,81176,1,0,0:0:0:0:
250,173,81431,1,8,0:0:0:0:
250,173,81687,1,8,0:0:0:0:
250,173,81942,1,0,0:0:0:0:
255,165,82197,1,0,0:0:0:0:
255,165,82453,1,12,0:0:0:0:
261,292,82708,1,8,0:0:0:0:
53,189,82963,1,8,0:0:0:0:
170,84,83091,1,0,0:0:0:0:
170,84,83219,1,8,0:0:0:0:
285,105,83346,1,8,0:0:0:0:
247,37,83602,1,0,0:0:0:0:
254,36,83729,1,0,0:0:0:0:
257,35,83985,1,8,0:0:0:0:
257,35,84112,1,8,0:0:0:0:
257,35,84240,1,0,0:0:0:0:
259,34,84368,1,0,0:0:0:0:
259,34,84495,1,8,0:0:0:0:
259,34,84750,1,8,0:0:0:0:
260,31,84878,1,0,0:0:0:0:
360,180,85006,1,8,0:0:0:0:
297,41,85133,1,8,0:0:0:0:
175,70,85261,1,0,0:0:0:0:
175,70,85516,1,12,0:0:0:0:
180,68,85772,1,0,0:0:0:0:
180,68,85899,1,12,0:0:0:0:
196,61,86155,1,4,0:0:0:0:
357,111,87048,1,0,0:0:0:0:
357,111,87176,1,0,0:0:0:0:
262,233,87304,1,8,0:0:0:0:
357,111,87431,1,8,0:0:0:0:
357,111,87559,1,4,0:0:0:0:
279,99,87814,1,8,0:0:0:0:
284,100,88070,1,0,0:0:0:0:
284,100,88325,1,8,0:0:0:0:
390,31,88580,1,0,0:0:0:0:
390,31,88836,1,0,0:0:0:0:
390,31,88963,1,0,0:0:0:0:
347,122,89219,1,0,0:0:0:0:
347,122,89346,1,8,0:0:0:0:
347,122,89474,1,8,0:0:0:0:
347,122,89602,1,0,0:0:0:0:
261,52,89857,1,8,0:0:0:0:
261,52,89985,1,0,0:0:0:0:
261,52,90240,1,0,0:0:0:0:
274,62,90495,1,0,0:0:0:0:
275,62,90623,1,8,0:0:0:0:
190,178,91133,1,0,0:0:0:0:
190,178,91261,1,0,0:0:0:0:
190,178,91389,1,8,0:0:0:0:
190,178,91516,1,8,0:0:0:0:
190,178,91644,1,0,0:0:0:0:
190,178,91899,1,8,0:0:0:0:
190,178,92155,1,8,0:0:0:0:
268,286,92282,1,0,0:0:0:0:
190,178,92410,1,0,0:0:0:0:
335,93,92538,1,0,0:0:0:0:
335,93,92665,1,8,0:0:0:0:
335,93,92921,1,8,0:0:0:0:
335,93,93048,1,0,0:0:0:0:
449,174,93304,1,0,0:0:0:0:
449,174,93431,1,8,0:0:0:0:
449,174,93559,1,8,0:0:0:0:
152,119,93687,1,4,0:0:0:0:
152,119,93942,1,12,0:0:0:0:
157,119,94197,1,4,0:0:0:0:
269,76,94453,1,12,0:0:0:0:
269,76,94708,1,4,0:0:0:0:
172,219,95219,1,8,0:0:0:0:
172,219,95346,1,8,0:0:0:0:
181,213,95474,1,0,0:0:0:0:
181,213,95602,1,0,0:0:0:0:
389,105,95729,1,12,0:0:0:0:
389,105,95985,1,8,0:0:0:0:
293,112,96240,1,8,0:0:0:0:
304,115,96495,1,8,0:0:0:0:
243,220,96623,1,0,0:0:0:0:
306,115,96750,1,8,0:0:0:0:
309,65,97006,1,8,0:0:0:0:
311,70,97133,1,0,0:0:0:0:
386,191,97389,1,0,0:0:0:0:
408,82,97516,1,0,0:0:0:0:
408,82,97644,1,8,0:0:0:0:
422,84,97772,1,0,0:0:0:0:
401,59,98027,1,8,0:0:0:0:
401,59,98155,1,0,0:0:0:0:
401,61,98410,1,0,0:0:0:0:
401,61,98538,1,8,0:0:0:0:
401,61,98665,1,8,0:0:0:0:
401,59,98793,1,0,0:0:0:0:
307,79,99176,1,8,0:0:0:0:
212,184,99304,1,0,0:0:0:0:
212,184,99431,1,0,0:0:0:0:
212,184,99559,1,8,0:0:0:0:
212,184,99814,1,8,0:0:0:0:
212,184,99942,1,8,0:0:0:0:
216,192,100070,1,0,0:0:0:0:
216,192,100197,1,0,0:0:0:0:
216,192,100325,1,8,0:0:0:0:
216,192,100580,1,0,0:0:0:0:
216,192,100708,1,0,0:0:0:0:
349,73,100836,1,8,0:0:0:0:
202,87,101091,1,0,0:0:0:0:
334,41,101219,1,8,0:0:0:0:
278,57,101474,1,0,0:0:0:0:
250,149,102368,1,0,0:0:0:0:
250,149,102495,1,0,0:0:0:0:
341,50,102623,1,8,0:0:0:0:
341,50,102750,1,0,0:0:0:0:
381,70,102878,1,12,0:0:0:0:
435,282,103133,1,0,0:0:0:0:
435,282,103389,1,8,0:0:0:0:
435,282,103644,1,0,0:0:0:0:
435,282,103899,1,8,0:0:0:0:
255,169,104155,1,8,0:0:0:0:
255,169,104282,1,0,0:0:0:0:
211,169,104538,1,0,0:0:0:0:
211,169,104665,1,8,0:0:0:0:
211,169,104793,1,0,0:0:0:0:
320,77,104921,1,8,0:0:0:0:
345,63,105176,1,8,0:0:0:0:
345,63,105304,1,0,0:0:0:0:
345,63,105559,1,0,0:0:0:0:
349,67,105814,1,0,0:0:0:0:
198,49,105942,1,8,0:0:0:0:
202,255,106197,1,0,0:0:0:0:
251,177,106325,1,0,0:0:0:0:
374,286,106453,1,8,0:0:0:0:
454,203,106963,1,8,0:0:0:0:
103,147,107048,1,8,0:0:0:0:
107,144,107133,1,8,0:0:0:0:
257,224,107219,1,8,0:0:0:0:
107,37,107474,1,0,0:0:0:0:
182,106,107729,1,8,0:0:0:0:
341,86,107985,1,0,0:0:0:0:
185,215,108070,1,0,0:0:0:0:
185,215,108155,1,0,0:0:0:0:
193,213,108240,1,0,0:0:0:0:
193,212,108495,1,8,0:0:0:0:
298,182,109006,1,4,0:0:0:0:
298,182,109261,1,8,0:0:0:0:
301,174,109516,1,4,0:0:0:0:
305,170,109772,1,8,0:0:0:0:
237,170,110027,1,0,0:0:0:0:
237,170,110155,1,0,0:0:0:0:
237,170,110282,1,8,0:0:0:0:
237,170,110410,1,0,0:0:0:0:
298,277,110538,1,8,0:0:0:0:
260,188,110793,1,8,0:0:0:0:
298,277,110921,1,8,0:0:0:0:
298,277,111048,1,0,0:0:0:0:
435,282,111304,1,0,0:0:0:0:
435,282,111559,1,8,0:0:0:0:
435,282,111814,1,0,0:0:0:0:
435,282,112070,1,8,0:0:0:0:
255,169,112325,1,0,0:0:0:0:
255,169,112453,1,8,0:0:0:0:
211,169,112708,1,0,0:0:0:0:
211,169,112836,1,8,0:0:0:0:
211,169,112963,1,0,0:0:0:0:
320,77,113091,1,8,0:0:0:0:
345,63,113346,1,8,0:0:0:0:
345,63,113474,1,0,0:0:0:0:
345,63,113729,1,8,0:0:0:0:
349,67,113985,1,0,0:0:0:0:
313,208,114368,1,0,0:0:0:0:
313,208,114495,1,0,0:0:0:0:
487,103,114623,1,8,0:0:0:0:
398,212,115133,1,12,0:0:0:0:
324,72,115389,1,0,0:0:0:0:
324,72,115516,1,8,0:0:0:0:
341,179,115772,1,8,0:0:0:0:
192,128,116027,1,8,0:0:0:0:
460,139,116155,1,4,0:0:0:0:
460,139,116410,1,4,0:0:0:0:
44,131,116665,1,8,0:0:0:0:
62,127,116729,1,8,0:0:0:0:
62,127,116793,1,8,0:0:0:0:
68,122,116921,1,0,0:0:0:0:
98,119,117048,1,0,0:0:0:0:
98,119,117176,1,12,0:0:0:0:
484,30,117431,1,0,0:0:0:0:
484,30,117559,1,8,0:0:0:0:
484,30,117687,1,0,0:0:0:0:
484,30,117814,1,8,0:0:0:0:
484,30,117942,1,8,0:0:0:0:
484,30,118070,1,0,0:0:0:0:
484,30,118197,1,12,0:0:0:0:
468,138,118453,1,12,0:0:0:0:
232,123,119474,1,12,0:0:0:0:
243,295,119729,1,0,0:0:0:0:
106,95,119985,1,8,0:0:0:0:
106,95,120112,1,0,0:0:0:0:
111,93,120368,1,8,0:0:0:0:
127,156,120495,1,8,0:0:0:0:
158,197,120623,1,0,0:0:0:0:
198,210,120750,1,0,0:0:0:0:
336,193,120878,1,8,0:0:0:0:
336,193,121006,1,0,0:0:0:0:
261,104,121133,1,8,0:0:0:0:
316,263,121261,1,0,0:0:0:0:
245,208,121644,5,8,0:0:0:0:
220,135,121772,1,0,0:0:0:0:
309,113,122027,1,8,0:0:0:0:
277,223,122155,1,0,0:0:0:0:
277,223,122282,1,8,0:0:0:0:
103,127,122538,1,0,0:0:0:0:
105,131,122665,1,8,0:0:0:0:
105,131,122793,1,0,0:0:0:0:
105,131,122921,1,0,0:0:0:0:
105,131,123048,1,8,0:0:0:0:
107,131,123176,1,0,0:0:0:0:
169,138,123304,1,12,0:0:0:0:
351,297,123559,1,0,0:0:0:0:
333,284,123814,1,8,0:0:0:0:
306,234,123942,1,8,0:0:0:0:
294,234,124070,1,0,0:0:0:0:
273,108,124133,1,0,0:0:0:0:
222,266,124197,1,0,0:0:0:0:
294,234,124325,1,8,0:0:0:0:
240,256,124580,1,8,0:0:0:0:
250,264,124708,1,8,0:0:0:0:
249,261,124836,1,0,0:0:0:0:
249,261,124963,1,8,0:0:0:0:
249,261,125091,1,0,0:0:0:0:
150,291,125474,1,8,0:0:0:0:
300,70,125538,1,8,0:0:0:0:
233,246,125602,1,8,0:0:0:0:
258,169,125729,1,0,0:0:0:0:
392,189,125857,1,8,0:0:0:0:
392,189,125985,1,0,0:0:0:0:
392,189,126240,1,0,0:0:0:0:
169,147,126495,1,8,0:0:0:0:
169,147,126623,1,0,0:0:0:0:
169,147,126750,1,0,0:0:0:0:
169,147,126878,1,8,0:0:0:0:
169,147,127006,1,8,0:0:0:0:
302,172,127133,1,0,0:0:0:0:
169,147,127389,1,12,0:0:0:0:
320,249,127644,1,0,0:0:0:0:
395,172,127772,1,8,0:0:0:0:
395,172,127899,1,0,0:0:0:0:
395,172,128155,1,8,0:0:0:0:
273,134,128282,1,0,0:0:0:0:
270,250,128538,1,8,0:0:0:0:
171,141,128665,1,8,0:0:0:0:
270,250,128793,1,0,0:0:0:0:
270,250,128921,1,8,0:0:0:0:
309,105,129048,1,0,0:0:0:0:
297,112,129176,1,8,0:0:0:0:
295,118,129304,1,8,0:0:0:0:
107,71,129431,1,4,0:0:0:0:
145,72,129814,1,0,0:0:0:0:
145,72,129942,1,12,0:0:0:0:
200,195,130197,1,8,0:0:0:0:
252,190,130453,1,4,0:0:0:0:
346,144,130708,1,0,0:0:0:0:
346,144,130836,1,0,0:0:0:0:
252,190,130963,1,12,0:0:0:0:
202,154,131219,1,8,0:0:0:0:
252,190,131474,1,4,0:0:0:0:
256,224,131729,1,8,0:0:0:0:
256,224,131985,1,0,0:0:0:0:
373,295,132240,1,8,0:0:0:0:
373,295,132495,1,0,0:0:0:0:
418,112,132623,1,0,0:0:0:0:
182,143,132750,1,8,0:0:0:0:
192,310,133006,1,8,0:0:0:0:
237,93,133261,1,0,0:0:0:0:
345,142,133516,1,8,0:0:0:0:
345,142,133644,1,0,0:0:0:0:
345,142,133772,1,0,0:0:0:0:
233,62,134282,1,0,0:0:0:0:
387,137,134538,1,0,0:0:0:0:
387,137,134793,1,8,0:0:0:0:
218,311,135048,1,8,0:0:0:0:
355,190,135304,1,8,0:0:0:0:
365,298,135431,1,0,0:0:0:0:
352,196,135559,1,8,0:0:0:0:
242,149,135687,1,0,0:0:0:0:
242,149,135814,1,8,0:0:0:0:
204,46,136070,1,0,0:0:0:0:
365,139,136580,1,0,0:0:0:0:
184,177,137091,1,8,0:0:0:0:
224,85,137602,1,8,0:0:0:0:
250,173,138368,1,0,0:0:0:0:
250,173,138623,1,8,0:0:0:0:
250,173,138878,1,8,0:0:0:0:
250,173,139133,1,0,0:0:0:0:
255,165,139389,1,0,0:0:0:0:
255,165,139644,1,12,0:0:0:0:
259,267,139899,1,0,0:0:0:0:
171,295,140027,1,0,0:0:0:0:
371,253,140155,1,8,0:0:0:0:
435,202,140282,1,8,0:0:0:0:
170,84,140410,1,0,0:0:0:0:
285,105,140538,1,8,0:0:0:0:
247,37,140793,1,0,0:0:0:0:
126,245,140921,1,8,0:0:0:0:
254,36,141048,1,0,0:0:0:0:
257,35,141176,1,8,0:0:0:0:
257,35,141304,1,8,0:0:0:0:
257,35,141431,1,0,0:0:0:0:
259,34,141559,1,0,0:0:0:0:
259,34,141687,1,8,0:0:0:0:
259,34,141942,1,8,0:0:0:0:
260,31,142070,1,0,0:0:0:0:
360,180,142197,1,8,0:0:0:0:
297,41,142325,1,8,0:0:0:0:
175,70,142453,1,0,0:0:0:0:
175,70,142580,1,0,0:0:0:0:
175,70,142708,1,8,0:0:0:0:
270,243,142963,1,0,0:0:0:0:
162,139,143091,1,8,0:0:0:0:
162,139,143155,1,8,0:0:0:0:
121,238,143219,1,8,0:0:0:0:
238,140,143346,1,0,0:0:0:0:
55,203,143474,1,8,0:0:0:0:
377,194,143729,1,4,0:0:0:0:
333,87,144240,1,8,0:0:0:0:
295,294,144368,1,0,0:0:0:0:
439,302,144495,1,8,0:0:0:0:
295,294,144623,1,0,0:0:0:0:
198,265,144878,1,8,0:0:0:0:
241,230,145006,1,0,0:0:0:0:
241,230,145133,1,8,0:0:0:0:
191,68,145261,1,8,0:0:0:0:
241,230,145389,1,0,0:0:0:0:
241,230,145516,1,0,0:0:0:0:
370,238,145644,1,8,0:0:0:0:
158,74,145772,1,8,0:0:0:0:
255,91,145836,1,8,0:0:0:0:
181,176,145899,1,8,0:0:0:0:
352,198,146027,1,0,0:0:0:0:
352,198,146282,1,0,0:0:0:0:
352,198,146410,1,0,0:0:0:0:
352,198,146538,1,8,0:0:0:0:
241,245,146665,1,0,0:0:0:0:
241,245,146793,1,12,0:0:0:0:
241,245,147048,1,0,0:0:0:0:
241,245,147176,1,12,0:0:0:0:
262,240,147431,1,4,0:0:0:0:
256,192,147559,12,0,148836,0:0:0:0:
253,258,149346,5,0,0:0:0:0:
253,258,149474,1,0,0:0:0:0:
253,258,149602,1,8,0:0:0:0:
267,261,149729,1,0,0:0:0:0:
267,261,149857,1,12,0:0:0:0:
265,288,150112,1,8,0:0:0:0:
265,288,150368,1,0,0:0:0:0:
265,288,150623,1,0,0:0:0:0:
372,314,150878,1,8,0:0:0:0:
372,314,151133,1,8,0:0:0:0:
372,314,151261,1,8,0:0:0:0:
375,317,151516,1,8,0:0:0:0:
372,314,151644,1,0,0:0:0:0:
375,317,151772,1,0,0:0:0:0:
370,324,151899,1,8,0:0:0:0:
372,314,152155,1,8,0:0:0:0:
459,83,152282,1,0,0:0:0:0:
480,156,152538,1,8,0:0:0:0:
480,156,152793,1,0,0:0:0:0:
330,227,153176,1,8,0:0:0:0:
262,180,153431,1,0,0:0:0:0:
262,180,153559,1,8,0:0:0:0:
262,180,153687,1,0,0:0:0:0:
265,184,153942,1,8,0:0:0:0:
265,184,154070,1,8,0:0:0:0:
265,184,154197,1,0,0:0:0:0:
206,102,154325,1,0,0:0:0:0:
206,102,154453,1,8,0:0:0:0:
206,102,154580,1,8,0:0:0:0:
206,102,154708,1,0,0:0:0:0:
139,92,154836,1,0,0:0:0:0:
244,224,154963,1,8,0:0:0:0:
176,192,155219,1,0,0:0:0:0:
457,11,155346,1,8,0:0:0:0:
457,11,155602,1,0,0:0:0:0:
457,11,155729,1,0,0:0:0:0:
298,111,155857,1,8,0:0:0:0:
304,114,155985,1,4,0:0:0:0:
459,259,156240,1,12,0:0:0:0:
459,259,156495,1,4,0:0:0:0:
459,259,156750,1,12,0:0:0:0:
459,259,157006,1,4,0:0:0:0:
190,119,157516,1,8,0:0:0:0:
190,119,157644,1,8,0:0:0:0:
190,119,157772,1,0,0:0:0:0:
218,179,157899,1,8,0:0:0:0:
190,119,158027,1,8,0:0:0:0:
218,179,158282,1,0,0:0:0:0:
241,175,158538,1,0,0:0:0:0:
241,175,158665,1,8,0:0:0:0:
241,175,158793,1,8,0:0:0:0:
241,175,158921,1,0,0:0:0:0:
241,175,159048,1,8,0:0:0:0:
241,175,159431,1,8,0:0:0:0:
241,175,159559,1,0,0:0:0:0:
241,194,159814,1,8,0:0:0:0:
241,194,159942,1,0,0:0:0:0:
241,194,160070,1,8,0:0:0:0:
254,210,160325,1,8,0:0:0:0:
273,238,160453,1,0,0:0:0:0:
259,211,160580,1,0,0:0:0:0:
246,196,160836,1,0,0:0:0:0:
246,196,160963,1,0,0:0:0:0:
246,196,161091,1,8,0:0:0:0:
243,208,161219,1,8,0:0:0:0:
243,207,161346,1,0,0:0:0:0:
243,207,161474,1,8,0:0:0:0:
243,207,161602,1,0,0:0:0:0:
454,203,162112,1,8,0:0:0:0:
103,147,162197,1,8,0:0:0:0:
107,144,162282,1,8,0:0:0:0:
257,224,162368,1,8,0:0:0:0:
107,37,162623,1,0,0:0:0:0:
182,106,162878,1,8,0:0:0:0:
341,86,163133,1,0,0:0:0:0:
185,215,163219,1,0,0:0:0:0:
185,215,163304,1,0,0:0:0:0:
193,213,163389,1,0,0:0:0:0:
193,212,163644,1,8,0:0:0:0:
298,182,164155,1,4,0:0:0:0:
298,182,164410,1,8,0:0:0:0:
301,174,164665,1,0,0:0:0:0:
305,170,164921,1,8,0:0:0:0:
237,170,165176,1,0,0:0:0:0:
237,170,165304,1,0,0:0:0:0:
237,170,165431,1,8,0:0:0:0:
237,170,165559,1,0,0:0:0:0:
298,277,165687,1,8,0:0:0:0:
196,216,166197,1,8,0:0:0:0:
196,216,166261,1,8,0:0:0:0:
196,216,166325,1,8,0:0:0:0:
252,236,166453,1,0,0:0:0:0:
229,190,166580,1,8,0:0:0:0:
252,236,166708,1,8,0:0:0:0:
252,236,166963,1,0,0:0:0:0:
186,224,167091,1,0,0:0:0:0:
354,106,167219,1,12,0:0:0:0:
496,104,167474,1,0,0:0:0:0:
496,104,167602,1,8,0:0:0:0:
496,104,167729,1,0,0:0:0:0:
210,120,167985,1,0,0:0:0:0:
337,217,168240,1,8,0:0:0:0:
216,211,168495,1,8,0:0:0:0:
496,104,168750,1,8,0:0:0:0:
247,221,169006,1,0,0:0:0:0:
247,221,169133,1,8,0:0:0:0:
262,206,169261,1,4,0:0:0:0:
262,206,169516,1,4,0:0:0:0:
403,240,169772,1,0,0:0:0:0:
327,321,169942,1,0,0:0:0:0:
352,160,170027,1,0,0:0:0:0:
331,313,170112,1,0,0:0:0:0:
262,206,170282,1,12,0:0:0:0:
262,206,170538,1,12,0:0:0:0:
332,313,170793,1,8,0:0:0:0:
332,313,170963,1,8,0:0:0:0:
256,160,171048,1,8,0:0:0:0:
332,313,171133,1,8,0:0:0:0:
262,206,171304,1,4,0:0:0:0:
262,206,171559,1,4,0:0:0:0:
323,95,171814,1,0,0:0:0:0:
323,95,171985,1,0,0:0:0:0:
256,160,172070,1,0,0:0:0:0:
323,95,172155,1,0,0:0:0:0:
262,206,172325,1,12,0:0:0:0:
449,155,172580,1,12,0:0:0:0:
256,192,172708,12,8,173602,0:0:0:0:
