osu file format v14

[General]
AudioFilename: mv_audio.mp3
AudioLeadIn: 0
PreviewTime: 87048
Countdown: 0
SampleSet: Normal
StackLeniency: 0.7
Mode: 1
LetterboxInBreaks: 0
WidescreenStoryboard: 1

[Editor]
Bookmarks: 6313,56866
DistanceSpacing: 2.3
BeatDivisor: 2
GridSize: 32
TimelineZoom: 0.9999999

[Metadata]
Title:Shuuten no Saki ga Aru to Suru Naraba.
TitleUnicode:終点の先が在るとするならば。
Artist:TUYU
ArtistUnicode:ツユ
Creator:arcpotato
Version:Kantan.
Source:
Tags:japanese rock jrock j-rock anata o fuko ni sasoimasu ne 貴方を不幸に誘いますね rei pusu れい ぷす anoyo iki no bus ni notte saraba あの世行きのバスに乗ってさらば if there was an endpoint I'll put you in misery omutatsu おむたつ pop jpop j-pop miro ミロ female vocal
BeatmapID:3125949
BeatmapSetID:1523082

[Difficulty]
HPDrainRate:8
CircleSize:5
OverallDifficulty:3
ApproachRate:5
SliderMultiplier:1.4
SliderTickRate:1

[Events]
//Background and Video events
0,0,"busbg3.png",0,0
//Break Periods
//Storyboard Layer 0 (Background)
//Storyboard Layer 1 (Fail)
//Storyboard Layer 2 (Pass)
//Storyboard Layer 3 (Foreground)
//Storyboard Layer 4 (Overlay)
//Storyboard Sound Samples

[TimingPoints]
751,255.31914893617,4,1,0,50,1,0
751,-117.647058823529,4,1,0,50,0,0
7899,-111.111111111111,4,1,0,90,0,1
20155,-111.111111111111,4,1,0,90,0,0
28325,-111.111111111111,4,1,0,90,0,1
32027,-111.111111111111,4,1,0,5,0,0
33304,-111.111111111111,4,1,0,90,0,0
34325,-111.111111111111,4,1,0,100,0,0
34963,-111.111111111111,4,1,0,90,0,0
36368,-111.111111111111,4,1,0,100,0,0
37006,-117.647058823529,4,1,0,70,0,0
52325,-111.111111111111,4,1,0,100,0,0
53091,-111.111111111111,4,1,0,90,0,0
59985,-111.111111111111,4,1,0,100,0,0
62027,-111.111111111111,4,1,0,90,0,1
74282,-111.111111111111,4,1,0,90,0,0
82453,-111.111111111111,4,1,0,90,0,1
86155,-111.111111111111,4,1,0,5,0,0
86985,-111.111111111111,4,1,0,90,0,0
101857,-111.111111111111,4,1,0,70,0,0
106963,-111.111111111111,4,1,0,90,0,1
111048,-111.111111111111,4,1,0,70,0,0
119474,-111.111111111111,4,1,0,90,0,1
131474,-111.111111111111,4,1,0,90,0,0
139644,-111.111111111111,4,1,0,90,0,1
147431,-111.111111111111,4,1,0,90,0,0
147559,-111.111111111111,4,1,0,70,0,0
149346,-111.111111111111,4,1,0,90,0,0
171304,-111.111111111111,4,1,0,95,0,0
172325,-111.111111111111,4,1,0,100,0,0

[HitObjects]
302,97,1261,5,0,0:0:0:0:
302,97,1772,1,8,0:0:0:0:
302,97,2282,1,8,0:0:0:0:
358,102,2793,1,0,0:0:0:0:
358,102,3814,1,0,0:0:0:0:
358,102,4836,1,8,0:0:0:0:
358,102,5857,1,8,0:0:0:0:
350,196,7899,1,4,0:0:0:0:
256,192,8410,1,0,0:0:0:0:
288,192,8921,1,8,0:0:0:0:
256,192,9176,1,8,0:0:0:0:
399,209,9431,1,0,0:0:0:0:
352,192,9687,1,0,0:0:0:0:
399,209,9942,1,8,0:0:0:0:
198,109,10453,1,0,0:0:0:0:
409,59,10963,1,8,0:0:0:0:
256,160,11219,1,0,0:0:0:0:
224,160,11474,1,8,0:0:0:0:
342,221,11985,1,4,0:0:0:0:
332,181,13006,1,0,0:0:0:0:
332,181,13516,1,0,0:0:0:0:
332,181,14027,1,8,0:0:0:0:
288,192,14282,1,8,0:0:0:0:
288,192,14538,1,0,0:0:0:0:
312,123,15048,1,8,0:0:0:0:
238,210,15559,1,0,0:0:0:0:
220,99,16070,1,12,0:0:0:0:
220,99,17091,1,0,0:0:0:0:
256,192,17602,1,8,0:0:0:0:
256,192,17857,1,8,0:0:0:0:
220,99,18112,1,4,0:0:0:0:
241,164,18623,1,12,0:0:0:0:
241,164,19133,1,4,0:0:0:0:
241,164,19644,1,12,0:0:0:0:
241,164,20155,1,4,0:0:0:0:
335,187,21176,1,8,0:0:0:0:
255,185,21687,1,0,0:0:0:0:
255,185,22197,1,8,0:0:0:0:
256,192,22963,1,0,0:0:0:0:
307,216,23219,1,8,0:0:0:0:
288,192,23474,1,0,0:0:0:0:
256,192,23729,1,8,0:0:0:0:
247,225,24240,1,4,0:0:0:0:
247,223,25261,1,8,0:0:0:0:
289,298,25772,1,0,0:0:0:0:
247,223,26282,1,8,0:0:0:0:
256,224,27048,1,8,0:0:0:0:
427,244,27304,1,0,0:0:0:0:
288,224,27814,1,0,0:0:0:0:
375,226,28325,1,12,0:0:0:0:
437,166,29346,1,8,0:0:0:0:
256,192,29857,1,8,0:0:0:0:
256,192,30112,1,0,0:0:0:0:
437,166,30368,1,8,0:0:0:0:
256,192,30623,1,0,0:0:0:0:
256,192,30878,1,0,0:0:0:0:
437,166,31389,1,12,0:0:0:0:
308,200,33431,1,8,0:0:0:0:
227,171,33942,1,0,0:0:0:0:
308,200,34453,1,12,0:0:0:0:
268,214,35474,1,0,0:0:0:0:
268,214,35985,1,8,0:0:0:0:
284,207,36495,1,4,0:0:0:0:
253,146,37516,5,0,0:0:0:0:
253,146,38538,1,8,0:0:0:0:
256,160,39304,1,0,0:0:0:0:
256,160,39559,1,8,0:0:0:0:
256,192,40836,1,0,0:0:0:0:
256,192,41091,1,8,0:0:0:0:
253,146,41602,1,8,0:0:0:0:
253,146,42623,1,8,0:0:0:0:
280,143,43133,1,8,0:0:0:0:
253,146,43644,1,0,0:0:0:0:
265,230,44410,1,8,0:0:0:0:
288,151,44665,1,0,0:0:0:0:
243,132,45687,1,0,0:0:0:0:
256,256,46963,1,0,0:0:0:0:
230,251,47219,1,8,0:0:0:0:
251,100,47729,1,0,0:0:0:0:
256,107,48240,1,8,0:0:0:0:
259,110,48750,1,8,0:0:0:0:
269,116,49261,1,0,0:0:0:0:
256,192,50027,1,0,0:0:0:0:
348,161,50538,1,8,0:0:0:0:
288,192,51048,1,0,0:0:0:0:
288,192,51304,1,8,0:0:0:0:
160,145,51814,1,0,0:0:0:0:
184,225,52325,1,12,0:0:0:0:
253,217,52836,1,12,0:0:0:0:
328,132,53857,1,4,0:0:0:0:
318,98,54368,1,8,0:0:0:0:
224,160,54878,1,0,0:0:0:0:
265,194,55899,1,8,0:0:0:0:
290,237,56410,1,0,0:0:0:0:
288,192,56921,1,8,0:0:0:0:
256,192,57176,1,8,0:0:0:0:
288,192,57431,1,8,0:0:0:0:
350,197,57942,1,0,0:0:0:0:
172,161,58453,1,0,0:0:0:0:
350,197,58963,1,8,0:0:0:0:
172,161,59474,1,0,0:0:0:0:
350,197,59985,1,12,0:0:0:0:
350,197,60495,1,12,0:0:0:0:
264,168,62027,1,4,0:0:0:0:
256,192,62538,1,0,0:0:0:0:
264,168,63048,1,8,0:0:0:0:
256,160,63304,1,8,0:0:0:0:
243,293,63559,1,0,0:0:0:0:
257,179,63814,1,0,0:0:0:0:
250,291,64070,1,8,0:0:0:0:
254,291,64580,1,0,0:0:0:0:
250,291,65091,1,8,0:0:0:0:
224,192,65346,1,0,0:0:0:0:
245,189,65602,1,8,0:0:0:0:
223,305,66112,1,12,0:0:0:0:
223,305,67133,1,0,0:0:0:0:
160,170,67644,1,0,0:0:0:0:
161,191,68155,1,8,0:0:0:0:
288,192,68410,1,8,0:0:0:0:
288,192,68665,1,0,0:0:0:0:
161,191,69176,1,0,0:0:0:0:
160,170,69687,1,8,0:0:0:0:
176,246,70197,1,12,0:0:0:0:
158,202,71219,1,0,0:0:0:0:
256,192,71729,1,8,0:0:0:0:
256,192,71985,1,8,0:0:0:0:
158,202,72240,1,4,0:0:0:0:
328,165,72750,1,12,0:0:0:0:
328,165,73261,1,4,0:0:0:0:
328,165,73772,1,12,0:0:0:0:
158,202,74282,1,4,0:0:0:0:
256,192,75304,1,8,0:0:0:0:
241,261,75814,1,0,0:0:0:0:
241,261,76325,1,8,0:0:0:0:
128,156,77091,1,0,0:0:0:0:
256,192,77346,1,8,0:0:0:0:
224,192,77602,1,0,0:0:0:0:
256,192,77857,1,8,0:0:0:0:
238,100,78368,1,4,0:0:0:0:
341,213,79389,1,8,0:0:0:0:
322,208,79899,1,8,0:0:0:0:
322,208,80410,1,0,0:0:0:0:
224,192,81176,1,8,0:0:0:0:
332,212,81431,1,0,0:0:0:0:
224,192,81942,1,0,0:0:0:0:
332,212,82453,1,12,0:0:0:0:
252,173,83474,1,0,0:0:0:0:
256,160,83985,1,8,0:0:0:0:
256,160,84240,1,0,0:0:0:0:
258,180,84495,1,8,0:0:0:0:
256,160,84750,1,0,0:0:0:0:
224,160,85006,1,0,0:0:0:0:
258,180,85516,1,12,0:0:0:0:
292,97,87559,1,4,0:0:0:0:
282,167,88070,1,8,0:0:0:0:
209,85,88580,1,0,0:0:0:0:
256,192,88836,1,8,0:0:0:0:
256,192,89346,1,8,0:0:0:0:
256,192,89602,1,0,0:0:0:0:
256,192,89857,1,8,0:0:0:0:
256,192,90368,1,0,0:0:0:0:
392,136,90623,1,8,0:0:0:0:
232,189,91644,1,8,0:0:0:0:
400,250,92155,1,0,0:0:0:0:
244,191,92665,1,0,0:0:0:0:
400,250,92921,1,8,0:0:0:0:
260,196,93431,1,8,0:0:0:0:
87,165,93687,1,0,0:0:0:0:
281,195,94197,1,8,0:0:0:0:
268,202,94708,1,0,0:0:0:0:
333,185,95729,1,4,0:0:0:0:
359,120,96240,1,8,0:0:0:0:
354,177,96750,1,8,0:0:0:0:
384,116,97006,1,8,0:0:0:0:
386,118,97516,1,0,0:0:0:0:
354,177,97772,1,8,0:0:0:0:
354,177,98027,1,0,0:0:0:0:
320,192,98538,1,8,0:0:0:0:
354,177,98793,1,0,0:0:0:0:
354,177,99814,1,12,0:0:0:0:
354,177,100836,1,4,0:0:0:0:
412,247,102878,5,0,0:0:0:0:
417,250,103389,1,0,0:0:0:0:
417,250,103899,1,8,0:0:0:0:
417,250,104410,1,0,0:0:0:0:
415,161,104921,1,0,0:0:0:0:
437,252,105431,1,0,0:0:0:0:
443,250,105942,1,8,0:0:0:0:
212,221,106963,1,4,0:0:0:0:
228,86,107474,1,8,0:0:0:0:
228,86,107729,1,8,0:0:0:0:
228,86,107985,1,0,0:0:0:0:
245,158,108495,1,8,0:0:0:0:
431,116,109006,1,4,0:0:0:0:
473,127,109516,1,12,0:0:0:0:
473,127,110027,1,4,0:0:0:0:
292,159,111048,1,0,0:0:0:0:
294,171,111559,1,0,0:0:0:0:
250,61,112070,1,8,0:0:0:0:
273,65,112580,1,0,0:0:0:0:
152,131,113091,1,0,0:0:0:0:
182,130,113602,1,8,0:0:0:0:
208,122,114112,1,8,0:0:0:0:
360,131,115133,1,12,0:0:0:0:
271,201,115644,1,8,0:0:0:0:
360,131,116155,1,4,0:0:0:0:
211,99,117176,1,12,0:0:0:0:
271,201,117687,1,0,0:0:0:0:
215,100,118197,1,12,0:0:0:0:
367,216,119474,1,12,0:0:0:0:
264,168,120240,1,0,0:0:0:0:
256,160,120495,1,0,0:0:0:0:
243,293,120750,1,8,0:0:0:0:
256,160,121006,1,0,0:0:0:0:
250,291,121261,1,8,0:0:0:0:
250,291,121772,1,0,0:0:0:0:
254,291,122282,1,8,0:0:0:0:
256,160,122538,1,8,0:0:0:0:
256,192,122793,1,0,0:0:0:0:
223,305,123304,1,12,0:0:0:0:
223,305,124325,1,8,0:0:0:0:
160,170,124836,1,0,0:0:0:0:
161,191,125346,1,8,0:0:0:0:
256,192,125602,1,8,0:0:0:0:
249,189,125857,1,0,0:0:0:0:
161,191,126368,1,0,0:0:0:0:
160,170,126878,1,8,0:0:0:0:
176,246,127389,1,12,0:0:0:0:
158,202,128410,1,0,0:0:0:0:
256,192,128921,1,8,0:0:0:0:
256,192,129176,1,8,0:0:0:0:
158,202,129431,1,4,0:0:0:0:
328,165,129942,1,12,0:0:0:0:
328,165,130453,1,4,0:0:0:0:
328,165,130963,1,12,0:0:0:0:
158,202,131474,1,4,0:0:0:0:
256,192,132495,1,8,0:0:0:0:
241,261,133006,1,0,0:0:0:0:
241,261,133516,1,8,0:0:0:0:
128,156,134282,1,0,0:0:0:0:
256,192,134538,1,8,0:0:0:0:
224,192,134793,1,0,0:0:0:0:
256,192,135048,1,8,0:0:0:0:
238,100,135559,1,4,0:0:0:0:
341,213,136580,1,0,0:0:0:0:
322,208,137091,1,8,0:0:0:0:
322,208,137602,1,8,0:0:0:0:
224,192,138368,1,8,0:0:0:0:
332,212,138623,1,0,0:0:0:0:
224,192,139133,1,8,0:0:0:0:
332,212,139644,1,12,0:0:0:0:
252,173,140665,1,0,0:0:0:0:
256,192,141176,1,0,0:0:0:0:
256,192,141431,1,8,0:0:0:0:
258,180,141687,1,8,0:0:0:0:
256,192,142197,1,0,0:0:0:0:
258,180,142708,1,8,0:0:0:0:
204,108,142963,1,0,0:0:0:0:
208,127,143219,1,8,0:0:0:0:
477,203,143729,1,4,0:0:0:0:
444,174,144750,1,8,0:0:0:0:
256,192,145261,1,0,0:0:0:0:
224,192,145516,1,8,0:0:0:0:
444,174,145772,1,8,0:0:0:0:
256,192,146027,1,0,0:0:0:0:
256,192,146282,1,8,0:0:0:0:
196,137,146793,1,12,0:0:0:0:
256,192,147559,12,0,148836,0:0:0:0:
292,97,149857,5,12,0:0:0:0:
282,167,150368,1,0,0:0:0:0:
209,85,150878,1,8,0:0:0:0:
209,85,151133,1,8,0:0:0:0:
209,85,151644,1,0,0:0:0:0:
383,144,151899,1,8,0:0:0:0:
392,136,152155,1,0,0:0:0:0:
392,136,152665,1,8,0:0:0:0:
288,160,152921,1,0,0:0:0:0:
232,189,153942,1,0,0:0:0:0:
400,250,154453,1,8,0:0:0:0:
400,250,154963,1,0,0:0:0:0:
244,191,155219,1,8,0:0:0:0:
260,196,155729,1,8,0:0:0:0:
166,174,155985,1,0,0:0:0:0:
281,195,156495,1,8,0:0:0:0:
268,202,157006,1,0,0:0:0:0:
305,259,158027,1,4,0:0:0:0:
256,192,158538,1,0,0:0:0:0:
329,285,159048,1,8,0:0:0:0:
288,192,159304,1,8,0:0:0:0:
344,310,159559,1,0,0:0:0:0:
350,308,160070,1,8,0:0:0:0:
256,192,160836,1,0,0:0:0:0:
284,259,161091,1,8,0:0:0:0:
318,98,161602,1,8,0:0:0:0:
212,221,162112,1,0,0:0:0:0:
228,86,162623,1,8,0:0:0:0:
228,86,162878,1,8,0:0:0:0:
228,86,163133,1,0,0:0:0:0:
245,158,163644,1,8,0:0:0:0:
431,116,164155,1,0,0:0:0:0:
473,127,164665,1,8,0:0:0:0:
473,127,165176,1,0,0:0:0:0:
246,145,166197,1,4,0:0:0:0:
397,145,166708,1,0,0:0:0:0:
106,237,167219,1,8,0:0:0:0:
359,210,167474,1,0,0:0:0:0:
397,168,167729,1,0,0:0:0:0:
212,190,168240,1,8,0:0:0:0:
202,209,168750,1,8,0:0:0:0:
237,58,169261,1,4,0:0:0:0:
242,61,170282,1,12,0:0:0:0:
263,66,171304,1,4,0:0:0:0:
304,78,172325,1,12,0:0:0:0:
256,192,172580,12,0,173602,0:0:0:0:
