osu file format v14

[General]
AudioFilename: mv_audio.mp3
AudioLeadIn: 0
PreviewTime: 87048
Countdown: 0
SampleSet: Normal
StackLeniency: 0.7
Mode: 1
LetterboxInBreaks: 0
WidescreenStoryboard: 1

[Editor]
Bookmarks: 6313,24440,37206,56866,78568,148781
DistanceSpacing: 1.9
BeatDivisor: 2
GridSize: 32
TimelineZoom: 2.2

[Metadata]
Title:Shuuten no Saki ga Aru to Suru Naraba.
TitleUnicode:終点の先が在るとするならば。
Artist:TUYU
ArtistUnicode:ツユ
Creator:arcpotato
Version:Futsuu.
Source:
Tags:japanese rock jrock j-rock anata o fuko ni sasoimasu ne 貴方を不幸に誘いますね rei pusu れい ぷす anoyo iki no bus ni notte saraba あの世行きのバスに乗ってさらば if there was an endpoint I'll put you in misery omutatsu おむたつ pop jpop j-pop miro ミロ female vocal
BeatmapID:3125948
BeatmapSetID:1523082

[Difficulty]
HPDrainRate:7
CircleSize:5
OverallDifficulty:4
ApproachRate:5
SliderMultiplier:1.4
SliderTickRate:1

[Events]
//Background and Video events
0,0,"sh.jpg",0,0
//Break Periods
//Storyboard Layer 0 (Background)
//Storyboard Layer 1 (Fail)
//Storyboard Layer 2 (Pass)
//Storyboard Layer 3 (Foreground)
//Storyboard Layer 4 (Overlay)
//Storyboard Sound Samples

[TimingPoints]
751,255.31914893617,4,1,0,50,1,0
751,-125,4,1,0,50,0,0
7899,-100,4,1,0,90,0,1
20155,-100,4,1,0,90,0,0
28325,-100,4,1,0,90,0,1
32027,-100,4,1,0,90,0,0
32155,-100,4,1,0,5,0,0
33304,-100,4,1,0,90,0,0
34453,-100,4,1,0,100,0,0
34836,-100,4,1,0,90,0,0
36495,-100,4,1,0,100,0,0
36878,-111.111111111111,4,1,0,70,0,0
52325,-100,4,1,0,100,0,0
53091,-100,4,1,0,90,0,0
59729,-100,4,1,0,95,0,0
59985,-100,4,1,0,100,0,0
62027,-100,4,1,0,90,0,1
74282,-100,4,1,0,90,0,0
82453,-100,4,1,0,90,0,1
86155,-100,4,1,0,90,0,0
86282,-100,4,1,0,5,0,0
86985,-100,4,1,0,90,0,0
101857,-111.111111111111,4,1,0,70,0,0
106963,-100,4,1,0,90,0,1
110538,-100,4,1,0,70,0,1
111048,-111.111111111111,4,1,0,70,0,0
115133,-100,4,1,0,90,0,0
116155,-100,4,1,0,100,0,0
119219,-100,4,1,0,90,0,0
119474,-100,4,1,0,90,0,1
131474,-100,4,1,0,90,0,0
139644,-100,4,1,0,90,0,1
147431,-100,4,1,0,90,0,0
147559,-100,4,1,0,70,0,0
149219,-100,4,1,0,90,0,0
170282,-95.2380952380952,4,1,0,95,0,0
171304,-90.9090909090909,4,1,0,97,0,0
172325,-86.9565217391304,4,1,0,100,0,0
173346,-83.3333333333333,4,1,0,100,0,0

[HitObjects]
462,228,1261,5,0,0:0:0:0:
462,228,1772,1,0,0:0:0:0:
462,228,2027,1,0,0:0:0:0:
462,228,2282,1,8,0:0:0:0:
462,228,2793,1,0,0:0:0:0:
158,63,3304,1,8,0:0:0:0:
365,186,3814,1,0,0:0:0:0:
410,173,4325,1,8,0:0:0:0:
410,173,4836,1,0,0:0:0:0:
410,173,5346,1,8,0:0:0:0:
160,133,5857,1,0,0:0:0:0:
307,196,6368,1,8,0:0:0:0:
431,163,7899,1,4,0:0:0:0:
194,299,8155,1,8,0:0:0:0:
110,228,8410,1,0,0:0:0:0:
296,266,8665,1,0,0:0:0:0:
296,266,8793,1,8,0:0:0:0:
199,225,9048,1,8,0:0:0:0:
199,225,9176,1,0,0:0:0:0:
208,219,9431,1,0,0:0:0:0:
209,219,9687,1,0,0:0:0:0:
209,219,9942,1,8,0:0:0:0:
263,309,10453,1,0,0:0:0:0:
263,309,10963,1,8,0:0:0:0:
140,246,11219,1,8,0:0:0:0:
140,246,11346,1,0,0:0:0:0:
202,324,11602,1,0,0:0:0:0:
202,324,11729,1,8,0:0:0:0:
256,224,11985,1,4,0:0:0:0:
94,185,12240,1,8,0:0:0:0:
94,185,12495,1,0,0:0:0:0:
94,185,12750,1,8,0:0:0:0:
396,180,13006,1,0,0:0:0:0:
396,180,13261,1,0,0:0:0:0:
372,254,13516,1,8,0:0:0:0:
147,286,13772,1,8,0:0:0:0:
158,112,14282,1,8,0:0:0:0:
109,163,14538,1,0,0:0:0:0:
109,163,15048,1,8,0:0:0:0:
149,234,15304,1,8,0:0:0:0:
117,160,15559,1,0,0:0:0:0:
245,292,15814,1,0,0:0:0:0:
114,166,16070,1,12,0:0:0:0:
117,204,16580,1,8,0:0:0:0:
385,239,16836,1,0,0:0:0:0:
107,187,16963,1,8,0:0:0:0:
205,285,17346,1,8,0:0:0:0:
261,358,17602,1,0,0:0:0:0:
83,275,17729,1,0,0:0:0:0:
356,319,17857,1,8,0:0:0:0:
83,275,18112,1,4,0:0:0:0:
377,184,18623,1,12,0:0:0:0:
256,160,19133,1,4,0:0:0:0:
256,160,19644,1,12,0:0:0:0:
256,160,20155,1,4,0:0:0:0:
288,192,20665,1,0,0:0:0:0:
411,266,21176,1,0,0:0:0:0:
389,244,21431,1,8,0:0:0:0:
389,244,21687,1,8,0:0:0:0:
389,244,21942,1,0,0:0:0:0:
279,214,22197,1,8,0:0:0:0:
273,212,22325,1,0,0:0:0:0:
272,210,22453,1,0,0:0:0:0:
118,267,22963,1,8,0:0:0:0:
192,205,23219,1,0,0:0:0:0:
145,281,23474,1,8,0:0:0:0:
192,205,23729,1,0,0:0:0:0:
149,286,23985,1,8,0:0:0:0:
155,300,24240,1,8,0:0:0:0:
321,235,24368,1,0,0:0:0:0:
149,286,24495,1,8,0:0:0:0:
330,144,24750,1,0,0:0:0:0:
458,248,25261,1,8,0:0:0:0:
458,248,25772,1,0,0:0:0:0:
279,117,26282,1,8,0:0:0:0:
178,300,27048,1,0,0:0:0:0:
295,225,27304,1,8,0:0:0:0:
152,320,27559,1,8,0:0:0:0:
295,225,27814,1,0,0:0:0:0:
152,320,28070,1,0,0:0:0:0:
259,194,28325,1,12,0:0:0:0:
78,251,28836,1,8,0:0:0:0:
376,293,29346,1,0,0:0:0:0:
102,244,29602,1,0,0:0:0:0:
102,244,29857,1,8,0:0:0:0:
102,244,30112,1,8,0:0:0:0:
122,253,30368,1,0,0:0:0:0:
122,253,30623,1,8,0:0:0:0:
122,253,30878,1,8,0:0:0:0:
316,195,31389,1,12,0:0:0:0:
409,113,31772,1,12,0:0:0:0:
316,195,32027,1,4,0:0:0:0:
211,55,33431,1,8,0:0:0:0:
213,152,33559,1,0,0:0:0:0:
380,106,33814,1,8,0:0:0:0:
493,101,34070,1,0,0:0:0:0:
230,176,34453,1,12,0:0:0:0:
230,176,34708,1,12,0:0:0:0:
366,228,35219,1,0,0:0:0:0:
245,201,35474,1,8,0:0:0:0:
108,116,35602,1,0,0:0:0:0:
245,201,35729,1,8,0:0:0:0:
245,201,35857,1,0,0:0:0:0:
238,198,36112,1,0,0:0:0:0:
238,198,36240,1,8,0:0:0:0:
245,201,36495,1,4,0:0:0:0:
245,201,36750,1,4,0:0:0:0:
253,146,37516,5,0,0:0:0:0:
253,146,38538,1,8,0:0:0:0:
256,160,39304,1,0,0:0:0:0:
256,160,39559,1,8,0:0:0:0:
256,192,40836,1,0,0:0:0:0:
256,192,41091,1,8,0:0:0:0:
256,192,41346,1,0,0:0:0:0:
253,146,41602,1,8,0:0:0:0:
253,146,42623,1,8,0:0:0:0:
280,143,43133,1,8,0:0:0:0:
253,146,43644,1,0,0:0:0:0:
265,230,44410,1,8,0:0:0:0:
288,151,44665,1,0,0:0:0:0:
243,132,45687,1,0,0:0:0:0:
256,192,46963,1,0,0:0:0:0:
230,251,47219,1,8,0:0:0:0:
256,192,47474,1,8,0:0:0:0:
251,100,47729,1,0,0:0:0:0:
256,107,48240,1,8,0:0:0:0:
259,110,48750,1,8,0:0:0:0:
269,116,49261,1,0,0:0:0:0:
256,192,50027,1,0,0:0:0:0:
256,192,50282,1,8,0:0:0:0:
348,161,50538,1,8,0:0:0:0:
256,192,51048,1,0,0:0:0:0:
256,192,51304,1,8,0:0:0:0:
256,192,51559,1,8,0:0:0:0:
160,145,51814,1,0,0:0:0:0:
184,225,52325,1,12,0:0:0:0:
157,64,52836,1,12,0:0:0:0:
252,115,53091,1,0,0:0:0:0:
252,115,53346,1,8,0:0:0:0:
200,191,53602,1,8,0:0:0:0:
176,31,53857,1,4,0:0:0:0:
276,187,54368,1,8,0:0:0:0:
276,187,54623,1,0,0:0:0:0:
363,103,55133,1,8,0:0:0:0:
80,142,55389,1,8,0:0:0:0:
256,192,55644,1,0,0:0:0:0:
276,187,55899,1,8,0:0:0:0:
126,183,56155,1,0,0:0:0:0:
280,180,56282,1,0,0:0:0:0:
126,183,56410,1,8,0:0:0:0:
135,188,56665,1,8,0:0:0:0:
322,201,57176,1,8,0:0:0:0:
234,107,57431,1,8,0:0:0:0:
298,205,57687,1,0,0:0:0:0:
343,194,57814,1,8,0:0:0:0:
135,278,58070,1,8,0:0:0:0:
105,268,58197,1,0,0:0:0:0:
346,200,58453,1,8,0:0:0:0:
346,200,58708,1,0,0:0:0:0:
346,200,58963,1,8,0:0:0:0:
260,263,59091,1,0,0:0:0:0:
260,263,59219,1,8,0:0:0:0:
477,132,59346,1,8,0:0:0:0:
260,263,59474,1,0,0:0:0:0:
351,98,59729,1,0,0:0:0:0:
351,98,59985,1,12,0:0:0:0:
345,255,60240,1,12,0:0:0:0:
223,243,60495,1,4,0:0:0:0:
164,107,60750,1,12,0:0:0:0:
431,163,62027,1,4,0:0:0:0:
194,299,62282,1,8,0:0:0:0:
110,228,62538,1,0,0:0:0:0:
296,266,62793,1,0,0:0:0:0:
296,266,62921,1,8,0:0:0:0:
199,225,63176,1,8,0:0:0:0:
199,225,63304,1,0,0:0:0:0:
208,219,63559,1,8,0:0:0:0:
209,219,63814,1,0,0:0:0:0:
209,219,64070,1,8,0:0:0:0:
263,309,64580,1,0,0:0:0:0:
263,309,65091,1,8,0:0:0:0:
140,246,65346,1,8,0:0:0:0:
140,246,65474,1,0,0:0:0:0:
202,324,65729,1,0,0:0:0:0:
202,324,65857,1,8,0:0:0:0:
256,192,66112,1,12,0:0:0:0:
94,185,66368,1,0,0:0:0:0:
94,185,66623,1,8,0:0:0:0:
94,185,66878,1,0,0:0:0:0:
396,180,67133,1,8,0:0:0:0:
396,180,67389,1,8,0:0:0:0:
372,254,67644,1,0,0:0:0:0:
147,286,67899,1,0,0:0:0:0:
158,112,68410,1,8,0:0:0:0:
109,163,68665,1,0,0:0:0:0:
109,163,69176,1,0,0:0:0:0:
149,234,69431,1,8,0:0:0:0:
117,160,69687,1,8,0:0:0:0:
245,292,69942,1,0,0:0:0:0:
114,166,70197,1,12,0:0:0:0:
117,204,70708,1,8,0:0:0:0:
385,239,70963,1,0,0:0:0:0:
107,187,71091,1,8,0:0:0:0:
205,285,71474,1,8,0:0:0:0:
261,358,71729,1,0,0:0:0:0:
83,275,71857,1,0,0:0:0:0:
356,319,71985,1,8,0:0:0:0:
83,275,72240,1,4,0:0:0:0:
377,184,72750,1,12,0:0:0:0:
422,289,73261,1,4,0:0:0:0:
256,224,73772,1,12,0:0:0:0:
256,224,74282,1,4,0:0:0:0:
256,224,74793,1,0,0:0:0:0:
411,266,75304,1,8,0:0:0:0:
389,244,75559,1,8,0:0:0:0:
389,244,75814,1,0,0:0:0:0:
389,244,76070,1,0,0:0:0:0:
279,214,76325,1,8,0:0:0:0:
273,212,76453,1,0,0:0:0:0:
272,210,76580,1,0,0:0:0:0:
118,267,77091,1,0,0:0:0:0:
192,205,77346,1,8,0:0:0:0:
145,281,77602,1,0,0:0:0:0:
192,205,77857,1,8,0:0:0:0:
149,286,78112,1,8,0:0:0:0:
321,235,78368,1,0,0:0:0:0:
155,300,78495,1,8,0:0:0:0:
149,286,78623,1,8,0:0:0:0:
330,144,78878,1,0,0:0:0:0:
458,248,79389,1,8,0:0:0:0:
458,248,79899,1,0,0:0:0:0:
279,117,80410,1,8,0:0:0:0:
178,300,81176,1,0,0:0:0:0:
295,225,81431,1,8,0:0:0:0:
152,320,81687,1,8,0:0:0:0:
295,225,81942,1,0,0:0:0:0:
152,320,82197,1,0,0:0:0:0:
259,194,82453,1,12,0:0:0:0:
78,251,82963,1,8,0:0:0:0:
376,293,83474,1,0,0:0:0:0:
102,244,83729,1,0,0:0:0:0:
102,244,83985,1,8,0:0:0:0:
102,244,84240,1,0,0:0:0:0:
122,253,84495,1,8,0:0:0:0:
122,253,84750,1,0,0:0:0:0:
122,253,85006,1,0,0:0:0:0:
316,195,85516,1,12,0:0:0:0:
409,113,85899,1,12,0:0:0:0:
316,195,86155,1,4,0:0:0:0:
357,111,87048,1,0,0:0:0:0:
360,161,87176,1,0,0:0:0:0:
360,161,87304,1,8,0:0:0:0:
330,131,87559,1,4,0:0:0:0:
232,233,87814,1,8,0:0:0:0:
244,153,88070,1,0,0:0:0:0:
301,141,88325,1,8,0:0:0:0:
371,192,88580,1,0,0:0:0:0:
395,128,88963,1,0,0:0:0:0:
290,218,89219,1,0,0:0:0:0:
290,218,89346,1,8,0:0:0:0:
254,133,89602,1,0,0:0:0:0:
221,218,89857,1,8,0:0:0:0:
376,144,89985,1,0,0:0:0:0:
146,258,90240,1,0,0:0:0:0:
376,144,90623,1,8,0:0:0:0:
341,232,91133,1,0,0:0:0:0:
131,224,91261,1,0,0:0:0:0:
341,232,91389,1,8,0:0:0:0:
343,211,91644,1,0,0:0:0:0:
361,233,91899,1,8,0:0:0:0:
229,241,92155,1,0,0:0:0:0:
259,215,92410,1,8,0:0:0:0:
332,215,92665,1,0,0:0:0:0:
283,292,92921,1,8,0:0:0:0:
413,153,93048,1,0,0:0:0:0:
417,161,93304,1,0,0:0:0:0:
239,297,93431,1,8,0:0:0:0:
347,214,93687,1,4,0:0:0:0:
347,214,94197,1,12,0:0:0:0:
347,214,94708,1,4,0:0:0:0:
262,95,95219,1,8,0:0:0:0:
245,202,95346,1,8,0:0:0:0:
80,158,95474,1,0,0:0:0:0:
262,95,95729,1,12,0:0:0:0:
204,205,95985,1,0,0:0:0:0:
269,199,96240,1,8,0:0:0:0:
341,168,96750,1,8,0:0:0:0:
264,115,97006,1,8,0:0:0:0:
380,187,97133,1,8,0:0:0:0:
302,248,97389,1,8,0:0:0:0:
305,243,97516,1,0,0:0:0:0:
399,216,97772,1,0,0:0:0:0:
342,278,98027,1,8,0:0:0:0:
399,216,98155,1,0,0:0:0:0:
289,113,98410,1,0,0:0:0:0:
399,216,98793,1,0,0:0:0:0:
136,130,99048,1,0,0:0:0:0:
267,206,99304,1,8,0:0:0:0:
141,158,99559,1,0,0:0:0:0:
277,152,99814,1,12,0:0:0:0:
312,122,100836,1,4,0:0:0:0:
480,150,102878,1,0,0:0:0:0:
375,169,103389,1,0,0:0:0:0:
387,170,103899,1,8,0:0:0:0:
387,170,104410,1,0,0:0:0:0:
387,170,104921,1,0,0:0:0:0:
387,170,105431,1,0,0:0:0:0:
387,170,105942,1,8,0:0:0:0:
387,170,106453,1,0,0:0:0:0:
287,236,106963,1,4,0:0:0:0:
162,181,107219,1,8,0:0:0:0:
263,178,107474,1,0,0:0:0:0:
263,178,107602,1,0,0:0:0:0:
263,178,107729,1,8,0:0:0:0:
263,178,107985,1,0,0:0:0:0:
177,48,108240,1,8,0:0:0:0:
177,48,108495,1,0,0:0:0:0:
298,183,109006,1,4,0:0:0:0:
301,174,109516,1,4,0:0:0:0:
237,170,110027,1,0,0:0:0:0:
187,102,110155,1,0,0:0:0:0:
237,170,110282,1,8,0:0:0:0:
413,122,110410,1,0,0:0:0:0:
239,122,110538,1,8,0:0:0:0:
406,253,111048,1,0,0:0:0:0:
450,200,111559,1,0,0:0:0:0:
450,200,112070,1,8,0:0:0:0:
450,200,112580,1,0,0:0:0:0:
450,200,113091,1,0,0:0:0:0:
450,200,113602,1,8,0:0:0:0:
450,200,114112,1,8,0:0:0:0:
406,87,115133,1,12,0:0:0:0:
281,218,115389,1,0,0:0:0:0:
426,78,115516,1,8,0:0:0:0:
421,78,115772,1,8,0:0:0:0:
314,138,116155,1,4,0:0:0:0:
319,137,116410,1,4,0:0:0:0:
251,83,117176,1,12,0:0:0:0:
307,231,117431,1,0,0:0:0:0:
337,188,117559,1,8,0:0:0:0:
394,193,117687,1,0,0:0:0:0:
347,185,117814,1,8,0:0:0:0:
427,278,117942,1,0,0:0:0:0:
366,179,118197,1,12,0:0:0:0:
366,179,118453,1,12,0:0:0:0:
194,299,119474,1,12,0:0:0:0:
110,228,119729,1,0,0:0:0:0:
296,266,119985,1,0,0:0:0:0:
296,266,120112,1,8,0:0:0:0:
199,225,120368,1,8,0:0:0:0:
199,225,120495,1,0,0:0:0:0:
208,219,120750,1,8,0:0:0:0:
209,219,121006,1,0,0:0:0:0:
209,219,121261,1,8,0:0:0:0:
263,309,121772,1,0,0:0:0:0:
98,147,122282,1,8,0:0:0:0:
198,105,122538,1,0,0:0:0:0:
198,105,122665,1,8,0:0:0:0:
198,105,122793,1,0,0:0:0:0:
198,105,123048,1,8,0:0:0:0:
201,116,123304,1,4,0:0:0:0:
94,185,123814,1,0,0:0:0:0:
94,185,124070,1,8,0:0:0:0:
147,286,124325,1,0,0:0:0:0:
372,254,124580,1,0,0:0:0:0:
396,180,124836,1,8,0:0:0:0:
396,180,125091,1,8,0:0:0:0:
158,112,125602,1,8,0:0:0:0:
248,239,125857,1,8,0:0:0:0:
109,163,125985,1,0,0:0:0:0:
149,284,126240,1,0,0:0:0:0:
393,206,126495,1,0,0:0:0:0:
149,234,126623,1,8,0:0:0:0:
117,160,126878,1,8,0:0:0:0:
245,292,127133,1,0,0:0:0:0:
114,166,127389,1,12,0:0:0:0:
117,204,127899,1,8,0:0:0:0:
385,239,128155,1,0,0:0:0:0:
107,187,128282,1,8,0:0:0:0:
205,285,128665,1,8,0:0:0:0:
261,358,128921,1,0,0:0:0:0:
83,275,129048,1,0,0:0:0:0:
356,319,129176,1,8,0:0:0:0:
83,275,129431,1,4,0:0:0:0:
377,184,129942,1,12,0:0:0:0:
288,192,130453,1,4,0:0:0:0:
288,192,130963,1,12,0:0:0:0:
288,192,131474,1,4,0:0:0:0:
288,192,131985,1,0,0:0:0:0:
411,266,132495,1,8,0:0:0:0:
389,244,132750,1,8,0:0:0:0:
389,244,133006,1,0,0:0:0:0:
389,244,133261,1,0,0:0:0:0:
279,214,133516,1,8,0:0:0:0:
273,212,133644,1,0,0:0:0:0:
272,210,133772,1,0,0:0:0:0:
118,267,134282,1,0,0:0:0:0:
192,205,134538,1,8,0:0:0:0:
145,281,134793,1,0,0:0:0:0:
192,205,135048,1,8,0:0:0:0:
149,286,135304,1,8,0:0:0:0:
321,235,135559,1,0,0:0:0:0:
155,300,135687,1,8,0:0:0:0:
149,286,135814,1,8,0:0:0:0:
330,144,136070,1,0,0:0:0:0:
458,248,136580,1,8,0:0:0:0:
458,248,137091,1,0,0:0:0:0:
279,117,137602,1,8,0:0:0:0:
178,300,138368,1,0,0:0:0:0:
295,225,138623,1,8,0:0:0:0:
152,320,138878,1,8,0:0:0:0:
295,225,139133,1,0,0:0:0:0:
152,320,139389,1,0,0:0:0:0:
259,194,139644,1,12,0:0:0:0:
78,251,140155,1,8,0:0:0:0:
376,293,140665,1,0,0:0:0:0:
102,244,140921,1,0,0:0:0:0:
102,244,141176,1,8,0:0:0:0:
102,244,141431,1,8,0:0:0:0:
122,253,141687,1,0,0:0:0:0:
122,253,141942,1,8,0:0:0:0:
122,253,142197,1,8,0:0:0:0:
354,235,142708,1,0,0:0:0:0:
256,225,142963,1,8,0:0:0:0:
256,225,143091,1,0,0:0:0:0:
267,225,143346,1,0,0:0:0:0:
267,225,143474,1,8,0:0:0:0:
197,203,143729,1,4,0:0:0:0:
342,122,144240,1,8,0:0:0:0:
342,122,144495,1,8,0:0:0:0:
342,122,144750,1,0,0:0:0:0:
342,122,145006,1,0,0:0:0:0:
342,122,145261,1,8,0:0:0:0:
253,120,145516,1,0,0:0:0:0:
256,245,145772,1,8,0:0:0:0:
253,120,146282,1,0,0:0:0:0:
275,85,146793,1,12,0:0:0:0:
288,76,147176,1,12,0:0:0:0:
53,126,147431,1,4,0:0:0:0:
256,192,147559,12,0,148836,0:0:0:0:
179,207,149346,5,0,0:0:0:0:
250,264,149474,1,0,0:0:0:0:
250,264,149602,1,8,0:0:0:0:
346,298,149857,1,12,0:0:0:0:
124,290,150112,1,8,0:0:0:0:
363,311,150368,1,0,0:0:0:0:
118,279,150623,1,0,0:0:0:0:
363,311,150878,1,8,0:0:0:0:
318,129,151133,1,8,0:0:0:0:
370,316,151261,1,8,0:0:0:0:
228,220,151516,1,8,0:0:0:0:
167,260,151644,1,0,0:0:0:0:
355,320,151899,1,8,0:0:0:0:
377,305,152155,1,8,0:0:0:0:
378,305,152282,1,0,0:0:0:0:
397,308,152538,1,8,0:0:0:0:
397,308,152793,1,0,0:0:0:0:
397,308,153431,1,0,0:0:0:0:
397,308,153559,1,8,0:0:0:0:
397,308,153687,1,0,0:0:0:0:
407,316,153942,1,8,0:0:0:0:
407,316,154197,1,0,0:0:0:0:
407,316,154453,1,8,0:0:0:0:
407,316,154708,1,0,0:0:0:0:
407,316,154963,1,8,0:0:0:0:
239,195,155219,1,0,0:0:0:0:
196,191,155346,1,8,0:0:0:0:
227,147,155602,1,8,0:0:0:0:
251,277,155729,1,0,0:0:0:0:
407,316,155985,1,4,0:0:0:0:
407,316,156495,1,12,0:0:0:0:
301,232,157006,1,4,0:0:0:0:
161,188,157516,1,8,0:0:0:0:
198,194,157644,1,8,0:0:0:0:
198,194,157772,1,0,0:0:0:0:
248,96,158027,1,8,0:0:0:0:
93,190,158282,1,0,0:0:0:0:
209,230,158538,1,0,0:0:0:0:
209,230,158665,1,8,0:0:0:0:
398,248,158793,1,0,0:0:0:0:
194,231,159048,1,8,0:0:0:0:
193,194,159176,1,8,0:0:0:0:
232,173,159431,1,0,0:0:0:0:
277,226,159814,1,8,0:0:0:0:
277,226,159942,1,0,0:0:0:0:
224,239,160070,1,8,0:0:0:0:
259,195,160325,1,8,0:0:0:0:
224,192,160453,1,0,0:0:0:0:
236,236,160580,1,0,0:0:0:0:
262,200,160836,1,0,0:0:0:0:
236,236,161091,1,8,0:0:0:0:
262,189,161346,1,0,0:0:0:0:
262,189,161474,1,8,0:0:0:0:
297,115,161602,1,0,0:0:0:0:
287,236,162112,1,0,0:0:0:0:
162,181,162368,1,8,0:0:0:0:
263,178,162623,1,0,0:0:0:0:
263,178,162750,1,0,0:0:0:0:
263,178,162878,1,8,0:0:0:0:
263,178,163133,1,0,0:0:0:0:
177,48,163389,1,8,0:0:0:0:
177,48,163644,1,0,0:0:0:0:
298,183,164155,1,4,0:0:0:0:
301,174,164665,1,0,0:0:0:0:
237,170,165176,1,0,0:0:0:0:
187,102,165304,1,0,0:0:0:0:
237,170,165431,1,8,0:0:0:0:
413,122,165559,1,0,0:0:0:0:
239,122,165687,1,8,0:0:0:0:
228,205,166197,1,8,0:0:0:0:
228,205,166325,1,8,0:0:0:0:
244,182,166453,1,0,0:0:0:0:
233,156,166708,1,8,0:0:0:0:
245,164,166963,1,0,0:0:0:0:
279,187,167219,1,8,0:0:0:0:
447,282,167474,1,0,0:0:0:0:
447,282,167602,1,8,0:0:0:0:
447,282,167729,1,0,0:0:0:0:
369,233,168240,1,8,0:0:0:0:
240,203,168495,1,8,0:0:0:0:
496,104,168750,1,8,0:0:0:0:
283,242,169006,1,0,0:0:0:0:
279,161,169261,1,4,0:0:0:0:
207,203,169516,1,4,0:0:0:0:
211,225,170282,1,12,0:0:0:0:
211,225,170538,1,12,0:0:0:0:
224,229,171304,1,4,0:0:0:0:
224,229,171559,1,4,0:0:0:0:
240,234,172325,1,12,0:0:0:0:
240,234,172580,1,12,0:0:0:0:
256,192,172708,12,0,173602,0:0:0:0:
