osu file format v14

[General]
AudioFilename: audio.mp3
AudioLeadIn: 0
PreviewTime: 81128
Countdown: 0
SampleSet: Soft
StackLeniency: 0.7
Mode: 0
LetterboxInBreaks: 0
WidescreenStoryboard: 1

[Editor]
DistanceSpacing: 1
BeatDivisor: 4
GridSize: 16
TimelineZoom: 2.2

[Metadata]
Title:Rock na Kimi to wa Owakare da
TitleUnicode:ロックな君とはお別れだ
Artist:TUYU
ArtistUnicode:ツユ
Creator:Seros
Version:climb's Hard
Source:
Tags:japanese pop tsuyu I'm Saying Farewell to that Rock-and-Roll You Yappari ame wa furu 'nda ne It's Raining After All ぷす 礼衣 おむたつ climbx3145 Irin sukiNathan Nathan BinFhone BF too jpop jrock
BeatmapID:2427416
BeatmapSetID:1158494

[Difficulty]
HPDrainRate:5
CircleSize:3.7
OverallDifficulty:6
ApproachRate:8
SliderMultiplier:1.6
SliderTickRate:1

[Events]
//Background and Video events
0,0,"bg.jpg",0,0
Video,-260,"video.mp4"
//Break Periods
2,69199,75467
2,114312,120580
//Storyboard Layer 0 (Background)
//Storyboard Layer 1 (Fail)
//Storyboard Layer 2 (Pass)
//Storyboard Layer 3 (Foreground)
//Storyboard Layer 4 (Overlay)
//Storyboard Sound Samples

[TimingPoints]
428,451.127819548872,4,2,1,80,1,0
428,-125.0,4,2,1,60,0,0
4939,-100.0,4,2,1,60,0,0
5841,-100.0,4,2,1,60,0,0
16668,-90.9090909090909,4,2,1,70,0,0
20277,-83.3333333333333,4,2,1,80,0,1
20615,-83.3333333333333,4,2,1,5,0,1
20728,-83.3333333333333,4,2,1,80,0,1
31217,-83.3333333333333,4,2,1,5,0,1
31330,-83.3333333333333,4,2,1,80,0,1
35052,-83.3333333333333,4,2,1,5,0,1
35164,-83.3333333333333,4,2,1,80,0,1
48585,-83.3333333333333,4,2,1,5,0,1
48698,-83.3333333333333,4,2,1,80,0,1
49037,-83.3333333333333,4,2,1,5,0,1
49149,-100.0,4,2,1,70,0,0
51067,-100.0,4,2,1,5,0,0
51405,-100.0,4,2,1,70,0,0
51518,-100.0,4,2,1,5,0,0
51856,-100.0,4,2,1,70,0,0
51969,-100.0,4,2,1,5,0,0
52758,-100.0,4,2,1,70,0,0
68999,-125.0,4,2,1,60,0,0
76217,-100.0,4,2,1,60,0,0
78021,-100.0,4,2,1,60,0,0
78134,-100.0,4,2,1,5,0,0
78473,-100.0,4,2,1,60,0,0
78585,-100.0,4,2,1,5,0,0
78924,-100.0,4,2,1,60,0,0
79037,-100.0,4,2,1,5,0,0
79375,-100.0,4,2,1,60,0,0
79488,-100.0,4,2,1,5,0,0
79826,-100.0,4,2,1,60,0,0
79939,-100.0,4,2,1,5,0,0
80728,-100.0,4,2,1,60,0,0
80841,-100.0,4,2,1,5,0,0
81179,-100.0,4,2,1,60,0,0
81518,-100.0,4,2,1,5,0,0
81631,-83.3333333333333,4,2,1,80,0,1
81969,-83.3333333333333,4,2,1,5,0,1
82082,-83.3333333333333,4,2,1,80,0,1
92570,-83.3333333333333,4,2,1,5,0,1
92683,-83.3333333333333,4,2,1,80,0,1
96405,-83.3333333333333,4,2,1,5,0,1
96518,-83.3333333333333,4,2,1,80,0,1
109939,-83.3333333333333,4,2,1,5,0,1
110052,-83.3333333333333,4,2,1,80,0,1
110390,-83.3333333333333,4,2,1,5,0,1
110503,-100.0,4,2,1,60,0,0
112420,-100.0,4,2,1,5,0,0
112758,-100.0,4,2,1,60,0,0
112871,-100.0,4,2,1,5,0,0
114112,-125.0,4,2,1,60,0,0
121330,-100.0,4,2,1,60,0,0
123134,-100.0,4,2,1,60,0,0
123247,-100.0,4,2,1,5,0,0
123585,-100.0,4,2,1,60,0,0
123698,-100.0,4,2,1,5,0,0
124037,-100.0,4,2,1,60,0,0
124149,-100.0,4,2,1,5,0,0
124488,-100.0,4,2,1,60,0,0
124600,-100.0,4,2,1,5,0,0
124939,-100.0,4,2,1,60,0,0
125052,-100.0,4,2,1,5,0,0
125841,-100.0,4,2,1,60,0,0
125954,-100.0,4,2,1,5,0,0
126743,-100.0,4,2,1,60,0,0
137570,-90.9090909090909,4,2,1,70,0,0
142533,-100.0,4,2,1,70,0,0
142871,-100.0,4,2,1,5,0,0
142984,-83.3333333333333,4,2,1,80,0,1
143322,-83.3333333333333,4,2,1,5,0,1
143435,-83.3333333333333,4,2,1,80,0,1
153924,-83.3333333333333,4,2,1,5,0,1
154037,-83.3333333333333,4,2,1,80,0,1
157758,-83.3333333333333,4,2,1,5,0,1
157871,-83.3333333333333,4,2,1,80,0,1
171292,-83.3333333333333,4,2,1,5,0,1
171405,-83.3333333333333,4,2,1,80,0,1
171743,-83.3333333333333,4,2,1,5,0,1
171856,-90.9090909090909,4,2,1,70,0,0
173661,-90.9090909090909,4,2,1,80,0,0
180879,-90.9090909090909,4,2,1,70,0,0
200728,-125.0,4,2,1,70,0,0
204563,-125.0,4,2,1,5,0,0
205240,-125.0,4,2,1,70,0,0
205465,-125.0,4,2,1,5,0,0

[Colours]
Combo1 : 249,147,172
Combo2 : 213,0,106
Combo3 : 255,128,192
Combo4 : 192,135,173

[HitObjects]
143,269,428,5,4,0:0:0:0:
369,269,2232,1,4,0:0:0:0:
369,115,4037,1,2,0:0:0:0:
374,98,4488,1,2,0:0:0:0:
206,4,4939,6,0,L|166:10,1,40,2|0,3:2|0:0,0:0:0:0:
137,49,5164,2,0,L|97:42,1,40,2|0,3:2|0:0,0:0:0:0:
61,74,5390,2,0,L|67:113,3,40,2|8|8|8,0:0|0:0|0:0|0:0,0:0:0:0:
105,143,5841,6,0,L|91:221,1,80,10|0,0:1|0:0,0:0:0:0:
19,285,6292,2,0,L|32:363,1,80,10|0,0:1|0:0,0:0:0:0:
126,382,6743,2,0,L|204:368,1,80,10|0,0:1|0:0,0:0:0:0:
256,287,7194,2,0,L|334:300,1,80,10|0,0:1|0:0,0:0:0:0:
429,321,7646,2,0,L|415:242,1,80,10|0,0:1|0:0,0:0:0:0:
329,198,8097,2,0,L|342:119,1,80,10|0,0:1|0:0,0:0:0:0:
356,24,8548,2,0,L|277:37,1,80,10|0,0:1|0:0,0:0:0:0:
263,132,8999,2,0,L|341:118,1,80,10|0,0:1|0:0,0:0:0:0:
435,97,9450,6,0,P|436:136|421:173,1,80,10|2,0:1|0:0,0:0:0:0:
342,226,9901,1,10,0:1:0:0:
342,226,10127,1,2,0:0:0:0:
428,278,10352,1,10,0:1:0:0:
428,278,10578,1,2,0:0:0:0:
344,324,10803,2,0,P|304:317|272:294,1,80,10|0,0:1|0:0,0:0:0:0:
249,200,11255,5,10,0:1:0:0:
249,200,11480,1,2,0:0:0:0:
180,267,11706,1,10,0:1:0:0:
180,267,11931,1,2,0:0:0:0:
110,334,12157,2,0,P|88:301|82:261,1,80,10|2,0:1|0:0,0:0:0:0:
137,182,12608,2,0,P|131:142|108:109,1,80,10|0,0:1|0:0,0:0:0:0:
135,17,13059,6,0,L|213:30,1,80,10|0,0:1|0:0,0:0:0:0:
282,97,13510,2,0,L|360:83,1,80,10|0,0:1|0:0,0:0:0:0:
455,67,13961,2,0,L|441:145,1,80,10|0,0:1|0:0,0:0:0:0:
368,208,14412,2,0,L|381:286,1,80,10|0,0:1|0:0,0:0:0:0:
335,371,14864,6,0,L|256:357,1,80,10|0,0:1|0:0,0:0:0:0:
207,273,15315,2,0,L|128:286,1,80,10|0,0:1|0:0,0:0:0:0:
33,302,15766,2,0,L|46:223,1,80,10|0,0:1|0:0,0:0:0:0:
142,208,16217,2,0,L|128:286,1,80,10|0,0:1|0:0,0:0:0:0:
183,365,16668,5,6,3:2:0:0:
278,350,16894,1,2,3:2:0:0:
278,350,17006,1,0,3:0:0:0:
278,350,17119,2,0,L|321:342,3,44.0000013427735,2|8|10|8,0:0|0:0|0:0|0:0,0:0:0:0:
354,306,17570,2,0,P|358:262|370:220,1,88.000002685547,14|10,0:0|0:0,0:0:0:0:
336,185,17909,2,0,P|331:141|319:99,2,88.000002685547,8|8|8,0:0|0:0|0:0,0:0:0:0:
292,206,18473,6,0,P|249:193|206:189,1,88.000002685547,2|2,3:2|0:0,0:0:0:0:
143,262,18924,2,0,P|100:274|57:278,2,88.000002685547,2|2|2,3:2|0:0|3:2,0:0:0:0:
236,286,19600,1,8,0:0:0:0:
236,286,19713,1,8,0:0:0:0:
236,286,19826,2,0,L|228:329,3,44.0000013427735,10|8|8|8,0:0|0:0|0:0|0:0,0:0:0:0:
196,365,20277,6,0,B|183:335|183:335|292:354,1,143.999995605469,6|0,3:2|0:0,0:0:0:0:
332,382,20728,2,0,L|426:365,1,95.9999970703126,10|2,3:2|0:0,0:0:0:0:
459,330,21067,1,2,0:0:0:0:
459,330,21179,2,0,P|454:282|472:238,1,95.9999970703126,2|2,3:2|0:0,0:0:0:0:
508,149,21631,1,10,3:2:0:0:
456,68,21856,1,2,0:0:0:0:
369,109,22082,6,0,L|274:92,1,95.9999970703126,2|2,3:2|0:0,0:0:0:0:
179,79,22533,1,10,3:2:0:0:
102,136,22758,1,2,0:0:0:0:
188,175,22984,2,0,P|194:223|176:267,1,95.9999970703126,2|0,3:2|0:0,0:0:0:0:
82,289,23435,2,0,L|98:383,1,95.9999970703126,10|0,3:2|0:0,0:0:0:0:
194,382,23886,6,0,L|288:365,1,95.9999970703126,2|0,3:2|0:0,0:0:0:0:
369,311,24337,1,10,3:2:0:0:
369,311,24450,1,2,0:0:0:0:
369,311,24563,2,0,P|374:263|356:219,2,95.9999970703126,2|2|0,0:0|3:2|0:0,0:0:0:0:
278,278,25240,1,10,3:2:0:0:
186,248,25465,1,2,0:0:0:0:
256,182,25691,6,0,L|239:87,1,95.9999970703126,2|2,3:2|0:0,0:0:0:0:
308,20,26142,2,0,P|355:25|399:7,1,95.9999970703126,10|2,3:2|0:0,0:0:0:0:
443,37,26480,1,8,0:0:0:0:
443,37,26593,2,0,P|425:81|430:128,1,95.9999970703126,2|10,3:2|0:0,0:0:0:0:
505,188,27044,2,0,P|510:235|492:279,1,95.9999970703126,2|10,3:2|0:0,0:0:0:0:
454,307,27382,1,8,0:0:0:0:
454,307,27495,6,0,L|359:290,1,95.9999970703126,2|2,3:2|0:0,0:0:0:0:
280,235,27946,2,0,L|185:251,1,95.9999970703126,10|2,0:0|0:0,0:0:0:0:
89,262,28397,1,2,3:2:0:0:
86,219,28509,1,2,0:0:0:0:
98,178,28622,1,2,3:2:0:0:
90,136,28735,1,2,0:0:0:0:
75,95,28849,2,0,L|169:78,1,95.9999970703126,10|2,0:0|0:0,0:0:0:0:
198,41,29187,1,2,0:0:0:0:
198,41,29300,6,0,L|292:57,1,95.9999970703126,2|2,3:2|0:0,0:0:0:0:
386,78,29751,2,0,P|391:125|373:169,1,95.9999970703126,10|2,0:0|0:0,0:0:0:0:
336,199,30089,1,8,0:0:0:0:
336,199,30202,2,0,L|241:182,1,95.9999970703126,2|2,3:2|3:2,0:0:0:0:
146,167,30653,2,0,L|162:261,1,95.9999970703126,10|2,0:0|0:0,0:0:0:0:
185,354,31104,6,0,L|232:345,1,47.9999985351563,2|0,3:2|0:0,0:0:0:0:
264,309,31330,2,0,L|358:325,2,95.9999970703126,2|8|0,0:0|0:0|0:0,0:0:0:0:
241,216,32006,1,2,3:2:0:0:
258,121,32232,1,2,3:2:0:0:
167,153,32458,1,10,0:0:0:0:
150,58,32684,1,2,0:0:0:0:
56,35,32909,6,0,L|39:129,1,95.9999970703126,2|2,3:2|0:0,0:0:0:0:
26,224,33360,1,10,0:0:0:0:
120,271,33585,1,2,0:0:0:0:
120,271,33698,1,8,0:0:0:0:
120,271,33811,2,0,L|170:262,2,47.9999985351563,0|8|8,3:2|0:0|0:0,0:0:0:0:
92,363,34262,2,0,P|139:357|183:375,1,95.9999970703126,2|8,3:2|0:0,0:0:0:0:
235,382,34600,1,8,0:0:0:0:
235,382,34713,6,0,L|260:240,1,143.999995605469,2|0,3:2|0:0,0:0:0:0:
270,193,35164,2,0,P|317:198|361:180,1,95.9999970703126,10|0,3:2|0:0,0:0:0:0:
385,140,35503,1,2,0:0:0:0:
385,140,35615,2,0,P|432:134|476:152,1,95.9999970703126,2|2,3:2|0:0,0:0:0:0:
508,243,36067,1,10,3:2:0:0:
480,334,36292,1,2,0:0:0:0:
389,301,36518,6,0,L|294:317,1,95.9999970703126,2|2,3:2|0:0,0:0:0:0:
198,329,36969,1,10,3:2:0:0:
206,233,37194,1,2,0:0:0:0:
117,270,37420,2,0,L|22:253,1,95.9999970703126,2|0,3:2|0:0,0:0:0:0:
20,157,37871,2,0,L|114:140,1,95.9999970703126,10|0,3:2|0:0,0:0:0:0:
207,114,38322,6,0,P|201:66|219:22,1,95.9999970703126,2|0,3:2|0:0,0:0:0:0:
305,85,38773,1,10,3:2:0:0:
305,85,38886,1,2,0:0:0:0:
305,85,38999,2,0,L|399:68,2,95.9999970703126,2|2|0,0:0|3:2|0:0,0:0:0:0:
280,177,39676,1,10,3:2:0:0:
315,265,39901,1,2,0:0:0:0:
219,253,40127,6,0,L|124:236,1,95.9999970703126,2|2,3:2|0:0,0:0:0:0:
29,224,40578,2,0,L|45:318,1,95.9999970703126,10|2,3:2|0:0,0:0:0:0:
119,380,41029,1,2,3:2:0:0:
210,350,41255,1,8,0:0:0:0:
303,370,41480,2,0,P|350:375|394:357,1,95.9999970703126,2|10,3:2|0:0,0:0:0:0:
423,320,41818,1,8,0:0:0:0:
423,320,41931,6,0,L|406:225,1,95.9999970703126,2|2,3:2|0:0,0:0:0:0:
316,190,42382,2,0,L|332:95,1,95.9999970703126,10|2,0:0|0:0,0:0:0:0:
337,0,42834,1,2,3:2:0:0:
294,0,42946,1,2,0:0:0:0:
253,9,43059,1,2,3:2:0:0:
211,1,43172,1,2,0:0:0:0:
169,13,43285,2,0,L|152:107,1,95.9999970703126,10|2,0:0|0:0,0:0:0:0:
209,184,43736,6,0,P|164:201|117:196,1,95.9999970703126,2|2,3:2|0:0,0:0:0:0:
76,183,44074,1,2,0:0:0:0:
76,183,44187,2,0,L|59:277,1,95.9999970703126,10|2,0:0|0:0,0:0:0:0:
125,347,44638,2,0,L|172:338,1,47.9999985351563,2|0,3:2|0:0,0:0:0:0:
206,303,44864,2,0,L|253:311,1,47.9999985351563,2|2,3:2|0:0,0:0:0:0:
299,298,45089,2,0,P|293:250|311:206,1,95.9999970703126,10|2,0:0|0:0,0:0:0:0:
388,264,45540,6,0,L|435:255,1,47.9999985351563,6|2,3:2|0:0,0:0:0:0:
468,219,45766,2,0,L|484:124,2,95.9999970703126,2|8|0,0:0|0:0|0:0,0:0:0:0:
384,170,46443,2,0,L|337:178,2,47.9999985351563,2|8|10,3:2|0:0|3:2,0:0:0:0:
399,75,46894,1,10,3:2:0:0:
312,65,47119,1,10,0:0:0:0:
312,65,47232,1,8,0:0:0:0:
312,65,47345,6,0,L|217:48,1,95.9999970703126,2|2,3:2|3:2,0:0:0:0:
123,29,47796,1,2,3:2:0:0:
140,123,48021,1,2,3:2:0:0:
54,166,48247,2,0,B|24:237|86:235|50:313,1,143.999995605469,2|0,3:2|0:0,0:0:0:0:
73,348,48698,2,0,P|134:314|201:334,1,143.999995605469,2|0,0:0|0:0,0:0:0:0:
233,370,49149,6,0,L|390:342,1,160,6|2,3:2|3:2,0:0:0:0:
350,154,50052,2,0,L|192:181,1,160,0|2,3:2|3:2,0:0:0:0:
1,203,50954,6,0,L|7:163,1,40,4|0,3:2|0:0,0:0:0:0:
134,94,51405,2,0,L|141:53,1,40,4|0,3:2|0:0,0:0:0:0:
284,39,51856,2,0,L|290:0,1,40,4|0,3:2|0:0,0:0:0:0:
427,215,52758,6,0,L|269:187,1,160,6|10,3:2|0:0,0:0:0:0:
174,174,53435,1,0,0:0:0:0:
97,115,53661,2,0,P|88:76|99:38,1,80,2|2,3:2|0:0,0:0:0:0:
188,3,54112,2,0,L|267:17,1,80,10|2,0:0|0:0,0:0:0:0:
360,38,54563,5,2,3:2:0:0:
307,119,54788,1,2,0:0:0:0:
307,119,54901,1,2,0:0:0:0:
307,119,55014,2,0,L|320:197,1,80,10|2,0:0|0:0,0:0:0:0:
340,291,55465,1,2,3:2:0:0:
244,277,55691,2,0,L|204:270,1,40,10|8,0:0|0:0,0:0:0:0:
180,228,55916,2,0,L|101:241,1,80,2|8,3:2|0:0,0:0:0:0:
27,303,56367,6,0,P|47:369|109:336,1,160,2|10,3:2|0:0,0:0:0:0:
101,241,57044,1,0,0:0:0:0:
52,157,57270,2,0,L|65:78,1,80,2|2,3:2|0:0,0:0:0:0:
161,71,57721,2,0,L|147:149,1,80,10|2,0:0|0:0,0:0:0:0:
197,231,58172,5,2,3:2:0:0:
294,205,58397,1,2,0:0:0:0:
294,205,58510,1,2,0:0:0:0:
294,205,58623,2,0,L|372:218,1,80,10|2,0:0|0:0,0:0:0:0:
468,230,59074,1,2,3:2:0:0:
433,151,59300,1,10,0:0:0:0:
433,151,59412,1,8,0:0:0:0:
433,151,59525,2,0,L|446:72,1,80,2|10,3:2|0:0,0:0:0:0:
370,13,59976,6,0,P|298:42|230:4,1,160,6|10,3:2|0:0,0:0:0:0:
135,19,60653,1,0,0:0:0:0:
187,103,60879,2,0,L|173:181,1,80,2|2,3:2|0:0,0:0:0:0:
85,220,61330,2,0,L|98:298,1,80,10|2,0:0|0:0,0:0:0:0:
172,360,61781,5,2,3:2:0:0:
249,302,62006,1,2,0:0:0:0:
249,302,62119,1,2,0:0:0:0:
249,302,62232,2,0,P|287:293|325:304,1,80,10|2,0:0|0:0,0:0:0:0:
413,342,62683,1,2,3:2:0:0:
470,265,62909,2,0,L|463:225,1,40,10|8,0:0|0:0,0:0:0:0:
425,195,63134,2,0,L|438:116,1,80,2|8,3:2|0:0,0:0:0:0:
360,60,63585,6,0,L|332:217,1,160,2|10,3:2|0:0,0:0:0:0:
314,312,64262,1,0,0:0:0:0:
239,250,64488,2,0,L|159:264,1,80,2|2,3:2|0:0,0:0:0:0:
65,277,64939,2,0,L|78:198,1,80,10|2,0:0|0:0,0:0:0:0:
100,104,65390,5,6,3:2:0:0:
201,93,65615,1,2,0:0:0:0:
201,93,65728,1,2,0:0:0:0:
201,93,65841,2,0,L|279:79,1,80,2|2,3:2|0:0,0:0:0:0:
375,66,66292,1,2,3:2:0:0:
371,162,66518,1,2,0:0:0:0:
277,180,66743,2,0,L|198:193,2,80,2|2|2,3:2|0:0|0:0,0:0:0:0:
277,180,68548,1,10,0:0:0:0:
277,333,68999,5,6,3:2:0:0:
277,333,76217,6,0,L|355:318,1,80,6|2,3:2|0:0,0:0:0:0:
450,304,76668,2,0,L|436:225,1,80,8|0,0:0|0:0,0:0:0:0:
429,182,77006,1,8,0:0:0:0:
429,182,77119,1,2,3:2:0:0:
333,193,77345,1,8,0:0:0:0:
359,101,77570,2,0,P|361:61|343:26,1,80,10|8,3:2|0:0,0:0:0:0:
300,17,77909,1,8,0:0:0:0:
300,17,78021,6,0,L|260:23,1,40,6|0,3:2|0:0,0:0:0:0:
161,128,78473,2,0,L|200:134,1,40,6|0,3:2|0:0,0:0:0:0:
333,193,78924,2,0,L|293:199,1,40,6|0,3:2|0:0,0:0:0:0:
189,299,79375,2,0,L|228:305,1,40,6|0,3:2|0:0,0:0:0:0:
356,372,79826,2,0,L|316:378,1,40,6|0,3:2|0:0,0:0:0:0:
161,128,80728,2,0,L|200:134,1,40,6|0,3:2|0:0,0:0:0:0:
318,217,81179,6,0,P|376:225|429:199,1,120,2|0,0:0|0:0,0:0:0:0:
471,174,81631,6,0,L|445:315,1,143.999995605469,6|0,3:2|0:0,0:0:0:0:
415,352,82082,2,0,L|320:335,1,95.9999970703126,10|2,3:2|0:0,0:0:0:0:
298,297,82421,1,2,0:0:0:0:
298,297,82533,2,0,L|203:313,1,95.9999970703126,2|2,3:2|0:0,0:0:0:0:
107,325,82985,1,10,3:2:0:0:
140,235,83210,1,2,0:0:0:0:
25,238,83435,6,0,P|20:190|38:146,1,95.9999970703126,2|2,3:2|0:0,0:0:0:0:
91,66,83887,1,10,3:2:0:0:
157,135,84112,1,2,0:0:0:0:
186,43,84337,2,0,L|280:26,1,95.9999970703126,2|0,3:2|0:0,0:0:0:0:
350,92,84789,2,0,L|444:75,1,95.9999970703126,10|0,3:2|0:0,0:0:0:0:
510,179,85240,6,0,P|506:226|481:266,1,95.9999970703126,2|0,3:2|0:0,0:0:0:0:
423,204,85691,1,10,3:2:0:0:
423,204,85803,1,2,0:0:0:0:
423,204,85916,2,0,L|328:220,2,95.9999970703126,2|2|0,0:0|3:2|0:0,0:0:0:0:
408,299,86593,1,10,3:2:0:0:
313,313,86818,1,2,0:0:0:0:
188,314,87044,6,0,L|204:219,1,95.9999970703126,2|2,3:2|0:0,0:0:0:0:
267,144,87495,2,0,L|250:49,1,95.9999970703126,10|2,3:2|0:0,0:0:0:0:
212,28,87834,1,8,0:0:0:0:
212,28,87946,2,0,P|164:33|120:15,1,95.9999970703126,2|10,3:2|0:0,0:0:0:0:
27,37,88397,2,0,P|22:85|40:129,1,95.9999970703126,2|10,3:2|0:0,0:0:0:0:
87,151,88736,1,8,0:0:0:0:
87,151,88849,6,0,L|70:245,1,95.9999970703126,6|2,3:2|0:0,0:0:0:0:
57,340,89300,2,0,L|151:323,1,95.9999970703126,10|2,0:0|0:0,0:0:0:0:
243,290,89751,1,2,3:2:0:0:
250,246,89863,1,2,0:0:0:0:
257,204,89976,1,2,3:2:0:0:
265,162,90089,1,2,0:0:0:0:
275,120,90202,2,0,P|323:125|367:107,1,95.9999970703126,10|2,0:0|0:0,0:0:0:0:
387,65,90541,1,2,0:0:0:0:
387,65,90653,6,0,P|435:60|479:78,1,95.9999970703126,2|2,3:2|0:0,0:0:0:0:
510,168,91105,2,0,L|493:262,1,95.9999970703126,8|2,0:0|0:0,0:0:0:0:
463,300,91443,1,8,0:0:0:0:
463,300,91556,2,0,L|368:283,1,95.9999970703126,2|2,3:2|3:2,0:0:0:0:
312,204,92007,2,0,L|217:220,1,95.9999970703126,10|2,0:0|0:0,0:0:0:0:
107,254,92458,6,0,L|115:206,1,47.9999985351563,2|0,3:2|0:0,0:0:0:0:
84,169,92684,2,0,L|67:74,2,95.9999970703126,2|8|0,0:0|0:0|0:0,0:0:0:0:
13,234,93360,1,2,3:2:0:0:
40,325,93585,1,2,3:2:0:0:
107,254,93811,1,10,0:0:0:0:
134,346,94037,1,2,0:0:0:0:
224,275,94262,6,0,L|318:291,1,95.9999970703126,2|2,3:2|0:0,0:0:0:0:
413,308,94714,1,10,0:0:0:0:
402,221,94939,1,2,0:0:0:0:
402,221,95052,1,8,0:0:0:0:
402,221,95165,2,0,L|393:173,2,47.9999985351563,2|8|8,3:2|0:0|0:0,0:0:0:0:
307,203,95615,2,0,P|288:159|251:129,1,95.9999970703126,2|8,3:2|0:0,0:0:0:0:
213,107,95954,1,8,0:0:0:0:
213,107,96067,6,0,P|170:161|101:156,1,143.999995605469,6|0,3:2|0:0,0:0:0:0:
60,130,96518,2,0,L|76:35,1,95.9999970703126,10|0,3:2|0:0,0:0:0:0:
123,16,96857,1,2,0:0:0:0:
123,16,96969,2,0,L|217:0,1,95.9999970703126,2|2,3:2|0:0,0:0:0:0:
298,52,97421,1,10,3:2:0:0:
387,17,97646,1,2,0:0:0:0:
380,133,97872,6,0,L|396:227,1,95.9999970703126,2|2,3:2|0:0,0:0:0:0:
409,322,98323,1,10,3:2:0:0:
319,288,98548,1,2,0:0:0:0:
233,330,98773,2,0,P|185:335|141:317,1,95.9999970703126,2|0,3:2|0:0,0:0:0:0:
198,239,99225,2,0,L|181:144,1,95.9999970703126,10|0,3:2|0:0,0:0:0:0:
161,30,99676,6,0,L|66:46,1,95.9999970703126,2|0,3:2|0:0,0:0:0:0:
7,124,100127,1,10,3:2:0:0:
7,124,100240,1,2,0:0:0:0:
7,124,100352,2,0,L|24:223,2,95.9999970703126,2|2|0,0:0|3:2|0:0,0:0:0:0:
102,137,101029,1,10,3:2:0:0:
196,118,101255,1,2,0:0:0:0:
172,232,101481,6,0,L|155:325,1,95.9999970703126,2|2,3:2|0:0,0:0:0:0:
235,380,101932,2,0,L|329:363,1,95.9999970703126,10|2,3:2|0:0,0:0:0:0:
394,292,102383,1,2,3:2:0:0:
469,351,102609,1,10,0:0:0:0:
508,263,102834,2,0,P|513:215|495:171,1,95.9999970703126,2|10,3:2|0:0,0:0:0:0:
458,149,103172,1,8,0:0:0:0:
458,149,103285,6,0,P|453:101|471:57,1,95.9999970703126,6|2,3:2|0:0,0:0:0:0:
392,1,103736,2,0,L|297:17,1,95.9999970703126,10|2,0:0|0:0,0:0:0:0:
209,55,104187,1,2,3:2:0:0:
216,98,104299,1,2,0:0:0:0:
223,140,104412,1,2,3:2:0:0:
231,182,104525,1,2,0:0:0:0:
236,225,104639,2,0,L|141:208,1,95.9999970703126,8|2,0:0|0:0,0:0:0:0:
51,154,105089,6,0,P|33:198|38:245,1,95.9999970703126,6|2,3:2|0:0,0:0:0:0:
67,290,105428,1,2,0:0:0:0:
67,290,105541,2,0,L|161:306,1,95.9999970703126,10|2,0:0|0:0,0:0:0:0:
244,354,105992,2,0,L|291:345,1,47.9999985351563,2|0,3:2|0:0,0:0:0:0:
321,307,106218,2,0,L|368:315,1,47.9999985351563,2|2,3:2|0:0,0:0:0:0:
411,293,106443,2,0,L|394:198,1,95.9999970703126,10|2,0:0|0:0,0:0:0:0:
310,152,106894,6,0,L|318:104,1,47.9999985351563,2|2,3:2|0:0,0:0:0:0:
345,64,107119,2,0,P|389:80|436:70,2,95.9999970703126,2|8|0,0:0|0:0|0:0,0:0:0:0:
264,11,107796,2,0,L|216:2,2,47.9999985351563,2|8|10,3:2|0:0|0:0,0:0:0:0:
236,103,108247,1,10,0:0:0:0:
213,202,108473,1,10,3:2:0:0:
213,202,108585,1,8,0:0:0:0:
213,202,108698,6,0,L|119:185,1,95.9999970703126,6|2,3:2|3:2,0:0:0:0:
21,182,109149,1,2,3:2:0:0:
3,87,109375,1,2,3:2:0:0:
91,50,109600,2,0,P|161:46|214:0,1,143.999995605469,2|0,3:2|0:0,0:0:0:0:
260,12,110052,2,0,P|331:7|397:34,1,143.999995605469,2|0,0:0|0:0,0:0:0:0:
430,69,110503,6,0,L|402:226,1,160,6|2,3:2|3:2,0:0:0:0:
215,271,111405,2,0,L|242:113,1,160,0|2,3:2|3:2,0:0:0:0:
87,1,112307,6,0,L|47:7,1,40,4|0,3:2|0:0,0:0:0:0:
17,149,112758,2,0,L|56:142,1,40,4|0,3:2|0:0,0:0:0:0:
256,195,114112,5,4,3:2:0:0:
256,195,121330,6,0,L|242:273,1,80,6|2,3:2|0:0,0:0:0:0:
195,357,121781,2,0,L|116:343,1,80,8|0,0:0|0:0,0:0:0:0:
72,339,122119,1,8,0:0:0:0:
72,339,122232,1,0,3:2:0:0:
113,252,122458,1,8,0:0:0:0:
38,191,122683,2,0,L|51:112,1,80,10|8,0:0|0:0,0:0:0:0:
28,76,123021,1,8,0:0:0:0:
28,76,123134,6,0,L|21:36,1,40,6|0,3:2|0:0,0:0:0:0:
165,33,123585,2,0,L|158:72,1,40,6|0,3:2|0:0,0:0:0:0:
302,71,124037,2,0,L|295:31,1,40,6|0,3:2|0:0,0:0:0:0:
439,31,124488,2,0,L|432:70,1,40,6|0,3:2|0:0,0:0:0:0:
366,198,124939,2,0,L|372:237,1,40,6|0,3:2|0:0,0:0:0:0:
36,240,125841,2,0,L|42:200,1,40,6|0,3:2|0:0,0:0:0:0:
316,39,126743,6,0,L|394:52,1,80,10|0,0:1|0:0,0:0:0:0:
433,141,127194,2,0,L|419:219,1,80,10|0,0:1|0:0,0:0:0:0:
479,296,127646,2,0,L|492:374,1,80,10|0,0:1|0:0,0:0:0:0:
397,383,128097,2,0,L|383:304,1,80,10|0,0:1|0:0,0:0:0:0:
319,231,128548,2,0,L|240:244,1,80,10|0,0:1|0:0,0:0:0:0:
222,150,128999,2,0,L|301:135,1,80,10|0,0:1|0:0,0:0:0:0:
377,78,129450,2,0,L|363:0,1,80,10|0,0:1|0:0,0:0:0:0:
267,13,129901,2,0,L|188:26,1,80,10|0,0:1|0:0,0:0:0:0:
93,7,130352,6,0,P|92:46|107:83,1,80,10|2,0:1|0:0,0:0:0:0:
199,124,130803,1,10,0:1:0:0:
199,124,131029,1,2,0:0:0:0:
173,219,131255,1,10,0:1:0:0:
173,219,131480,1,2,0:0:0:0:
268,204,131706,2,0,P|307:203|344:218,1,80,10|0,0:1|0:0,0:0:0:0:
432,268,132157,5,10,0:1:0:0:
432,268,132382,1,2,0:0:0:0:
472,360,132608,1,10,0:1:0:0:
472,360,132834,1,2,0:0:0:0:
378,381,133059,2,0,P|339:382|302:367,1,80,10|2,0:1|0:0,0:0:0:0:
239,292,133510,2,0,P|200:291|163:306,1,80,10|0,0:1|0:0,0:0:0:0:
94,373,133961,6,0,L|15:359,1,80,10|0,0:1|0:0,0:0:0:0:
0,264,134412,2,0,L|78:277,1,80,10|0,0:1|0:0,0:0:0:0:
144,207,134864,2,0,L|130:129,1,80,10|0,0:1|0:0,0:0:0:0:
224,107,135315,2,0,L|239:193,1,80,10|0,0:1|0:0,0:0:0:0:
278,272,135766,6,0,L|356:258,1,80,10|0,0:1|0:0,0:0:0:0:
395,169,136217,2,0,L|473:182,1,80,10|0,0:1|0:0,0:0:0:0:
512,95,136668,2,0,L|498:16,1,80,10|0,0:1|0:0,0:0:0:0:
403,0,137119,2,0,L|416:78,1,80,10|0,0:1|0:0,0:0:0:0:
322,99,137570,5,6,3:2:0:0:
233,95,137796,1,2,0:0:0:0:
233,95,137909,1,8,0:0:0:0:
233,95,138021,2,0,L|189:87,3,44.0000013427735,2|8|2|8,3:2|0:0|3:2|0:0,0:0:0:0:
152,119,138473,2,0,P|164:161|168:205,1,88.000002685547,6|10,3:2|0:0,0:0:0:0:
147,248,138811,2,0,P|191:252|233:264,2,88.000002685547,8|8|8,0:0|0:0|0:0,0:0:0:0:
102,268,139375,6,0,P|114:310|118:354,1,88.000002685547,2|2,3:2|0:0,0:0:0:0:
210,383,139826,2,0,P|252:370|296:366,2,88.000002685547,2|2|2,3:2|0:0|3:2,0:0:0:0:
118,354,140503,1,8,0:0:0:0:
118,354,140615,1,8,0:0:0:0:
118,354,140728,2,0,L|74:346,3,44.0000013427735,0|8|8|8,3:2|0:0|0:0|0:0,0:0:0:0:
59,42,142533,6,0,P|117:50|170:24,1,120,2|0,0:0|0:0,0:0:0:0:
218,23,142984,6,0,B|208:84|208:84|218:108|218:108|212:163,1,143.999995605469,6|0,3:2|0:0,0:0:0:0:
228,209,143435,2,0,P|269:186|316:189,1,95.9999970703126,10|2,3:2|0:0,0:0:0:0:
355,227,143774,1,2,0:0:0:0:
355,227,143886,2,0,P|402:230|443:207,1,95.9999970703126,2|2,3:2|0:0,0:0:0:0:
484,120,144338,1,10,3:2:0:0:
466,25,144563,1,2,0:0:0:0:
373,92,144788,6,0,L|278:75,1,95.9999970703126,2|2,3:2|0:0,0:0:0:0:
185,102,145240,1,10,3:2:0:0:
198,7,145465,1,2,0:0:0:0:
106,36,145691,2,0,P|58:39|17:16,1,95.9999970703126,2|0,3:2|0:0,0:0:0:0:
0,111,146142,2,0,P|35:141|49:187,1,95.9999970703126,10|0,3:2|0:0,0:0:0:0:
169,199,146593,6,0,P|133:229|119:275,1,95.9999970703126,2|0,3:2|0:0,0:0:0:0:
195,351,147044,1,10,3:2:0:0:
195,351,147157,1,2,0:0:0:0:
195,351,147270,2,0,L|289:334,2,95.9999970703126,2|2|0,0:0|3:2|0:0,0:0:0:0:
104,382,147946,1,10,3:2:0:0:
9,365,148171,1,2,0:0:0:0:
75,270,148398,6,0,L|169:253,1,95.9999970703126,2|2,3:2|0:0,0:0:0:0:
211,166,148849,2,0,L|116:149,1,95.9999970703126,10|2,3:2|0:0,0:0:0:0:
81,124,149187,1,8,0:0:0:0:
81,124,149300,2,0,P|58:82|61:35,1,95.9999970703126,2|10,3:2|0:0,0:0:0:0:
152,2,149751,2,0,L|246:18,1,95.9999970703126,2|10,3:2|0:0,0:0:0:0:
285,55,150089,1,8,0:0:0:0:
285,55,150202,6,0,L|379:38,1,95.9999970703126,6|2,3:2|0:0,0:0:0:0:
474,26,150653,2,0,L|457:120,1,95.9999970703126,10|2,3:2|0:0,0:0:0:0:
419,212,151104,1,2,3:2:0:0:
375,203,151216,1,2,0:0:0:0:
333,196,151329,1,2,3:2:0:0:
291,188,151442,1,2,0:0:0:0:
259,218,151556,2,0,L|276:317,1,95.9999970703126,10|2,0:0|0:0,0:0:0:0:
308,354,151894,1,2,0:0:0:0:
308,354,152007,6,0,L|402:337,1,95.9999970703126,2|2,3:2|0:0,0:0:0:0:
492,373,152458,2,0,L|508:278,1,95.9999970703126,10|2,0:0|0:0,0:0:0:0:
510,234,152796,1,10,0:0:0:0:
510,234,152909,2,0,P|464:220|433:184,1,95.9999970703126,2|2,3:2|3:2,0:0:0:0:
433,88,153360,2,0,P|478:74|509:38,1,95.9999970703126,10|2,0:0|0:0,0:0:0:0:
363,8,153811,6,0,L|315:16,1,47.9999985351563,2|0,3:2|0:0,0:0:0:0:
279,48,154037,2,0,P|281:95|262:139,2,95.9999970703126,2|8|0,0:0|0:0|0:0,0:0:0:0:
192,5,154713,1,2,3:2:0:0:
98,27,154939,1,2,3:2:0:0:
68,118,155164,1,10,0:0:0:0:
134,187,155390,1,2,0:0:0:0:
47,264,155615,6,0,L|30:357,1,95.9999970703126,2|2,3:2|3:2,0:0:0:0:
123,382,156067,1,10,0:0:0:0:
205,329,156292,1,2,0:0:0:0:
205,329,156405,1,8,0:0:0:0:
205,329,156518,2,0,L|213:281,2,47.9999985351563,0|8|8,3:2|0:0|0:0,0:0:0:0:
293,365,156969,2,0,P|334:342|382:344,1,95.9999970703126,2|8,3:2|0:0,0:0:0:0:
432,360,157307,1,8,0:0:0:0:
432,360,157420,6,0,L|406:218,1,143.999995605469,6|0,3:2|0:0,0:0:0:0:
367,190,157871,2,0,L|383:95,1,95.9999970703126,10|0,3:2|0:0,0:0:0:0:
366,55,158210,1,2,0:0:0:0:
366,55,158322,2,0,L|268:72,1,95.9999970703126,2|2,3:2|0:0,0:0:0:0:
176,87,158774,1,10,3:2:0:0:
188,181,158999,1,2,0:0:0:0:
129,291,159225,6,0,L|34:274,1,95.9999970703126,2|2,3:2|0:0,0:0:0:0:
12,181,159676,1,10,3:2:0:0:
0,87,159901,1,2,0:0:0:0:
65,16,160127,2,0,L|159:0,1,95.9999970703126,2|0,3:2|0:0,0:0:0:0:
252,25,160578,2,0,P|229:66|232:113,1,95.9999970703126,10|0,3:2|0:0,0:0:0:0:
336,166,161029,6,0,L|430:149,1,95.9999970703126,2|0,3:2|0:0,0:0:0:0:
505,225,161480,1,10,3:2:0:0:
505,225,161593,1,2,0:0:0:0:
505,225,161705,2,0,L|488:319,2,95.9999970703126,2|2|0,0:0|3:2|0:0,0:0:0:0:
411,247,162382,1,10,3:2:0:0:
362,331,162607,1,2,0:0:0:0:
258,384,162834,6,0,P|239:340|200:313,1,95.9999970703126,2|2,3:2|0:0,0:0:0:0:
104,308,163285,2,0,L|120:213,1,95.9999970703126,10|2,3:2|0:0,0:0:0:0:
134,118,163736,1,2,3:2:0:0:
217,165,163962,1,10,0:0:0:0:
303,123,164187,2,0,P|350:119|391:142,1,95.9999970703126,2|10,3:2|0:0,0:0:0:0:
439,127,164525,1,8,0:0:0:0:
439,127,164638,6,0,P|435:79|458:38,1,95.9999970703126,6|2,3:2|0:0,0:0:0:0:
369,0,165089,2,0,L|274:16,1,95.9999970703126,10|2,0:0|0:0,0:0:0:0:
186,49,165540,1,2,3:2:0:0:
188,91,165652,1,2,0:0:0:0:
176,132,165765,1,2,3:2:0:0:
184,174,165878,1,2,0:0:0:0:
197,216,165992,2,0,L|103:233,1,95.9999970703126,10|2,0:0|0:0,0:0:0:0:
102,352,166443,5,2,3:2:0:0:
144,354,166555,1,2,0:0:0:0:
185,342,166668,1,2,0:0:0:0:
227,350,166781,1,2,0:0:0:0:
266,370,166895,2,0,L|283:276,1,95.9999970703126,10|0,0:0|0:0,0:0:0:0:
351,208,167345,2,0,L|342:160,1,47.9999985351563,2|0,3:2|0:0,0:0:0:0:
305,129,167571,2,0,L|313:81,1,47.9999985351563,2|2,3:2|0:0,0:0:0:0:
297,36,167796,2,0,L|202:19,1,95.9999970703126,10|2,0:0|0:0,0:0:0:0:
125,77,168247,6,0,L|77:85,1,47.9999985351563,2|2,3:2|0:0,0:0:0:0:
29,91,168473,2,0,P|30:43|13:0,2,95.9999970703126,2|8|0,0:0|0:0|0:0,0:0:0:0:
85,168,169150,2,0,L|76:215,2,47.9999985351563,2|8|10,3:2|0:0|0:0,0:0:0:0:
180,156,169600,1,10,0:0:0:0:
125,77,169826,1,10,0:0:0:0:
243,67,170052,6,0,L|337:50,1,95.9999970703126,6|2,3:2|3:2,0:0:0:0:
432,35,170503,1,2,3:2:0:0:
403,126,170728,1,2,3:2:0:0:
473,190,170954,2,0,P|441:252|445:323,1,143.999995605469,2|0,3:2|0:0,0:0:0:0:
416,361,171405,2,0,L|274:335,1,143.999995605469,2|0,0:0|0:0,0:0:0:0:
247,295,171856,6,0,L|160:310,1,88.000002685547,6|2,3:2|0:0,0:0:0:0:
143,214,172307,2,0,L|229:198,1,88.000002685547,8|2,3:2|0:0,0:0:0:0:
302,134,172758,2,0,L|317:47,1,88.000002685547,0|2,3:2|0:0,0:0:0:0:
413,58,173209,2,0,L|397:144,1,88.000002685547,8|2,3:2|0:0,0:0:0:0:
426,237,173661,6,0,L|512:252,1,88.000002685547,0|2,3:2|0:0,0:0:0:0:
498,348,174112,2,0,L|411:332,1,88.000002685547,8|2,3:2|0:0,0:0:0:0:
332,276,174563,2,0,L|245:291,1,88.000002685547,2|0,3:2|0:0,0:0:0:0:
165,347,175014,2,0,L|78:331,1,88.000002685547,10|0,3:2|0:0,0:0:0:0:
22,251,175465,6,0,P|41:213|38:169,1,88.000002685547,2|2,3:2|0:0,0:0:0:0:
67,77,175916,2,0,P|110:79|149:60,1,88.000002685547,8|2,3:2|0:0,0:0:0:0:
241,91,176367,2,0,P|221:129|224:173,1,88.000002685547,2|2,3:2|0:0,0:0:0:0:
208,269,176818,2,0,P|169:249|125:252,1,88.000002685547,10|2,3:2|0:0,0:0:0:0:
228,367,177270,6,0,P|271:369|310:350,1,88.000002685547,2|2,3:2|0:0,0:0:0:0:
358,266,177721,2,0,L|342:179,1,88.000002685547,10|2,3:2|0:0,0:0:0:0:
308,153,178059,1,10,0:0:0:0:
308,153,178172,2,0,L|323:66,1,88.000002685547,2|10,3:2|0:0,0:0:0:0:
251,0,178623,2,0,L|207:7,1,44.0000013427735,2|0,3:2|0:0,0:0:0:0:
173,42,178849,2,0,L|129:34,1,44.0000013427735,10|8,0:0|0:0,0:0:0:0:
81,34,179074,6,0,B|105:93|105:93|84:203,1,176.000005371094,6|8,3:2|0:0,0:0:0:0:
13,267,179751,1,2,0:0:0:0:
13,267,179864,1,2,0:0:0:0:
13,267,179976,2,0,L|28:353,1,88.000002685547,2|2,3:2|3:2,0:0:0:0:
120,383,180427,2,0,L|163:375,1,44.0000013427735,10|0,0:0|0:0,0:0:0:0:
196,339,180653,2,0,L|239:346,1,44.0000013427735,2|2,0:0|0:0,0:0:0:0:
278,376,180879,6,0,P|316:356|360:359,1,88.000002685547,6|2,3:2|0:0,0:0:0:0:
455,375,181330,2,0,L|438:280,1,88.000002685547,10|0,0:0|0:0,0:0:0:0:
372,218,181781,2,0,L|379:173,1,44.0000013427735,2|2,3:2|0:0,0:0:0:0:
354,133,182006,2,0,L|361:89,1,44.0000013427735,2|2,3:2|0:0,0:0:0:0:
375,42,182232,2,0,P|418:44|457:25,1,88.000002685547,10|0,0:0|0:0,0:0:0:0:
510,105,182683,6,0,L|494:191,1,88.000002685547,6|2,3:2|0:0,0:0:0:0:
450,277,183134,2,0,L|465:363,1,88.000002685547,10|2,0:0|0:0,0:0:0:0:
370,382,183585,1,2,3:2:0:0:
299,315,183811,2,0,L|270:320,2,29.3333342285157,2|2|2,3:2|0:0|0:0,0:0:0:0:
315,286,184037,2,0,P|302:244|305:200,2,88.000002685547,10|2|0,0:0|0:0|3:2,0:0:0:0:
396,233,184713,6,0,P|402:189|423:151,2,88.000002685547,2|10|2,0:0|0:0|0:0,0:0:0:0:
458,307,185390,2,0,L|450:351,2,44.0000013427735,0|8|10,3:2|0:0|0:0,0:0:0:0:
501,220,185841,1,10,0:0:0:0:
436,162,186067,1,8,0:0:0:0:
436,162,186179,1,8,0:0:0:0:
436,162,186292,6,0,L|452:75,1,88.000002685547,6|0,3:2|0:0,0:0:0:0:
430,37,186631,1,2,0:0:0:0:
430,37,186743,2,0,L|342:52,1,88.000002685547,10|2,3:2|0:0,0:0:0:0:
247,64,187194,1,2,3:2:0:0:
276,166,187420,1,2,0:0:0:0:
276,166,187533,1,2,0:0:0:0:
276,166,187646,2,0,L|283:209,1,44.0000013427735,10|2,3:2|0:0,0:0:0:0:
323,237,187871,2,0,L|315:280,1,44.0000013427735,2|2,0:0|0:0,0:0:0:0:
296,325,188097,6,0,P|253:327|214:308,1,88.000002685547,2|2,3:2|0:0,0:0:0:0:
170,220,188548,2,0,P|127:218|88:237,1,88.000002685547,10|2,3:2|0:0,0:0:0:0:
6,183,188999,2,0,L|21:96,1,88.000002685547,2|2,3:2|0:0,0:0:0:0:
32,52,189337,1,0,0:0:0:0:
32,52,189450,2,0,L|118:36,1,88.000002685547,10|2,3:2|0:0,0:0:0:0:
211,7,189901,6,0,P|254:5|293:24,1,88.000002685547,2|2,3:2|0:0,0:0:0:0:
329,64,190240,1,2,0:0:0:0:
329,64,190352,2,0,P|372:65|411:46,1,88.000002685547,10|2,3:2|0:0,0:0:0:0:
504,17,190803,2,0,L|496:60,1,44.0000013427735,2|2,3:2|0:0,0:0:0:0:
476,104,191029,2,0,L|483:147,1,44.0000013427735,2|2,0:0|0:0,0:0:0:0:
509,189,191255,2,0,L|493:275,1,88.000002685547,10|2,3:2|0:0,0:0:0:0:
478,371,191706,6,0,P|438:351|395:353,1,88.000002685547,2|2,3:2|0:0,0:0:0:0:
357,382,192044,1,2,0:0:0:0:
357,382,192157,2,0,P|313:383|274:364,1,88.000002685547,10|2,3:2|0:0,0:0:0:0:
255,325,192495,1,2,0:0:0:0:
255,325,192608,2,0,P|211:323|172:342,1,88.000002685547,2|10,3:2|0:0,0:0:0:0:
83,381,193059,1,2,3:2:0:0:
8,337,193285,1,10,0:0:0:0:
8,337,193397,1,10,0:0:0:0:
8,337,193510,6,0,L|23:250,1,88.000002685547,2|2,3:2|0:0,0:0:0:0:
109,205,193961,2,0,L|93:118,1,88.000002685547,8|2,3:2|0:0,0:0:0:0:
80,22,194412,1,0,3:2:0:0:
170,56,194638,1,0,3:2:0:0:
265,40,194864,2,0,L|308:32,2,44.0000013427735,10|2|2,0:0|0:0|0:0,0:0:0:0:
227,129,195315,6,0,L|219:172,2,44.0000013427735,2|2|2,3:2|0:0|0:0,0:0:0:0:
323,122,195766,2,0,L|307:208,1,88.000002685547,10|2,0:0|0:0,0:0:0:0:
267,233,196104,1,10,0:0:0:0:
267,233,196217,2,0,L|282:319,1,88.000002685547,2|2,3:2|3:2,0:0:0:0:
376,341,196668,2,0,L|368:384,2,44.0000013427735,10|2|2,0:0|0:0|0:0,0:0:0:0:
464,301,197119,6,0,L|448:214,1,88.000002685547,6|0,3:2|0:0,0:0:0:0:
432,118,197570,1,10,0:0:0:0:
344,143,197796,1,2,0:0:0:0:
344,143,197909,1,8,0:0:0:0:
344,143,198021,2,0,L|300:150,2,44.0000013427735,2|8|8,3:2|0:0|0:0,0:0:0:0:
363,47,198473,1,8,3:2:0:0:
281,16,198698,1,8,0:0:0:0:
281,16,198811,1,8,0:0:0:0:
281,16,198924,5,6,3:2:0:0:
203,73,199149,1,2,3:2:0:0:
248,158,199375,2,0,L|232:244,1,88.000002685547,2|0,3:2|3:2,0:0:0:0:
189,331,199826,2,0,B|242:347|273:329|273:329|284:329|284:329|333:313|362:329,1,176.000005371094,2|0,3:2|0:0,0:0:0:0:
495,368,200728,5,4,3:2:0:0:
495,16,202533,1,4,3:2:0:0:
256,85,204337,2,0,L|256:167,1,64,0|0,3:2|0:0,0:0:0:0:
256,361,205240,2,0,L|256:297,1,64,4|0,0:0|0:0,0:0:0:0:
