osu file format v14

[General]
AudioFilename: audio.mp3
AudioLeadIn: 0
PreviewTime: 81128
Countdown: 0
SampleSet: Soft
StackLeniency: 0.6
Mode: 0
LetterboxInBreaks: 0
WidescreenStoryboard: 0

[Editor]
DistanceSpacing: 1.1
BeatDivisor: 4
GridSize: 16
TimelineZoom: 2.1

[Metadata]
Title:Rock na Kimi to wa Owakare da
TitleUnicode:ロックな君とはお別れだ
Artist:TUYU
ArtistUnicode:ツユ
Creator:Seros
Version:Farewell Extra
Source:
Tags:japanese pop tsuyu I'm Saying Farewell to that Rock-and-Roll You Yappari ame wa furu 'nda ne It's Raining After All ぷす 礼衣 おむたつ climbx3145 Irin sukiNathan Nathan BinFhone BF too jpop jrock
BeatmapID:2417645
BeatmapSetID:1158494

[Difficulty]
HPDrainRate:5
CircleSize:4
OverallDifficulty:8.3
ApproachRate:9.2
SliderMultiplier:1.8
SliderTickRate:1

[Events]
//Background and Video events
Video,-260,"video.mp4"
0,0,"bg.jpg",0,0
//Break Periods
//Storyboard Layer 0 (Background)
//Storyboard Layer 1 (Fail)
//Storyboard Layer 2 (Pass)
//Storyboard Layer 3 (Foreground)
//Storyboard Layer 4 (Overlay)
//Storyboard Sound Samples

[TimingPoints]
428,451.127819548872,4,2,1,80,1,0
428,-200,4,2,1,80,0,0
4036,-100,4,2,1,70,0,0
4262,-100,4,2,1,5,0,0
4488,-100,4,2,1,70,0,0
4713,-100,4,2,1,5,0,0
4939,-100,4,2,1,60,0,0
5841,-200,4,2,1,60,0,0
6067,-200,4,2,1,5,0,0
6292,-200,4,2,1,60,0,0
6518,-200,4,2,1,5,0,0
6743,-200,4,2,1,60,0,0
6969,-200,4,2,1,5,0,0
7194,-200,4,2,1,60,0,0
7420,-200,4,2,1,5,0,0
7646,-200,4,2,1,60,0,0
7871,-200,4,2,1,5,0,0
8097,-200,4,2,1,60,0,0
8322,-200,4,2,1,5,0,0
8548,-200,4,2,1,60,0,0
8773,-200,4,2,1,5,0,0
8999,-200,4,2,1,60,0,0
9224,-200,4,2,1,5,0,0
9450,-100,4,2,1,70,0,0
9563,-100,4,2,1,5,0,0
9676,-100,4,2,1,70,0,0
10803,-100,4,2,1,70,0,0
11142,-100,4,2,1,5,0,0
11255,-100,4,2,1,70,0,0
12157,-100,4,2,1,70,0,0
12270,-100,4,2,1,5,0,0
12382,-100,4,2,1,70,0,0
12495,-100,4,2,1,5,0,0
12608,-100,4,2,1,70,0,0
12946,-100,4,2,1,5,0,0
13059,-200,4,2,1,60,0,0
13285,-200,4,2,1,5,0,0
13510,-200,4,2,1,60,0,0
13736,-200,4,2,1,5,0,0
13961,-200,4,2,1,60,0,0
14187,-200,4,2,1,5,0,0
14412,-200,4,2,1,60,0,0
14638,-200,4,2,1,5,0,0
14864,-200,4,2,1,60,0,0
15089,-200,4,2,1,5,0,0
15315,-200,4,2,1,60,0,0
15540,-200,4,2,1,5,0,0
15766,-200,4,2,1,60,0,0
15991,-200,4,2,1,5,0,0
16217,-200,4,2,1,70,0,0
16668,-100,4,2,1,70,0,0
17683,-100,4,2,1,5,0,0
17796,-100,4,2,1,70,0,0
18473,-66.6666666666667,4,2,1,70,0,0
18811,-100,4,2,1,5,0,0
18924,-76.9230769230769,4,2,1,70,0,0
19262,-100,4,2,1,5,0,0
19375,-100,4,2,1,70,0,0
20277,-66.6666666666667,4,2,1,70,0,1
20615,-66.6666666666667,4,2,1,5,0,1
20728,-66.6666666666667,4,2,1,70,0,1
21856,-50,4,2,1,70,0,1
22082,-66.6666666666667,4,2,1,70,0,1
22194,-66.6666666666667,4,2,1,5,0,1
22307,-66.6666666666667,4,2,1,70,0,1
22420,-66.6666666666667,4,2,1,5,0,1
22533,-66.6666666666667,4,2,1,70,0,1
22646,-66.6666666666667,4,2,1,5,0,1
22758,-66.6666666666667,4,2,1,70,0,1
22871,-66.6666666666667,4,2,1,5,0,1
22984,-83.3333333333333,4,2,1,70,0,1
23322,-83.3333333333333,4,2,1,5,0,1
23435,-66.6666666666667,4,2,1,70,0,1
23886,-66.6666666666667,4,2,1,70,0,1
25803,-66.6666666666667,4,2,1,5,0,1
25916,-66.6666666666667,4,2,1,70,0,1
26029,-66.6666666666667,4,2,1,5,0,1
26142,-66.6666666666667,4,2,1,70,0,1
26706,-66.6666666666667,4,2,1,5,0,1
26818,-66.6666666666667,4,2,1,70,0,1
26931,-66.6666666666667,4,2,1,5,0,1
27044,-66.6666666666667,4,2,1,70,0,1
27157,-66.6666666666667,4,2,1,5,0,1
27270,-66.6666666666667,4,2,1,70,0,1
35052,-66.6666666666667,4,2,1,5,0,1
35164,-66.6666666666667,4,2,1,70,0,1
36292,-50,4,2,1,70,0,1
36518,-66.6666666666667,4,2,1,70,0,1
36630,-66.6666666666667,4,2,1,5,0,1
36743,-66.6666666666667,4,2,1,70,0,1
36856,-66.6666666666667,4,2,1,5,0,1
36969,-66.6666666666667,4,2,1,70,0,1
37082,-66.6666666666667,4,2,1,5,0,1
37194,-66.6666666666667,4,2,1,70,0,1
37307,-66.6666666666667,4,2,1,5,0,1
37420,-83.3333333333333,4,2,1,70,0,1
37758,-83.3333333333333,4,2,1,5,0,1
37871,-66.6666666666667,4,2,1,70,0,1
38322,-66.6666666666667,4,2,1,70,0,1
40239,-66.6666666666667,4,2,1,5,0,1
40352,-66.6666666666667,4,2,1,70,0,1
40465,-66.6666666666667,4,2,1,5,0,1
40578,-66.6666666666667,4,2,1,70,0,1
40691,-66.6666666666667,4,2,1,5,0,1
40803,-66.6666666666667,4,2,1,70,0,1
40916,-66.6666666666667,4,2,1,5,0,1
41029,-66.6666666666667,4,2,1,70,0,1
41142,-66.6666666666667,4,2,1,5,0,1
41255,-66.6666666666667,4,2,1,70,0,1
41367,-66.6666666666667,4,2,1,5,0,1
41480,-66.6666666666667,4,2,1,70,0,1
41593,-66.6666666666667,4,2,1,5,0,1
41706,-66.6666666666667,4,2,1,70,0,1
47570,-57.1428571428571,4,2,1,70,0,1
47796,-50,4,2,1,70,0,1
48021,-44.4444444444445,4,2,1,70,0,1
48247,-80,4,2,1,70,0,1
48585,-66.6666666666667,4,2,1,5,0,1
48698,-66.6666666666667,4,2,1,70,0,1
49036,-66.6666666666667,4,2,1,5,0,1
49149,-100,4,2,1,70,0,0
50841,-117.647058823529,4,2,1,5,0,0
50954,-333.333333333333,4,2,1,70,0,0
51067,-333.333333333333,4,2,1,5,0,0
51405,-333.333333333333,4,2,1,70,0,0
51518,-333.333333333333,4,2,1,5,0,0
51856,-333.333333333333,4,2,1,70,0,0
51969,-333.333333333333,4,2,1,5,0,0
52758,-100,4,2,1,70,0,0
58285,-100,4,2,1,5,0,0
58397,-100,4,2,1,70,0,0
68999,-100,4,2,1,50,0,0
76217,-100,4,2,1,60,0,0
78473,-80,4,2,1,70,0,0
78924,-66.6666666666667,4,2,1,70,0,0
79375,-57.1428571428571,4,2,1,70,0,0
79600,-100,4,2,1,70,0,0
81631,-66.6666666666667,4,2,1,70,0,1
81969,-66.6666666666667,4,2,1,5,0,1
82082,-66.6666666666667,4,2,1,70,0,1
83209,-50,4,2,1,70,0,1
83435,-66.6666666666667,4,2,1,70,0,1
83548,-66.6666666666667,4,2,1,5,0,1
83661,-66.6666666666667,4,2,1,70,0,1
83773,-66.6666666666667,4,2,1,5,0,1
83886,-66.6666666666667,4,2,1,70,0,1
83999,-66.6666666666667,4,2,1,5,0,1
84112,-66.6666666666667,4,2,1,70,0,1
84224,-66.6666666666667,4,2,1,5,0,1
84337,-83.3333333333333,4,2,1,70,0,1
84676,-83.3333333333333,4,2,1,5,0,1
84788,-66.6666666666667,4,2,1,70,0,1
85239,-66.6666666666667,4,2,1,70,0,1
87157,-66.6666666666667,4,2,1,5,0,1
87270,-66.6666666666667,4,2,1,70,0,1
87382,-66.6666666666667,4,2,1,5,0,1
87495,-66.6666666666667,4,2,1,70,0,1
88059,-66.6666666666667,4,2,1,5,0,1
88172,-66.6666666666667,4,2,1,70,0,1
88285,-66.6666666666667,4,2,1,5,0,1
88397,-66.6666666666667,4,2,1,70,0,1
88510,-66.6666666666667,4,2,1,5,0,1
88623,-66.6666666666667,4,2,1,70,0,1
96405,-66.6666666666667,4,2,1,5,0,1
96518,-66.6666666666667,4,2,1,70,0,1
97984,-66.6666666666667,4,2,1,5,0,1
98097,-66.6666666666667,4,2,1,70,0,1
98209,-66.6666666666667,4,2,1,5,0,1
98322,-66.6666666666667,4,2,1,70,0,1
98435,-66.6666666666667,4,2,1,5,0,1
98548,-66.6666666666667,4,2,1,70,0,1
98661,-66.6666666666667,4,2,1,5,0,1
98773,-83.3333333333333,4,2,1,70,0,1
99112,-83.3333333333333,4,2,1,5,0,1
99224,-66.6666666666667,4,2,1,70,0,1
99676,-66.6666666666667,4,2,1,70,0,1
101593,-66.6666666666667,4,2,1,5,0,1
101706,-66.6666666666667,4,2,1,70,0,1
101818,-66.6666666666667,4,2,1,5,0,1
101931,-66.6666666666667,4,2,1,70,0,1
102044,-66.6666666666667,4,2,1,5,0,1
102157,-66.6666666666667,4,2,1,70,0,1
102270,-66.6666666666667,4,2,1,5,0,1
102382,-66.6666666666667,4,2,1,70,0,1
102495,-66.6666666666667,4,2,1,5,0,1
102608,-66.6666666666667,4,2,1,70,0,1
102721,-66.6666666666667,4,2,1,5,0,1
102833,-66.6666666666667,4,2,1,70,0,1
102946,-66.6666666666667,4,2,1,5,0,1
103059,-66.6666666666667,4,2,1,70,0,1
108924,-57.1428571428571,4,2,1,70,0,1
109149,-50,4,2,1,70,0,1
109375,-44.4444444444445,4,2,1,70,0,1
109600,-80,4,2,1,70,0,1
110503,-100,4,2,1,70,0,0
114112,-100,4,2,1,50,0,0
121330,-100,4,2,1,60,0,0
123585,-80,4,2,1,70,0,0
124036,-66.6666666666667,4,2,1,70,0,0
124488,-57.1428571428571,4,2,1,70,0,0
124713,-100,4,2,1,70,0,0
126743,-200,4,2,1,60,0,0
126969,-200,4,2,1,5,0,0
127194,-200,4,2,1,60,0,0
127420,-200,4,2,1,5,0,0
127646,-200,4,2,1,60,0,0
127871,-200,4,2,1,5,0,0
128097,-200,4,2,1,60,0,0
128322,-200,4,2,1,5,0,0
128548,-200,4,2,1,60,0,0
128773,-200,4,2,1,5,0,0
128999,-200,4,2,1,60,0,0
129224,-200,4,2,1,5,0,0
129450,-200,4,2,1,60,0,0
129676,-200,4,2,1,5,0,0
129901,-200,4,2,1,60,0,0
130127,-200,4,2,1,5,0,0
130352,-100,4,2,1,60,0,0
130465,-100,4,2,1,5,0,0
130578,-100,4,2,1,70,0,0
132044,-100,4,2,1,5,0,0
132157,-100,4,2,1,70,0,0
133172,-100,4,2,1,5,0,0
133285,-100,4,2,1,70,0,0
133397,-100,4,2,1,5,0,0
133510,-100,4,2,1,70,0,0
133849,-100,4,2,1,5,0,0
133961,-200,4,2,1,60,0,0
134187,-200,4,2,1,5,0,0
134412,-200,4,2,1,60,0,0
134638,-200,4,2,1,5,0,0
134864,-200,4,2,1,60,0,0
135089,-200,4,2,1,5,0,0
135315,-200,4,2,1,60,0,0
135540,-200,4,2,1,5,0,0
135766,-200,4,2,1,60,0,0
135991,-200,4,2,1,5,0,0
136217,-200,4,2,1,50,0,0
136443,-200,4,2,1,5,0,0
136668,-200,4,2,1,60,0,0
136894,-200,4,2,1,5,0,0
137119,-200,4,2,1,60,0,0
137570,-100,4,2,1,70,0,0
138585,-100,4,2,1,5,0,0
138698,-100,4,2,1,70,0,0
139375,-66.6666666666667,4,2,1,70,0,0
139713,-100,4,2,1,5,0,0
139826,-76.9230769230769,4,2,1,70,0,0
140164,-100,4,2,1,5,0,0
140277,-100,4,2,1,70,0,0
140615,-100,4,2,1,70,0,0
140728,-100,4,2,1,70,0,0
140954,-100,4,2,1,50,0,0
142533,-120.481927710843,4,2,1,70,0,0
142984,-59.8802395209581,4,2,1,75,0,1
144901,-59.8802395209581,4,2,1,5,0,1
145014,-59.8802395209581,4,2,1,75,0,1
145127,-59.8802395209581,4,2,1,5,0,1
145240,-59.8802395209581,4,2,1,75,0,1
145352,-59.8802395209581,4,2,1,5,0,1
145465,-59.8802395209581,4,2,1,75,0,1
145578,-59.8802395209581,4,2,1,5,0,1
145691,-59.8802395209581,4,2,1,75,0,1
146029,-59.8802395209581,4,2,1,5,0,1
146142,-90.0900900900901,4,2,1,75,0,1
146593,-59.8802395209581,4,2,1,75,0,1
148510,-59.8802395209581,4,2,1,5,0,1
148623,-59.8802395209581,4,2,1,75,0,1
148736,-59.8802395209581,4,2,1,5,0,1
148849,-59.8802395209581,4,2,1,75,0,1
149412,-59.8802395209581,4,2,1,5,0,1
149525,-59.8802395209581,4,2,1,75,0,1
149638,-59.8802395209581,4,2,1,5,0,1
149751,-59.8802395209581,4,2,1,75,0,1
149864,-59.8802395209581,4,2,1,5,0,1
149976,-59.8802395209581,4,2,1,75,0,1
157420,-59.8802395209581,4,2,1,80,0,1
159337,-59.8802395209581,4,2,1,5,0,1
159450,-59.8802395209581,4,2,1,80,0,1
159563,-59.8802395209581,4,2,1,5,0,1
159676,-59.8802395209581,4,2,1,80,0,1
159788,-59.8802395209581,4,2,1,5,0,1
159901,-59.8802395209581,4,2,1,80,0,1
160014,-59.8802395209581,4,2,1,5,0,1
160127,-59.8802395209581,4,2,1,80,0,1
160465,-59.8802395209581,4,2,1,5,0,1
160578,-90.0900900900901,4,2,1,80,0,1
161029,-59.8802395209581,4,2,1,80,0,1
162946,-59.8802395209581,4,2,1,5,0,1
163059,-59.8802395209581,4,2,1,80,0,1
163172,-59.8802395209581,4,2,1,5,0,1
163285,-59.8802395209581,4,2,1,80,0,1
163397,-59.8802395209581,4,2,1,5,0,1
163510,-59.8802395209581,4,2,1,80,0,1
163623,-59.8802395209581,4,2,1,5,0,1
163736,-59.8802395209581,4,2,1,80,0,1
163849,-59.8802395209581,4,2,1,5,0,1
163961,-59.8802395209581,4,2,1,80,0,1
164074,-59.8802395209581,4,2,1,5,0,1
164187,-59.8802395209581,4,2,1,80,0,1
164300,-59.8802395209581,4,2,1,5,0,1
164412,-59.8802395209581,4,2,1,80,0,1
170052,-57.1428571428571,4,2,1,80,0,1
170277,-50,4,2,1,82,0,1
170503,-40,4,2,1,86,0,1
170728,-30.7692307692308,4,2,1,91,0,1
170954,-100,4,2,1,95,0,1
171856,-76.9230769230769,4,2,1,65,0,0
172307,-83.3333333333333,4,2,1,60,0,0
172758,-90.9090909090909,4,2,1,55,0,0
173209,-66.6666666666667,4,2,1,65,0,0
173661,-76.9230769230769,4,2,1,65,0,0
174112,-83.3333333333333,4,2,1,60,0,0
174563,-90.9090909090909,4,2,1,55,0,0
175014,-66.6666666666667,4,2,1,65,0,0
175465,-76.9230769230769,4,2,1,65,0,0
175916,-83.3333333333333,4,2,1,60,0,0
176367,-90.9090909090909,4,2,1,55,0,0
176818,-66.6666666666667,4,2,1,65,0,0
177270,-76.9230769230769,4,2,1,65,0,0
177721,-83.3333333333333,4,2,1,60,0,0
179074,-66.6666666666667,4,2,1,65,0,0
182909,-62.5,4,2,1,65,0,0
183134,-58.8235294117647,4,2,1,65,0,0
183360,-55.5555555555556,4,2,1,65,0,0
183585,-52.6315789473684,4,2,1,65,0,0
184713,-66.6666666666667,4,2,1,65,0,0
192834,-58.8235294117647,4,2,1,65,0,0
193059,-52.6315789473684,4,2,1,65,0,0
193510,-76.9230769230769,4,2,1,65,0,0
197796,-71.4285714285714,4,2,1,65,0,0
198473,-66.6666666666667,4,2,1,65,0,0
198924,-66.6666666666667,4,2,1,70,0,0
199149,-47.6190476190476,4,2,1,70,0,0
199375,-39.2156862745098,4,2,1,70,0,0
199600,-30.3030303030303,4,2,1,70,0,0
199826,-66.6666666666667,4,2,1,70,0,0
200728,-200,4,2,1,70,0,0
202533,-200,4,2,1,60,0,0
204337,-200,4,2,1,50,0,0
204563,-200,4,2,1,5,0,0
205239,-200,4,2,1,30,0,0
205465,-200,4,2,1,5,0,0

[Colours]
Combo1 : 249,147,172
Combo2 : 213,0,106
Combo3 : 255,128,192
Combo4 : 192,135,173

[HitObjects]
256,192,428,6,0,L|256:288,1,90,4|0,0:0|0:0,0:0:0:0:
256,192,2232,6,0,L|256:96,1,90,4|0,0:0|0:0,0:0:0:0:
308,296,4037,6,0,L|315:200,1,90,2|0,0:0|0:0,0:0:0:0:
190,129,4488,2,0,L|198:224,1,90,2|0,0:0|0:0,0:0:0:0:
317,112,4939,5,2,3:2:0:0:
190,27,5164,1,2,3:2:0:0:
81,135,5390,1,2,0:0:0:0:
81,135,5503,2,0,L|111:102,2,45,8|8|8,0:0|0:0|0:0,0:0:0:0:
49,245,5841,6,0,L|95:286,1,45,10|0,0:1|0:0,0:1:0:0:
144,131,6292,2,0,L|98:90,1,45,10|0,0:1|0:0,0:1:0:0:
49,245,6743,2,0,L|95:286,1,45,10|0,0:1|0:0,0:1:0:0:
144,131,7194,2,0,L|98:90,1,45,10|0,0:1|0:0,0:1:0:0:
162,343,7646,6,0,L|203:297,1,45,10|0,0:1|0:0,0:1:0:0:
49,245,8097,2,0,L|8:291,1,45,10|0,0:1|0:0,0:1:0:0:
162,343,8548,2,0,L|203:297,1,45,10|0,0:1|0:0,0:1:0:0:
49,245,8999,2,0,L|8:291,1,45,10|0,0:1|0:1,0:1:0:0:
144,131,9450,6,0,L|177:94,1,45,10|0,0:1|0:0,0:0:0:0:
234,30,9676,1,2,0:0:0:0:
234,30,9788,1,2,0:0:0:0:
317,82,9901,5,10,0:1:0:0:
294,121,10014,1,2,0:0:0:0:
290,166,10127,1,2,0:0:0:0:
308,208,10240,1,2,0:0:0:0:
409,139,10352,5,10,0:1:0:0:
432,100,10465,1,2,0:0:0:0:
436,55,10578,1,2,0:0:0:0:
418,13,10691,1,2,0:0:0:0:
317,82,10803,2,0,P|376:100|454:82,1,135,10|0,0:1|0:0,0:0:0:0:
506,167,11255,5,10,0:1:0:0:
508,189,11367,1,2,0:0:0:0:
510,211,11480,1,2,0:0:0:0:
512,233,11593,1,2,0:0:0:0:
408,195,11706,5,10,0:1:0:0:
396,165,11818,1,2,0:0:0:0:
311,211,11931,1,2,0:0:0:0:
302,243,12044,1,2,0:0:0:0:
221,138,12157,6,0,L|225:92,1,45,10|0,0:1|0:0,0:0:0:0:
121,172,12382,2,0,L|117:218,1,45,2|0,0:0|0:0,0:0:0:0:
202,368,12608,2,0,L|213:230,1,135,10|0,0:1|0:0,0:0:0:0:
226,68,13059,6,0,L|276:75,1,45,10|0,0:1|0:0,0:0:0:0:
349,203,13510,2,0,L|299:196,1,45,10|0,0:1|0:0,0:0:0:0:
226,68,13961,2,0,L|276:75,1,45,10|0,0:1|0:0,0:0:0:0:
349,203,14412,2,0,L|299:196,1,45,10|0,0:1|0:0,0:0:0:0:
439,73,14864,6,0,L|432:123,1,45,10|0,0:1|0:0,0:0:0:0:
304,196,15315,2,0,L|311:146,1,45,10|0,0:1|0:0,0:0:0:0:
439,73,15766,2,0,L|432:123,1,45,10|0,0:1|0:0,0:0:0:0:
304,196,16217,2,0,L|311:146,1,45,10|0,0:1|0:0,0:0:0:0:
323,73,16668,5,6,3:2:0:0:
434,318,16894,1,2,3:2:0:0:
398,241,17006,1,0,3:0:0:0:
330,302,17119,5,2,0:0:0:0:
326,316,17231,1,8,0:0:0:0:
322,331,17344,1,10,0:0:0:0:
319,345,17457,1,8,0:0:0:0:
189,353,17570,2,0,P|175:311|175:279,1,45,14|0,0:0|0:0,0:0:0:0:
224,174,17796,1,10,0:0:0:0:
249,203,17909,2,0,B|258:316,2,90,8|8|8,0:0|0:0|0:0,0:0:0:0:
235,80,18473,5,2,3:2:0:0:
235,80,18698,2,0,P|284:64|326:73,1,67.5000025749208,2|0,0:0|0:0,0:0:0:0:
158,228,18924,1,2,3:2:0:0:
158,228,19149,2,0,P|117:201|83:201,1,58.4999973220826,2|0,0:0|0:0,0:0:0:0:
334,197,19375,1,2,3:2:0:0:
334,197,19600,2,0,P|365:189|395:168,1,45,8|8,0:0|0:0,0:0:0:0:
369,95,19826,5,10,0:0:0:0:
369,95,19939,1,8,0:0:0:0:
369,95,20052,1,8,0:0:0:0:
369,95,20164,1,8,0:0:0:0:
429,22,20277,6,0,B|504:219,1,202.500007724762,6|0,3:2|0:0,0:0:0:0:
364,357,20728,2,0,B|299:184,1,135.000005149842,10|2,3:2|0:0,0:0:0:0:
284,159,21067,1,2,0:0:0:0:
16,253,21179,6,0,P|33:288|56:307,1,67.5000025749208,2|0,3:2|0:0,0:0:0:0:
167,225,21405,2,0,P|161:258|144:287,1,67.5000025749208,2|0,0:0|0:0,0:0:0:0:
116,384,21631,1,10,3:2:0:0:
73,137,21856,2,0,L|91:239,1,90,2|0,0:0|0:0,0:0:0:0:
260,384,22082,6,0,P|276:337|272:301,1,67.5000025749208,2|0,3:2|0:0,0:0:0:0:
374,368,22307,2,0,P|364:319|342:290,1,67.5000025749208,2|0,0:0|0:0,0:0:0:0:
347,182,22533,2,0,P|374:201|392:229,1,67.5000025749208,10|0,3:2|0:0,0:0:0:0:
469,190,22758,2,0,P|482:220|484:254,1,67.5000025749208,2|2,0:0|0:0,0:0:0:0:
469,365,22984,2,0,L|520:181,1,161.999995056153,2|0,3:2|0:0,0:0:0:0:
485,70,23435,2,0,P|394:98|334:18,1,202.500007724762,10|0,3:2|0:0,0:0:0:0:
423,2,23886,6,0,L|366:199,1,202.500007724762,2|0,3:2|0:0,0:0:0:0:
442,284,24337,5,10,3:2:0:0:
452,251,24450,1,2,0:0:0:0:
462,218,24563,1,2,0:0:0:0:
432,316,24788,2,0,B|318:273|359:395|208:329,1,202.500007724762,2|0,3:2|0:0,0:0:0:0:
68,355,25240,6,0,P|48:306|50:271,1,67.5000025749208,10|0,3:2|0:0,0:0:0:0:
257,278,25465,2,0,P|249:330|230:359,1,67.5000025749208,2|2,0:0|0:0,0:0:0:0:
90,131,25691,6,0,L|161:126,1,67.5000025749208,2|0,3:2|0:0,0:0:0:0:
224,121,25916,2,0,L|153:126,1,67.5000025749208,2|0,0:0|0:0,0:0:0:0:
1,143,26142,2,0,P|30:199|102:221,1,135.000005149842,10|2,3:2|0:0,0:0:0:0:
244,211,26480,1,8,0:0:0:0:
244,211,26593,6,0,L|257:278,1,67.5000025749208,2|0,3:2|0:0,0:0:0:0:
317,149,26818,2,0,L|329:216,1,67.5000025749208,10|0,0:0|0:0,0:0:0:0:
385,95,27044,2,0,P|360:73|323:62,1,67.5000025749208,2|0,3:2|0:0,0:0:0:0:
448,170,27270,5,10,0:0:0:0:
448,170,27382,1,8,0:0:0:0:
444,263,27495,6,0,P|436:301|453:355,1,67.5000025749208,2|2,3:2|0:0,0:0:0:0:
361,384,27721,2,0,P|320:369|278:387,1,67.5000025749208,2|2,0:0|0:0,0:0:0:0:
189,351,27946,5,10,0:0:0:0:
148,341,28058,1,2,0:0:0:0:
107,332,28171,1,2,0:0:0:0:
66,323,28284,1,2,0:0:0:0:
18,195,28397,5,2,3:2:0:0:
59,224,28509,1,2,0:0:0:0:
72,273,28622,1,2,3:2:0:0:
66,323,28735,1,2,0:0:0:0:
33,362,28849,6,0,L|138:218,1,135.000005149842,10|2,0:0|0:0,0:0:0:0:
112,252,29187,1,2,0:0:0:0:
184,157,29300,2,0,P|258:168|278:224,1,135.000005149842,2|2,3:2|0:0,0:0:0:0:
270,246,29638,1,2,0:0:0:0:
384,376,29751,2,0,P|411:327|403:248,1,135.000005149842,10|2,0:0|0:0,0:0:0:0:
380,224,30089,1,8,0:0:0:0:
373,41,30202,6,0,L|435:65,1,67.5000025749208,2|0,3:2|0:0,0:0:0:0:
499,91,30427,2,0,L|436:66,1,67.5000025749208,2|0,3:2|0:0,0:0:0:0:
372,107,30653,2,0,P|367:70|380:25,1,67.5000025749208,10|0,0:0|0:0,0:0:0:0:
499,24,30879,2,0,P|504:61|491:106,1,67.5000025749208,2|0,0:0|0:0,0:0:0:0:
176,218,31104,6,0,P|145:187|141:154,1,67.5000025749208,2|0,3:2|0:0,0:0:0:0:
239,6,31330,2,0,B|227:157,2,135.000005149842,2|8|0,0:0|0:0|0:0,0:0:0:0:
197,384,32006,6,0,B|111:371,1,67.5000025749208,2|0,3:2|0:0,0:0:0:0:
64,203,32232,2,0,B|150:216,1,67.5000025749208,2|0,3:2|0:0,0:0:0:0:
37,355,32458,2,0,B|50:269,1,67.5000025749208,10|0,0:0|0:0,0:0:0:0:
225,230,32683,2,0,B|212:316,1,67.5000025749208,2|2,0:0|0:0,0:0:0:0:
465,302,32909,6,0,L|396:292,1,67.5000025749208,2|0,3:2|0:0,0:0:0:0:
327,237,33134,2,0,P|310:276|316:329,1,67.5000025749208,2|2,0:0|0:0,0:0:0:0:
444,364,33360,2,0,P|463:329|455:272,1,67.5000025749208,10|0,0:0|0:0,0:0:0:0:
427,212,33585,2,0,L|323:197,2,67.5000025749208,2|8|0,0:0|0:0|3:2,0:0:0:0:
465,217,33924,1,8,0:0:0:0:
338,116,34037,2,0,P|285:160|285:194,1,67.5000025749208,8|0,0:0|0:0,0:0:0:0:
419,97,34262,2,0,P|375:44|341:44,1,67.5000025749208,2|0,3:2|0:0,0:0:0:0:
134,110,34488,5,8,0:0:0:0:
262,56,34600,1,8,0:0:0:0:
117,24,34713,6,0,P|103:141|145:236,1,202.500007724762,2|0,3:2|0:0,0:0:0:0:
236,276,35164,2,0,P|279:205|286:143,1,135.000005149842,10|0,3:2|0:0,0:0:0:0:
262,56,35503,1,2,0:0:0:0:
420,241,35615,6,0,P|385:241|337:222,1,67.5000025749208,2|0,3:2|0:0,0:0:0:0:
488,173,35841,2,0,P|505:203|513:254,1,67.5000025749208,2|0,0:0|0:0,0:0:0:0:
405,155,36067,2,0,L|415:84,1,67.5000025749208,10|0,3:2|0:0,0:0:0:0:
428,0,36292,2,0,L|413:95,1,90,2|0,0:0|0:0,0:0:0:0:
367,324,36518,6,0,P|380:367|401:392,1,67.5000025749208,2|0,3:2|0:0,0:0:0:0:
279,297,36743,2,0,P|268:340|274:372,1,67.5000025749208,2|0,0:0|0:0,0:0:0:0:
371,234,36969,2,0,P|343:215|311:208,1,67.5000025749208,10|0,3:2|0:0,0:0:0:0:
315,124,37194,2,0,P|282:122|250:131,1,67.5000025749208,2|2,0:0|0:0,0:0:0:0:
236,276,37420,2,0,L|214:107,1,161.999995056153,2|0,3:2|0:0,0:0:0:0:
56,215,37871,2,0,P|73:317|174:330,1,202.500007724762,10|0,3:2|0:0,0:0:0:0:
149,239,38322,6,0,L|5:388,1,202.500007724762,2|0,3:2|0:0,0:0:0:0:
55,175,38773,5,10,3:2:0:0:
55,141,38886,1,2,0:0:0:0:
55,107,38999,1,2,0:0:0:0:
56,215,39224,2,0,P|131:147|232:202,1,202.500007724762,2|0,3:2|0:0,0:0:0:0:
325,277,39676,6,0,P|367:254|382:225,1,67.5000025749208,10|0,3:2|0:0,0:0:0:0:
242,118,39901,2,0,P|217:158|218:191,1,67.5000025749208,2|2,0:0|0:0,0:0:0:0:
473,62,40127,6,0,L|401:68,1,67.5000025749208,2|0,3:2|0:0,0:0:0:0:
338,73,40352,2,0,L|405:67,1,67.5000025749208,2|0,0:0|0:0,0:0:0:0:
400,0,40578,2,0,L|406:71,1,67.5000025749208,10|0,3:2|0:0,0:0:0:0:
411,134,40803,2,0,L|405:66,1,67.5000025749208,2|0,0:0|0:0,0:0:0:0:
498,216,41029,6,0,P|497:262|477:305,1,67.5000025749208,2|0,3:2|0:0,0:0:0:0:
367,240,41255,2,0,P|343:279|304:306,1,67.5000025749208,8|0,0:0|0:0,0:0:0:0:
278,152,41480,2,0,P|237:174|190:178,1,67.5000025749208,2|0,3:2|0:0,0:0:0:0:
183,50,41706,5,10,0:0:0:0:
183,50,41818,1,8,0:0:0:0:
89,128,41931,6,0,P|122:164|160:175,1,67.5000025749208,2|2,3:2|0:0,0:0:0:0:
278,152,42157,2,0,P|230:125|190:130,1,67.5000025749208,2|2,0:0|0:0,0:0:0:0:
10,194,42382,5,10,0:0:0:0:
27,153,42494,1,2,0:0:0:0:
44,112,42607,1,2,0:0:0:0:
64,71,42720,1,2,0:0:0:0:
0,0,42834,5,2,3:2:0:0:
23,43,42946,1,2,0:0:0:0:
64,71,43059,1,2,3:2:0:0:
114,77,43172,1,2,0:0:0:0:
161,61,43285,2,0,P|229:31|298:27,1,135.000005149842,10|2,0:0|0:0,0:0:0:0:
288,26,43623,1,2,0:0:0:0:
395,143,43736,6,0,P|362:198|292:194,1,135.000005149842,2|2,3:2|0:0,0:0:0:0:
284,167,44074,1,2,0:0:0:0:
380,18,44187,2,0,P|445:38|486:121,1,135.000005149842,10|2,0:0|0:0,0:0:0:0:
484,126,44525,1,8,0:0:0:0:
222,253,44638,6,0,P|205:210|211:171,1,67.5000025749208,2|0,3:2|0:0,0:0:0:0:
264,84,44864,1,2,3:2:0:0:
230,62,44976,1,2,0:0:0:0:
189,58,45089,2,0,P|152:68|121:98,1,67.5000025749208,10|0,0:0|0:0,0:0:0:0:
107,144,45315,2,0,P|94:95|81:63,1,67.5000025749208,2|0,0:0|0:0,0:0:0:0:
19,345,45540,6,0,P|65:316|79:286,1,67.5000025749208,6|2,3:2|0:0,0:0:0:0:
91,230,45766,2,0,L|142:383,2,135.000005149842,2|8|0,0:0|0:0|0:0,0:0:0:0:
91,230,46330,1,8,0:0:0:0:
209,162,46443,5,2,3:2:0:0:
209,162,46555,1,8,0:0:0:0:
209,162,46668,2,0,L|203:241,1,67.5000025749208,10|0,3:2|0:0,0:0:0:0:
344,286,46894,2,0,L|331:217,1,67.5000025749208,10|0,3:2|0:0,0:0:0:0:
310,44,47119,5,10,0:0:0:0:
455,75,47232,1,8,0:0:0:0:
400,2,47345,6,0,P|381:61|376:101,1,67.5000025749208,2|0,3:2|0:0,0:0:0:0:
472,270,47570,2,0,P|434:224|411:162,1,78.7500007510185,2|0,3:2|0:0,0:0:0:0:
200,47,47796,2,0,P|240:76|272:132,1,90,2|0,3:2|0:0,0:0:0:0:
217,357,48021,2,0,P|234:259|265:230,1,101.250003862381,2|0,3:2|0:0,0:0:0:0:
346,190,48247,6,0,B|211:215|268:145|114:172,1,225,2|2,3:2|0:0,0:0:0:0:
0,346,49149,6,0,P|15:314|31:286,1,45,6|0,3:2|0:0,0:0:0:0:
84,246,49375,1,2,0:0:0:0:
84,246,49488,2,0,P|105:257|124:272,1,45,2|0,0:0|3:2,0:0:0:0:
213,349,49713,1,2,0:0:0:0:
213,349,49826,2,0,P|233:316|234:294,1,45,2|0,0:0|0:0,0:0:0:0:
318,248,50052,5,2,3:2:0:0:
325,261,50164,1,2,0:0:0:0:
332,274,50277,1,2,0:0:0:0:
340,287,50390,1,2,0:0:0:0:
417,171,50503,2,0,P|364:149|289:169,1,135,2|0,3:2|0:0,0:0:0:0:
256,192,50954,5,4,3:2:0:0:
256,192,51405,5,4,3:2:0:0:
256,192,51856,5,4,3:2:0:0:
82,255,52758,6,0,P|42:193|74:108,1,135,6|0,3:2|0:0,0:0:0:0:
139,71,53209,2,0,P|83:22|33:25,1,90,10|0,0:0|0:0,0:0:0:0:
22,34,53548,1,0,0:0:0:0:
129,186,53661,2,0,P|181:171|203:122,2,90,2|2|10,3:2|0:0|0:0,0:0:0:0:
54,138,54337,1,2,0:0:0:0:
82,255,54563,6,0,L|101:327,1,45,2|0,3:2|0:0,0:0:0:0:
204,384,54788,1,2,0:0:0:0:
204,384,54901,1,2,0:0:0:0:
204,384,55014,2,0,P|238:373|256:359,1,45,10|0,0:0|0:0,0:0:0:0:
290,193,55240,1,2,0:0:0:0:
304,220,55352,1,2,0:0:0:0:
318,249,55465,2,0,L|339:291,1,45,2|0,3:2|0:0,0:0:0:0:
436,360,55691,5,10,0:0:0:0:
480,299,55803,1,8,0:0:0:0:
512,368,55916,2,0,P|461:332|433:289,1,90,2|8,3:2|0:0,0:0:0:0:
319,53,56367,6,0,P|257:24|189:66,1,135,2|0,3:2|0:0,0:0:0:0:
357,147,56818,2,0,P|394:125|414:83,1,90,10|0,0:0|0:0,0:0:0:0:
409,36,57157,1,0,0:0:0:0:
442,220,57270,2,0,P|453:261|473:309,2,90,2|2|10,3:2|0:0|0:0,0:0:0:0:
423,134,57946,1,2,0:0:0:0:
318,226,58172,6,0,P|292:207|277:172,1,45,2|0,3:2|0:0,0:0:0:0:
264,41,58397,1,2,0:0:0:0:
264,41,58510,1,2,0:0:0:0:
264,41,58623,2,0,P|188:35|170:49,1,90,10|2,0:0|0:0,0:0:0:0:
160,61,58961,1,2,0:0:0:0:
176,244,59074,2,0,L|167:172,1,45,2|0,3:2|0:0,0:0:0:0:
381,180,59300,5,10,0:0:0:0:
390,255,59412,1,8,0:0:0:0:
318,226,59525,2,0,P|381:223|413:270,1,90,2|10,3:2|0:0,0:0:0:0:
262,378,59976,6,0,B|109:354,1,135,6|0,3:2|0:0,0:0:0:0:
115,138,60427,2,0,P|159:165|166:226,1,90,10|0,0:0|0:0,0:0:0:0:
165,245,60766,1,0,0:0:0:0:
24,323,60879,2,0,L|-3:228,2,90,2|2|10,3:2|0:0|0:0,0:0:0:0:
101,367,61555,1,2,0:0:0:0:
221,273,61781,6,0,B|204:227,1,45,2|0,3:2|0:0,0:0:0:0:
272,98,62006,1,2,0:0:0:0:
272,98,62119,1,2,0:0:0:0:
272,98,62232,2,0,B|290:149,1,45,10|0,0:0|0:0,0:0:0:0:
448,226,62458,1,2,0:0:0:0:
421,241,62570,1,2,0:0:0:0:
393,256,62683,2,0,B|353:277,1,45,2|0,3:2|0:0,0:0:0:0:
450,46,62909,5,10,0:0:0:0:
404,106,63021,1,8,0:0:0:0:
374,36,63134,2,0,P|418:61|451:114,1,90,2|8,3:2|0:0,0:0:0:0:
204,188,63585,6,0,B|348:154,1,135,2|0,3:2|0:0,0:0:0:0:
249,280,64037,2,0,B|156:304,1,90,10|0,0:0|0:0,0:0:0:0:
119,312,64375,1,0,0:0:0:0:
145,62,64488,2,0,P|171:87|175:130,1,45,2|0,3:2|0:0,0:0:0:0:
101,184,64713,1,2,0:0:0:0:
101,184,64826,1,2,0:0:0:0:
101,184,64939,2,0,B|51:197,1,45,10|0,0:0|0:0,0:0:0:0:
8,349,65164,1,2,0:0:0:0:
143,258,65277,1,2,0:0:0:0:
63,281,65390,6,0,P|84:330|96:376,1,90,6|2,3:2|0:0,0:0:0:0:
123,384,65728,1,2,0:0:0:0:
243,274,65841,2,0,L|219:216,1,45,2|0,3:2|0:0,0:0:0:0:
279,125,66067,1,2,0:0:0:0:
296,153,66179,1,2,0:0:0:0:
327,67,66292,2,0,P|291:62|239:67,1,45,2|0,3:2|0:0,0:0:0:0:
349,232,66518,6,0,P|383:228|404:211,1,45,2|0,0:0|0:0,0:0:0:0:
478,247,66743,2,0,P|457:274|432:284,1,45,2|0,3:2|0:0,0:0:0:0:
389,313,66969,2,0,P|420:326|447:322,1,45,2|0,0:0|0:0,0:0:0:0:
496,365,67194,6,0,P|423:368|391:381,1,90,2|0,0:0|0:0,0:0:0:0:
380,381,67533,1,0,0:0:0:0:
275,300,67646,2,0,L|260:342,1,45,0|0,0:0|0:0,0:0:0:0:
177,312,67871,2,0,L|167:268,1,45,0|0,0:0|0:0,0:0:0:0:
283,176,68097,2,0,P|212:156|154:181,1,135,0|0,0:0|0:0,0:0:0:0:
85,201,68548,2,0,P|128:150|184:136,1,90,10|2,0:0|0:0,0:0:0:0:
425,174,68999,5,6,3:2:0:0:
398,254,69224,1,0,0:0:0:0:
425,174,69450,2,0,P|399:212|401:261,1,90,0|2,3:2|0:0,0:0:0:0:
481,374,69901,5,2,3:2:0:0:
402,355,70126,1,0,0:0:0:0:
481,373,70352,2,0,P|431:378|400:353,1,90,2|2,3:2|0:0,0:0:0:0:
220,267,70803,5,2,3:2:0:0:
296,241,71028,1,0,0:0:0:0:
219,267,71254,2,0,P|258:237|300:243,1,90,2|2,3:2|0:0,0:0:0:0:
198,371,71706,5,2,3:2:0:0:
106,334,71931,1,2,0:0:0:0:
82,237,72157,1,2,3:2:0:0:
139,156,72382,1,2,0:0:0:0:
53,106,72608,5,6,3:2:0:0:
126,62,72834,1,0,0:0:0:0:
53,106,73059,2,0,P|87:72|131:63,1,90,2|2,3:2|0:0,0:0:0:0:
310,131,73510,5,2,3:2:0:0:
236,91,73736,1,0,0:0:0:0:
310,131,73961,2,0,P|259:119|234:87,1,90,2|2,3:2|0:0,0:0:0:0:
317,28,74412,5,2,3:2:0:0:
403,76,74638,1,0,0:0:0:0:
428,190,74864,1,2,3:2:0:0:
338,290,75089,6,0,L|284:277,1,45,2|0,0:0|0:0,0:0:0:0:
213,296,75315,2,0,L|351:332,1,135,2|0,3:2|0:0,0:0:0:0:
116,347,75766,1,2,3:2:0:0:
63,274,75991,1,2,0:0:0:0:
102,194,76217,6,0,L|199:195,1,90,6|2,3:2|0:0,0:0:0:0:
312,203,76668,2,0,P|249:245|244:294,1,90,8|0,0:0|0:0,0:0:0:0:
249,295,77006,1,8,0:0:0:0:
249,295,77119,1,2,3:2:0:0:
357,381,77345,1,8,0:0:0:0:
463,309,77570,2,0,P|465:268|456:232,1,45,10|0,3:2|0:0,0:0:0:0:
477,77,77796,5,8,0:0:0:0:
427,147,77909,1,8,0:0:0:0:
503,150,78021,6,0,P|457:112|392:112,1,90,6|0,3:2|0:0,0:0:0:0:
123,128,78473,2,0,P|188:159|252:151,1,112.5,6|0,3:2|0:0,0:0:0:0:
395,0,78924,2,0,P|341:38|330:103,1,135.000005149842,6|0,3:2|0:0,0:0:0:0:
278,360,79375,2,0,P|333:319|336:229,1,157.500001502037,6|2,3:2|0:0,0:0:0:0:
315,199,79713,1,2,0:0:0:0:
111,223,79826,6,0,P|115:276|124:332,1,90,6|2,3:2|0:0,0:0:0:0:
134,345,80164,1,2,0:0:0:0:
250,270,80277,1,2,0:0:0:0:
154,64,80503,2,0,P|126:86|108:113,1,45,2|2,0:0|0:0,0:0:0:0:
104,141,80728,1,6,3:2:0:0:
247,384,81179,6,0,P|312:359|383:374,1,135,2|0,0:0|0:0,0:0:0:0:
512,384,81631,6,0,B|488:183,1,202.500007724762,6|0,3:2|0:0,0:0:0:0:
345,75,82082,2,0,B|361:209,1,135.000005149842,10|2,3:2|0:0,0:0:0:0:
371,287,82420,1,2,0:0:0:0:
111,219,82533,6,0,P|114:188|138:152,1,67.5000025749208,2|0,3:2|0:0,0:0:0:0:
294,264,82758,2,0,P|275:295|249:311,1,67.5000025749208,2|0,0:0|0:0,0:0:0:0:
233,119,82984,1,10,3:2:0:0:
115,308,83209,2,0,L|110:215,1,90,2|2,0:0|0:0,0:0:0:0:
245,34,83435,6,0,P|282:46|308:83,1,67.5000025749208,2|0,3:2|0:0,0:0:0:0:
302,173,83661,2,0,P|334:171|362:152,1,67.5000025749208,2|0,0:0|0:0,0:0:0:0:
392,50,83886,2,0,P|422:74|445:109,1,67.5000025749208,10|0,3:2|0:0,0:0:0:0:
450,181,84112,2,0,P|471:138|473:95,1,67.5000025749208,2|0,0:0|0:0,0:0:0:0:
467,15,84337,2,0,L|518:190,1,161.999995056153,2|0,3:2|0:0,0:0:0:0:
512,324,84788,2,0,P|409:292|414:205,1,202.500007724762,10|0,3:2|0:0,0:0:0:0:
485,247,85240,6,0,L|329:391,1,202.500007724762,2|0,3:2|0:0,0:0:0:0:
188,222,85691,5,10,3:2:0:0:
187,190,85803,1,2,0:0:0:0:
188,157,85916,1,2,0:0:0:0:
189,260,86142,2,0,B|243:252|282:289|282:289|326:327|392:300,1,202.500007724762,2|0,3:2|0:0,0:0:0:0:
356,157,86593,6,0,P|355:205|339:239,1,67.5000025749208,10|0,3:2|0:0,0:0:0:0:
188,157,86818,2,0,P|178:124|180:91,1,67.5000025749208,2|0,0:0|0:0,0:0:0:0:
294,0,87044,6,0,L|283:79,1,67.5000025749208,2|0,3:2|0:0,0:0:0:0:
275,133,87270,2,0,L|286:56,1,67.5000025749208,2|0,0:0|0:0,0:0:0:0:
382,12,87495,2,0,P|444:31|465:94,1,135.000005149842,10|2,3:2|0:0,0:0:0:0:
454,251,87834,1,8,0:0:0:0:
454,251,87946,6,0,L|387:244,1,67.5000025749208,2|0,3:2|0:0,0:0:0:0:
310,313,88172,2,0,L|242:305,1,67.5000025749208,10|0,0:0|0:0,0:0:0:0:
211,132,88397,2,0,P|228:179|220:223,1,67.5000025749208,2|0,3:2|0:0,0:0:0:0:
81,165,88623,5,10,0:0:0:0:
81,165,88736,1,8,0:0:0:0:
44,293,88849,6,0,P|72:310|110:308,1,67.5000025749208,6|2,3:2|0:0,0:0:0:0:
163,202,89074,2,0,P|241:202|272:232,1,67.5000025749208,2|2,0:0|0:0,0:0:0:0:
309,312,89300,5,10,0:0:0:0:
351,304,89412,1,2,0:0:0:0:
392,296,89525,1,2,0:0:0:0:
433,289,89638,1,2,0:0:0:0:
510,177,89751,5,2,3:2:0:0:
465,197,89864,1,2,0:0:0:0:
440,240,89976,1,2,3:2:0:0:
433,289,90089,1,2,0:0:0:0:
445,337,90202,2,0,L|408:204,1,135.000005149842,10|2,0:0|0:0,0:0:0:0:
409,207,90540,1,2,0:0:0:0:
228,196,90653,6,0,P|280:233|336:189,1,135.000005149842,2|2,3:2|0:0,0:0:0:0:
335,170,90991,1,2,0:0:0:0:
433,0,91104,2,0,P|433:52|356:53,1,135.000005149842,8|2,0:0|0:0,0:0:0:0:
346,38,91443,1,8,0:0:0:0:
147,21,91555,6,0,L|166:90,1,67.5000025749208,2|0,3:2|0:0,0:0:0:0:
51,167,91781,2,0,L|30:96,1,67.5000025749208,2|0,3:2|0:0,0:0:0:0:
185,164,92006,2,0,L|259:145,1,67.5000025749208,10|0,0:0|0:0,0:0:0:0:
75,246,92232,2,0,L|-6:269,1,67.5000025749208,2|0,0:0|0:0,0:0:0:0:
323,176,92458,6,0,P|354:201|359:264,1,67.5000025749208,2|0,3:2|0:0,0:0:0:0:
271,384,92683,2,0,B|282:241,2,135.000005149842,2|8|0,0:0|0:0|0:0,0:0:0:0:
170,178,93360,6,0,L|236:160,1,67.5000025749208,2|0,3:2|0:0,0:0:0:0:
92,202,93585,2,0,L|28:222,1,67.5000025749208,2|2,3:2|0:0,0:0:0:0:
143,97,93811,2,0,L|211:76,1,67.5000025749208,10|0,0:0|0:0,0:0:0:0:
64,121,94037,2,0,L|-2:140,1,67.5000025749208,2|2,0:0|0:0,0:0:0:0:
235,160,94262,6,0,L|260:233,1,67.5000025749208,2|0,3:2|0:0,0:0:0:0:
140,333,94488,2,0,L|117:264,1,67.5000025749208,2|0,0:0|0:0,0:0:0:0:
322,273,94713,2,0,P|292:299|246:304,1,67.5000025749208,10|0,0:0|0:0,0:0:0:0:
95,198,94939,2,0,L|161:179,2,67.5000025749208,2|8|2,0:0|0:0|3:2,0:0:0:0:
55,212,95277,1,8,0:0:0:0:
144,68,95390,2,0,P|180:82|196:105,1,67.5000025749208,8|0,0:0|0:0,0:0:0:0:
57,89,95615,2,0,P|56:52|69:18,1,67.5000025749208,2|0,3:2|0:0,0:0:0:0:
367,120,95841,5,8,0:0:0:0:
253,47,95954,1,8,0:0:0:0:
412,5,96067,6,0,P|456:44|475:194,1,202.500007724762,6|0,3:2|0:0,0:0:0:0:
481,314,96518,2,0,P|418:307|372:253,1,135.000005149842,10|0,3:2|0:0,0:0:0:0:
367,120,96856,1,2,0:0:0:0:
224,168,96969,6,0,P|231:200|251:227,1,67.5000025749208,2|0,3:2|0:0,0:0:0:0:
259,86,97194,2,0,P|226:79|193:85,1,67.5000025749208,2|0,0:0|0:0,0:0:0:0:
52,260,97420,2,0,P|37:201|24:147,1,67.5000025749208,10|0,3:2|0:0,0:0:0:0:
97,75,97646,2,0,P|112:134|125:188,1,67.5000025749208,2|2,0:0|0:0,0:0:0:0:
164,384,97871,6,0,P|191:354|199:313,1,67.5000025749208,2|0,3:2|0:0,0:0:0:0:
202,223,98097,2,0,P|241:233|270:263,1,67.5000025749208,2|0,0:0|0:0,0:0:0:0:
316,339,98322,2,0,P|342:309|349:268,1,67.5000025749208,10|0,3:2|0:0,0:0:0:0:
364,203,98548,2,0,P|391:233|398:273,1,67.5000025749208,2|0,0:0|0:0,0:0:0:0:
418,384,98773,2,0,L|454:210,1,161.999995056153,2|0,3:2|0:0,0:0:0:0:
474,80,99224,2,0,P|387:93|338:-2,1,202.500007724762,10|0,3:2|0:0,0:0:0:0:
421,14,99676,6,0,L|303:194,1,202.500007724762,2|0,3:2|0:0,0:0:0:0:
215,285,100127,5,10,3:2:0:0:
213,251,100240,1,2,0:0:0:0:
212,217,100352,1,2,0:0:0:0:
217,322,100578,2,0,P|123:285|63:355,1,202.500007724762,2|0,3:2|0:0,0:0:0:0:
315,384,101029,6,0,L|324:301,1,67.5000025749208,10|0,3:2|0:0,0:0:0:0:
440,280,101255,2,0,L|431:363,1,67.5000025749208,2|0,0:0|0:0,0:0:0:0:
308,79,101480,6,0,L|387:86,1,67.5000025749208,2|0,3:2|0:0,0:0:0:0:
370,153,101706,2,0,L|377:73,1,67.5000025749208,2|0,0:0|0:0,0:0:0:0:
381,17,101931,2,0,L|374:96,1,67.5000025749208,10|0,3:2|0:0,0:0:0:0:
443,91,102157,2,0,L|364:84,1,67.5000025749208,2|0,0:0|0:0,0:0:0:0:
162,0,102382,6,0,P|153:50|163:92,1,67.5000025749208,2|0,3:2|0:0,0:0:0:0:
27,90,102608,2,0,P|52:134|86:159,1,67.5000025749208,10|0,0:0|0:0,0:0:0:0:
11,260,102834,2,0,P|54:285|97:290,1,67.5000025749208,2|0,3:2|0:0,0:0:0:0:
199,204,103059,5,10,0:0:0:0:
199,204,103172,1,8,0:0:0:0:
335,111,103285,6,0,P|348:145|347:188,1,67.5000025749208,6|2,3:2|0:0,0:0:0:0:
264,271,103510,2,0,P|306:273|346:295,1,67.5000025749208,2|2,0:0|0:0,0:0:0:0:
450,384,103736,5,10,0:0:0:0:
461,340,103848,1,2,0:0:0:0:
472,297,103961,1,2,0:0:0:0:
483,254,104074,1,2,0:0:0:0:
511,167,104187,5,2,3:2:0:0:
462,170,104300,1,2,0:0:0:0:
417,150,104412,1,2,3:2:0:0:
389,109,104525,1,2,0:0:0:0:
382,66,104638,2,0,P|322:36|244:50,1,135.000005149842,8|2,0:0|0:0,0:0:0:0:
256,43,104976,1,2,0:0:0:0:
168,190,105089,6,0,P|221:234|296:205,1,135.000005149842,6|2,3:2|0:0,0:0:0:0:
299,201,105427,1,2,0:0:0:0:
140,22,105540,2,0,L|66:166,1,135.000005149842,10|2,0:0|0:0,0:0:0:0:
62,173,105879,1,8,0:0:0:0:
198,353,105991,6,0,B|236:354|259:319,1,67.5000025749208,2|0,3:2|0:0,0:0:0:0:
354,142,106217,1,2,3:2:0:0:
384,172,106330,1,2,0:0:0:0:
394,215,106443,2,0,P|392:253|384:281,1,67.5000025749208,10|0,0:0|0:0,0:0:0:0:
356,332,106668,2,0,P|396:327|444:332,1,67.5000025749208,2|0,0:0|0:0,0:0:0:0:
205,227,106894,6,0,P|162:234|127:278,1,67.5000025749208,2|2,3:2|0:0,0:0:0:0:
68,384,107119,2,0,B|38:235,2,135.000005149842,2|8|0,0:0|0:0|0:0,0:0:0:0:
68,384,107683,1,8,0:0:0:0:
203,384,107796,5,2,3:2:0:0:
203,384,107909,1,8,0:0:0:0:
203,384,108021,2,0,L|209:281,1,67.5000025749208,10|0,0:0|0:0,0:0:0:0:
336,186,108247,2,0,L|357:275,1,67.5000025749208,10|0,0:0|0:0,0:0:0:0:
105,169,108473,5,10,3:2:0:0:
233,97,108585,1,8,0:0:0:0:
138,63,108698,6,0,P|167:129|200:160,1,67.5000025749208,6|0,3:2|0:0,0:0:0:0:
290,308,108924,2,0,P|245:243|200:221,1,78.7500007510185,2|0,3:2|0:0,0:0:0:0:
29,242,109149,2,0,P|89:250|134:235,1,90,2|0,3:2|0:0,0:0:0:0:
304,57,109375,2,0,P|279:121|286:175,1,101.250003862381,2|0,3:2|0:0,0:0:0:0:
337,383,109600,6,0,B|332:250|382:306|375:161,1,225,2|2,3:2|0:0,0:0:0:0:
501,4,110503,6,0,P|513:47|507:75,1,45,6|0,3:2|0:0,0:0:0:0:
414,90,110728,1,2,0:0:0:0:
414,90,110841,2,0,P|373:80|343:81,1,45,2|0,0:0|3:2,0:0:0:0:
263,112,111067,1,2,0:0:0:0:
263,112,111179,2,0,P|254:76|258:55,1,45,2|0,0:0|0:0,0:0:0:0:
375,164,111405,5,2,3:2:0:0:
372,178,111517,1,2,0:0:0:0:
369,193,111630,1,2,0:0:0:0:
366,208,111743,1,2,0:0:0:0:
414,90,111856,2,0,P|467:134|480:210,1,135,2|0,3:2|0:0,0:0:0:0:
473,241,112307,5,4,3:2:0:0:
473,241,112758,1,4,3:2:0:0:
108,199,114112,5,4,3:2:0:0:
185,164,114337,1,0,0:0:0:0:
108,199,114563,2,0,P|148:168|205:170,1,90,0|2,3:2|0:0,0:0:0:0:
278,314,115014,5,2,3:2:0:0:
233,245,115240,1,0,0:0:0:0:
278,314,115465,2,0,P|235:272|236:232,1,90,2|2,3:2|0:0,0:0:0:0:
370,163,115916,5,2,3:2:0:0:
356,247,116142,1,0,0:0:0:0:
370,163,116367,2,0,P|376:206|337:261,1,90,0|2,3:2|0:0,0:0:0:0:
281,135,116818,5,2,3:2:0:0:
298,37,117044,1,0,0:0:0:0:
200,20,117270,1,2,3:2:0:0:
183,117,117495,1,2,0:0:0:0:
106,0,117721,5,6,3:2:0:0:
90,84,117946,1,0,0:0:0:0:
106,0,118172,2,0,P|109:51|83:92,1,90,2|2,3:2|0:0,0:0:0:0:
3,170,118623,5,2,3:2:0:0:
72,219,118849,1,0,0:0:0:0:
3,170,119074,2,0,P|39:210|101:216,1,90,2|2,3:2|0:0,0:0:0:0:
195,162,119525,5,2,3:2:0:0:
164,256,119751,1,0,0:0:0:0:
225,355,119976,1,2,3:2:0:0:
357,382,120202,6,0,L|415:362,1,45,2|0,0:0|0:0,0:0:0:0:
437,301,120427,2,0,L|310:349,1,135,2|0,3:2|0:0,0:0:0:0:
144,342,120879,1,2,3:2:0:0:
164,256,121104,1,2,0:0:0:0:
225,355,121330,6,0,L|248:242,1,90,6|2,3:2|0:0,0:0:0:0:
288,183,121781,2,0,P|339:198|379:178,1,90,8|0,0:0|0:0,0:0:0:0:
397,148,122119,1,8,0:0:0:0:
397,148,122232,1,0,3:2:0:0:
320,31,122458,1,8,0:0:0:0:
196,113,122683,2,0,P|191:150|200:175,1,45,10|0,0:0|0:0,0:0:0:0:
219,310,122909,5,8,0:0:0:0:
150,272,123021,1,8,0:0:0:0:
213,236,123134,6,0,P|192:285|154:328,1,90,6|0,3:2|0:0,0:0:0:0:
88,116,123585,2,0,P|151:128|203:107,1,112.5,6|0,3:2|0:0,0:0:0:0:
371,21,124037,2,0,P|374:115|428:154,1,135.000005149842,6|0,3:2|0:0,0:0:0:0:
512,280,124488,2,0,P|442:290|383:351,1,157.500001502037,6|2,3:2|0:0,0:0:0:0:
367,384,124826,1,2,0:0:0:0:
267,250,124939,6,0,P|250:206|259:157,1,90,6|2,3:2|0:0,0:0:0:0:
272,126,125277,1,2,0:0:0:0:
383,216,125390,1,2,0:0:0:0:
189,272,125615,2,0,P|139:273|117:263,1,45,2|2,0:0|0:0,0:0:0:0:
118,235,125841,1,6,3:2:0:0:
118,235,126743,6,0,L|131:296,1,45,10|0,0:1|0:0,0:0:0:0:
219,168,127194,2,0,L|206:107,1,45,10|0,0:1|0:0,0:0:0:0:
118,235,127646,2,0,L|131:296,1,45,10|0,0:1|0:0,0:0:0:0:
219,168,128097,2,0,L|206:107,1,45,10|0,0:1|0:0,0:0:0:0:
301,234,128548,6,0,L|362:221,1,45,10|0,0:1|0:0,0:0:0:0:
209,123,128999,2,0,L|148:136,1,45,10|0,0:1|0:0,0:0:0:0:
301,234,129450,2,0,L|362:221,1,45,10|0,0:1|0:0,0:0:0:0:
209,123,129901,2,0,L|148:136,1,45,10|0,0:1|0:0,0:0:0:0:
349,107,130352,6,0,L|366:152,1,45,10|0,0:1|0:0,0:0:0:0:
400,240,130578,1,2,0:0:0:0:
400,240,130691,1,2,0:0:0:0:
297,325,130803,5,10,0:1:0:0:
307,281,130916,1,2,0:0:0:0:
298,236,131029,1,2,0:0:0:0:
273,198,131142,1,2,0:0:0:0:
168,146,131255,5,10,0:1:0:0:
158,190,131368,1,2,0:0:0:0:
167,235,131481,1,2,0:0:0:0:
192,273,131594,1,2,0:0:0:0:
273,198,131706,2,0,P|206:181|128:204,1,135,10|0,0:1|0:0,0:0:0:0:
55,117,132157,5,10,0:1:0:0:
75,106,132270,1,2,0:0:0:0:
95,96,132382,1,2,0:0:0:0:
115,87,132495,1,2,0:0:0:0:
189,35,132608,5,10,0:1:0:0:
201,68,132721,1,2,0:0:0:0:
287,99,132834,1,2,0:0:0:0:
298,61,132946,1,2,0:0:0:0:
387,0,133059,6,0,L|393:51,1,45,10|0,0:1|0:0,0:0:0:0:
497,98,133285,2,0,L|491:50,1,45,2|0,0:0|0:0,0:0:0:0:
406,139,133510,2,0,L|424:293,1,135,10|0,0:1|0:0,0:0:0:0:
435,378,133961,6,0,L|386:384,1,45,10|0,0:1|0:0,0:0:0:0:
264,291,134412,2,0,L|313:285,1,45,10|0,0:1|0:0,0:0:0:0:
435,378,134864,2,0,L|386:384,1,45,10|0,0:1|0:0,0:0:0:0:
264,291,135315,2,0,L|313:285,1,45,10|0,0:1|0:0,0:0:0:0:
164,384,135766,6,0,L|158:335,1,45,10|0,0:1|0:0,0:0:0:0:
258,246,136217,2,0,L|264:295,1,45,10|0,0:1|0:0,0:0:0:0:
164,384,136669,2,0,L|158:335,1,45,10|0,0:1|0:0,0:0:0:0:
258,246,137120,2,0,L|264:295,1,45,10|2,0:1|0:0,0:0:0:0:
276,384,137570,5,6,3:2:0:0:
385,72,137796,1,2,0:0:0:0:
355,157,137909,1,8,0:0:0:0:
299,86,138021,5,2,3:2:0:0:
293,68,138134,1,8,0:0:0:0:
288,50,138247,1,2,3:2:0:0:
283,32,138360,1,8,0:0:0:0:
125,0,138473,2,0,P|119:40|126:67,1,45,6|0,3:2|0:0,0:0:0:0:
196,212,138698,1,10,0:0:0:0:
228,191,138811,2,0,L|218:91,2,90,8|8|8,0:0|0:0|0:0,0:0:0:0:
182,328,139375,5,2,3:2:0:0:
182,328,139600,2,0,P|149:307|91:311,1,67.5000025749208,2|0,0:0|0:0,0:0:0:0:
294,248,139826,1,2,3:2:0:0:
294,248,140052,2,0,P|331:249|360:268,1,58.4999973220826,2|0,0:0|0:0,0:0:0:0:
137,173,140277,1,2,3:2:0:0:
137,173,140503,2,0,P|129:137|115:110,1,45,8|8,0:0|0:0,0:0:0:0:
201,61,140728,5,0,3:2:0:0:
207,74,140840,1,8,0:0:0:0:
213,88,140953,1,10,0:0:0:0:
219,101,141066,1,8,0:0:0:0:
336,108,142533,6,0,L|302:-9,1,112.05000162426,2|0,0:0|0:0,0:0:0:0:
443,66,142984,6,0,L|468:157,1,75.1499976492692,6|0,3:2|0:0,0:0:0:0:
380,257,143209,1,2,0:0:0:0:
359,184,143322,1,2,0:0:0:0:
466,276,143435,2,0,P|414:341|346:340,1,150.299995298538,10|2,3:2|0:0,0:0:0:0:
231,310,143773,1,2,0:0:0:0:
226,384,143886,6,0,P|235:342|212:268,1,75.1499976492692,2|0,3:2|0:0,0:0:0:0:
103,310,144112,2,0,P|94:268|117:194,1,75.1499976492692,2|0,0:0|0:0,0:0:0:0:
232,130,144337,2,0,P|193:155|135:139,1,75.1499976492692,10|0,3:2|0:0,0:0:0:0:
24,23,144563,1,2,0:0:0:0:
41,97,144676,1,2,0:0:0:0:
172,72,144788,6,0,L|154:0,1,75.1499976492692,2|0,3:2|0:0,0:0:0:0:
334,99,145014,2,0,P|315:58|261:36,1,75.1499976492692,2|0,0:0|0:0,0:0:0:0:
250,202,145240,2,0,L|232:130,1,75.1499976492692,10|0,3:2|0:0,0:0:0:0:
412,229,145465,2,0,P|393:188|339:166,1,75.1499976492692,2|2,0:0|0:0,0:0:0:0:
97,329,145691,2,0,L|318:265,1,225.449992947808,2|0,3:2|0:0,0:0:0:0:
144,215,146142,2,0,L|-9:258,1,149.850003658447,10|0,3:2|0:0,0:0:0:0:
85,130,146593,6,0,L|186:102,1,75.1499976492692,2|0,3:2|0:0,0:0:0:0:
300,170,146818,2,0,L|224:194,1,75.1499976492692,2|0,0:0|0:0,0:0:0:0:
372,80,147044,5,10,3:2:0:0:
436,154,147157,1,2,0:0:0:0:
471,63,147270,2,0,P|435:81|417:112,1,75.1499976492692,2|0,0:0|0:0,0:0:0:0:
335,316,147495,2,0,L|297:159,1,150.299995298538,2|0,3:2|0:0,0:0:0:0:
0,297,147946,6,0,L|20:388,1,75.1499976492692,10|0,3:2|0:0,0:0:0:0:
115,384,148172,2,0,L|99:310,1,75.1499976492692,2|0,0:0|0:0,0:0:0:0:
180,182,148397,6,0,P|193:235|177:279,1,75.1499976492692,2|0,3:2|0:0,0:0:0:0:
101,140,148623,2,0,P|140:102|186:94,1,75.1499976492692,2|0,0:0|0:0,0:0:0:0:
101,229,148849,2,0,P|48:213|13:128,1,150.299995298538,10|2,3:2|0:0,0:0:0:0:
166,0,149187,1,8,0:0:0:0:
240,7,149300,6,0,L|165:0,1,75.1499976492692,2|0,3:2|0:0,0:0:0:0:
214,83,149525,2,0,L|289:91,1,75.1499976492692,10|0,0:0|0:0,0:0:0:0:
367,126,149751,2,0,P|344:155|310:171,1,75.1499976492692,2|0,3:2|0:0,0:0:0:0:
472,77,149976,5,10,0:0:0:0:
472,77,150089,1,8,0:0:0:0:
484,198,150202,5,6,3:2:0:0:
477,235,150315,1,2,0:0:0:0:
472,271,150427,1,2,0:0:0:0:
465,308,150540,1,2,0:0:0:0:
399,369,150653,5,10,3:2:0:0:
357,351,150766,1,2,0:0:0:0:
312,346,150879,1,2,0:0:0:0:
268,356,150991,1,2,0:0:0:0:
142,384,151104,5,2,3:2:0:0:
198,323,151217,1,2,0:0:0:0:
170,244,151330,1,2,3:2:0:0:
91,217,151443,1,2,0:0:0:0:
23,264,151555,2,0,L|35:349,1,75.1499976492692,10|0,0:0|0:0,0:0:0:0:
231,190,151781,2,0,L|218:104,1,75.1499976492692,2|2,0:0|0:0,0:0:0:0:
72,0,152006,6,0,L|146:8,1,75.1499976492692,2|0,3:2|0:0,0:0:0:0:
58,145,152232,1,2,0:0:0:0:
25,79,152345,1,2,0:0:0:0:
249,55,152458,2,0,P|268:107|231:189,1,150.299995298538,10|2,0:0|0:0,0:0:0:0:
47,267,152796,1,10,0:0:0:0:
118,195,152909,6,0,P|126:248|161:283,1,75.1499976492692,2|0,3:2|0:0,0:0:0:0:
279,299,153134,2,0,P|271:352|236:387,1,75.1499976492692,2|0,3:2|0:0,0:0:0:0:
230,189,153360,2,0,B|349:172|316:238|472:206,1,225.449992947808,10|0,0:0|0:0,0:0:0:0:
483,138,153811,6,0,P|486:85|467:53,1,75.1499976492692,2|0,3:2|0:0,0:0:0:0:
373,3,154037,2,0,P|339:-6|297:1,1,75.1499976492692,2|0,0:0|0:0,0:0:0:0:
103,47,154262,2,0,P|186:96|206:2,1,225.449992947808,8|0,0:0|0:0,0:0:0:0:
17,157,154713,6,0,P|-1:195|8:250,1,75.1499976492692,2|0,3:2|0:0,0:0:0:0:
169,214,154939,2,0,L|88:211,1,75.1499976492692,2|2,3:2|0:0,0:0:0:0:
174,379,155164,2,0,P|193:341|183:286,1,75.1499976492692,10|0,0:0|0:0,0:0:0:0:
21,321,155390,2,0,L|102:324,1,75.1499976492692,2|2,0:0|0:0,0:0:0:0:
273,243,155615,6,0,P|308:238|348:245,1,75.1499976492692,2|0,3:2|0:0,0:0:0:0:
388,328,155841,2,0,P|423:333|463:326,1,75.1499976492692,2|0,3:2|0:0,0:0:0:0:
512,183,156067,2,0,L|350:155,1,150.299995298538,10|2,0:0|0:0,0:0:0:0:
283,140,156405,1,8,0:0:0:0:
366,5,156518,1,0,3:2:0:0:
405,80,156631,1,8,0:0:0:0:
323,70,156743,1,8,0:0:0:0:
247,216,156969,2,0,L|325:231,1,75.1499976492692,2|0,3:2|0:0,0:0:0:0:
68,190,157194,5,8,0:0:0:0:
68,190,157307,1,8,0:0:0:0:
23,0,157420,6,0,L|38:73,1,75.1499976492692,6|0,3:2|0:0,0:0:0:0:
161,141,157646,1,2,0:0:0:0:
146,68,157758,1,2,0:0:0:0:
68,190,157871,2,0,P|124:245|195:241,1,150.299995298538,10|0,3:2|0:0,0:0:0:0:
311,169,158209,1,2,0:0:0:0:
323,241,158322,6,0,P|310:205|313:157,1,75.1499976492692,2|0,3:2|0:0,0:0:0:0:
457,221,158548,2,0,P|457:258|444:293,1,75.1499976492692,2|0,0:0|0:0,0:0:0:0:
297,350,158773,2,0,P|352:329|394:349,1,75.1499976492692,10|0,3:2|0:0,0:0:0:0:
196,384,158999,1,2,0:0:0:0:
181,310,159112,1,2,0:0:0:0:
32,311,159224,6,0,L|55:384,1,75.1499976492692,2|0,3:2|0:0,0:0:0:0:
162,220,159450,2,0,P|202:221|233:235,1,75.1499976492692,2|0,0:0|0:0,0:0:0:0:
51,157,159676,2,0,L|74:231,1,75.1499976492692,10|0,3:2|0:0,0:0:0:0:
181,67,159901,2,0,P|221:68|252:82,1,75.1499976492692,2|0,0:0|0:0,0:0:0:0:
329,231,160127,2,0,L|353:0,1,225.449992947808,2|0,3:2|0:0,0:0:0:0:
421,157,160578,2,0,L|404:316,1,149.850003658447,10|0,3:2|0:0,0:0:0:0:
503,188,161029,6,0,L|516:83,1,75.1499976492692,2|0,3:2|0:0,0:0:0:0:
439,0,161255,2,0,L|426:105,1,75.1499976492692,2|0,0:0|0:0,0:0:0:0:
203,181,161480,5,10,3:2:0:0:
145,99,161593,1,2,0:0:0:0:
243,90,161706,2,0,P|229:123|197:150,1,75.1499976492692,2|0,0:0|0:0,0:0:0:0:
5,265,161931,2,0,L|160:248,1,150.299995298538,2|0,3:2|0:0,0:0:0:0:
412,270,162382,6,0,L|417:345,1,75.1499976492692,10|0,3:2|0:0,0:0:0:0:
333,380,162608,2,0,L|327:305,1,75.1499976492692,2|0,0:0|0:0,0:0:0:0:
242,179,162834,6,0,P|280:190|317:175,1,75.1499976492692,2|0,3:2|0:0,0:0:0:0:
400,102,163059,2,0,L|406:176,1,75.1499976492692,2|0,0:0|0:0,0:0:0:0:
278,0,163285,2,0,P|230:19|201:51,1,75.1499976492692,10|0,3:2|0:0,0:0:0:0:
131,116,163510,2,0,L|100:28,1,75.1499976492692,2|0,0:0|0:0,0:0:0:0:
6,217,163736,6,0,P|53:242|105:237,1,75.1499976492692,2|0,3:2|0:0,0:0:0:0:
84,348,163961,2,0,P|134:332|168:292,1,75.1499976492692,10|0,0:0|0:0,0:0:0:0:
242,179,164187,2,0,L|272:263,1,75.1499976492692,2|0,3:2|0:0,0:0:0:0:
307,350,164412,5,10,0:0:0:0:
307,350,164525,1,8,0:0:0:0:
430,304,164638,5,6,3:2:0:0:
433,266,164751,1,2,0:0:0:0:
436,228,164864,1,2,0:0:0:0:
439,190,164976,1,2,0:0:0:0:
476,89,165089,5,10,0:0:0:0:
433,102,165202,1,2,0:0:0:0:
388,97,165315,1,2,0:0:0:0:
348,75,165427,1,2,0:0:0:0:
212,0,165540,5,2,3:2:0:0:
267,61,165653,1,2,0:0:0:0:
244,140,165766,1,2,3:2:0:0:
167,170,165879,1,2,0:0:0:0:
100,121,165991,2,0,L|105:36,1,75.1499976492692,10|0,0:0|0:0,0:0:0:0:
324,162,166217,2,0,L|317:242,1,75.1499976492692,2|2,0:0|0:0,0:0:0:0:
285,330,166443,6,0,P|330:327|370:353,1,75.1499976492692,2|2,3:2|0:0,0:0:0:0:
179,384,166668,1,2,0:0:0:0:
155,298,166781,1,2,0:0:0:0:
2,376,166894,6,0,P|61:381|102:366,1,75.1499976492692,10|2,0:0|0:0,0:0:0:0:
26,213,167119,1,2,0:0:0:0:
50,293,167232,1,10,0:0:0:0:
149,89,167345,6,0,L|4:126,1,150.299995298538,2|2,3:2|3:2,0:0:0:0:
175,178,167683,1,2,0:0:0:0:
246,70,167796,2,0,P|244:25|226:-6,1,75.1499976492692,10|0,0:0|0:0,0:0:0:0:
344,94,168021,2,0,P|328:127|328:164,1,75.1499976492692,2|0,0:0|0:0,0:0:0:0:
512,299,168247,5,2,3:2:0:0:
351,259,168360,1,2,0:0:0:0:
437,239,168473,2,0,P|429:322|397:403,2,150.299995298538,2|8|0,0:0|0:0|0:0,0:0:0:0:
437,239,169037,1,8,0:0:0:0:
423,156,169149,5,2,3:2:0:0:
423,156,169262,1,8,0:0:0:0:
423,156,169375,2,0,L|501:164,1,75.1499976492692,10|0,0:0|0:0,0:0:0:0:
510,15,169600,2,0,L|435:7,1,75.1499976492692,10|0,0:0|0:0,0:0:0:0:
219,63,169826,5,10,0:0:0:0:
376,74,169939,1,8,0:0:0:0:
304,34,170052,6,0,P|294:90|299:148,1,78.7500007510185,6|0,3:2|0:0,0:0:0:0:
312,326,170277,2,0,P|302:270|307:205,1,90,2|0,3:2|0:0,0:0:0:0:
193,16,170503,2,0,P|177:119|185:173,1,112.5,2|0,3:2|0:0,0:0:0:0:
207,361,170728,2,0,P|181:214|184:171,1,146.250004184246,2|0,3:2|0:0,0:0:0:0:
72,0,170954,6,0,P|60:70|66:196,1,180,2|2,3:2|0:0,0:0:0:0:
102,384,171856,6,0,P|84:324|74:257,1,116.999994644165,6|2,3:2|0:0,0:0:0:0:
221,198,172194,1,2,0:0:0:0:
184,333,172307,2,0,P|183:290|209:223,1,107.999996704102,8|2,3:2|0:0,0:0:0:0:
355,281,172646,1,2,0:0:0:0:
278,368,172758,2,0,P|307:314|349:282,1,99.0000030212403,0|2,3:2|0:0,0:0:0:0:
331,185,173097,1,2,0:0:0:0:
474,278,173209,2,0,P|446:208|317:192,1,202.500007724762,8|2,3:2|0:0,0:0:0:0:
264,104,173661,6,0,P|324:92|361:45,1,116.999994644165,0|2,3:2|0:0,0:0:0:0:
168,1,173999,1,2,0:0:0:0:
155,132,174112,2,0,P|137:77|153:19,1,107.999996704102,8|2,3:2|0:0,0:0:0:0:
30,122,174450,1,2,0:0:0:0:
35,234,174563,2,0,P|51:188|28:125,1,99.0000030212403,2|2,3:2|0:0,0:0:0:0:
163,308,174901,1,2,0:0:0:0:
0,384,175014,2,0,P|42:324|177:315,1,202.500007724762,10|0,3:2|0:0,0:0:0:0:
288,384,175465,6,0,P|312:344|309:260,1,116.999994644165,2|2,3:2|0:0,0:0:0:0:
386,195,175803,1,2,0:0:0:0:
452,314,175916,2,0,P|444:253|411:214,1,107.999996704102,8|2,3:2|0:0,0:0:0:0:
413,84,176255,1,2,0:0:0:0:
512,142,176367,2,0,P|472:100|419:89,1,99.0000030212403,2|2,3:2|0:0,0:0:0:0:
293,169,176706,1,2,0:0:0:0:
267,0,176818,2,0,P|323:63|293:168,1,202.500007724762,10|2,3:2|0:0,0:0:0:0:
60,98,177270,6,0,P|129:79|176:100,1,116.999994644165,2|2,3:2|0:0,0:0:0:0:
88,283,177608,1,2,0:0:0:0:
115,172,177721,2,0,P|107:238|129:284,1,107.999996704102,10|2,3:2|0:0,0:0:0:0:
269,345,178059,1,10,0:0:0:0:
362,187,178172,5,2,3:2:0:0:
366,204,178284,1,2,0:0:0:0:
310,263,178397,2,0,P|287:226|281:190,1,53.9999983520508,10|2,0:0|0:0,0:0:0:0:
299,137,178623,1,2,3:2:0:0:
508,307,178849,5,10,0:0:0:0:
435,325,178961,1,8,0:0:0:0:
487,379,179074,2,0,P|454:256|487:173,1,202.500007724762,6|0,3:2|0:0,0:0:0:0:
388,13,179525,2,0,P|409:83|393:149,1,135.000005149842,8|2,0:0|0:0,0:0:0:0:
362,187,179864,1,2,0:0:0:0:
178,139,179976,5,2,3:2:0:0:
167,110,180089,1,2,0:0:0:0:
235,48,180202,2,0,P|258:77|263:119,1,67.5000025749208,2|2,3:2|0:0,0:0:0:0:
238,197,180427,1,10,0:0:0:0:
7,76,180653,5,2,0:0:0:0:
75,47,180766,1,2,0:0:0:0:
16,0,180879,2,0,P|47:91|27:199,1,202.500007724762,6|2,3:2|0:0,0:0:0:0:
0,351,181330,6,0,P|34:272|100:345,1,202.500007724762,10|8,0:0|0:0,0:0:0:0:
223,373,181781,5,2,3:2:0:0:
302,275,181894,1,2,0:0:0:0:
165,201,182006,2,0,P|186:249|184:290,1,67.5000025749208,2|2,3:2|0:0,0:0:0:0:
334,384,182232,2,0,P|405:323|504:357,1,202.500007724762,10|0,0:0|0:0,0:0:0:0:
460,384,182683,6,0,P|458:315|470:281,1,67.5000025749208,6|0,3:2|0:0,0:0:0:0:
503,174,182909,2,0,P|467:194|421:188,1,72,2|0,0:0|0:0,0:0:0:0:
299,115,183134,2,0,P|289:158|307:210,1,76.5000014591217,10|0,0:0|0:0,0:0:0:0:
312,342,183360,2,0,P|270:331|214:344,1,80.9999975280763,2|0,0:0|0:0,0:0:0:0:
73,384,183585,2,0,P|51:345|49:288,1,85.4999977169037,2|0,3:2|0:0,0:0:0:0:
99,152,183811,5,2,3:2:0:0:
131,167,183886,5,2,0:0:0:0:
166,163,183961,5,2,0:0:0:0:
196,142,184037,6,0,P|195:197|217:243,1,85.4999977169037,10|0,0:0|0:0,0:0:0:0:
308,37,184262,2,0,P|267:4|208:5,1,85.4999977169037,2|0,0:0|0:0,0:0:0:0:
310,170,184488,1,0,3:2:0:0:
310,170,184713,6,0,P|361:162|390:133,1,67.5000025749208,2|0,0:0|0:0,0:0:0:0:
509,195,184939,2,0,P|464:210|431:252,1,67.5000025749208,10|0,0:0|0:0,0:0:0:0:
384,340,185164,2,0,P|378:294|367:261,2,67.5000025749208,2|8|0,0:0|0:0|3:2,0:0:0:0:
385,384,185503,1,8,0:0:0:0:
220,315,185615,2,0,P|271:285|308:289,1,67.5000025749208,10|0,0:0|0:0,0:0:0:0:
156,384,185841,2,0,P|130:348|138:287,1,67.5000025749208,10|0,0:0|0:0,0:0:0:0:
139,117,186067,5,8,0:0:0:0:
239,206,186179,1,8,0:0:0:0:
94,200,186292,6,0,P|96:107|128:51,1,135.000005149842,6|0,3:2|0:0,0:0:0:0:
217,0,186631,1,2,0:0:0:0:
300,108,186743,2,0,P|254:120|201:95,1,67.5000025749208,10|0,3:2|0:0,0:0:0:0:
369,12,186969,2,0,P|407:52|413:92,1,67.5000025749208,2|0,0:0|0:0,0:0:0:0:
409,113,187194,1,2,3:2:0:0:
344,337,187420,5,2,0:0:0:0:
344,337,187533,1,2,0:0:0:0:
426,270,187646,5,10,3:2:0:0:
389,240,187759,1,2,0:0:0:0:
341,234,187872,1,2,0:0:0:0:
296,250,187985,1,2,0:0:0:0:
195,195,188097,6,0,P|118:208|41:188,1,135.000005149842,2|2,3:2|0:0,0:0:0:0:
111,289,188435,1,2,0:0:0:0:
147,124,188548,2,0,P|138:85|80:57,1,67.5000025749208,10|0,3:2|0:0,0:0:0:0:
0,23,188773,6,0,P|88:33|159:9,1,135.000005149842,2|2,0:0|3:2,0:0:0:0:
281,0,189112,1,2,0:0:0:0:
304,112,189224,2,0,P|285:65|282:28,1,67.5000025749208,2|0,0:0|0:0,0:0:0:0:
489,2,189450,6,0,L|500:92,1,67.5000025749208,10|2,3:2|0:0,0:0:0:0:
512,219,189676,2,0,P|498:182|465:152,1,67.5000025749208,2|2,0:0|0:0,0:0:0:0:
261,252,189901,6,0,L|398:236,1,135.000005149842,2|2,3:2|0:0,0:0:0:0:
421,232,190240,1,2,0:0:0:0:
488,366,190352,5,10,3:2:0:0:
448,340,190465,1,2,0:0:0:0:
400,339,190578,1,2,0:0:0:0:
365,371,190691,1,2,0:0:0:0:
242,343,190803,5,2,3:2:0:0:
183,287,190916,1,2,0:0:0:0:
261,252,191029,1,2,0:0:0:0:
320,308,191142,1,2,0:0:0:0:
157,384,191255,6,0,P|102:384|65:350,1,67.5000025749208,10|2,3:2|0:0,0:0:0:0:
32,309,191480,2,0,P|2:348|2:384,1,67.5000025749208,2|2,0:0|0:0,0:0:0:0:
94,221,191706,5,2,3:2:0:0:
73,185,191818,1,2,0:0:0:0:
40,161,191931,1,2,0:0:0:0:
0,157,192044,1,2,0:0:0:0:
60,53,192157,5,10,3:2:0:0:
102,33,192270,1,2,0:0:0:0:
148,40,192382,1,2,0:0:0:0:
182,72,192495,1,2,0:0:0:0:
264,0,192608,5,2,3:2:0:0:
264,0,192721,1,2,0:0:0:0:
379,124,192834,2,0,P|326:117|274:131,1,76.5000014591217,10|2,0:0|0:0,0:0:0:0:
201,228,193059,2,0,P|253:200|301:202,1,85.4999977169037,2|2,3:2|0:0,0:0:0:0:
492,265,193285,5,10,0:0:0:0:
337,322,193397,1,10,0:0:0:0:
384,217,193510,6,0,P|423:326|421:384,1,175.499991966248,2|2,3:2|0:0,0:0:0:0:
179,384,193961,2,0,P|222:309|260:338,1,116.999994644165,8|2,3:2|0:0,0:0:0:0:
259,338,194300,1,2,0:0:0:0:
55,266,194412,6,0,P|14:274|-15:295,1,58.4999973220826,0|0,3:2|0:0,0:0:0:0:
126,187,194638,2,0,P|167:195|196:216,1,58.4999973220826,0|0,3:2|0:0,0:0:0:0:
21,170,194864,6,0,L|13:101,1,58.4999973220826,10|2,0:0|0:0,0:0:0:0:
3,2,195089,1,2,0:0:0:0:
3,2,195202,1,2,0:0:0:0:
97,76,195315,5,2,3:2:0:0:
132,55,195427,1,2,0:0:0:0:
172,51,195540,1,2,0:0:0:0:
210,64,195653,1,2,0:0:0:0:
287,22,195766,5,10,0:0:0:0:
321,54,195879,1,2,0:0:0:0:
367,59,195991,1,2,0:0:0:0:
411,43,196104,1,10,0:0:0:0:
484,91,196217,5,2,3:2:0:0:
489,131,196330,1,2,0:0:0:0:
495,171,196443,1,2,3:2:0:0:
500,211,196555,1,2,0:0:0:0:
463,311,196668,5,10,0:0:0:0:
393,346,196781,1,2,0:0:0:0:
329,298,196894,1,2,0:0:0:0:
399,263,197007,1,2,0:0:0:0:
321,378,197119,6,0,P|235:368|144:386,1,175.499991966248,6|0,3:2|0:0,0:0:0:0:
10,383,197570,2,0,P|57:341|91:327,1,58.4999973220826,10|0,0:0|0:0,0:0:0:0:
131,244,197796,2,0,P|151:266|162:301,2,62.9999980773926,2|8|2,0:0|0:0|3:2,0:0:0:0:
0,251,198134,1,8,0:0:0:0:
147,154,198247,2,0,P|193:141|239:153,1,62.9999980773926,8|0,0:0|0:0,0:0:0:0:
62,77,198473,2,0,P|31:60|-11:53,1,67.5000025749208,8|0,3:2|0:0,0:0:0:0:
289,0,198698,5,8,0:0:0:0:
152,60,198811,1,8,0:0:0:0:
198,0,198924,6,0,P|228:48|235:86,1,67.5000025749208,6|0,3:2|0:0,0:0:0:0:
233,305,199149,2,0,P|233:241|265:195,1,94.499997116089,2|0,3:2|0:0,0:0:0:0:
421,34,199375,2,0,P|368:87|312:98,1,114.749998467922,2|0,3:2|0:0,0:0:0:0:
37,131,199600,2,0,P|115:125|170:169,1,148.500001416206,0|0,3:2|0:0,0:0:0:0:
379,357,199826,6,0,B|341:333|341:333|341:338|341:338|305:316|252:353|252:353|257:354|257:354|203:390|171:371|171:371|171:375|171:375|141:356,1,270.000010299683,2|0,3:2|0:0,0:0:0:0:
256,192,200728,6,0,L|256:96,1,90,4|0,3:2|0:0,0:0:0:0:
256,192,202533,6,0,L|256:288,1,90,4|0,3:2|0:0,0:0:0:0:
384,192,204337,6,0,L|384:144,1,45,0|0,3:2|0:0,0:0:0:0:
128,192,205240,6,0,L|128:240,1,45,4|0,0:0|0:0,0:0:0:0:
