osu file format v14

[General]
AudioFilename: audio.ogg
AudioLeadIn: 0
PreviewTime: 41329
Countdown: 0
SampleSet: Normal
StackLeniency: 0.7
Mode: 1
LetterboxInBreaks: 0
WidescreenStoryboard: 0

[Editor]
DistanceSpacing: 0.9
BeatDivisor: 2
GridSize: 4
TimelineZoom: 1.044

[Metadata]
Title:Rainfall
TitleUnicode:レインフォール
Artist:TUYU
ArtistUnicode:ツユ
Creator:AppleJuice127
Version:Futsuu
Source:
Tags:_hellfly_ hellfly zhuosh gaston_2199 pusu miro rei kico tsuyu reinforu under mentality アンダーメンタリティ ぷす 礼衣 ミロ japanese pop jpop j-pop rock j-rock jrock undermentality 3rd album rain fall
BeatmapID:4535008
BeatmapSetID:2018962

[Difficulty]
HPDrainRate:7
CircleSize:5
OverallDifficulty:4
ApproachRate:5
SliderMultiplier:1.4
SliderTickRate:1

[Events]
//Background and Video events
0,0,"rainfall-half-smaller.png",0,50
//Break Periods
//Storyboard Layer 0 (Background)
//Storyboard Layer 1 (Fail)
//Storyboard Layer 2 (Pass)
//Storyboard Layer 3 (Foreground)
//Storyboard Layer 4 (Overlay)
//Storyboard Sound Samples

[TimingPoints]
-670,461.538461538462,4,1,0,65,1,0
1176,461.538461538462,4,1,0,65,1,0
41791,-100,4,1,0,85,0,1
67637,-100,4,1,0,85,0,0
69483,-100,4,1,0,85,0,1
84252,-100,4,1,0,65,0,0
121176,-100,4,1,0,85,0,1
147022,-100,4,1,0,85,0,0
148868,-100,4,1,0,85,0,1
167329,-100,4,1,0,65,0,0
170560,-99.9999999999999,4,1,0,65,0,0
178406,-100,4,1,0,85,0,1
203560,-100,4,1,0,85,0,0
207945,-100,4,1,0,85,0,1
222714,-100,4,1,0,85,0,0

[Colours]
Combo1 : 99,164,207
Combo2 : 167,208,220

[HitObjects]
257,189,1176,5,0,0:0:0:0:
252,193,2099,1,0,0:0:0:0:
252,193,3022,1,0,0:0:0:0:
252,193,3483,1,0,0:0:0:0:
252,193,3945,1,0,0:0:0:0:
252,193,4868,1,2,0:0:0:0:
252,193,5330,1,0,0:0:0:0:
252,193,5791,1,2,0:0:0:0:
252,193,6253,1,0,0:0:0:0:
252,193,6714,1,2,0:0:0:0:
252,193,7176,1,0,0:0:0:0:
252,193,7637,1,0,0:0:0:0:
252,193,7868,1,0,0:0:0:0:
252,193,8560,1,4,0:0:0:0:
252,193,9022,1,2,0:0:0:0:
252,193,9483,1,0,0:0:0:0:
252,193,9945,1,2,0:0:0:0:
252,193,10406,1,0,0:0:0:0:
252,193,10868,1,2,0:0:0:0:
252,193,11099,1,0,0:0:0:0:
252,193,11330,1,0,0:0:0:0:
252,193,11791,1,2,0:0:0:0:
252,193,12253,1,6,0:0:0:0:
252,193,12714,1,2,0:0:0:0:
252,193,12945,1,0,0:0:0:0:
252,193,13176,1,0,0:0:0:0:
252,193,14099,1,0,0:0:0:0:
252,193,14560,1,2,0:0:0:0:
252,193,15022,1,0,0:0:0:0:
252,193,15483,1,2,0:0:0:0:
252,193,15945,1,2,0:0:0:0:
256,191,16406,1,2,0:0:0:0:
256,191,16868,1,0,0:0:0:0:
256,191,17330,1,0,0:0:0:0:
256,191,17791,1,0,0:0:0:0:
256,191,18253,1,2,0:0:0:0:
256,191,18714,1,2,0:0:0:0:
256,191,19176,1,0,0:0:0:0:
256,191,19637,1,2,0:0:0:0:
256,191,20560,1,2,0:0:0:0:
256,191,20791,1,2,0:0:0:0:
256,191,21022,1,0,0:0:0:0:
256,191,21253,1,0,0:0:0:0:
256,191,21483,1,6,0:0:0:0:
263,185,21945,1,0,0:0:0:0:
263,185,22406,1,2,0:0:0:0:
263,185,22637,1,0,0:0:0:0:
263,185,22868,1,0,0:0:0:0:
263,185,23330,1,0,0:0:0:0:
263,185,23791,1,2,0:0:0:0:
263,185,24253,1,0,0:0:0:0:
263,185,24483,1,2,0:0:0:0:
263,185,24714,1,0,0:0:0:0:
263,185,24945,1,2,0:0:0:0:
263,185,25406,1,2,0:0:0:0:
263,185,25637,1,0,0:0:0:0:
263,185,25868,1,0,0:0:0:0:
263,185,26330,1,0,0:0:0:0:
263,185,26791,1,0,0:0:0:0:
263,185,27253,1,0,0:0:0:0:
263,185,27483,1,2,0:0:0:0:
263,185,27714,1,0,0:0:0:0:
263,185,28868,1,4,0:0:0:0:
263,185,29330,1,2,0:0:0:0:
263,185,29791,1,0,0:0:0:0:
263,185,30253,1,2,0:0:0:0:
263,185,30714,1,0,0:0:0:0:
263,185,31176,1,0,0:0:0:0:
263,185,31637,1,2,0:0:0:0:
263,185,32099,1,2,0:0:0:0:
256,192,32560,12,0,33945,0:0:0:0:
259,183,34406,5,4,0:0:0:0:
259,183,34868,1,4,0:0:0:0:
259,183,35330,1,4,0:0:0:0:
253,191,36253,1,2,0:0:0:0:
253,191,36714,1,0,0:0:0:0:
253,191,37176,1,0,0:0:0:0:
253,191,37637,1,2,0:0:0:0:
253,191,38099,1,2,0:0:0:0:
253,191,38560,1,0,0:0:0:0:
253,191,39022,1,0,0:0:0:0:
253,191,39253,1,2,0:0:0:0:
253,191,39483,1,0,0:0:0:0:
253,191,39945,1,0,0:0:0:0:
253,191,40406,1,2,0:0:0:0:
253,191,40637,1,2,0:0:0:0:
253,191,40868,1,2,0:0:0:0:
262,186,41791,1,4,0:0:0:0:
262,186,42253,1,0,0:0:0:0:
262,186,42483,1,2,0:0:0:0:
262,186,42945,1,2,0:0:0:0:
262,186,43176,1,2,0:0:0:0:
262,186,43406,1,0,0:0:0:0:
262,186,43868,1,0,0:0:0:0:
262,186,44099,1,2,0:0:0:0:
262,186,44560,1,0,0:0:0:0:
262,186,44791,1,0,0:0:0:0:
262,186,45022,1,2,0:0:0:0:
262,186,45483,1,0,0:0:0:0:
262,186,45714,1,0,0:0:0:0:
262,186,45945,1,2,0:0:0:0:
262,186,46176,1,0,0:0:0:0:
262,186,46637,1,2,0:0:0:0:
262,186,46868,1,2,0:0:0:0:
262,186,47099,1,2,0:0:0:0:
262,186,47560,1,0,0:0:0:0:
262,186,47791,1,2,0:0:0:0:
262,186,48253,1,4,0:0:0:0:
262,186,48714,1,6,0:0:0:0:
262,186,49176,1,4,0:0:0:0:
282,190,50099,1,2,0:0:0:0:
282,190,50330,1,0,0:0:0:0:
282,190,50560,1,2,0:0:0:0:
282,190,50791,1,0,0:0:0:0:
288,187,51253,1,0,0:0:0:0:
288,187,51483,1,0,0:0:0:0:
288,187,51714,1,0,0:0:0:0:
288,187,51945,1,2,0:0:0:0:
288,187,52176,1,0,0:0:0:0:
288,187,52637,1,2,0:0:0:0:
288,187,52868,1,0,0:0:0:0:
288,187,53330,1,0,0:0:0:0:
288,187,53560,1,2,0:0:0:0:
288,187,54022,1,2,0:0:0:0:
288,187,54253,1,0,0:0:0:0:
288,187,54714,1,2,0:0:0:0:
288,187,54945,1,0,0:0:0:0:
288,187,55176,1,2,0:0:0:0:
288,187,55406,1,0,0:0:0:0:
288,187,55637,1,0,0:0:0:0:
288,187,55868,1,2,0:0:0:0:
288,187,56099,1,2,0:0:0:0:
288,187,56560,1,4,0:0:0:0:
288,187,57022,1,0,0:0:0:0:
288,187,57253,1,2,0:0:0:0:
288,187,57714,1,2,0:0:0:0:
288,187,57945,1,0,0:0:0:0:
288,187,58176,1,2,0:0:0:0:
288,187,58637,1,2,0:0:0:0:
288,187,58868,1,0,0:0:0:0:
288,187,59329,1,0,0:0:0:0:
288,187,59560,1,0,0:0:0:0:
288,187,59791,1,0,0:0:0:0:
288,187,60253,1,2,0:0:0:0:
288,187,60483,1,2,0:0:0:0:
282,188,60714,1,0,0:0:0:0:
288,187,60945,1,2,0:0:0:0:
282,188,61406,1,0,0:0:0:0:
288,187,61637,1,2,0:0:0:0:
288,187,61868,1,2,0:0:0:0:
282,188,62330,1,0,0:0:0:0:
288,187,62560,1,0,0:0:0:0:
288,187,62791,1,0,0:0:0:0:
288,187,63022,1,6,0:0:0:0:
288,187,63483,1,6,0:0:0:0:
288,187,63945,1,4,0:0:0:0:
288,187,64868,1,0,0:0:0:0:
288,187,65099,1,0,0:0:0:0:
288,187,65330,1,0,0:0:0:0:
288,187,65560,1,2,0:0:0:0:
288,187,66022,1,0,0:0:0:0:
288,187,66253,1,0,0:0:0:0:
288,187,66483,1,0,0:0:0:0:
288,187,66714,1,2,0:0:0:0:
288,187,66945,1,0,0:0:0:0:
288,187,67406,1,2,0:0:0:0:
288,187,67637,1,0,0:0:0:0:
288,187,68099,1,2,0:0:0:0:
288,187,68330,1,0,0:0:0:0:
288,187,68560,1,2,0:0:0:0:
288,187,69022,1,0,0:0:0:0:
288,187,69483,1,6,0:0:0:0:
284,185,70406,1,2,0:0:0:0:
284,185,71330,1,0,0:0:0:0:
284,185,71791,1,0,0:0:0:0:
284,185,72253,1,2,0:0:0:0:
284,185,72483,1,0,0:0:0:0:
284,185,72714,1,2,0:0:0:0:
284,185,73176,1,0,0:0:0:0:
284,185,73868,1,0,0:0:0:0:
284,185,74099,1,2,0:0:0:0:
284,185,74791,1,0,0:0:0:0:
284,185,75022,1,2,0:0:0:0:
284,185,75483,1,0,0:0:0:0:
284,185,76176,1,0,0:0:0:0:
284,185,76406,1,2,0:0:0:0:
284,185,76637,1,0,0:0:0:0:
286,183,76868,1,6,0:0:0:0:
284,185,77560,1,0,0:0:0:0:
286,183,77791,1,0,0:0:0:0:
284,185,78483,1,2,0:0:0:0:
286,183,78714,1,2,0:0:0:0:
284,185,79406,1,2,0:0:0:0:
286,183,79637,1,2,0:0:0:0:
286,183,79868,1,0,0:0:0:0:
286,183,80099,1,0,0:0:0:0:
286,183,80330,1,0,0:0:0:0:
286,183,80560,1,2,0:0:0:0:
286,183,81253,1,2,0:0:0:0:
286,183,81483,1,0,0:0:0:0:
286,183,82176,1,0,0:0:0:0:
286,183,82406,1,2,0:0:0:0:
286,183,83099,1,2,0:0:0:0:
286,183,83330,1,0,0:0:0:0:
286,183,83560,1,0,0:0:0:0:
286,183,83791,1,2,0:0:0:0:
286,183,84022,1,0,0:0:0:0:
286,183,84253,1,4,0:0:0:0:
286,183,84714,1,2,0:0:0:0:
286,183,85176,1,2,0:0:0:0:
286,183,85637,1,0,0:0:0:0:
286,183,86099,1,0,0:0:0:0:
285,182,87483,1,0,0:0:0:0:
285,182,87945,1,2,0:0:0:0:
285,182,88868,1,2,0:0:0:0:
285,182,89791,1,2,0:0:0:0:
285,182,90714,1,0,0:0:0:0:
279,182,91637,1,0,0:0:0:0:
279,182,92099,1,0,0:0:0:0:
285,182,92560,1,2,0:0:0:0:
285,182,93022,1,2,0:0:0:0:
285,182,93483,1,0,0:0:0:0:
285,182,93945,1,0,0:0:0:0:
285,182,94406,1,2,0:0:0:0:
285,182,94637,1,0,0:0:0:0:
252,193,95330,1,4,0:0:0:0:
252,193,95791,1,2,0:0:0:0:
252,193,96253,1,0,0:0:0:0:
252,193,96714,1,2,0:0:0:0:
252,193,97176,1,0,0:0:0:0:
252,193,97637,1,2,0:0:0:0:
252,193,97868,1,0,0:0:0:0:
252,193,98099,1,0,0:0:0:0:
252,193,98560,1,2,0:0:0:0:
252,193,99022,1,6,0:0:0:0:
252,193,99483,1,2,0:0:0:0:
252,193,99714,1,0,0:0:0:0:
252,193,99945,1,0,0:0:0:0:
252,193,100868,1,4,0:0:0:0:
252,193,101330,1,2,0:0:0:0:
252,193,101791,1,0,0:0:0:0:
252,193,102253,1,2,0:0:0:0:
252,193,102714,1,2,0:0:0:0:
256,191,103176,1,2,0:0:0:0:
256,191,103637,1,0,0:0:0:0:
256,191,104099,1,0,0:0:0:0:
256,191,104560,1,0,0:0:0:0:
256,191,105022,1,2,0:0:0:0:
256,191,105483,1,0,0:0:0:0:
256,191,105945,1,0,0:0:0:0:
256,191,106406,1,2,0:0:0:0:
256,191,107330,1,2,0:0:0:0:
256,191,107560,1,2,0:0:0:0:
256,191,107791,1,0,0:0:0:0:
256,191,108022,1,0,0:0:0:0:
256,191,108253,1,6,0:0:0:0:
263,185,108714,1,0,0:0:0:0:
263,185,109176,1,2,0:0:0:0:
263,185,109637,1,2,0:0:0:0:
263,185,110099,1,2,0:0:0:0:
263,185,110560,1,0,0:0:0:0:
263,185,111022,1,0,0:0:0:0:
263,185,111483,1,2,0:0:0:0:
256,192,111945,12,0,113329,0:0:0:0:
263,185,113791,5,4,0:0:0:0:
263,185,114253,1,4,0:0:0:0:
263,185,114714,1,6,0:0:0:0:
263,185,115637,1,0,0:0:0:0:
263,185,116099,1,0,0:0:0:0:
263,185,116560,1,0,0:0:0:0:
263,185,117022,1,0,0:0:0:0:
263,185,117483,1,2,0:0:0:0:
263,185,117945,1,2,0:0:0:0:
263,185,118406,1,0,0:0:0:0:
263,185,118637,1,2,0:0:0:0:
263,185,118868,1,0,0:0:0:0:
263,185,119330,1,2,0:0:0:0:
263,185,119791,1,2,0:0:0:0:
263,185,120022,1,2,0:0:0:0:
263,185,120253,1,2,0:0:0:0:
262,186,121176,1,4,0:0:0:0:
262,186,121637,1,2,0:0:0:0:
262,186,121868,1,0,0:0:0:0:
262,186,122330,1,0,0:0:0:0:
262,186,122560,1,0,0:0:0:0:
262,186,122791,1,2,0:0:0:0:
262,186,123253,1,0,0:0:0:0:
262,186,123483,1,2,0:0:0:0:
262,186,123945,1,0,0:0:0:0:
262,186,124176,1,0,0:0:0:0:
262,186,124406,1,2,0:0:0:0:
262,186,124868,1,2,0:0:0:0:
262,186,125330,1,0,0:0:0:0:
262,186,125560,1,2,0:0:0:0:
262,186,126022,1,0,0:0:0:0:
262,186,126253,1,2,0:0:0:0:
262,186,126483,1,2,0:0:0:0:
262,186,126945,1,0,0:0:0:0:
262,186,127176,1,0,0:0:0:0:
262,186,127406,1,0,0:0:0:0:
262,186,127637,1,6,0:0:0:0:
262,186,128099,1,6,0:0:0:0:
262,186,128560,1,6,0:0:0:0:
262,186,129483,1,2,0:0:0:0:
262,186,129714,1,0,0:0:0:0:
262,186,129945,1,2,0:0:0:0:
262,186,130176,1,0,0:0:0:0:
262,186,130637,1,0,0:0:0:0:
262,186,130868,1,2,0:0:0:0:
262,186,131099,1,0,0:0:0:0:
262,186,131330,1,2,0:0:0:0:
262,186,131560,1,0,0:0:0:0:
262,186,132022,1,0,0:0:0:0:
262,186,132253,1,2,0:0:0:0:
262,186,132714,1,2,0:0:0:0:
262,186,132945,1,0,0:0:0:0:
262,186,133406,1,0,0:0:0:0:
262,186,133637,1,2,0:0:0:0:
262,186,134099,1,0,0:0:0:0:
262,186,134330,1,2,0:0:0:0:
262,186,134560,1,0,0:0:0:0:
262,186,134791,1,2,0:0:0:0:
262,186,135022,1,2,0:0:0:0:
262,186,135253,1,0,0:0:0:0:
262,186,135483,1,0,0:0:0:0:
288,187,135945,1,4,0:0:0:0:
288,187,136406,1,0,0:0:0:0:
288,187,136637,1,2,0:0:0:0:
288,187,137099,1,2,0:0:0:0:
288,187,137330,1,0,0:0:0:0:
288,187,137560,1,2,0:0:0:0:
288,187,138022,1,2,0:0:0:0:
288,187,138253,1,0,0:0:0:0:
288,187,138714,1,0,0:0:0:0:
288,187,138945,1,0,0:0:0:0:
288,187,139176,1,0,0:0:0:0:
288,187,139637,1,2,0:0:0:0:
288,187,139868,1,2,0:0:0:0:
282,190,140099,1,0,0:0:0:0:
278,178,140329,1,2,0:0:0:0:
282,188,140791,1,0,0:0:0:0:
288,187,141022,1,2,0:0:0:0:
288,187,141253,1,2,0:0:0:0:
282,188,141714,1,0,0:0:0:0:
288,187,141945,1,0,0:0:0:0:
288,187,142176,1,0,0:0:0:0:
288,187,142406,1,6,0:0:0:0:
288,187,142868,1,6,0:0:0:0:
288,187,143330,1,4,0:0:0:0:
262,186,144253,1,0,0:0:0:0:
262,186,144483,1,0,0:0:0:0:
262,186,144714,1,2,0:0:0:0:
262,186,144945,1,0,0:0:0:0:
262,186,145406,1,0,0:0:0:0:
262,186,145637,1,0,0:0:0:0:
262,186,145868,1,0,0:0:0:0:
262,186,146099,1,2,0:0:0:0:
262,186,146330,1,0,0:0:0:0:
262,186,146791,1,2,0:0:0:0:
262,186,147022,1,0,0:0:0:0:
262,186,147483,1,2,0:0:0:0:
262,186,147714,1,0,0:0:0:0:
262,186,147945,1,0,0:0:0:0:
262,186,148406,1,2,0:0:0:0:
262,186,148868,1,6,0:0:0:0:
262,186,149791,1,2,0:0:0:0:
262,186,150714,1,2,0:0:0:0:
262,186,151176,1,2,0:0:0:0:
262,186,151637,1,0,0:0:0:0:
262,186,151868,1,0,0:0:0:0:
262,186,152099,1,2,0:0:0:0:
262,186,152560,1,0,0:0:0:0:
262,186,153253,1,2,0:0:0:0:
262,186,153483,1,0,0:0:0:0:
262,186,154176,1,2,0:0:0:0:
262,186,154406,1,0,0:0:0:0:
262,186,154868,1,2,0:0:0:0:
262,186,155560,1,0,0:0:0:0:
262,186,155791,1,2,0:0:0:0:
262,186,156022,1,0,0:0:0:0:
256,187,156253,1,4,0:0:0:0:
256,187,156945,1,0,0:0:0:0:
256,187,157176,1,0,0:0:0:0:
256,187,157868,1,2,0:0:0:0:
256,187,158099,1,2,0:0:0:0:
256,187,158791,1,2,0:0:0:0:
256,187,159022,1,2,0:0:0:0:
256,187,159253,1,0,0:0:0:0:
256,187,159483,1,2,0:0:0:0:
256,187,159714,1,0,0:0:0:0:
256,187,159945,1,0,0:0:0:0:
256,187,160637,1,2,0:0:0:0:
256,187,160868,1,0,0:0:0:0:
256,187,161560,1,0,0:0:0:0:
256,187,161791,1,2,0:0:0:0:
256,187,162483,1,0,0:0:0:0:
256,187,162714,1,2,0:0:0:0:
256,187,162945,1,0,0:0:0:0:
256,187,163176,1,2,0:0:0:0:
256,187,163406,1,2,0:0:0:0:
256,187,163637,1,0,0:0:0:0:
256,187,164330,1,0,0:0:0:0:
256,187,164560,1,2,0:0:0:0:
256,187,165253,1,2,0:0:0:0:
256,187,165483,1,2,0:0:0:0:
256,187,166176,1,2,0:0:0:0:
256,187,166406,1,2,0:0:0:0:
256,187,166637,1,0,0:0:0:0:
256,187,166868,1,0,0:0:0:0:
256,187,167099,1,2,0:0:0:0:
256,187,167330,1,4,0:0:0:0:
256,187,167791,1,0,0:0:0:0:
256,187,168253,1,0,0:0:0:0:
256,187,168714,1,0,0:0:0:0:
256,187,169176,1,0,0:0:0:0:
256,192,169637,8,0,170560,0:0:0:0:
256,187,171022,5,0,0:0:0:0:
256,187,171483,1,0,0:0:0:0:
256,187,171945,1,0,0:0:0:0:
256,187,172406,1,2,0:0:0:0:
256,187,172868,1,2,0:0:0:0:
256,187,173330,1,0,0:0:0:0:
256,187,173791,1,0,0:0:0:0:
256,187,174022,1,2,0:0:0:0:
256,187,174253,1,0,0:0:0:0:
256,187,174714,1,2,0:0:0:0:
256,187,175176,1,0,0:0:0:0:
256,187,175406,1,0,0:0:0:0:
256,187,175637,1,2,0:0:0:0:
256,187,178406,1,4,0:0:0:0:
256,187,178868,1,0,0:0:0:0:
256,187,179099,1,8,0:0:0:0:
256,187,179560,1,0,0:0:0:0:
256,187,179791,1,0,0:0:0:0:
256,187,180022,1,8,0:0:0:0:
256,187,180483,1,8,0:0:0:0:
256,187,180714,1,0,0:0:0:0:
256,187,181176,1,0,0:0:0:0:
256,187,181406,1,0,0:0:0:0:
256,187,181637,1,2,0:0:0:0:
256,187,182099,1,0,0:0:0:0:
256,187,182330,1,2,0:0:0:0:
256,187,182560,1,0,0:0:0:0:
256,187,182791,1,2,0:0:0:0:
256,187,183253,1,0,0:0:0:0:
256,187,183483,1,0,0:0:0:0:
256,187,183714,1,2,0:0:0:0:
256,187,184176,1,2,0:0:0:0:
256,187,184406,1,0,0:0:0:0:
256,187,184637,1,0,0:0:0:0:
256,187,184868,1,6,0:0:0:0:
256,187,185330,1,6,0:0:0:0:
256,187,185791,1,4,0:0:0:0:
256,187,186714,1,0,0:0:0:0:
256,187,186945,1,2,0:0:0:0:
256,187,187176,1,2,0:0:0:0:
256,187,187406,1,0,0:0:0:0:
256,187,187868,1,0,0:0:0:0:
256,187,188099,1,2,0:0:0:0:
256,187,188330,1,2,0:0:0:0:
256,187,188560,1,0,0:0:0:0:
256,187,188791,1,2,0:0:0:0:
256,187,189253,1,2,0:0:0:0:
256,187,189483,1,0,0:0:0:0:
256,187,189945,1,0,0:0:0:0:
256,187,190176,1,2,0:0:0:0:
256,187,190637,1,0,0:0:0:0:
250,183,190868,1,0,0:0:0:0:
250,183,191330,1,2,0:0:0:0:
250,181,191560,1,0,0:0:0:0:
252,194,191791,1,2,0:0:0:0:
250,183,192022,1,0,0:0:0:0:
252,194,192253,1,2,0:0:0:0:
252,194,192483,1,0,0:0:0:0:
252,194,192714,1,0,0:0:0:0:
252,194,193176,1,4,0:0:0:0:
252,194,193637,1,0,0:0:0:0:
252,194,193868,1,2,0:0:0:0:
252,194,194330,1,2,0:0:0:0:
252,194,194560,1,0,0:0:0:0:
252,194,194791,1,2,0:0:0:0:
252,194,195253,1,0,0:0:0:0:
252,194,195483,1,0,0:0:0:0:
252,194,195945,1,0,0:0:0:0:
252,194,196176,1,2,0:0:0:0:
252,194,196406,1,0,0:0:0:0:
252,194,196868,1,2,0:0:0:0:
252,194,197099,1,2,0:0:0:0:
252,194,197329,1,0,0:0:0:0:
252,194,197560,1,2,0:0:0:0:
252,194,198022,1,0,0:0:0:0:
252,194,198253,1,0,0:0:0:0:
252,194,198483,1,2,0:0:0:0:
252,194,198945,1,2,0:0:0:0:
252,194,199176,1,2,0:0:0:0:
252,194,199406,1,0,0:0:0:0:
252,194,199637,1,6,0:0:0:0:
252,194,200099,1,6,0:0:0:0:
252,194,200560,1,6,0:0:0:0:
252,194,201483,1,2,0:0:0:0:
252,194,201714,1,0,0:0:0:0:
252,194,201945,1,2,0:0:0:0:
252,194,202176,1,0,0:0:0:0:
252,194,202637,1,0,0:0:0:0:
252,194,202868,1,2,0:0:0:0:
252,194,203099,1,0,0:0:0:0:
252,194,203330,1,0,0:0:0:0:
252,194,203560,1,0,0:0:0:0:
256,192,204253,12,0,206099,0:0:0:0:
255,193,207022,5,0,0:0:0:0:
260,195,207252,1,0,0:0:0:0:
260,195,207483,1,2,0:0:0:0:
255,193,207945,1,6,0:0:0:0:
255,193,208868,1,2,0:0:0:0:
255,193,209791,1,0,0:0:0:0:
255,193,210253,1,2,0:0:0:0:
255,193,210714,1,2,0:0:0:0:
255,193,211176,1,0,0:0:0:0:
255,193,211637,1,2,0:0:0:0:
255,193,212330,1,2,0:0:0:0:
255,193,212560,1,0,0:0:0:0:
255,193,213253,1,2,0:0:0:0:
255,193,213483,1,2,0:0:0:0:
255,193,213945,1,0,0:0:0:0:
255,193,214406,1,0,0:0:0:0:
255,193,214868,1,0,0:0:0:0:
256,193,215330,1,4,0:0:0:0:
256,193,216253,1,2,0:0:0:0:
256,193,216483,1,0,0:0:0:0:
256,193,216714,1,0,0:0:0:0:
256,193,217176,1,2,0:0:0:0:
256,193,217637,1,2,0:0:0:0:
256,193,218099,1,0,0:0:0:0:
256,182,218329,1,0,0:0:0:0:
256,193,218560,1,0,0:0:0:0:
256,193,219022,1,2,0:0:0:0:
256,193,219714,1,0,0:0:0:0:
256,193,219945,1,2,0:0:0:0:
261,193,220637,1,2,0:0:0:0:
256,193,220868,1,2,0:0:0:0:
256,193,221330,1,2,0:0:0:0:
256,193,221791,1,0,0:0:0:0:
256,193,222022,1,2,0:0:0:0:
256,193,222253,1,2,0:0:0:0:
256,193,222483,1,2,0:0:0:0:
