osu file format v14

[General]
AudioFilename: audio.ogg
AudioLeadIn: 0
PreviewTime: 41329
Countdown: 0
SampleSet: Normal
StackLeniency: 0.7
Mode: 1
LetterboxInBreaks: 0
WidescreenStoryboard: 1

[Editor]
Bookmarks: 1176,14099,28868,36252,41791,56560,69483,76868,87945,100868,115637,121176,135945,148868,156252,178406,193176,207945,215329
DistanceSpacing: 1.1
BeatDivisor: 4
GridSize: 32
TimelineZoom: 1.544

[Metadata]
Title:Rainfall
TitleUnicode:レインフォール
Artist:TUYU
ArtistUnicode:ツユ
Creator:AppleJuice127
Version:2199's Inner Oni
Source:
Tags:_hellfly_ hellfly zhuosh gaston_2199 pusu miro rei kico tsuyu reinforu under mentality アンダーメンタリティ ぷす 礼衣 ミロ japanese pop jpop j-pop rock j-rock jrock undermentality 3rd album rain fall
BeatmapID:4509340
BeatmapSetID:2018962

[Difficulty]
HPDrainRate:6
CircleSize:3
OverallDifficulty:5.5
ApproachRate:10
SliderMultiplier:1.4
SliderTickRate:1

[Events]
//Background and Video events
0,0,"rainfall-half-smaller.png",0,50
//Break Periods
//Storyboard Layer 0 (Background)
//Storyboard Layer 1 (Fail)
//Storyboard Layer 2 (Pass)
//Storyboard Layer 3 (Foreground)
//Storyboard Layer 4 (Overlay)
//Storyboard Sound Samples

[TimingPoints]
-670,461.538461538462,4,1,0,80,1,0
1176,461.538461538462,4,1,0,80,1,0
1176,-66.6666666666667,4,1,0,80,0,0
1406,-100,4,1,0,70,0,0
8560,-90.9090909090909,4,1,0,80,0,0
12252,-76.9230769230769,4,1,0,80,0,0
12483,-90.9090909090909,4,1,0,80,0,0
14099,-100,4,1,0,70,0,0
20557,-96.15064155974,4,1,0,70,0,0
20788,-92.586649550706,4,1,0,70,0,0
21019,-89.2774253442674,4,1,0,70,0,0
21249,-86.209472583296,4,1,0,70,0,0
21365,-84.7407842561316,4,1,0,70,0,0
21480,-83.3333333333333,4,1,0,80,0,0
25403,-82.5949988832713,4,1,0,80,0,0
25634,-81.6520755153092,4,1,0,80,0,0
25749,-81.1504824734291,4,1,0,80,0,0
25865,-80.63029900337,4,1,0,80,0,0
26096,-79.564662189895,4,1,0,80,0,0
26326,-78.4785261604778,4,1,0,80,0,0
26442,-77.9250782003922,4,1,0,80,0,0
26557,-77.3741699966561,4,1,0,80,0,0
26673,-76.8171446844536,4,1,0,80,0,0
26788,-76.2643853745844,4,1,0,80,0,0
26903,-75.7117598269532,4,1,0,80,0,0
27019,-75.1550494988607,4,1,0,80,0,0
27249,-74.0553187192311,4,1,0,80,0,0
27480,-72.9589630651522,4,1,0,80,0,0
27711,-71.8733540777197,4,1,0,80,0,0
27942,-70.8004856524424,4,1,0,80,0,0
28057,-70.2716173954681,4,1,0,80,0,0
28173,-69.7419000235547,4,1,0,80,0,0
28288,-69.2206036968885,4,1,0,80,0,0
28403,-68.7032642597073,4,1,0,80,0,0
28519,-68.1855395771486,4,1,0,80,0,0
28634,-67.6764455776003,4,1,0,80,0,0
28749,-67.1715776090217,4,1,0,80,0,0
28865,-66.6666666666667,4,1,0,80,0,0
29099,-100,4,1,0,70,0,0
32557,-90.9090909090909,4,1,0,80,0,0
32788,-86.9524258125294,4,1,0,80,0,0
33019,-83.3258102374289,4,1,0,80,0,0
33134,-81.6308481471655,4,1,0,80,0,0
33249,-80.0034671058334,4,1,0,80,0,0
33480,-76.9230769230769,4,1,0,80,0,0
33596,-75.4639849562587,4,1,0,80,0,0
33711,-74.0711018377337,4,1,0,80,0,0
33826,-72.7287053817666,4,1,0,80,0,0
33942,-71.4230441847868,4,1,0,80,0,0
34019,-70.5819377533073,4,1,0,80,0,0
34096,-69.7604111556194,4,1,0,80,0,0
34173,-68.957788569294,4,1,0,80,0,0
34249,-68.1834970820714,4,1,0,80,0,0
34326,-67.4165510189175,4,1,0,80,0,0
34403,-66.6666666666667,4,1,0,80,0,0
36252,-100,4,1,0,70,0,0
41326,-76.9230769230769,4,1,0,70,0,0
41557,-74.4309274679285,4,1,0,70,0,0
41673,-72.9432276619289,4,1,0,70,0,0
41791,-71.4285714285714,4,1,0,90,0,1
41906,-76.9230769230769,4,1,0,90,0,1
55634,-76.0739356746058,4,1,0,90,0,1
55749,-75.55359554058,4,1,0,90,0,1
55865,-74.9998072003003,4,1,0,90,0,1
55980,-74.4309274679285,4,1,0,90,0,1
56096,-73.8427458541258,4,1,0,90,0,1
56211,-73.2493482744404,4,1,0,90,0,1
56326,-72.6486372645932,4,1,0,90,0,1
56442,-72.0375936429168,4,1,0,90,0,1
56557,-71.4285714285714,4,1,0,90,0,1
56675,-76.9230769230769,4,1,0,90,0,1
68560,-100,4,1,0,90,0,1
69483,-76.9230769230769,4,1,0,80,0,0
69711,-77.8102147965669,4,1,0,80,0,0
69826,-78.2501540225768,4,1,0,80,0,0
69942,-78.6920822532684,4,1,0,80,0,0
70173,-79.5640998501827,4,1,0,80,0,0
70288,-79.9927067361909,4,1,0,80,0,0
70403,-80.4163942776399,4,1,0,80,0,0
70519,-80.8375766356801,4,1,0,80,0,0
70634,-81.2475073317587,4,1,0,80,0,0
70749,-81.647956525212,4,1,0,80,0,0
70865,-82.0397155584462,4,1,0,80,0,0
71096,-82.7667419299394,4,1,0,80,0,0
71326,-76.9230769230769,4,1,0,80,0,0
71557,-77.8097355525315,4,1,0,80,0,0
71673,-78.2532550808035,4,1,0,80,0,0
71788,-78.6911317137323,4,1,0,80,0,0
72019,-79.5626945271043,4,1,0,80,0,0
72134,-79.9910849357033,4,1,0,80,0,0
72249,-80.4145654146103,4,1,0,80,0,0
72365,-80.8355514141929,4,1,0,80,0,0
72480,-81.2453038429159,4,1,0,80,0,0
72596,-81.6490293285562,4,1,0,80,0,0
72711,-82.0372293816442,4,1,0,80,0,0
72942,-82.7641722059258,4,1,0,80,0,0
73173,-76.9230769230769,4,1,0,80,0,0
73403,-77.2934723443453,4,1,0,80,0,0
73519,-77.4816369359916,4,1,0,80,0,0
73634,-77.6690859366782,4,1,0,80,0,0
73865,-78.0483680027059,4,1,0,80,0,0
73980,-78.2385725486872,4,1,0,80,0,0
74096,-78.4313725490196,4,1,0,80,0,0
74326,-78.816472044916,4,1,0,80,0,0
74442,-79.012134312068,4,1,0,80,0,0
74557,-79.2070711404788,4,1,0,80,0,0
74673,-79.4046799724708,4,1,0,80,0,0
74788,-79.6015609840236,4,1,0,80,0,0
75019,-80,4,1,0,80,0,0
75173,-80.2678493782068,4,1,0,80,0,0
75326,-80.5357415526907,4,1,0,80,0,0
75480,-80.8071964805533,4,1,0,80,0,0
75711,-81.2178274451142,4,1,0,80,0,0
75826,-81.4238140396533,4,1,0,80,0,0
75942,-81.6326530612245,4,1,0,80,0,0
76173,-82.0517379322606,4,1,0,80,0,0
76403,-82.4733056337399,4,1,0,80,0,0
76519,-82.6875699888018,4,1,0,80,0,0
76634,-82.9010890310991,4,1,0,80,0,0
76865,-76.9230769230769,4,1,0,80,0,0
77326,-83.3333333333333,4,1,0,80,0,0
77557,-82.839781555265,4,1,0,80,0,0
77673,-82.5941358419183,4,1,0,80,0,0
77788,-82.3520415965744,4,1,0,80,0,0
78019,-81.8700114025086,4,1,0,80,0,0
78249,-81.3956417684847,4,1,0,80,0,0
78365,-81.1584737886514,4,1,0,80,0,0
78480,-80.9247107148224,4,1,0,80,0,0
78596,-80.6902752110284,4,1,0,80,0,0
78711,-80.4591976492268,4,1,0,80,0,0
78942,-79.9990096068139,4,1,0,80,0,0
79173,-79.5440557374628,4,1,0,80,0,0
79403,-79.0961835051042,4,1,0,80,0,0
79519,-78.872207982424,4,1,0,80,0,0
79634,-78.65141187926,4,1,0,80,0,0
79865,-78.2116143400063,4,1,0,80,0,0
80096,-77.7767079100669,4,1,0,80,0,0
80211,-77.5619943826968,4,1,0,80,0,0
80326,-77.3484630853203,4,1,0,80,0,0
80557,-76.9230769230769,4,1,0,80,0,0
80788,-82.9010890310991,4,1,0,80,0,0
81019,-82.4733056337399,4,1,0,80,0,0
81249,-82.0517379322606,4,1,0,80,0,0
81365,-81.8407519063664,4,1,0,80,0,0
81480,-81.6326530612245,4,1,0,80,0,0
81711,-81.2178274451142,4,1,0,80,0,0
81942,-80.8071964805533,4,1,0,80,0,0
82057,-80.6043140337088,4,1,0,80,0,0
82173,-80.4006968641115,4,1,0,80,0,0
82288,-80.1998479417834,4,1,0,80,0,0
82403,-80,4,1,0,80,0,0
82634,-79.6015609840236,4,1,0,80,0,0
82865,-79.2070711404788,4,1,0,80,0,0
83096,-78.816472044916,4,1,0,80,0,0
83211,-78.6234507432173,4,1,0,80,0,0
83326,-78.4313725490196,4,1,0,80,0,0
83557,-78.0483680027059,4,1,0,80,0,0
83788,-77.6690859366782,4,1,0,80,0,0
84019,-77.2934723443453,4,1,0,80,0,0
84249,-66.6666666666667,4,1,0,80,0,0
84711,-82.4828194601579,4,1,0,80,0,0
85173,-88.456611313467,4,1,0,80,0,0
85634,-94.6184523386342,4,1,0,80,0,0
86096,-100,4,1,0,80,0,0
87933,-66.6666666666667,4,1,0,80,0,0
88163,-100,4,1,0,70,0,0
95317,-90.9090909090909,4,1,0,80,0,0
99009,-76.9230769230769,4,1,0,80,0,0
99240,-90.9090909090909,4,1,0,80,0,0
100856,-90.9090909090909,4,1,0,70,0,0
107326,-89.2898629288314,4,1,0,70,0,0
107557,-87.7206329884358,4,1,0,70,0,0
107788,-86.2056074766355,4,1,0,70,0,0
108019,-84.7420255769513,4,1,0,70,0,0
108134,-84.031776109613,4,1,0,70,0,0
108249,-83.3333333333333,4,1,0,80,0,0
108599,-90.9090909090909,4,1,0,80,0,0
112173,-86.9524258125294,4,1,0,80,0,0
112403,-83.3408577878104,4,1,0,80,0,0
112519,-81.6308481471655,4,1,0,80,0,0
112634,-80.0034671058334,4,1,0,80,0,0
112865,-76.9230769230769,4,1,0,80,0,0
112980,-75.4763267642489,4,1,0,80,0,0
113096,-74.0711018377337,4,1,0,80,0,0
113211,-72.7287053817666,4,1,0,80,0,0
113326,-71.4340995279003,4,1,0,80,0,0
113403,-70.5927342256214,4,1,0,80,0,0
113480,-69.7709577443495,4,1,0,80,0,0
113557,-68.9680938504072,4,1,0,80,0,0
113634,-68.1834970820714,4,1,0,80,0,0
113711,-67.4165510189175,4,1,0,80,0,0
113788,-66.6666666666667,4,1,0,80,0,0
115630,-100,4,1,0,70,0,0
120480,-92.9467914037342,4,1,0,70,0,0
120596,-88.9952507599282,4,1,0,70,0,0
120711,-85.1544681352036,4,1,0,70,0,0
120826,-81.4577881309471,4,1,0,70,0,0
120942,-77.9062224019969,4,1,0,70,0,0
121057,-74.5730840612769,4,1,0,70,0,0
121176,-71.4285714285714,4,1,0,90,0,1
121284,-76.9230769230769,4,1,0,90,0,1
135012,-76.0739356746058,4,1,0,90,0,1
135127,-75.55359554058,4,1,0,90,0,1
135243,-74.9998072003003,4,1,0,90,0,1
135358,-74.4309274679285,4,1,0,90,0,1
135474,-73.8427458541258,4,1,0,90,0,1
135589,-73.2493482744404,4,1,0,90,0,1
135704,-72.6486372645932,4,1,0,90,0,1
135820,-72.0375936429168,4,1,0,90,0,1
135935,-71.4285714285714,4,1,0,90,0,1
136053,-76.9230769230769,4,1,0,90,0,1
147938,-100,4,1,0,90,0,1
148868,-76.9230769230769,4,1,0,80,0,0
149089,-77.8102147965669,4,1,0,80,0,0
149204,-78.2501540225768,4,1,0,80,0,0
149320,-78.6920822532684,4,1,0,80,0,0
149551,-79.5640998501827,4,1,0,80,0,0
149666,-79.9927067361909,4,1,0,80,0,0
149781,-80.4163942776399,4,1,0,80,0,0
149897,-80.8375766356801,4,1,0,80,0,0
150012,-81.2475073317587,4,1,0,80,0,0
150127,-81.647956525212,4,1,0,80,0,0
150243,-82.0397155584462,4,1,0,80,0,0
150474,-82.7667419299394,4,1,0,80,0,0
150704,-76.9230769230769,4,1,0,80,0,0
150935,-77.8097355525315,4,1,0,80,0,0
151051,-78.2532550808035,4,1,0,80,0,0
151166,-78.6911317137323,4,1,0,80,0,0
151397,-79.5626945271043,4,1,0,80,0,0
151512,-79.9910849357033,4,1,0,80,0,0
151627,-80.4145654146103,4,1,0,80,0,0
151743,-80.8355514141929,4,1,0,80,0,0
151858,-81.2453038429159,4,1,0,80,0,0
151974,-81.6490293285562,4,1,0,80,0,0
152089,-82.0372293816442,4,1,0,80,0,0
152320,-82.7641722059258,4,1,0,80,0,0
152551,-76.9230769230769,4,1,0,80,0,0
152781,-77.2934723443453,4,1,0,80,0,0
152897,-77.4816369359916,4,1,0,80,0,0
153012,-77.6690859366782,4,1,0,80,0,0
153243,-78.0483680027059,4,1,0,80,0,0
153358,-78.2385725486872,4,1,0,80,0,0
153474,-78.4313725490196,4,1,0,80,0,0
153704,-78.816472044916,4,1,0,80,0,0
153820,-79.012134312068,4,1,0,80,0,0
153935,-79.2070711404788,4,1,0,80,0,0
154051,-79.4046799724708,4,1,0,80,0,0
154166,-79.6015609840236,4,1,0,80,0,0
154397,-80,4,1,0,80,0,0
154551,-80.2678493782068,4,1,0,80,0,0
154704,-80.5357415526907,4,1,0,80,0,0
154858,-80.8071964805533,4,1,0,80,0,0
155089,-81.2178274451142,4,1,0,80,0,0
155204,-81.4238140396533,4,1,0,80,0,0
155320,-81.6326530612245,4,1,0,80,0,0
155551,-82.0517379322606,4,1,0,80,0,0
155781,-82.4733056337399,4,1,0,80,0,0
155897,-82.6875699888018,4,1,0,80,0,0
156012,-82.9010890310991,4,1,0,80,0,0
156243,-76.9230769230769,4,1,0,80,0,0
156704,-83.3333333333333,4,1,0,80,0,0
156935,-83.0414269557748,4,1,0,80,0,0
157051,-82.8587112424514,4,1,0,80,0,0
157166,-82.6657425287511,4,1,0,80,0,0
157397,-82.2527832816324,4,1,0,80,0,0
157627,-81.8173245434272,4,1,0,80,0,0
157743,-81.5907483079709,4,1,0,80,0,0
157858,-81.3623415504575,4,1,0,80,0,0
157974,-81.1286158999687,4,1,0,80,0,0
158089,-80.8940038566033,4,1,0,80,0,0
158320,-80.4153488227945,4,1,0,80,0,0
158551,-79.9286467527335,4,1,0,80,0,0
158781,-79.4378129682602,4,1,0,80,0,0
158897,-79.1883566420355,4,1,0,80,0,0
159012,-78.9399967779784,4,1,0,80,0,0
159243,-78.438489216726,4,1,0,80,0,0
159474,-77.9342679418049,4,1,0,80,0,0
159589,-77.682499021129,4,1,0,80,0,0
159704,-77.4303553632305,4,1,0,80,0,0
159942,-76.9230769230769,4,1,0,80,0,0
160173,-82.9010890310991,4,1,0,80,0,0
160403,-82.4751479950854,4,1,0,80,0,0
160634,-82.0517379322606,4,1,0,80,0,0
160749,-81.8425661146949,4,1,0,80,0,0
160865,-81.6326530612245,4,1,0,80,0,0
161096,-81.2178274451142,4,1,0,80,0,0
161326,-80.8089651549641,4,1,0,80,0,0
161442,-80.6043140337088,4,1,0,80,0,0
161557,-80.4024477884971,4,1,0,80,0,0
161673,-80.1998479417834,4,1,0,80,0,0
161788,-80,4,1,0,80,0,0
162019,-79.6015609840236,4,1,0,80,0,0
162249,-79.2087704619081,4,1,0,80,0,0
162480,-78.8181546475385,4,1,0,80,0,0
162596,-78.6234507432173,4,1,0,80,0,0
162711,-78.4313725490196,4,1,0,80,0,0
162942,-78.0483680027059,4,1,0,80,0,0
163173,-77.6690859366782,4,1,0,80,0,0
163403,-77.295090547472,4,1,0,80,0,0
163634,-76.9230769230769,4,1,0,80,0,0
163865,-83.3333333333333,4,1,0,80,0,0
164096,-82.8723990134808,4,1,0,80,0,0
164326,-82.4184983211488,4,1,0,80,0,0
164442,-82.1914555083236,4,1,0,80,0,0
164557,-81.9676013641531,4,1,0,80,0,0
164788,-81.521611117654,4,1,0,80,0,0
165019,-81.0804479220353,4,1,0,80,0,0
165134,-80.8625966683021,4,1,0,80,0,0
165249,-80.6459129462205,4,1,0,80,0,0
165365,-80.4285183119539,4,1,0,80,0,0
165480,-80.2141516212019,4,1,0,80,0,0
165711,-79.786988796164,4,1,0,80,0,0
165942,-79.3643513953542,4,1,0,80,0,0
166173,-78.9461678832117,4,1,0,80,0,0
166288,-78.7396200659766,4,1,0,80,0,0
166403,-78.5341502155661,4,1,0,80,0,0
166634,-78.124647299158,4,1,0,80,0,0
166865,-77.7193927961915,4,1,0,80,0,0
167096,-77.3183209347005,4,1,0,80,0,0
167326,-66.6666666666667,4,1,0,80,0,0
167788,-82.4828194601579,4,1,0,80,0,0
168249,-88.4433366041737,4,1,0,80,0,0
168711,-94.6184523386342,4,1,0,80,0,0
169173,-100,4,1,0,80,0,0
169403,-104.078825823444,4,1,0,80,0,0
169634,-108.342241608099,4,1,0,80,0,0
169865,-112.732574248291,4,1,0,80,0,0
170096,-117.168775025876,4,1,0,80,0,0
170211,-119.346993284842,4,1,0,80,0,0
170326,-121.457297451043,4,1,0,80,0,0
170442,-123.440902776267,4,1,0,80,0,0
170557,-125,4,1,0,80,0,0
171019,-100,4,1,0,80,0,0
171252,-100,4,1,0,70,0,0
171480,-102.206591327435,4,1,0,70,0,0
171711,-103.332373741401,4,1,0,70,0,0
171942,-104.47103317298,4,1,0,70,0,0
172403,-106.779708790798,4,1,0,70,0,0
172634,-107.953317174377,4,1,0,70,0,0
172865,-109.13692188273,4,1,0,70,0,0
173096,-110.329391097237,4,1,0,70,0,0
173326,-111.524153068842,4,1,0,70,0,0
173557,-112.729959286114,4,1,0,70,0,0
173788,-113.93964097497,4,1,0,70,0,0
174019,-115.150774688747,4,1,0,70,0,0
174249,-116.355153049517,4,1,0,70,0,0
174480,-117.559553983963,4,1,0,70,0,0
174711,-118.754035419436,4,1,0,70,0,0
175173,-121.086641043418,4,1,0,70,0,0
175403,-122.199971834544,4,1,0,70,0,0
175634,-123.263730680657,4,1,0,70,0,0
176096,-125,4,1,0,50,0,0
177940,-76.9230769230769,4,1,0,70,0,0
178171,-74.4309274679285,4,1,0,70,0,0
178287,-72.9432276619289,4,1,0,70,0,0
178406,-71.4285714285714,4,1,0,90,0,1
178517,-76.9230769230769,4,1,0,90,0,1
192245,-76.0739356746058,4,1,0,90,0,1
192360,-75.55359554058,4,1,0,90,0,1
192476,-74.9998072003003,4,1,0,90,0,1
192591,-74.4309274679285,4,1,0,90,0,1
192707,-73.8427458541258,4,1,0,90,0,1
192822,-73.2493482744404,4,1,0,90,0,1
192937,-72.6486372645932,4,1,0,90,0,1
193053,-72.0375936429168,4,1,0,90,0,1
193168,-71.4285714285714,4,1,0,90,0,1
193286,-76.9230769230769,4,1,0,90,0,1
206560,-100,4,1,0,90,0,1
207945,-76.9230769230769,4,1,0,80,0,0
208168,-77.8102147965669,4,1,0,80,0,0
208283,-78.2501540225768,4,1,0,80,0,0
208399,-78.6920822532684,4,1,0,80,0,0
208630,-79.5640998501827,4,1,0,80,0,0
208745,-79.9927067361909,4,1,0,80,0,0
208860,-80.4163942776399,4,1,0,80,0,0
208976,-80.8375766356801,4,1,0,80,0,0
209091,-81.2475073317587,4,1,0,80,0,0
209206,-81.647956525212,4,1,0,80,0,0
209322,-82.0397155584462,4,1,0,80,0,0
209553,-82.7667419299394,4,1,0,80,0,0
209783,-76.9230769230769,4,1,0,80,0,0
210014,-77.8097355525315,4,1,0,80,0,0
210130,-78.2532550808035,4,1,0,80,0,0
210245,-78.6911317137323,4,1,0,80,0,0
210476,-79.5626945271043,4,1,0,80,0,0
210591,-79.9910849357033,4,1,0,80,0,0
210706,-80.4145654146103,4,1,0,80,0,0
210822,-80.8355514141929,4,1,0,80,0,0
210937,-81.2453038429159,4,1,0,80,0,0
211053,-81.6490293285562,4,1,0,80,0,0
211168,-82.0372293816442,4,1,0,80,0,0
211399,-82.7641722059258,4,1,0,80,0,0
211630,-76.9230769230769,4,1,0,80,0,0
211860,-77.2934723443453,4,1,0,80,0,0
211976,-77.4816369359916,4,1,0,80,0,0
212091,-77.6690859366782,4,1,0,80,0,0
212322,-78.0483680027059,4,1,0,80,0,0
212437,-78.2385725486872,4,1,0,80,0,0
212553,-78.4313725490196,4,1,0,80,0,0
212783,-78.816472044916,4,1,0,80,0,0
212899,-79.012134312068,4,1,0,80,0,0
213014,-79.2070711404788,4,1,0,80,0,0
213130,-79.4046799724708,4,1,0,80,0,0
213245,-79.6015609840236,4,1,0,80,0,0
213476,-80,4,1,0,80,0,0
213630,-80.2678493782068,4,1,0,80,0,0
213783,-80.5357415526907,4,1,0,80,0,0
213937,-80.8071964805533,4,1,0,80,0,0
214168,-81.2178274451142,4,1,0,80,0,0
214283,-81.4238140396533,4,1,0,80,0,0
214399,-81.6326530612245,4,1,0,80,0,0
214630,-82.0517379322606,4,1,0,80,0,0
214860,-82.4733056337399,4,1,0,80,0,0
214976,-82.6875699888018,4,1,0,80,0,0
215091,-82.9010890310991,4,1,0,80,0,0
215322,-76.9230769230769,4,1,0,80,0,0
215788,-83.3333333333333,4,1,0,80,0,0
216019,-83.2112467218639,4,1,0,80,0,0
216134,-83.1352589977235,4,1,0,80,0,0
216249,-83.0541086113825,4,1,0,80,0,0
216480,-82.8796769790849,4,1,0,80,0,0
216711,-82.6937949726039,4,1,0,80,0,0
216826,-82.5978762412058,4,1,0,80,0,0
216942,-82.4991755351427,4,1,0,80,0,0
217057,-82.3995833705006,4,1,0,80,0,0
217173,-82.2975279746149,4,1,0,80,0,0
217403,-82.0909547001529,4,1,0,80,0,0
217634,-81.8785450717287,4,1,0,80,0,0
217865,-81.661877928354,4,1,0,80,0,0
217980,-81.552603137303,4,1,0,80,0,0
218096,-81.441510680253,4,1,0,80,0,0
218326,-81.2188777780054,4,1,0,80,0,0
218557,-80.992429312354,4,1,0,80,0,0
218673,-80.8777445128384,4,1,0,80,0,0
218788,-80.763458053999,4,1,0,80,0,0
218903,-80.6486181024556,4,1,0,80,0,0
219019,-80.5322513186161,4,1,0,80,0,0
219249,-80.3000742876374,4,1,0,80,0,0
219480,-80.0651299236324,4,1,0,80,0,0
219711,-79.8286221195084,4,1,0,80,0,0
219826,-79.7103532505573,4,1,0,80,0,0
219942,-79.5907290631835,4,1,0,80,0,0
220057,-79.4718315216784,4,1,0,80,0,0
220173,-79.3516116145285,4,1,0,80,0,0
220403,-79.1124576805504,4,1,0,80,0,0
220634,-78.8713202668798,4,1,0,80,0,0
220749,-78.7509590490776,4,1,0,80,0,0
220865,-78.6293587636351,4,1,0,80,0,0
220980,-78.508629576303,4,1,0,80,0,0
221096,-78.3866850646262,4,1,0,80,0,0
221326,-78.1444566147545,4,1,0,80,0,0
221557,-77.9006620178936,4,1,0,80,0,0
221673,-77.7780711020485,4,1,0,80,0,0
221788,-77.6564414749049,4,1,0,80,0,0
222019,-77.4118769544635,4,1,0,80,0,0
222134,-77.290019689038,4,1,0,80,0,0
222249,-77.168105074335,4,1,0,80,0,0
222480,-76.9230769230769,4,1,0,80,0,0

[Colours]
Combo1 : 99,164,207
Combo2 : 167,208,220

[HitObjects]
160,288,1176,5,4,0:0:0:0:
352,96,1637,1,8,0:0:0:0:
160,96,1868,1,0,0:0:0:0:
352,96,2099,1,8,0:0:0:0:
352,96,2560,1,8,0:0:0:0:
160,96,2791,1,0,0:0:0:0:
352,96,3022,1,8,0:0:0:0:
352,96,3252,1,8,0:0:0:0:
160,96,3483,1,0,0:0:0:0:
352,96,3714,1,8,0:0:0:0:
160,96,3945,1,0,0:0:0:0:
352,96,4176,1,8,0:0:0:0:
352,96,4868,1,8,0:0:0:0:
160,96,5329,1,0,0:0:0:0:
352,96,5791,1,8,0:0:0:0:
160,96,6252,1,0,0:0:0:0:
352,96,6714,1,8,0:0:0:0:
160,96,6945,1,0,0:0:0:0:
352,96,7176,1,8,0:0:0:0:
160,96,7406,1,0,0:0:0:0:
352,96,7522,1,8,0:0:0:0:
160,96,7637,1,0,0:0:0:0:
160,96,7752,1,0,0:0:0:0:
352,96,7868,1,8,0:0:0:0:
352,96,7983,1,8,0:0:0:0:
160,96,8099,1,0,0:0:0:0:
352,96,8329,1,8,0:0:0:0:
160,288,8560,1,4,0:0:0:0:
352,96,8791,1,8,0:0:0:0:
160,96,9022,1,0,0:0:0:0:
352,96,9252,1,8,0:0:0:0:
352,96,9368,1,8,0:0:0:0:
160,96,9483,1,0,0:0:0:0:
160,96,9599,1,0,0:0:0:0:
352,96,9714,1,8,0:0:0:0:
160,96,9945,1,0,0:0:0:0:
352,96,10176,1,8,0:0:0:0:
263,99,10291,1,8,0:0:0:0:
160,96,10406,1,0,0:0:0:0:
352,96,10637,1,8,0:0:0:0:
160,96,10868,1,0,0:0:0:0:
352,96,11099,1,8,0:0:0:0:
160,96,11214,1,0,0:0:0:0:
352,96,11329,1,8,0:0:0:0:
160,96,11560,1,0,0:0:0:0:
352,96,11791,1,8,0:0:0:0:
352,96,11906,1,8,0:0:0:0:
160,96,12022,1,0,0:0:0:0:
352,288,12252,1,12,0:0:0:0:
160,96,12483,1,0,0:0:0:0:
352,96,12714,1,8,0:0:0:0:
160,96,12829,1,0,0:0:0:0:
352,96,12945,1,8,0:0:0:0:
352,96,13060,1,8,0:0:0:0:
160,96,13176,1,0,0:0:0:0:
160,96,14099,1,0,0:0:0:0:
352,96,14329,1,8,0:0:0:0:
352,96,14445,1,8,0:0:0:0:
160,96,14560,1,0,0:0:0:0:
352,96,14791,1,8,0:0:0:0:
160,96,15022,1,0,0:0:0:0:
352,96,15252,1,8,0:0:0:0:
160,96,15483,1,0,0:0:0:0:
160,96,15599,1,0,0:0:0:0:
352,96,15714,1,8,0:0:0:0:
160,96,15945,1,0,0:0:0:0:
352,96,16176,1,8,0:0:0:0:
352,96,16291,1,8,0:0:0:0:
160,96,16406,1,0,0:0:0:0:
352,96,16637,1,8,0:0:0:0:
160,96,16868,1,0,0:0:0:0:
352,96,17099,1,8,0:0:0:0:
352,96,17329,1,8,0:0:0:0:
160,96,17445,1,0,0:0:0:0:
352,96,17560,1,8,0:0:0:0:
352,96,17676,1,8,0:0:0:0:
160,96,17791,1,0,0:0:0:0:
352,96,18022,1,8,0:0:0:0:
352,96,18137,1,8,0:0:0:0:
160,96,18252,1,0,0:0:0:0:
352,96,18483,1,8,0:0:0:0:
160,96,18714,1,0,0:0:0:0:
352,96,18945,1,8,0:0:0:0:
160,96,19176,1,0,0:0:0:0:
160,96,19291,1,0,0:0:0:0:
352,96,19406,1,8,0:0:0:0:
160,96,19637,1,0,0:0:0:0:
352,96,19868,1,8,0:0:0:0:
160,96,19983,1,0,0:0:0:0:
160,96,20214,1,0,0:0:0:0:
352,96,20329,1,8,0:0:0:0:
160,96,20560,1,0,0:0:0:0:
160,96,20791,1,0,0:0:0:0:
352,96,21022,1,8,0:0:0:0:
352,96,21252,1,8,0:0:0:0:
352,96,21368,1,8,0:0:0:0:
160,288,21483,1,4,0:0:0:0:
352,96,21714,1,8,0:0:0:0:
160,96,21829,1,0,0:0:0:0:
160,96,22060,1,0,0:0:0:0:
352,96,22176,1,8,0:0:0:0:
352,96,22406,1,8,0:0:0:0:
160,96,22522,1,0,0:0:0:0:
352,96,22637,1,8,0:0:0:0:
160,96,22752,1,0,0:0:0:0:
352,96,22868,1,8,0:0:0:0:
160,96,23099,1,0,0:0:0:0:
352,96,23214,1,8,0:0:0:0:
160,96,23329,1,0,0:0:0:0:
352,96,23560,1,8,0:0:0:0:
160,96,23676,1,0,0:0:0:0:
160,96,23906,1,0,0:0:0:0:
352,96,24022,1,8,0:0:0:0:
160,96,24252,1,0,0:0:0:0:
160,96,24368,1,0,0:0:0:0:
352,96,24483,1,8,0:0:0:0:
160,96,24599,1,0,0:0:0:0:
352,96,24714,1,8,0:0:0:0:
160,96,24829,1,0,0:0:0:0:
352,96,24945,1,8,0:0:0:0:
352,96,25060,1,8,0:0:0:0:
160,96,25176,1,0,0:0:0:0:
352,96,25406,1,8,0:0:0:0:
160,96,25637,1,0,0:0:0:0:
160,96,25752,1,0,0:0:0:0:
352,96,25868,1,8,0:0:0:0:
160,96,26099,1,0,0:0:0:0:
352,96,26329,1,8,0:0:0:0:
352,96,26445,1,8,0:0:0:0:
160,96,26560,1,0,0:0:0:0:
160,96,26676,1,0,0:0:0:0:
352,96,26791,1,8,0:0:0:0:
160,96,27022,1,0,0:0:0:0:
352,96,27252,1,8,0:0:0:0:
352,96,27483,1,8,0:0:0:0:
352,96,27714,1,8,0:0:0:0:
352,96,27945,1,8,0:0:0:0:
160,96,28060,1,0,0:0:0:0:
352,96,28176,1,8,0:0:0:0:
160,96,28291,1,0,0:0:0:0:
352,96,28406,1,8,0:0:0:0:
352,96,28522,1,8,0:0:0:0:
160,96,28637,1,0,0:0:0:0:
160,96,28752,1,0,0:0:0:0:
352,288,28868,1,12,0:0:0:0:
352,96,29329,1,8,0:0:0:0:
160,96,29791,1,0,0:0:0:0:
352,96,30252,1,8,0:0:0:0:
160,96,30714,1,0,0:0:0:0:
160,96,30945,1,0,0:0:0:0:
352,96,31176,1,8,0:0:0:0:
352,96,31406,1,8,0:0:0:0:
160,96,31637,1,0,0:0:0:0:
160,96,31868,1,0,0:0:0:0:
352,96,32099,1,8,0:0:0:0:
160,288,32560,1,4,0:0:0:0:
352,96,32791,1,8,0:0:0:0:
160,96,33022,1,0,0:0:0:0:
160,96,33137,1,0,0:0:0:0:
352,96,33252,1,8,0:0:0:0:
160,96,33483,1,0,0:0:0:0:
160,96,33599,1,0,0:0:0:0:
352,96,33714,1,8,0:0:0:0:
352,96,33829,1,8,0:0:0:0:
160,96,33945,1,0,0:0:0:0:
160,96,34022,1,0,0:0:0:0:
160,96,34099,1,0,0:0:0:0:
160,96,34176,1,0,0:0:0:0:
160,96,34252,1,0,0:0:0:0:
160,96,34329,1,0,0:0:0:0:
352,288,34406,1,12,0:0:0:0:
160,288,34868,1,4,0:0:0:0:
352,288,35329,1,12,0:0:0:0:
160,288,36252,1,4,0:0:0:0:
352,96,36714,1,8,0:0:0:0:
160,96,36945,1,0,0:0:0:0:
352,96,37176,1,8,0:0:0:0:
352,96,37637,1,8,0:0:0:0:
352,96,37868,1,8,0:0:0:0:
160,96,38099,1,0,0:0:0:0:
352,96,38329,1,8,0:0:0:0:
352,96,38560,1,8,0:0:0:0:
352,96,38791,1,8,0:0:0:0:
160,96,39022,1,0,0:0:0:0:
352,96,39252,1,8,0:0:0:0:
160,96,39483,1,0,0:0:0:0:
160,96,39714,1,0,0:0:0:0:
352,96,39945,1,8,0:0:0:0:
352,96,40406,1,8,0:0:0:0:
160,96,40637,1,0,0:0:0:0:
352,96,40868,1,8,0:0:0:0:
352,96,41329,1,8,0:0:0:0:
160,96,41560,1,0,0:0:0:0:
160,96,41676,1,0,0:0:0:0:
352,288,41791,1,12,0:0:0:0:
160,96,42022,1,0,0:0:0:0:
352,96,42252,1,8,0:0:0:0:
160,96,42368,1,0,0:0:0:0:
352,96,42483,1,8,0:0:0:0:
352,96,42599,1,8,0:0:0:0:
160,96,42714,1,0,0:0:0:0:
352,96,42945,1,8,0:0:0:0:
352,96,43176,1,8,0:0:0:0:
160,96,43291,1,0,0:0:0:0:
352,96,43406,1,8,0:0:0:0:
160,96,43637,1,0,0:0:0:0:
352,96,43752,1,8,0:0:0:0:
160,96,43868,1,0,0:0:0:0:
160,96,43983,1,0,0:0:0:0:
352,96,44099,1,8,0:0:0:0:
352,96,44329,1,8,0:0:0:0:
160,96,44445,1,0,0:0:0:0:
160,96,44560,1,0,0:0:0:0:
160,96,44676,1,0,0:0:0:0:
352,96,44791,1,8,0:0:0:0:
160,96,44906,1,0,0:0:0:0:
352,96,45022,1,8,0:0:0:0:
352,96,45137,1,8,0:0:0:0:
160,96,45252,1,0,0:0:0:0:
160,96,45368,1,0,0:0:0:0:
352,96,45483,1,8,0:0:0:0:
160,96,45714,1,0,0:0:0:0:
352,96,45945,1,8,0:0:0:0:
160,96,46060,1,0,0:0:0:0:
352,96,46176,1,8,0:0:0:0:
160,96,46406,1,0,0:0:0:0:
160,96,46637,1,0,0:0:0:0:
160,96,46752,1,0,0:0:0:0:
352,96,46868,1,8,0:0:0:0:
160,96,46983,1,0,0:0:0:0:
352,96,47099,1,8,0:0:0:0:
352,96,47214,1,8,0:0:0:0:
160,96,47329,1,0,0:0:0:0:
160,96,47560,1,0,0:0:0:0:
160,96,47676,1,0,0:0:0:0:
352,96,47791,1,8,0:0:0:0:
160,96,47906,1,0,0:0:0:0:
160,96,48022,1,0,0:0:0:0:
352,96,48252,1,8,0:0:0:0:
352,96,48483,1,8,0:0:0:0:
160,96,48599,1,0,0:0:0:0:
352,96,48714,1,8,0:0:0:0:
160,96,48829,1,0,0:0:0:0:
352,96,48945,1,8,0:0:0:0:
352,96,49060,1,8,0:0:0:0:
160,288,49176,1,4,0:0:0:0:
352,96,49637,1,8,0:0:0:0:
160,96,49868,1,0,0:0:0:0:
160,96,49983,1,0,0:0:0:0:
352,96,50099,1,8,0:0:0:0:
160,96,50214,1,0,0:0:0:0:
352,96,50329,1,8,0:0:0:0:
352,96,50445,1,8,0:0:0:0:
160,96,50676,1,0,0:0:0:0:
352,96,50791,1,8,0:0:0:0:
352,96,50906,1,8,0:0:0:0:
160,96,51022,1,0,0:0:0:0:
352,96,51252,1,8,0:0:0:0:
160,96,51483,1,0,0:0:0:0:
160,96,51599,1,0,0:0:0:0:
352,96,51714,1,8,0:0:0:0:
352,96,51945,1,8,0:0:0:0:
160,96,52060,1,0,0:0:0:0:
352,96,52176,1,8,0:0:0:0:
352,96,52291,1,8,0:0:0:0:
160,96,52406,1,0,0:0:0:0:
352,96,52637,1,8,0:0:0:0:
160,96,52752,1,0,0:0:0:0:
352,96,52868,1,8,0:0:0:0:
160,96,53099,1,0,0:0:0:0:
352,96,53329,1,8,0:0:0:0:
160,96,53445,1,0,0:0:0:0:
352,96,53560,1,8,0:0:0:0:
160,96,53791,1,0,0:0:0:0:
352,96,54022,1,8,0:0:0:0:
160,96,54137,1,0,0:0:0:0:
352,96,54252,1,8,0:0:0:0:
160,96,54368,1,0,0:0:0:0:
160,96,54599,1,0,0:0:0:0:
352,96,54714,1,8,0:0:0:0:
160,96,54945,1,0,0:0:0:0:
352,96,55176,1,8,0:0:0:0:
160,96,55291,1,0,0:0:0:0:
352,96,55406,1,8,0:0:0:0:
160,96,55637,1,0,0:0:0:0:
160,96,55752,1,0,0:0:0:0:
352,96,55868,1,8,0:0:0:0:
160,96,55983,1,0,0:0:0:0:
352,96,56099,1,8,0:0:0:0:
352,96,56214,1,8,0:0:0:0:
160,96,56329,1,0,0:0:0:0:
160,96,56445,1,0,0:0:0:0:
352,288,56560,1,12,0:0:0:0:
160,96,56791,1,0,0:0:0:0:
352,96,57022,1,8,0:0:0:0:
352,96,57137,1,8,0:0:0:0:
160,96,57252,1,0,0:0:0:0:
352,96,57368,1,8,0:0:0:0:
160,96,57483,1,0,0:0:0:0:
352,96,57714,1,8,0:0:0:0:
352,96,57945,1,8,0:0:0:0:
160,96,58060,1,0,0:0:0:0:
352,96,58176,1,8,0:0:0:0:
160,96,58406,1,0,0:0:0:0:
352,96,58522,1,8,0:0:0:0:
160,96,58637,1,0,0:0:0:0:
352,96,58752,1,8,0:0:0:0:
352,96,58868,1,8,0:0:0:0:
352,96,59099,1,8,0:0:0:0:
160,96,59214,1,0,0:0:0:0:
160,96,59329,1,0,0:0:0:0:
352,96,59445,1,8,0:0:0:0:
160,96,59560,1,0,0:0:0:0:
160,96,59676,1,0,0:0:0:0:
352,96,59791,1,8,0:0:0:0:
160,96,59906,1,0,0:0:0:0:
352,96,60022,1,8,0:0:0:0:
352,96,60137,1,8,0:0:0:0:
160,96,60252,1,0,0:0:0:0:
352,96,60483,1,8,0:0:0:0:
160,96,60714,1,0,0:0:0:0:
160,96,60829,1,0,0:0:0:0:
352,96,60945,1,8,0:0:0:0:
160,96,61176,1,0,0:0:0:0:
352,96,61406,1,8,0:0:0:0:
160,96,61522,1,0,0:0:0:0:
352,96,61637,1,8,0:0:0:0:
160,96,61752,1,0,0:0:0:0:
352,96,61868,1,8,0:0:0:0:
160,96,62099,1,0,0:0:0:0:
160,96,62329,1,0,0:0:0:0:
160,96,62445,1,0,0:0:0:0:
352,96,62560,1,8,0:0:0:0:
352,96,62676,1,8,0:0:0:0:
160,96,62791,1,0,0:0:0:0:
160,96,62906,1,0,0:0:0:0:
352,96,63022,1,8,0:0:0:0:
160,96,63252,1,0,0:0:0:0:
352,96,63483,1,8,0:0:0:0:
352,96,63599,1,8,0:0:0:0:
352,96,63714,1,8,0:0:0:0:
160,288,63945,1,4,0:0:0:0:
352,96,64406,1,8,0:0:0:0:
160,96,64637,1,0,0:0:0:0:
160,96,64752,1,0,0:0:0:0:
352,96,64868,1,8,0:0:0:0:
160,96,64983,1,0,0:0:0:0:
160,96,65099,1,0,0:0:0:0:
352,96,65214,1,8,0:0:0:0:
160,96,65445,1,0,0:0:0:0:
352,96,65560,1,8,0:0:0:0:
352,96,65676,1,8,0:0:0:0:
160,96,65791,1,0,0:0:0:0:
352,96,66022,1,8,0:0:0:0:
352,96,66252,1,8,0:0:0:0:
160,96,66368,1,0,0:0:0:0:
352,96,66483,1,8,0:0:0:0:
160,96,66714,1,0,0:0:0:0:
160,96,66829,1,0,0:0:0:0:
352,96,66945,1,8,0:0:0:0:
352,96,67060,1,8,0:0:0:0:
160,96,67176,1,0,0:0:0:0:
352,96,67406,1,8,0:0:0:0:
160,96,67637,1,0,0:0:0:0:
160,96,68560,1,0,0:0:0:0:
160,96,68791,1,0,0:0:0:0:
352,96,69022,1,8,0:0:0:0:
160,288,69483,1,4,0:0:0:0:
160,96,69714,1,0,0:0:0:0:
160,96,69829,1,0,0:0:0:0:
352,96,69945,1,8,0:0:0:0:
160,96,70176,1,0,0:0:0:0:
160,96,70291,1,0,0:0:0:0:
352,96,70406,1,8,0:0:0:0:
352,96,70522,1,8,0:0:0:0:
160,96,70637,1,0,0:0:0:0:
160,96,70752,1,0,0:0:0:0:
352,96,70868,1,8,0:0:0:0:
160,96,71099,1,0,0:0:0:0:
352,96,71329,1,8,0:0:0:0:
160,96,71560,1,0,0:0:0:0:
160,96,71676,1,0,0:0:0:0:
352,96,71791,1,8,0:0:0:0:
352,96,72022,1,8,0:0:0:0:
352,96,72137,1,8,0:0:0:0:
160,96,72252,1,0,0:0:0:0:
352,96,72368,1,8,0:0:0:0:
160,96,72483,1,0,0:0:0:0:
160,96,72599,1,0,0:0:0:0:
352,96,72714,1,8,0:0:0:0:
160,96,72945,1,0,0:0:0:0:
352,96,73176,1,8,0:0:0:0:
160,96,73406,1,0,0:0:0:0:
160,96,73522,1,0,0:0:0:0:
352,96,73637,1,8,0:0:0:0:
352,96,73868,1,8,0:0:0:0:
160,96,73983,1,0,0:0:0:0:
352,96,74099,1,8,0:0:0:0:
352,96,74329,1,8,0:0:0:0:
352,96,74445,1,8,0:0:0:0:
160,96,74560,1,0,0:0:0:0:
160,96,74676,1,0,0:0:0:0:
352,96,74791,1,8,0:0:0:0:
352,96,75022,1,8,0:0:0:0:
160,96,75176,1,0,0:0:0:0:
352,96,75329,1,8,0:0:0:0:
160,96,75483,1,0,0:0:0:0:
160,96,75714,1,0,0:0:0:0:
160,96,75829,1,0,0:0:0:0:
352,96,75945,1,8,0:0:0:0:
160,96,76176,1,0,0:0:0:0:
352,96,76406,1,8,0:0:0:0:
160,96,76522,1,0,0:0:0:0:
352,96,76637,1,8,0:0:0:0:
160,288,76868,1,4,0:0:0:0:
352,96,77329,1,8,0:0:0:0:
160,96,77560,1,0,0:0:0:0:
160,96,77676,1,0,0:0:0:0:
352,96,77791,1,8,0:0:0:0:
160,96,78022,1,0,0:0:0:0:
352,96,78252,1,8,0:0:0:0:
352,96,78368,1,8,0:0:0:0:
160,96,78483,1,0,0:0:0:0:
352,96,78599,1,8,0:0:0:0:
160,96,78714,1,0,0:0:0:0:
160,96,78945,1,0,0:0:0:0:
352,96,79176,1,8,0:0:0:0:
160,96,79406,1,0,0:0:0:0:
160,96,79522,1,0,0:0:0:0:
352,96,79637,1,8,0:0:0:0:
160,96,79868,1,0,0:0:0:0:
352,96,80099,1,8,0:0:0:0:
160,96,80214,1,0,0:0:0:0:
352,96,80329,1,8,0:0:0:0:
160,96,80560,1,0,0:0:0:0:
352,96,81022,1,8,0:0:0:0:
160,96,81252,1,0,0:0:0:0:
160,96,81368,1,0,0:0:0:0:
352,96,81483,1,8,0:0:0:0:
160,96,81714,1,0,0:0:0:0:
352,96,81945,1,8,0:0:0:0:
160,96,82060,1,0,0:0:0:0:
352,96,82176,1,8,0:0:0:0:
352,96,82291,1,8,0:0:0:0:
160,96,82406,1,0,0:0:0:0:
160,96,82637,1,0,0:0:0:0:
352,96,82868,1,8,0:0:0:0:
160,96,83099,1,0,0:0:0:0:
352,96,83214,1,8,0:0:0:0:
160,96,83329,1,0,0:0:0:0:
160,96,83560,1,0,0:0:0:0:
352,96,83791,1,8,0:0:0:0:
160,96,84022,1,0,0:0:0:0:
352,288,84252,1,12,0:0:0:0:
160,96,84714,1,0,0:0:0:0:
352,96,85176,1,8,0:0:0:0:
160,96,85637,1,0,0:0:0:0:
352,96,86099,1,8,0:0:0:0:
352,96,87483,1,8,0:0:0:0:
160,288,87945,5,4,0:0:0:0:
352,96,88406,1,8,0:0:0:0:
160,96,88637,1,0,0:0:0:0:
160,96,88868,1,0,0:0:0:0:
352,96,89329,1,8,0:0:0:0:
160,96,89560,1,0,0:0:0:0:
352,96,89791,1,8,0:0:0:0:
160,96,90022,1,0,0:0:0:0:
352,96,90252,1,8,0:0:0:0:
352,96,90483,1,8,0:0:0:0:
160,96,90714,1,0,0:0:0:0:
352,96,90945,1,8,0:0:0:0:
160,96,91522,1,0,0:0:0:0:
352,96,91637,1,8,0:0:0:0:
160,96,91868,1,0,0:0:0:0:
352,96,92099,1,8,0:0:0:0:
160,96,92329,1,0,0:0:0:0:
352,96,92560,1,8,0:0:0:0:
352,96,93022,1,8,0:0:0:0:
160,96,93483,1,0,0:0:0:0:
160,96,93714,1,0,0:0:0:0:
352,96,93945,1,8,0:0:0:0:
160,96,94176,1,0,0:0:0:0:
352,96,94406,1,8,0:0:0:0:
352,96,94522,1,8,0:0:0:0:
160,96,94637,1,0,0:0:0:0:
160,96,94752,1,0,0:0:0:0:
352,96,94868,1,8,0:0:0:0:
352,96,95099,1,8,0:0:0:0:
160,288,95329,1,4,0:0:0:0:
352,96,95560,1,8,0:0:0:0:
160,96,95791,1,0,0:0:0:0:
352,96,96022,1,8,0:0:0:0:
352,96,96137,1,8,0:0:0:0:
160,96,96252,1,0,0:0:0:0:
276,92,96368,1,0,0:0:0:0:
352,96,96483,1,8,0:0:0:0:
160,96,96714,1,0,0:0:0:0:
352,96,96945,1,8,0:0:0:0:
160,96,97060,1,8,0:0:0:0:
160,96,97176,1,0,0:0:0:0:
352,96,97406,1,8,0:0:0:0:
160,96,97637,1,0,0:0:0:0:
352,96,97868,1,8,0:0:0:0:
160,96,97983,1,0,0:0:0:0:
352,96,98099,1,8,0:0:0:0:
160,96,98329,1,0,0:0:0:0:
160,96,98445,1,0,0:0:0:0:
352,96,98560,1,8,0:0:0:0:
352,96,98676,1,8,0:0:0:0:
160,96,98791,1,0,0:0:0:0:
352,288,99022,1,12,0:0:0:0:
160,96,99252,1,0,0:0:0:0:
352,96,99483,1,8,0:0:0:0:
160,96,99599,1,0,0:0:0:0:
352,96,99714,1,8,0:0:0:0:
352,96,99829,1,8,0:0:0:0:
160,96,99945,1,0,0:0:0:0:
352,288,100868,1,12,0:0:0:0:
352,96,101099,1,8,0:0:0:0:
352,96,101214,1,8,0:0:0:0:
160,96,101329,1,0,0:0:0:0:
352,96,101560,1,8,0:0:0:0:
160,96,101791,1,0,0:0:0:0:
352,96,102022,1,8,0:0:0:0:
160,96,102137,1,0,0:0:0:0:
352,96,102252,1,8,0:0:0:0:
160,96,102368,1,0,0:0:0:0:
352,96,102483,1,8,0:0:0:0:
160,96,102714,1,0,0:0:0:0:
352,96,102945,1,8,0:0:0:0:
352,96,103060,1,8,0:0:0:0:
160,96,103176,1,0,0:0:0:0:
160,96,103291,1,0,0:0:0:0:
352,96,103406,1,8,0:0:0:0:
160,96,103637,1,0,0:0:0:0:
352,96,103868,1,8,0:0:0:0:
352,96,104099,1,8,0:0:0:0:
160,96,104214,1,0,0:0:0:0:
352,96,104329,1,8,0:0:0:0:
352,96,104445,1,8,0:0:0:0:
160,96,104560,1,0,0:0:0:0:
352,96,104791,1,8,0:0:0:0:
352,96,104906,1,8,0:0:0:0:
160,96,105022,1,0,0:0:0:0:
352,96,105252,1,8,0:0:0:0:
160,96,105483,1,0,0:0:0:0:
352,96,105714,1,8,0:0:0:0:
160,96,105829,1,0,0:0:0:0:
160,96,105945,1,0,0:0:0:0:
160,96,106060,1,0,0:0:0:0:
352,96,106176,1,8,0:0:0:0:
160,96,106406,1,0,0:0:0:0:
352,96,106637,1,8,0:0:0:0:
160,96,106752,1,0,0:0:0:0:
160,96,106983,1,0,0:0:0:0:
352,96,107099,1,8,0:0:0:0:
160,96,107329,1,0,0:0:0:0:
160,96,107560,1,0,0:0:0:0:
352,96,107791,1,8,0:0:0:0:
352,96,108022,1,8,0:0:0:0:
352,96,108137,1,8,0:0:0:0:
160,288,108252,1,4,0:0:0:0:
352,96,108714,1,8,0:0:0:0:
160,96,108945,1,0,0:0:0:0:
160,96,109060,1,0,0:0:0:0:
352,96,109176,1,8,0:0:0:0:
160,96,109406,1,0,0:0:0:0:
352,96,109637,1,8,0:0:0:0:
352,96,109868,1,8,0:0:0:0:
352,96,109983,1,8,0:0:0:0:
160,96,110099,1,0,0:0:0:0:
160,96,110329,1,0,0:0:0:0:
160,96,110445,1,0,0:0:0:0:
352,96,110560,1,8,0:0:0:0:
160,96,110791,1,0,0:0:0:0:
352,96,110906,1,8,0:0:0:0:
160,96,111022,1,0,0:0:0:0:
160,96,111252,1,0,0:0:0:0:
352,96,111483,1,8,0:0:0:0:
352,96,111599,1,8,0:0:0:0:
352,96,111714,1,8,0:0:0:0:
160,288,111945,1,4,0:0:0:0:
352,96,112176,1,8,0:0:0:0:
160,96,112406,1,0,0:0:0:0:
160,96,112522,1,0,0:0:0:0:
352,96,112637,1,8,0:0:0:0:
160,96,112868,1,0,0:0:0:0:
160,96,112983,1,0,0:0:0:0:
352,96,113099,1,8,0:0:0:0:
352,96,113214,1,8,0:0:0:0:
160,96,113329,1,0,0:0:0:0:
160,96,113406,1,0,0:0:0:0:
160,96,113483,1,0,0:0:0:0:
160,96,113560,1,0,0:0:0:0:
160,96,113637,1,0,0:0:0:0:
160,96,113714,1,0,0:0:0:0:
352,288,113791,1,12,0:0:0:0:
160,288,114252,1,4,0:0:0:0:
352,288,114714,1,12,0:0:0:0:
160,288,115637,1,4,0:0:0:0:
352,96,116099,1,8,0:0:0:0:
160,96,116329,1,0,0:0:0:0:
352,96,116560,1,8,0:0:0:0:
352,96,117022,1,8,0:0:0:0:
160,96,117252,1,0,0:0:0:0:
352,96,117483,1,8,0:0:0:0:
352,96,117714,1,8,0:0:0:0:
160,96,117945,1,0,0:0:0:0:
352,96,118176,1,8,0:0:0:0:
160,96,118406,1,0,0:0:0:0:
352,96,118637,1,8,0:0:0:0:
160,96,118868,1,0,0:0:0:0:
160,96,119099,1,0,0:0:0:0:
352,96,119329,1,8,0:0:0:0:
352,96,119791,1,8,0:0:0:0:
160,96,120022,1,0,0:0:0:0:
352,96,120252,1,8,0:0:0:0:
160,96,120483,1,0,0:0:0:0:
160,96,120599,1,0,0:0:0:0:
352,96,120714,1,8,0:0:0:0:
352,96,120829,1,8,0:0:0:0:
352,96,120945,1,8,0:0:0:0:
352,96,121060,1,8,0:0:0:0:
160,288,121176,1,4,0:0:0:0:
160,96,121406,1,0,0:0:0:0:
352,96,121637,1,8,0:0:0:0:
160,96,121752,1,0,0:0:0:0:
352,96,121868,1,8,0:0:0:0:
352,96,121983,1,8,0:0:0:0:
160,96,122099,1,0,0:0:0:0:
352,96,122329,1,8,0:0:0:0:
352,96,122560,1,8,0:0:0:0:
160,96,122676,1,0,0:0:0:0:
352,96,122791,1,8,0:0:0:0:
160,96,123022,1,0,0:0:0:0:
352,96,123137,1,8,0:0:0:0:
160,96,123252,1,0,0:0:0:0:
160,96,123368,1,0,0:0:0:0:
352,96,123483,1,8,0:0:0:0:
352,96,123714,1,8,0:0:0:0:
352,96,123829,1,8,0:0:0:0:
160,96,123945,1,0,0:0:0:0:
160,96,124060,1,0,0:0:0:0:
352,96,124176,1,8,0:0:0:0:
160,96,124291,1,0,0:0:0:0:
352,96,124406,1,8,0:0:0:0:
352,96,124522,1,8,0:0:0:0:
160,96,124637,1,0,0:0:0:0:
160,96,124752,1,0,0:0:0:0:
352,96,124868,1,8,0:0:0:0:
160,96,125099,1,0,0:0:0:0:
352,96,125329,1,8,0:0:0:0:
160,96,125445,1,0,0:0:0:0:
352,96,125560,1,8,0:0:0:0:
160,96,125791,1,0,0:0:0:0:
160,96,126022,1,0,0:0:0:0:
160,96,126137,1,0,0:0:0:0:
352,96,126252,1,8,0:0:0:0:
160,96,126368,1,0,0:0:0:0:
352,96,126483,1,8,0:0:0:0:
352,96,126599,1,8,0:0:0:0:
160,96,126714,1,0,0:0:0:0:
160,96,126945,1,0,0:0:0:0:
160,96,127060,1,0,0:0:0:0:
352,96,127176,1,8,0:0:0:0:
352,96,127291,1,8,0:0:0:0:
160,96,127406,1,0,0:0:0:0:
352,96,127637,1,8,0:0:0:0:
352,96,127868,1,8,0:0:0:0:
160,96,127983,1,0,0:0:0:0:
352,96,128099,1,8,0:0:0:0:
160,96,128214,1,0,0:0:0:0:
352,96,128329,1,8,0:0:0:0:
352,96,128445,1,8,0:0:0:0:
160,288,128560,1,4,0:0:0:0:
352,96,129022,1,8,0:0:0:0:
160,96,129252,1,0,0:0:0:0:
160,96,129368,1,0,0:0:0:0:
352,96,129483,1,8,0:0:0:0:
352,96,129599,1,8,0:0:0:0:
160,96,129714,1,0,0:0:0:0:
352,96,129829,1,8,0:0:0:0:
160,96,130060,1,0,0:0:0:0:
352,96,130176,1,8,0:0:0:0:
352,96,130291,1,8,0:0:0:0:
160,96,130406,1,0,0:0:0:0:
352,96,130637,1,8,0:0:0:0:
352,96,130868,1,8,0:0:0:0:
160,96,130983,1,0,0:0:0:0:
352,96,131099,1,8,0:0:0:0:
160,96,131329,1,0,0:0:0:0:
160,96,131445,1,0,0:0:0:0:
352,96,131560,1,8,0:0:0:0:
352,96,131676,1,8,0:0:0:0:
160,96,131791,1,0,0:0:0:0:
352,96,132022,1,8,0:0:0:0:
160,96,132137,1,0,0:0:0:0:
352,96,132252,1,8,0:0:0:0:
160,96,132483,1,0,0:0:0:0:
352,96,132714,1,8,0:0:0:0:
160,96,132829,1,0,0:0:0:0:
352,96,132945,1,8,0:0:0:0:
160,96,133176,1,0,0:0:0:0:
352,96,133406,1,8,0:0:0:0:
160,96,133522,1,0,0:0:0:0:
352,96,133637,1,8,0:0:0:0:
352,96,133752,1,8,0:0:0:0:
160,96,133868,1,0,0:0:0:0:
352,96,134099,1,8,0:0:0:0:
160,96,134329,1,0,0:0:0:0:
352,96,134560,1,8,0:0:0:0:
160,96,134676,1,0,0:0:0:0:
352,96,134791,1,8,0:0:0:0:
160,96,135022,1,0,0:0:0:0:
160,96,135137,1,0,0:0:0:0:
352,96,135252,1,8,0:0:0:0:
160,96,135368,1,0,0:0:0:0:
352,96,135483,1,8,0:0:0:0:
352,96,135599,1,8,0:0:0:0:
160,96,135714,1,0,0:0:0:0:
160,96,135829,1,0,0:0:0:0:
352,288,135945,1,12,0:0:0:0:
160,96,136176,1,0,0:0:0:0:
352,96,136406,1,8,0:0:0:0:
352,96,136522,1,8,0:0:0:0:
160,96,136637,1,0,0:0:0:0:
352,96,136752,1,8,0:0:0:0:
160,96,136868,1,0,0:0:0:0:
352,96,137099,1,8,0:0:0:0:
352,96,137329,1,8,0:0:0:0:
160,96,137445,1,0,0:0:0:0:
352,96,137560,1,8,0:0:0:0:
160,96,137791,1,0,0:0:0:0:
160,96,138022,1,0,0:0:0:0:
352,96,138137,1,8,0:0:0:0:
352,96,138252,1,8,0:0:0:0:
352,96,138483,1,8,0:0:0:0:
352,96,138599,1,8,0:0:0:0:
160,96,138714,1,0,0:0:0:0:
352,96,138829,1,8,0:0:0:0:
160,96,138945,1,0,0:0:0:0:
160,96,139060,1,0,0:0:0:0:
352,96,139176,1,8,0:0:0:0:
160,96,139291,1,0,0:0:0:0:
352,96,139406,1,8,0:0:0:0:
352,96,139522,1,8,0:0:0:0:
160,96,139637,1,0,0:0:0:0:
352,96,139868,1,8,0:0:0:0:
160,96,140099,1,0,0:0:0:0:
160,96,140214,1,0,0:0:0:0:
352,96,140329,1,8,0:0:0:0:
160,96,140560,1,0,0:0:0:0:
352,96,140791,1,8,0:0:0:0:
160,96,140906,1,0,0:0:0:0:
352,96,141022,1,8,0:0:0:0:
160,96,141137,1,0,0:0:0:0:
352,96,141252,1,8,0:0:0:0:
160,96,141483,1,0,0:0:0:0:
160,96,141714,1,0,0:0:0:0:
160,96,141829,1,0,0:0:0:0:
352,96,141945,1,8,0:0:0:0:
352,96,142060,1,8,0:0:0:0:
160,96,142176,1,0,0:0:0:0:
160,96,142291,1,0,0:0:0:0:
352,96,142406,1,8,0:0:0:0:
160,96,142637,1,0,0:0:0:0:
352,96,142868,1,8,0:0:0:0:
352,96,142983,1,8,0:0:0:0:
352,96,143099,1,8,0:0:0:0:
160,288,143329,1,4,0:0:0:0:
352,96,143791,1,8,0:0:0:0:
160,96,144022,1,0,0:0:0:0:
160,96,144137,1,0,0:0:0:0:
352,96,144252,1,8,0:0:0:0:
160,96,144368,1,0,0:0:0:0:
160,96,144483,1,0,0:0:0:0:
352,96,144599,1,8,0:0:0:0:
160,96,144829,1,0,0:0:0:0:
352,96,144945,1,8,0:0:0:0:
352,96,145060,1,8,0:0:0:0:
160,96,145176,1,0,0:0:0:0:
352,96,145406,1,8,0:0:0:0:
160,96,145637,1,0,0:0:0:0:
160,96,145752,1,0,0:0:0:0:
352,96,145868,1,8,0:0:0:0:
352,96,146099,1,8,0:0:0:0:
160,96,146214,1,0,0:0:0:0:
352,96,146329,1,8,0:0:0:0:
352,96,146445,1,8,0:0:0:0:
160,96,146560,1,0,0:0:0:0:
352,96,146791,1,8,0:0:0:0:
160,96,147022,1,0,0:0:0:0:
160,96,147945,1,0,0:0:0:0:
160,96,148176,1,0,0:0:0:0:
352,96,148406,1,8,0:0:0:0:
160,288,148868,1,4,0:0:0:0:
160,96,149099,1,0,0:0:0:0:
160,96,149214,1,0,0:0:0:0:
352,96,149329,1,8,0:0:0:0:
160,96,149560,1,0,0:0:0:0:
160,96,149676,1,0,0:0:0:0:
352,96,149791,1,8,0:0:0:0:
160,96,149906,1,0,0:0:0:0:
160,96,150022,1,0,0:0:0:0:
160,96,150137,1,0,0:0:0:0:
352,96,150252,1,8,0:0:0:0:
160,96,150483,1,0,0:0:0:0:
352,96,150714,1,8,0:0:0:0:
160,96,150945,1,0,0:0:0:0:
160,96,151060,1,0,0:0:0:0:
352,96,151176,1,8,0:0:0:0:
352,96,151406,1,8,0:0:0:0:
352,96,151522,1,8,0:0:0:0:
160,96,151637,1,0,0:0:0:0:
352,96,151752,1,8,0:0:0:0:
160,96,151868,1,0,0:0:0:0:
160,96,151983,1,0,0:0:0:0:
352,96,152099,1,8,0:0:0:0:
160,96,152329,1,0,0:0:0:0:
352,96,152560,1,8,0:0:0:0:
160,96,152791,1,0,0:0:0:0:
160,96,152906,1,0,0:0:0:0:
352,96,153022,1,8,0:0:0:0:
160,96,153252,1,0,0:0:0:0:
352,96,153368,1,8,0:0:0:0:
160,96,153483,1,0,0:0:0:0:
352,96,153714,1,8,0:0:0:0:
160,96,153829,1,0,0:0:0:0:
160,96,153945,1,0,0:0:0:0:
160,96,154060,1,0,0:0:0:0:
352,96,154176,1,8,0:0:0:0:
160,96,154406,1,0,0:0:0:0:
352,96,154560,1,8,0:0:0:0:
160,96,154714,1,0,0:0:0:0:
352,96,154868,1,8,0:0:0:0:
160,96,155099,1,0,0:0:0:0:
160,96,155214,1,0,0:0:0:0:
352,96,155329,1,8,0:0:0:0:
160,96,155560,1,0,0:0:0:0:
352,96,155791,1,8,0:0:0:0:
160,96,155906,1,0,0:0:0:0:
352,96,156022,1,8,0:0:0:0:
160,288,156252,1,4,0:0:0:0:
352,96,156714,1,8,0:0:0:0:
160,96,156945,1,0,0:0:0:0:
160,96,157060,1,0,0:0:0:0:
352,96,157176,1,8,0:0:0:0:
160,96,157406,1,0,0:0:0:0:
352,96,157637,1,8,0:0:0:0:
352,96,157752,1,8,0:0:0:0:
160,96,157868,1,0,0:0:0:0:
352,96,157983,1,8,0:0:0:0:
160,96,158099,1,0,0:0:0:0:
160,96,158329,1,0,0:0:0:0:
352,96,158560,1,8,0:0:0:0:
160,96,158791,1,0,0:0:0:0:
160,96,158906,1,0,0:0:0:0:
352,96,159022,1,8,0:0:0:0:
160,96,159252,1,0,0:0:0:0:
352,96,159483,1,8,0:0:0:0:
160,96,159599,1,0,0:0:0:0:
352,96,159714,1,8,0:0:0:0:
160,288,159945,1,4,0:0:0:0:
352,96,160406,1,8,0:0:0:0:
160,96,160637,1,0,0:0:0:0:
160,96,160752,1,0,0:0:0:0:
352,96,160868,1,8,0:0:0:0:
160,96,161099,1,0,0:0:0:0:
352,96,161329,1,8,0:0:0:0:
160,96,161445,1,0,0:0:0:0:
352,96,161560,1,8,0:0:0:0:
352,96,161676,1,8,0:0:0:0:
160,96,161791,1,0,0:0:0:0:
160,96,162022,1,0,0:0:0:0:
352,96,162252,1,8,0:0:0:0:
160,96,162483,1,0,0:0:0:0:
352,96,162599,1,8,0:0:0:0:
160,96,162714,1,0,0:0:0:0:
160,96,162945,1,0,0:0:0:0:
352,96,163176,1,8,0:0:0:0:
160,96,163406,1,0,0:0:0:0:
352,288,163637,1,12,0:0:0:0:
352,96,164099,1,8,0:0:0:0:
160,96,164329,1,0,0:0:0:0:
160,96,164445,1,0,0:0:0:0:
352,96,164560,1,8,0:0:0:0:
160,96,164791,1,0,0:0:0:0:
352,96,165022,1,8,0:0:0:0:
352,96,165137,1,8,0:0:0:0:
160,96,165252,1,0,0:0:0:0:
352,96,165368,1,8,0:0:0:0:
160,96,165483,1,0,0:0:0:0:
160,96,165714,1,0,0:0:0:0:
352,96,165945,1,8,0:0:0:0:
352,96,166176,1,8,0:0:0:0:
352,96,166291,1,8,0:0:0:0:
160,96,166406,1,0,0:0:0:0:
160,96,166637,1,0,0:0:0:0:
352,96,166868,1,8,0:0:0:0:
160,96,167099,1,0,0:0:0:0:
352,288,167329,1,12,0:0:0:0:
352,96,167791,1,8,0:0:0:0:
160,96,168252,1,0,0:0:0:0:
352,96,168714,1,8,0:0:0:0:
160,96,169176,1,0,0:0:0:0:
160,96,169406,1,0,0:0:0:0:
160,96,169637,1,0,0:0:0:0:
160,96,169868,1,0,0:0:0:0:
160,96,170099,1,0,0:0:0:0:
160,96,170214,1,0,0:0:0:0:
160,96,170329,1,0,0:0:0:0:
160,96,170445,1,0,0:0:0:0:
352,96,170560,1,8,0:0:0:0:
160,288,171022,5,4,0:0:0:0:
160,96,171483,1,0,0:0:0:0:
352,96,171714,1,8,0:0:0:0:
160,96,171945,1,0,0:0:0:0:
352,96,172406,1,8,0:0:0:0:
160,96,172637,1,0,0:0:0:0:
352,96,172868,1,8,0:0:0:0:
352,96,173099,1,8,0:0:0:0:
160,96,173329,1,0,0:0:0:0:
352,96,173560,1,8,0:0:0:0:
160,96,173791,1,0,0:0:0:0:
352,96,174022,1,8,0:0:0:0:
160,96,174252,1,0,0:0:0:0:
160,96,174483,1,0,0:0:0:0:
352,96,174714,1,8,0:0:0:0:
352,96,175176,1,8,0:0:0:0:
160,96,175406,1,0,0:0:0:0:
352,96,175637,1,8,0:0:0:0:
256,192,176099,12,0,177714,0:0:0:0:
352,96,177945,5,8,0:0:0:0:
160,96,178176,1,0,0:0:0:0:
160,96,178291,1,0,0:0:0:0:
352,288,178406,1,12,0:0:0:0:
160,96,178637,1,0,0:0:0:0:
352,96,178868,1,8,0:0:0:0:
160,96,178983,1,0,0:0:0:0:
352,96,179099,1,8,0:0:0:0:
352,96,179214,1,8,0:0:0:0:
160,96,179329,1,0,0:0:0:0:
352,96,179560,1,8,0:0:0:0:
352,96,179791,1,8,0:0:0:0:
160,96,179906,1,0,0:0:0:0:
352,96,180022,1,8,0:0:0:0:
160,96,180252,1,0,0:0:0:0:
352,96,180368,1,8,0:0:0:0:
160,96,180483,1,0,0:0:0:0:
160,96,180599,1,0,0:0:0:0:
352,96,180714,1,8,0:0:0:0:
352,96,180945,1,8,0:0:0:0:
160,96,181060,1,0,0:0:0:0:
160,96,181176,1,0,0:0:0:0:
160,96,181291,1,0,0:0:0:0:
352,96,181406,1,8,0:0:0:0:
160,96,181522,1,0,0:0:0:0:
352,96,181637,1,8,0:0:0:0:
352,96,181752,1,8,0:0:0:0:
160,96,181868,1,0,0:0:0:0:
160,96,181983,1,0,0:0:0:0:
352,96,182099,1,8,0:0:0:0:
160,96,182329,1,0,0:0:0:0:
352,96,182560,1,8,0:0:0:0:
160,96,182676,1,0,0:0:0:0:
352,96,182791,1,8,0:0:0:0:
160,96,183022,1,0,0:0:0:0:
160,96,183252,1,0,0:0:0:0:
160,96,183368,1,0,0:0:0:0:
352,96,183483,1,8,0:0:0:0:
160,96,183599,1,0,0:0:0:0:
352,96,183714,1,8,0:0:0:0:
352,96,183829,1,8,0:0:0:0:
160,96,183945,1,0,0:0:0:0:
160,96,184176,1,0,0:0:0:0:
160,96,184291,1,0,0:0:0:0:
352,96,184406,1,8,0:0:0:0:
160,96,184522,1,0,0:0:0:0:
160,96,184637,1,0,0:0:0:0:
352,96,184868,1,8,0:0:0:0:
352,96,185099,1,8,0:0:0:0:
160,96,185214,1,0,0:0:0:0:
352,96,185329,1,8,0:0:0:0:
160,96,185445,1,0,0:0:0:0:
352,96,185560,1,8,0:0:0:0:
352,96,185676,1,8,0:0:0:0:
160,288,185791,1,4,0:0:0:0:
352,96,186252,1,8,0:0:0:0:
160,96,186483,1,0,0:0:0:0:
160,96,186599,1,0,0:0:0:0:
352,96,186714,1,8,0:0:0:0:
160,96,186829,1,0,0:0:0:0:
352,96,186945,1,8,0:0:0:0:
352,96,187060,1,8,0:0:0:0:
160,96,187291,1,0,0:0:0:0:
352,96,187406,1,8,0:0:0:0:
352,96,187522,1,8,0:0:0:0:
160,96,187637,1,0,0:0:0:0:
352,96,187868,1,8,0:0:0:0:
160,96,188099,1,0,0:0:0:0:
160,96,188214,1,0,0:0:0:0:
352,96,188329,1,8,0:0:0:0:
352,96,188560,1,8,0:0:0:0:
160,96,188676,1,0,0:0:0:0:
352,96,188791,1,8,0:0:0:0:
352,96,188906,1,8,0:0:0:0:
160,96,189022,1,0,0:0:0:0:
352,96,189252,1,8,0:0:0:0:
160,96,189368,1,0,0:0:0:0:
352,96,189483,1,8,0:0:0:0:
160,96,189714,1,0,0:0:0:0:
352,96,189945,1,8,0:0:0:0:
160,96,190060,1,0,0:0:0:0:
352,96,190176,1,8,0:0:0:0:
160,96,190406,1,0,0:0:0:0:
352,96,190637,1,8,0:0:0:0:
160,96,190752,1,0,0:0:0:0:
352,96,190868,1,8,0:0:0:0:
160,96,190983,1,0,0:0:0:0:
160,96,191214,1,0,0:0:0:0:
352,96,191329,1,8,0:0:0:0:
160,96,191560,1,0,0:0:0:0:
352,96,191791,1,8,0:0:0:0:
160,96,191906,1,0,0:0:0:0:
352,96,192022,1,8,0:0:0:0:
160,96,192252,1,0,0:0:0:0:
160,96,192368,1,0,0:0:0:0:
352,96,192483,1,8,0:0:0:0:
160,96,192599,1,0,0:0:0:0:
352,96,192714,1,8,0:0:0:0:
352,96,192829,1,8,0:0:0:0:
160,96,192945,1,0,0:0:0:0:
160,96,193060,1,0,0:0:0:0:
352,288,193176,1,12,0:0:0:0:
160,96,193406,1,0,0:0:0:0:
352,96,193637,1,8,0:0:0:0:
352,96,193752,1,8,0:0:0:0:
160,96,193868,1,0,0:0:0:0:
352,96,193983,1,8,0:0:0:0:
160,96,194099,1,0,0:0:0:0:
352,96,194329,1,8,0:0:0:0:
352,96,194560,1,8,0:0:0:0:
160,96,194676,1,0,0:0:0:0:
352,96,194791,1,8,0:0:0:0:
160,96,195022,1,0,0:0:0:0:
352,96,195137,1,8,0:0:0:0:
160,96,195252,1,0,0:0:0:0:
352,96,195368,1,8,0:0:0:0:
352,96,195483,1,8,0:0:0:0:
352,96,195714,1,8,0:0:0:0:
160,96,195829,1,0,0:0:0:0:
160,96,195945,1,0,0:0:0:0:
352,96,196060,1,8,0:0:0:0:
160,96,196176,1,0,0:0:0:0:
160,96,196291,1,0,0:0:0:0:
352,96,196406,1,8,0:0:0:0:
160,96,196522,1,0,0:0:0:0:
352,96,196637,1,8,0:0:0:0:
352,96,196752,1,8,0:0:0:0:
160,96,196868,1,0,0:0:0:0:
352,96,197099,1,8,0:0:0:0:
160,96,197329,1,0,0:0:0:0:
160,96,197445,1,0,0:0:0:0:
352,96,197560,1,8,0:0:0:0:
160,96,197791,1,0,0:0:0:0:
352,96,198022,1,8,0:0:0:0:
160,96,198137,1,0,0:0:0:0:
352,96,198252,1,8,0:0:0:0:
160,96,198368,1,0,0:0:0:0:
352,96,198483,1,8,0:0:0:0:
160,96,198714,1,0,0:0:0:0:
160,96,198945,1,0,0:0:0:0:
160,96,199060,1,0,0:0:0:0:
352,96,199176,1,8,0:0:0:0:
352,96,199291,1,8,0:0:0:0:
160,96,199406,1,0,0:0:0:0:
160,96,199522,1,0,0:0:0:0:
352,96,199637,1,8,0:0:0:0:
160,96,199868,1,0,0:0:0:0:
352,96,200099,1,8,0:0:0:0:
352,96,200214,1,8,0:0:0:0:
352,96,200329,1,8,0:0:0:0:
160,288,200560,1,4,0:0:0:0:
352,96,201022,1,8,0:0:0:0:
160,96,201252,1,0,0:0:0:0:
160,96,201368,1,0,0:0:0:0:
352,96,201483,1,8,0:0:0:0:
352,96,201599,1,8,0:0:0:0:
160,96,201714,1,0,0:0:0:0:
352,96,201829,1,8,0:0:0:0:
160,96,202060,1,0,0:0:0:0:
352,96,202176,1,8,0:0:0:0:
352,96,202291,1,8,0:0:0:0:
160,96,202406,1,0,0:0:0:0:
352,96,202637,1,8,0:0:0:0:
352,96,202868,1,8,0:0:0:0:
160,96,202983,1,0,0:0:0:0:
352,96,203099,1,8,0:0:0:0:
160,96,203329,1,0,0:0:0:0:
160,96,203445,1,0,0:0:0:0:
352,96,203560,1,8,0:0:0:0:
352,96,203676,1,8,0:0:0:0:
160,96,203791,1,0,0:0:0:0:
352,96,204022,1,8,0:0:0:0:
160,288,204252,1,4,0:0:0:0:
352,96,204483,1,8,0:0:0:0:
160,96,204714,1,0,0:0:0:0:
160,96,204829,1,0,0:0:0:0:
352,96,204945,1,8,0:0:0:0:
352,96,205060,1,8,0:0:0:0:
160,96,205176,1,0,0:0:0:0:
352,96,205406,1,8,0:0:0:0:
160,96,205637,1,0,0:0:0:0:
352,96,205868,1,8,0:0:0:0:
160,96,205983,1,0,0:0:0:0:
352,96,206099,1,8,0:0:0:0:
160,96,207022,1,0,0:0:0:0:
160,96,207252,1,0,0:0:0:0:
352,96,207483,1,8,0:0:0:0:
160,288,207945,1,4,0:0:0:0:
160,96,208176,1,0,0:0:0:0:
160,96,208291,1,0,0:0:0:0:
352,96,208406,1,8,0:0:0:0:
160,96,208637,1,0,0:0:0:0:
160,96,208752,1,0,0:0:0:0:
352,96,208868,1,8,0:0:0:0:
352,96,208983,1,8,0:0:0:0:
160,96,209099,1,0,0:0:0:0:
160,96,209214,1,0,0:0:0:0:
352,96,209329,1,8,0:0:0:0:
160,96,209560,1,0,0:0:0:0:
352,96,209791,1,8,0:0:0:0:
160,96,210022,1,0,0:0:0:0:
160,96,210137,1,0,0:0:0:0:
352,96,210252,1,8,0:0:0:0:
352,96,210483,1,8,0:0:0:0:
352,96,210599,1,8,0:0:0:0:
160,96,210714,1,0,0:0:0:0:
352,96,210829,1,8,0:0:0:0:
160,96,210945,1,0,0:0:0:0:
160,96,211060,1,0,0:0:0:0:
352,96,211176,1,8,0:0:0:0:
160,96,211406,1,0,0:0:0:0:
352,96,211637,1,8,0:0:0:0:
160,96,211868,1,0,0:0:0:0:
160,96,211983,1,0,0:0:0:0:
352,96,212099,1,8,0:0:0:0:
352,96,212329,1,8,0:0:0:0:
160,96,212445,1,0,0:0:0:0:
352,96,212560,1,8,0:0:0:0:
352,96,212791,1,8,0:0:0:0:
352,96,212906,1,8,0:0:0:0:
160,96,213022,1,0,0:0:0:0:
160,96,213137,1,0,0:0:0:0:
352,96,213252,1,8,0:0:0:0:
352,96,213483,1,8,0:0:0:0:
160,96,213637,1,0,0:0:0:0:
352,96,213791,1,8,0:0:0:0:
160,96,213945,1,0,0:0:0:0:
160,96,214176,1,0,0:0:0:0:
160,96,214291,1,0,0:0:0:0:
352,96,214406,1,8,0:0:0:0:
160,96,214637,1,0,0:0:0:0:
352,96,214868,1,8,0:0:0:0:
160,96,214983,1,0,0:0:0:0:
352,96,215099,1,8,0:0:0:0:
160,288,215329,1,4,0:0:0:0:
352,96,215791,1,8,0:0:0:0:
160,96,216022,1,0,0:0:0:0:
160,96,216137,1,0,0:0:0:0:
352,96,216252,1,8,0:0:0:0:
160,96,216483,1,0,0:0:0:0:
352,96,216714,1,8,0:0:0:0:
352,96,216829,1,8,0:0:0:0:
160,96,216945,1,0,0:0:0:0:
352,96,217060,1,8,0:0:0:0:
160,96,217176,1,0,0:0:0:0:
160,96,217406,1,0,0:0:0:0:
352,96,217637,1,8,0:0:0:0:
160,96,217868,1,0,0:0:0:0:
160,96,217983,1,0,0:0:0:0:
352,96,218099,1,8,0:0:0:0:
160,96,218329,1,0,0:0:0:0:
352,96,218560,1,8,0:0:0:0:
160,96,218676,1,0,0:0:0:0:
352,96,218791,1,8,0:0:0:0:
352,96,218906,1,8,0:0:0:0:
160,96,219022,1,0,0:0:0:0:
160,96,219252,1,0,0:0:0:0:
352,96,219483,1,8,0:0:0:0:
160,96,219714,1,0,0:0:0:0:
160,96,219829,1,0,0:0:0:0:
352,96,219945,1,8,0:0:0:0:
352,96,220060,1,8,0:0:0:0:
160,96,220176,1,0,0:0:0:0:
352,96,220406,1,8,0:0:0:0:
352,96,220637,1,8,0:0:0:0:
352,96,220752,1,8,0:0:0:0:
160,96,220868,1,0,0:0:0:0:
160,96,220983,1,0,0:0:0:0:
160,96,221099,1,0,0:0:0:0:
352,96,221329,1,8,0:0:0:0:
160,96,221560,1,0,0:0:0:0:
352,96,221676,1,8,0:0:0:0:
160,96,221791,1,0,0:0:0:0:
352,96,222022,1,8,0:0:0:0:
352,96,222137,1,8,0:0:0:0:
352,96,222252,1,8,0:0:0:0:
352,96,222483,1,8,0:0:0:0:
