osu file format v14

[General]
AudioFilename: audio.mp3
AudioLeadIn: 0
PreviewTime: 14813
Countdown: 0
SampleSet: Soft
StackLeniency: 0.9
Mode: 0
LetterboxInBreaks: 0
WidescreenStoryboard: 1

[Editor]
Bookmarks: 9886,15769,35769,55769,56945,66357,75769,85180,89886,94592,114592,135769,145180,154592,159298,164004,173416,181651,201651,221651,225180,245327
DistanceSpacing: 0.9
BeatDivisor: 4
GridSize: 8
TimelineZoom: 1

[Metadata]
Title:Namikare
TitleUnicode:ナミカレ
Artist:TUYU
ArtistUnicode:ツユ
Creator:Keqing
Version:Mocaotic's Normal
Source:
Tags:iljaaz Kowari Agatsu synderes frostwich coloured glazee djulus mocaotic ぷす Pusu やっぱり雨は降るんだね 礼衣 Reii おむたつ omutatsu Japanese Pop
BeatmapID:2561148
BeatmapSetID:1231994

[Difficulty]
HPDrainRate:4
CircleSize:3.4
OverallDifficulty:4
ApproachRate:5.5
SliderMultiplier:0.999999999999999
SliderTickRate:1

[Events]
//Background and Video events
0,0,"namikare.png",0,0
Video,-220,"smokelindsmall.mp4"
//Break Periods
2,164004,172239
//Storyboard Layer 0 (Background)
//Storyboard Layer 1 (Fail)
//Storyboard Layer 2 (Pass)
//Storyboard Layer 3 (Foreground)
//Storyboard Layer 4 (Overlay)
//Storyboard Sound Samples

[TimingPoints]
463,294.117647058824,4,2,4,34,1,0
9580,-100,4,2,4,64,0,0
9874,-105.263157894737,4,2,4,64,0,0
15757,-100,4,2,4,82,0,0
24384,-100,4,2,4,5,0,0
24482,-100,4,2,4,82,0,0
29874,-100,4,2,4,64,0,0
35757,-95.2380952380952,4,2,4,82,0,1
40463,-95.2380952380952,4,2,4,72,0,1
45168,-95.2380952380952,4,2,4,82,0,1
49874,-95.2380952380952,4,2,4,64,0,1
53404,-95.2380952380952,4,2,4,72,0,1
55757,-100,4,2,4,72,0,0
66345,-105.263157894737,4,2,4,64,0,0
75757,-105.263157894737,4,2,4,72,0,0
85168,-111.111111111111,4,2,4,52,0,0
89874,-105.263157894737,4,2,4,52,0,0
90168,-105.263157894737,4,2,4,64,0,0
94580,-100,4,2,4,82,0,0
108698,-100,4,2,4,64,0,0
114580,-95.2380952380952,4,2,4,82,0,1
119286,-95.2380952380952,4,2,4,72,0,1
123992,-95.2380952380952,4,2,4,82,0,1
128698,-95.2380952380952,4,2,4,64,0,1
132227,-95.2380952380952,4,2,4,72,0,1
135757,-105.263157894737,4,2,4,52,0,0
145168,-105.263157894737,4,2,4,64,0,0
154580,-111.111111111111,4,2,4,52,0,0
159286,-105.263157894737,4,2,4,64,0,0
162815,-105.263157894737,4,2,4,72,0,0
163992,-105.263157894737,4,2,4,52,0,0
173110,-105.263157894737,4,2,4,72,0,0
173404,-105.263157894737,4,2,4,72,0,0
181639,-100,4,2,4,82,0,0
195757,-100,4,2,4,64,0,0
201639,-93.4579439252336,4,2,4,82,0,1
206345,-93.4579439252336,4,2,4,72,0,1
211051,-93.4579439252336,4,2,4,82,0,1
215757,-93.4579439252336,4,2,4,64,0,1
221639,-100,4,2,4,64,0,0
225168,-100,4,2,4,72,0,0

[Colours]
Combo1 : 111,255,255
Combo2 : 255,255,130
Combo3 : 3,97,152
Combo4 : 234,211,9

[HitObjects]
108,128,9874,6,0,P|158:125|201:156,1,94.9999974632263,4|0,3:2|3:0,0:0:0:0:
207,188,10315,2,0,L|204:295,1,94.9999974632263,12|8,0:0|0:0,0:0:0:0:
257,350,10904,2,0,P|307:353|350:322,1,94.9999974632263,12|8,0:0|0:0,0:0:0:0:
375,301,11345,1,8,0:0:0:0:
375,301,11492,2,0,L|372:194,1,94.9999974632263,12|0,0:0|3:2,0:0:0:0:
372,163,11933,1,8,0:0:0:0:
405,84,12227,6,0,P|460:67|506:85,2,94.9999974632263,4|2|2,3:2|3:2|3:2,0:0:0:0:
345,21,13110,1,8,3:2:0:0:
284,80,13404,2,0,L|280:145,1,47.4999987316131,6|8,3:1|0:0,0:0:0:0:
198,147,13845,2,0,L|195:99,1,47.4999987316131,2|8,3:1|0:0,0:0:0:0:
111,80,14286,2,0,L|107:145,1,47.4999987316131,2|12,3:1|0:0,0:0:0:0:
108,127,15757,6,0,B|70:117|59:86|10:86,2,99.9999999999999,6|8|10,3:2|0:0|0:0,0:0:0:0:
176,184,16639,1,10,0:0:0:0:
242,123,16933,2,0,P|302:132|329:173,1,99.9999999999999,6|10,3:2|0:0,0:0:0:0:
362,193,17374,1,0,3:2:0:0:
362,193,17521,2,0,L|354:301,1,99.9999999999999,10|10,0:0|0:0,0:0:0:0:
292,358,18110,6,0,P|237:351|209:315,1,99.9999999999999,4|8,3:2|0:0,0:0:0:0:
254,240,18698,1,10,0:0:0:0:
188,178,18992,1,10,0:0:0:0:
117,234,19286,2,0,L|112:343,2,99.9999999999999,4|10|10,3:2|0:0|0:0,0:0:0:0:
43,182,20168,1,10,0:0:0:0:
79,99,20463,6,0,P|129:78|186:94,1,99.9999999999999,6|8,3:2|3:2,0:0:0:0:
245,139,21051,2,0,P|295:160|352:144,1,99.9999999999999,2|10,3:2|3:2,0:0:0:0:
382,134,21492,1,2,0:0:0:0:
382,134,21639,2,0,L|385:21,2,99.9999999999999,2|10|2,3:2|3:2|3:2,0:0:0:0:
452,189,22521,1,10,3:2:0:0:
408,267,22815,6,0,P|351:260|307:293,1,99.9999999999999,2|10,3:2|3:2,0:0:0:0:
253,346,23404,2,0,P|196:353|152:320,1,99.9999999999999,2|10,3:2|3:2,0:0:0:0:
108,258,23992,2,0,L|115:145,1,99.9999999999999,2|10,3:2|0:0,0:0:0:0:
193,115,24580,1,8,0:0:0:0:
189,25,24874,1,8,0:0:0:0:
99,1,25168,6,0,P|41:17|18:67,1,99.9999999999999,4|8,3:2|0:0,0:0:0:0:
65,126,25757,2,0,L|75:240,1,99.9999999999999,2|10,3:2|0:0,0:0:0:0:
96,270,26198,1,2,0:0:0:0:
96,270,26345,2,0,P|154:268|188:229,1,99.9999999999999,4|10,3:2|0:0,0:0:0:0:
234,167,26933,2,0,P|292:169|326:208,1,99.9999999999999,2|8,3:2|0:0,0:0:0:0:
362,275,27521,6,0,L|434:267,1,50,6|0,3:2|0:0,0:0:0:0:
451,265,27815,1,10,0:0:0:0:
504,192,28110,2,0,L|496:120,1,50,6|0,3:2|0:0,0:0:0:0:
494,103,28404,1,10,0:0:0:0:
418,53,28698,2,0,L|426:-19,2,50,6|0|10,3:2|3:2|0:0,0:0:0:0:
352,114,29286,2,0,L|360:186,2,50,6|0|10,3:2|3:2|0:0,0:0:0:0:
293,45,29874,6,0,P|252:30|192:47,1,99.9999999999999,6|0,3:2|3:2,0:0:0:0:
153,120,30463,2,0,L|160:242,1,99.9999999999999,2|0,3:2|3:2,0:0:0:0:
230,274,31051,2,0,P|271:289|331:272,2,99.9999999999999,2|2|2,3:2|3:2|3:2,0:0:0:0:
167,339,31933,1,2,3:2:0:0:
84,303,32227,6,0,L|76:190,1,99.9999999999999,6|0,3:2|3:2,0:0:0:0:
136,135,32815,2,0,P|171:127|203:134,2,50,2|2|2,3:2|0:0|3:2,0:0:0:0:
59,86,33404,2,0,P|24:94|-8:87,2,50,12|0|8,0:0|3:2|0:0,0:0:0:0:
84,49,33845,2,0,L|77:-12,2,50,0|8|0,3:2|0:0|3:2,0:0:0:0:
128,53,34286,2,0,P|163:45|195:52,1,50,8|0,0:0|3:2,0:0:0:0:
223,60,34580,1,6,3:2:0:0:
223,60,35757,6,0,B|270:58|270:58|279:65|279:65|341:62,1,104.999996795654,6|8,3:2|0:0,0:0:0:0:
405,11,36345,2,0,P|454:39|470:102,1,104.999996795654,10|8,0:0|0:0,0:0:0:0:
485,132,36786,1,2,3:2:0:0:
485,132,36933,1,6,3:2:0:0:
421,201,37227,1,10,0:0:0:0:
328,182,37521,1,10,0:0:0:0:
307,89,37815,1,10,0:0:0:0:
214,67,38110,6,0,B|189:88|189:88|176:176,1,104.999996795654,6|10,3:2|0:0,0:0:0:0:
149,196,38551,1,2,3:2:0:0:
149,196,38698,2,0,L|166:315,1,104.999996795654,10|10,0:0|0:0,0:0:0:0:
248,352,39286,1,4,3:2:0:0:
248,352,39433,2,0,P|277:337|313:344,2,52.4999983978271,2|10|2,0:0|0:0|3:2,0:0:0:0:
212,383,39874,2,0,L|105:378,1,104.999996795654,10|10,0:0|0:0,0:0:0:0:
36,315,40463,5,4,3:2:0:0:
90,237,40757,2,0,P|99:180|74:130,2,104.999996795654,10|2|10,3:2|3:2|3:2,0:0:0:0:
164,295,41639,2,0,P|209:311|278:288,1,104.999996795654,2|10,3:2|3:2,0:0:0:0:
333,234,42227,1,0,0:0:0:0:
288,150,42521,1,0,0:0:0:0:
356,84,42815,6,0,P|424:71|466:94,1,104.999996795654,6|8,3:2|3:2,0:0:0:0:
487,126,43257,1,2,0:0:0:0:
487,126,43404,2,0,L|491:239,1,104.999996795654,0|8,3:2|3:2,0:0:0:0:
453,317,43992,2,0,P|385:330|343:307,1,104.999996795654,2|10,3:2|3:2,0:0:0:0:
299,246,44580,1,0,3:2:0:0:
299,246,44727,2,0,L|234:252,2,52.4999983978271,8|8|8,0:0|0:0|0:0,0:0:0:0:
339,221,45168,6,0,B|341:175|341:175|349:169|349:169|354:106,1,104.999996795654,6|8,3:2|0:0,0:0:0:0:
323,30,45757,2,0,P|254:17|208:39,1,104.999996795654,2|8,3:2|0:0,0:0:0:0:
160,99,46345,1,2,3:2:0:0:
165,193,46639,2,0,L|173:307,1,104.999996795654,8|2,0:0|3:2,0:0:0:0:
178,348,47080,1,0,3:2:0:0:
178,348,47227,1,10,0:0:0:0:
86,372,47521,6,0,B|55:355|55:355|47:264,1,104.999996795654,6|8,3:2|0:0,0:0:0:0:
26,249,47963,1,2,0:0:0:0:
26,249,48110,2,0,L|31:183,1,52.4999983978271,6|0,3:2|3:2,0:0:0:0:
34,149,48404,1,10,0:0:0:0:
93,75,48698,2,0,P|118:70|159:80,1,52.4999983978271,4|2,3:2|0:0,0:0:0:0:
185,97,48992,1,10,0:0:0:0:
267,143,49286,2,0,P|292:148|333:138,1,52.4999983978271,6|2,3:2|0:0,0:0:0:0:
362,126,49580,1,8,0:0:0:0:
426,194,49874,5,6,3:2:0:0:
357,259,50168,2,0,P|309:266|268:308,2,104.999996795654,0|2|2,3:2|3:2|3:2,0:0:0:0:
424,325,51051,2,0,P|472:318|513:276,1,104.999996795654,2|0,3:2|3:2,0:0:0:0:
512,236,51492,1,2,0:0:0:0:
512,236,51639,1,2,3:2:0:0:
457,158,51933,2,0,L|393:150,1,52.4999983978271,2|2,3:2|0:0,0:0:0:0:
358,143,52227,6,0,B|342:163|342:163|353:248,1,104.999996795654,4|2,3:2|3:2,0:0:0:0:
356,292,52668,1,2,0:0:0:0:
356,292,52815,2,0,P|314:337|266:339,1,104.999996795654,2|2,3:2|3:2,0:0:0:0:
203,276,53404,1,4,3:2:0:0:
159,359,53698,2,0,P|130:359|100:344,1,52.4999983978271,8|0,0:0|3:2,0:0:0:0:
65,331,53992,2,0,P|50:305|48:272,1,52.4999983978271,10|0,0:0|3:2,0:0:0:0:
39,236,54286,2,0,P|53:210|81:192,1,52.4999983978271,8|0,0:0|3:2,0:0:0:0:
107,165,54580,5,4,3:2:0:0:
176,228,54874,2,0,P|205:228|235:213,1,52.4999983978271,8|0,0:0|3:2,0:0:0:0:
270,200,55168,2,0,P|284:174|286:141,1,52.4999983978271,8|0,0:0|3:2,0:0:0:0:
296,105,55462,2,0,P|281:79|253:61,1,52.4999983978271,8|10,0:0|0:0,0:0:0:0:
228,34,55756,1,14,0:0:0:0:
228,34,56933,6,0,L|117:40,1,99.9999999999999,6|8,3:1|0:0,0:0:0:0:
50,85,57521,2,0,P|67:117|57:196,1,99.9999999999999,2|8,3:1|0:0,0:0:0:0:
23,259,58110,2,0,P|20:303|25:324,1,50,2|2,3:1|0:1,0:0:0:0:
50,342,58404,2,0,L|103:345,1,50,10|2,0:1|0:1,0:0:0:0:
143,334,58698,2,0,P|185:330|240:373,1,99.9999999999999,2|8,3:1|0:0,0:0:0:0:
321,352,59286,6,0,L|378:343,2,50,6|2|10,3:2|0:0|0:0,0:0:0:0:
291,267,59874,2,0,L|234:258,2,50,2|2|10,3:2|3:2|0:0,0:0:0:0:
321,182,60463,2,0,L|378:173,2,50,2|2|10,3:2|0:0|0:0,0:0:0:0:
287,161,60904,1,2,0:0:0:0:
287,161,61051,2,0,P|226:143|189:154,1,99.9999999999999,2|8,3:2|0:0,0:0:0:0:
114,196,61639,6,0,L|103:86,1,99.9999999999999,6|8,3:1|0:0,0:0:0:0:
166,31,62227,2,0,P|227:49|264:38,1,99.9999999999999,2|8,3:1|0:0,0:0:0:0:
343,5,62815,2,0,L|399:8,1,50,2|2,3:1|0:1,0:0:0:0:
437,16,63110,2,0,L|462:65,1,50,10|2,0:1|0:1,0:0:0:0:
474,103,63404,2,0,P|452:128|456:210,1,99.9999999999999,2|8,3:1|0:0,0:0:0:0:
486,273,63992,6,0,B|492:301|483:325|483:325|477:328|477:328|468:351|473:373,2,99.9999999999999,2|12|0,3:2|0:0|3:2,0:0:0:0:
396,261,64874,1,12,0:0:0:0:
339,331,65168,2,0,B|320:332|320:332|281:374|281:374|247:377,1,99.9999999999999,0|8,3:2|0:0,0:0:0:0:
216,376,65610,1,0,3:2:0:0:
216,376,65757,2,0,B|193:367|193:367|166:317|166:317|148:311,1,99.9999999999999,0|8,3:2|0:0,0:0:0:0:
109,304,66198,1,8,0:0:0:0:
109,304,66345,6,0,P|91:253|107:204,1,94.9999974632263,6|2,3:2|3:2,0:0:0:0:
177,178,66933,2,0,L|276:183,1,94.9999974632263,2|0,3:2|3:2,0:0:0:0:
342,134,67521,2,0,P|360:83|344:34,1,94.9999974632263,0|2,3:2|3:2,0:0:0:0:
322,19,67963,1,2,0:0:0:0:
322,19,68109,2,0,L|223:24,1,94.9999974632263,2|0,3:2|3:2,0:0:0:0:
157,74,68698,6,0,P|148:119|165:163,1,94.9999974632263,2|2,3:2|3:2,0:0:0:0:
234,213,69286,2,0,L|333:218,1,94.9999974632263,2|0,3:2|3:2,0:0:0:0:
405,256,69874,2,0,P|413:301|396:345,1,94.9999974632263,0|2,3:2|3:2,0:0:0:0:
364,373,70315,1,2,0:0:0:0:
364,373,70463,2,0,L|265:378,1,94.9999974632263,2|0,3:2|3:2,0:0:0:0:
192,340,71051,6,0,L|93:335,1,94.9999974632263,2|2,3:2|3:2,0:0:0:0:
23,290,71639,2,0,P|13:233|31:188,1,94.9999974632263,2|2,3:2|3:2,0:0:0:0:
90,144,72227,2,0,L|189:139,1,94.9999974632263,0|2,3:2|3:2,0:0:0:0:
223,169,72668,1,2,0:0:0:0:
223,169,72815,2,0,L|322:174,1,94.9999974632263,2|0,3:2|3:2,0:0:0:0:
401,155,73404,6,0,P|411:98|393:53,1,94.9999974632263,2|0,3:2|3:2,0:0:0:0:
325,20,73992,2,0,L|226:15,1,94.9999974632263,2|2,3:2|3:2,0:0:0:0:
156,58,74580,2,0,P|144:103|154:149,1,94.9999974632263,0|0,3:2|3:2,0:0:0:0:
186,186,75021,1,2,0:0:0:0:
186,186,75168,2,0,L|242:181,2,47.4999987316131,2|2|10,3:2|3:2|0:0,0:0:0:0:
122,243,75757,6,0,L|130:347,1,94.9999974632263,6|8,3:2|0:0,0:0:0:0:
157,369,76198,2,0,B|203:347|209:386|268:356,1,94.9999974632263,2|2,0:0|3:2,0:0:0:0:
289,348,76639,1,10,0:0:0:0:
363,306,76933,2,0,L|418:309,2,47.4999987316131,2|0|10,3:2|0:0|0:0,0:0:0:0:
337,279,77374,1,2,3:2:0:0:
337,279,77521,1,10,0:0:0:0:
383,207,77815,1,8,0:0:0:0:
464,233,78110,6,0,P|481:208|488:129,1,94.9999974632263,6|10,3:2|0:0,0:0:0:0:
477,104,78551,2,0,B|433:84|430:109|380:91,1,94.9999974632263,2|2,3:2|3:2,0:0:0:0:
346,71,78992,1,10,0:0:0:0:
263,91,79286,2,0,L|265:144,2,47.4999987316131,2|2|10,3:2|0:0|0:0,0:0:0:0:
241,60,79727,1,2,3:2:0:0:
241,60,79874,1,8,0:0:0:0:
163,96,80168,1,10,0:0:0:0:
95,43,80463,6,0,P|54:65|30:126,1,94.9999974632263,6|10,3:2|0:0,0:0:0:0:
8,188,81051,2,0,L|20:299,1,94.9999974632263,2|10,0:0|0:0,0:0:0:0:
74,346,81639,2,0,P|107:357|170:333,1,94.9999974632263,2|10,3:2|0:0,0:0:0:0:
190,308,82080,1,0,3:2:0:0:
190,308,82227,1,10,0:0:0:0:
152,231,82521,1,10,0:0:0:0:
189,153,82815,6,0,L|299:141,1,94.9999974632263,2|10,3:2|0:0,0:0:0:0:
324,155,83257,2,0,B|351:199|311:217|347:263,1,94.9999974632263,2|0,3:2|3:2,0:0:0:0:
357,284,83698,1,8,0:0:0:0:
316,359,83992,2,0,L|219:364,1,94.9999974632263,4|10,3:2|0:0,0:0:0:0:
178,363,84433,1,2,3:2:0:0:
178,363,84580,1,10,0:0:0:0:
136,288,84874,1,8,0:0:0:0:
190,220,85168,6,0,B|277:168|284:264|375:190,2,179.999994506836,6|2|2,3:2|3:2|3:2,0:0:0:0:
172,63,86933,1,2,3:2:0:0:
172,63,87521,2,0,B|85:11|78:107|-13:33,2,179.999994506836,2|2|2,3:2|3:2|3:2,0:0:0:0:
328,20,89286,2,0,L|333:81,1,44.999998626709,2|2,3:2|3:2,0:0:0:0:
335,105,89580,1,10,0:0:0:0:
417,125,89874,6,0,L|407:220,1,94.9999974632263,6|8,3:2|0:0,0:0:0:0:
414,304,90463,2,0,P|446:314|462:325,2,47.4999987316131,0|0|8,3:2|3:2|0:0,0:0:0:0:
376,319,90904,1,0,0:0:0:0:
376,319,91051,2,0,L|281:329,1,94.9999974632263,2|10,3:2|0:0,0:0:0:0:
196,336,91639,2,0,P|190:361|195:389,2,47.4999987316131,10|2|10,0:0|3:2|0:0,0:0:0:0:
154,261,92227,2,0,P|95:254|46:272,2,94.9999974632263,2|0|8,3:2|3:2|0:0,0:0:0:0:
224,212,93110,2,0,L|278:204,1,47.4999987316131,8|8,0:0|0:0,0:0:0:0:
313,199,93404,1,4,3:2:0:0:
313,199,94580,6,0,B|364:192|362:232|419:237,2,99.9999999999999,6|8|10,3:2|0:0|0:0,0:0:0:0:
236,151,95463,1,10,0:0:0:0:
158,196,95757,2,0,P|138:223|140:295,1,99.9999999999999,6|10,3:2|0:0,0:0:0:0:
163,329,96198,1,2,3:2:0:0:
163,329,96345,2,0,L|267:335,1,99.9999999999999,10|10,0:0|0:0,0:0:0:0:
342,377,96933,6,0,L|446:371,1,99.9999999999999,4|8,3:2|0:0,0:0:0:0:
505,307,97521,1,10,0:0:0:0:
461,228,97815,1,10,0:0:0:0:
370,231,98110,2,0,L|266:237,2,99.9999999999999,6|10|10,3:2|0:0|0:0,0:0:0:0:
416,151,98992,1,8,0:0:0:0:
349,90,99287,6,0,P|299:72|242:85,1,99.9999999999999,6|8,3:2|3:2,0:0:0:0:
183,134,99874,2,0,P|133:152|76:139,1,99.9999999999999,2|10,3:2|3:2,0:0:0:0:
55,122,100316,1,2,0:0:0:0:
55,122,100463,2,0,L|58:9,2,99.9999999999999,2|10|0,3:2|3:2|3:2,0:0:0:0:
15,202,101345,1,10,3:2:0:0:
80,264,101639,6,0,P|133:273|180:244,1,99.9999999999999,2|10,3:2|3:2,0:0:0:0:
234,186,102227,1,2,3:2:0:0:
313,228,102521,1,8,3:2:0:0:
363,153,102815,2,0,L|360:32,1,99.9999999999999,2|10,3:2|3:2,0:0:0:0:
436,4,103404,1,2,3:2:0:0:
500,66,103698,1,8,3:2:0:0:
500,155,103992,6,0,L|497:254,1,99.9999999999999,6|8,3:2|0:0,0:0:0:0:
439,324,104581,2,0,P|392:334|341:301,1,99.9999999999999,2|10,3:2|0:0,0:0:0:0:
320,282,105021,1,0,0:0:0:0:
320,282,105168,2,0,P|273:272|222:305,1,99.9999999999999,2|8,3:2|0:0,0:0:0:0:
170,364,105757,2,0,P|123:374|72:341,1,99.9999999999999,2|8,3:2|0:0,0:0:0:0:
7,295,106345,6,0,L|15:223,1,50,6|0,3:2|0:0,0:0:0:0:
17,200,106639,1,10,0:0:0:0:
87,143,106934,2,0,L|159:135,1,50,6|0,3:2|3:2,0:0:0:0:
181,134,107228,1,10,0:0:0:0:
261,174,107521,2,0,L|269:246,2,50,6|0|8,3:2|3:2|0:0,0:0:0:0:
309,98,108110,2,0,L|317:26,2,50,6|0|10,3:2|3:2|0:0,0:0:0:0:
371,163,108698,6,0,P|412:173|470:153,2,99.9999999999999,6|0|2,3:2|3:2|3:2,0:0:0:0:
286,194,109580,1,2,3:2:0:0:
214,139,109874,2,0,L|206:38,1,99.9999999999999,2|2,3:2|3:2,0:0:0:0:
123,2,110463,2,0,P|73:-2|29:19,1,99.9999999999999,2|2,3:2|3:2,0:0:0:0:
6,106,111051,6,0,L|14:207,1,99.9999999999999,6|2,3:2|3:2,0:0:0:0:
96,240,111639,2,0,P|130:242|163:226,2,50,2|2|2,3:2|0:0|3:2,0:0:0:0:
50,317,112227,2,0,P|16:315|-17:331,2,50,8|0|8,0:0|3:2|0:0,0:0:0:0:
91,335,112668,2,0,L|98:399,2,50,0|8|0,3:2|0:0|3:2,0:0:0:0:
135,324,113110,2,0,P|169:326|202:310,1,50,8|0,0:0|3:2,0:0:0:0:
223,300,113404,1,14,0:0:0:0:
223,300,114580,6,0,B|269:296|269:296|281:308|281:308|340:305,1,104.999996795654,6|8,3:2|0:0,0:0:0:0:
405,351,115168,2,0,P|452:329|468:273,1,104.999996795654,10|8,0:0|0:0,0:0:0:0:
490,241,115610,1,0,3:2:0:0:
490,241,115757,1,4,3:2:0:0:
413,186,116051,1,10,0:0:0:0:
332,235,116345,1,10,0:0:0:0:
258,175,116639,1,10,0:0:0:0:
303,92,116933,6,0,B|334:78|334:78|427:91,1,104.999996795654,6|10,3:2|0:0,0:0:0:0:
452,107,117374,1,2,3:2:0:0:
452,107,117521,2,0,P|465:173|440:212,1,104.999996795654,10|10,0:0|0:0,0:0:0:0:
365,246,118110,1,4,3:2:0:0:
365,246,118257,2,0,L|371:309,2,52.4999983978271,2|10|2,0:0|0:0|3:2,0:0:0:0:
328,215,118698,2,0,P|274:214|231:252,1,104.999996795654,10|10,0:0|0:0,0:0:0:0:
205,333,119286,5,4,3:2:0:0:
110,327,119580,2,0,L|-6:324,2,104.999996795654,10|2|10,3:2|3:2|3:2,0:0:0:0:
166,251,120463,2,0,P|176:208|154:144,1,104.999996795654,2|8,3:2|3:2,0:0:0:0:
111,69,121051,1,0,0:0:0:0:
178,2,121345,1,0,0:0:0:0:
245,67,121639,6,0,L|353:61,1,104.999996795654,2|8,3:2|3:2,0:0:0:0:
390,35,122080,1,2,0:0:0:0:
390,35,122227,2,0,L|498:41,1,104.999996795654,2|10,3:2|3:2,0:0:0:0:
512,134,122815,2,0,P|485:173|410:173,1,104.999996795654,2|10,3:2|3:2,0:0:0:0:
347,149,123404,1,2,3:2:0:0:
347,149,123551,2,0,P|305:137|282:141,2,52.4999983978271,8|10|8,0:0|0:0|0:0,0:0:0:0:
356,195,123992,6,0,B|354:244|354:244|346:251|346:251|345:301,1,104.999996795654,4|8,3:2|0:0,0:0:0:0:
283,368,124580,2,0,P|237:370|188:317,1,104.999996795654,2|10,3:2|0:0,0:0:0:0:
178,240,125168,1,2,3:2:0:0:
96,192,125463,2,0,P|32:206|6:252,1,104.999996795654,10|2,0:0|3:2,0:0:0:0:
5,286,125904,1,0,3:2:0:0:
5,286,126051,1,10,0:0:0:0:
73,350,126345,6,0,B|101:364|101:364|177:358,1,104.999996795654,4|8,3:2|0:0,0:0:0:0:
214,331,126786,1,2,0:0:0:0:
214,331,126933,2,0,L|273:334,1,52.4999983978271,6|0,3:2|3:2,0:0:0:0:
310,350,127227,1,10,0:0:0:0:
389,298,127521,2,0,L|391:226,1,52.4999983978271,2|0,3:2|3:2,0:0:0:0:
392,198,127815,1,10,0:0:0:0:
320,135,128110,2,0,L|248:137,1,52.4999983978271,2|2,3:2|3:2,0:0:0:0:
220,138,128404,1,8,0:0:0:0:
130,106,128698,5,4,3:2:0:0:
78,185,128992,2,0,P|99:246|82:294,2,104.999996795654,2|2|2,3:2|3:2|3:2,0:0:0:0:
2,128,129874,2,0,P|-7:77|12:29,1,104.999996795654,2|0,3:2|3:2,0:0:0:0:
60,17,130315,1,2,0:0:0:0:
60,17,130463,1,2,3:2:0:0:
149,47,130757,2,0,L|213:39,1,52.4999983978271,2|2,3:2|0:0,0:0:0:0:
246,28,131051,6,0,B|270:11|270:11|352:18,1,104.999996795654,4|2,3:2|3:2,0:0:0:0:
391,42,131492,1,2,0:0:0:0:
391,42,131639,2,0,P|405:94|382:142,1,104.999996795654,2|2,3:2|3:2,0:0:0:0:
302,186,132228,1,4,3:2:0:0:
220,139,132521,2,0,P|183:139|155:154,1,52.4999983978271,8|0,0:0|3:2,0:0:0:0:
123,157,132815,2,0,P|104:189|103:220,1,52.4999983978271,10|0,0:0|3:2,0:0:0:0:
90,250,133110,2,0,P|108:282|135:298,1,52.4999983978271,10|2,0:0|3:2,0:0:0:0:
154,323,133404,5,6,3:2:0:0:
219,254,133698,2,0,P|245:227|275:218,1,52.4999983978271,8|0,0:0|3:2,0:0:0:0:
300,198,133992,2,0,P|335:207|358:229,1,52.4999983978271,8|0,0:0|3:2,0:0:0:0:
389,240,134287,2,0,P|398:275|391:306,1,52.4999983978271,8|10,0:0|0:0,0:0:0:0:
396,337,134581,1,6,3:2:0:0:
396,337,135757,6,0,L|295:345,1,94.9999974632263,4|0,3:2|3:2,0:0:0:0:
228,300,136345,2,0,P|213:242|230:204,1,94.9999974632263,2|0,3:2|3:2,0:0:0:0:
293,159,136933,2,0,L|394:167,1,94.9999974632263,0|2,3:2|3:2,0:0:0:0:
432,156,137374,1,2,0:0:0:0:
432,156,137521,2,0,P|447:111|435:66,1,94.9999974632263,2|0,3:2|3:2,0:0:0:0:
364,18,138110,6,0,L|263:26,1,94.9999974632263,2|0,3:2|3:2,0:0:0:0:
200,76,138698,2,0,L|99:68,1,94.9999974632263,2|0,3:2|3:2,0:0:0:0:
33,114,139286,2,0,P|18:163|28:206,1,94.9999974632263,2|2,3:2|3:2,0:0:0:0:
58,241,139727,1,0,0:0:0:0:
58,241,139874,2,0,L|159:233,1,94.9999974632263,2|0,3:2|3:2,0:0:0:0:
222,183,140463,6,0,L|323:191,1,94.9999974632263,2|2,3:2|3:2,0:0:0:0:
394,226,141051,2,0,P|407:275|388:332,1,94.9999974632263,2|2,3:2|3:2,0:0:0:0:
325,363,141639,2,0,L|224:371,1,94.9999974632263,0|2,3:2|3:2,0:0:0:0:
195,355,142080,1,2,0:0:0:0:
195,355,142227,2,0,P|180:307|198:258,1,94.9999974632263,2|0,3:2|3:2,0:0:0:0:
231,189,142815,6,0,L|332:197,1,94.9999974632263,2|2,3:2|3:2,0:0:0:0:
406,169,143404,2,0,P|421:126|410:79,1,94.9999974632263,0|0,3:2|3:2,0:0:0:0:
344,23,143992,2,0,L|243:31,1,94.9999974632263,2|0,3:2|3:2,0:0:0:0:
218,59,144433,1,0,0:0:0:0:
218,59,144580,2,0,L|170:55,2,47.4999987316131,2|0|8,3:2|3:2|0:0,0:0:0:0:
281,116,145168,6,0,L|291:218,1,94.9999974632263,4|8,3:2|0:0,0:0:0:0:
274,250,145610,2,0,B|254:241|225:255|225:255|204:265|178:254,1,94.9999974632263,2|2,3:2|3:2,0:0:0:0:
143,237,146051,1,10,0:0:0:0:
62,266,146345,2,0,L|67:322,2,47.4999987316131,2|2|10,3:2|0:0|0:0,0:0:0:0:
34,241,146786,1,2,3:2:0:0:
34,241,146933,1,8,0:0:0:0:
61,160,147227,1,8,0:0:0:0:
146,162,147521,6,0,L|247:164,1,94.9999974632263,2|8,3:2|0:0,0:0:0:0:
279,144,147963,2,0,B|299:93|265:92|285:36,1,94.9999974632263,2|2,3:2|3:2,0:0:0:0:
302,14,148404,1,10,0:0:0:0:
384,35,148698,2,0,L|446:31,2,47.4999987316131,2|2|10,3:2|0:0|0:0,0:0:0:0:
370,78,149139,1,2,3:2:0:0:
370,78,149286,1,8,0:0:0:0:
431,137,149580,1,10,0:0:0:0:
375,201,149874,6,0,P|335:217|281:200,1,94.9999974632263,6|10,3:2|0:0,0:0:0:0:
224,145,150463,2,0,P|184:129|130:146,1,94.9999974632263,2|10,0:0|0:0,0:0:0:0:
79,206,151051,2,0,L|88:316,1,94.9999974632263,2|10,3:2|0:0,0:0:0:0:
91,347,151492,1,2,3:2:0:0:
91,347,151639,1,10,0:0:0:0:
168,383,151933,1,10,0:0:0:0:
251,365,152227,6,0,L|361:356,1,94.9999974632263,2|10,3:2|0:0,0:0:0:0:
386,343,152668,2,0,B|400:295|368:293|383:236,1,94.9999974632263,2|0,3:2|3:2,0:0:0:0:
403,213,153110,1,8,0:0:0:0:
463,152,153404,2,0,P|473:106|446:55,1,94.9999974632263,2|10,3:2|0:0,0:0:0:0:
426,31,153845,1,2,3:2:0:0:
426,31,153992,1,10,0:0:0:0:
357,81,154286,1,10,0:0:0:0:
277,55,154580,6,0,B|229:58|198:98|198:98|162:61|107:60,2,179.999994506836,2|2|2,3:2|3:2|3:2,0:0:0:0:
348,206,156345,1,2,3:2:0:0:
348,206,156933,2,0,B|300:203|269:163|269:163|233:200|178:201,2,179.999994506836,2|2|2,3:2|3:2|3:2,0:0:0:0:
494,274,158698,2,0,L|489:318,1,44.999998626709,2|0,3:2|3:2,0:0:0:0:
482,358,158992,1,8,0:0:0:0:
400,331,159286,6,0,P|359:317|307:336,1,94.9999974632263,0|8,3:2|0:0,0:0:0:0:
231,300,159875,2,0,P|207:301|184:297,2,47.4999987316131,2|2|10,3:2|3:2|0:0,0:0:0:0:
259,269,160316,1,2,0:0:0:0:
259,269,160463,2,0,L|255:175,1,94.9999974632263,2|10,3:2|0:0,0:0:0:0:
306,105,161051,2,0,P|331:99|359:104,2,47.4999987316131,10|2|10,3:2|3:2|0:0,0:0:0:0:
221,90,161639,2,0,P|212:45|237:-9,2,94.9999974632263,10|0|8,0:0|3:2|0:0,0:0:0:0:
154,144,162522,2,0,L|151:201,1,47.4999987316131,8|8,0:0|0:0,0:0:0:0:
148,234,162816,1,6,3:2:0:0:
464,40,173404,6,0,P|411:25|360:47,1,94.9999974632263,6|0,3:2|3:2,0:0:0:0:
346,69,173845,2,0,L|350:181,1,94.9999974632263,12|2,0:0|3:2,0:0:0:0:
419,213,174433,2,0,L|415:325,1,94.9999974632263,12|8,0:0|0:0,0:0:0:0:
390,342,174874,1,0,3:2:0:0:
390,342,175021,2,0,P|352:361|293:345,1,94.9999974632263,12|0,0:0|3:2,0:0:0:0:
272,319,175463,1,8,0:0:0:0:
199,273,175757,6,0,P|162:265|100:294,2,94.9999974632263,4|2|0,3:2|3:2|3:2,0:0:0:0:
258,212,176639,1,8,0:0:0:0:
335,247,176933,2,0,L|387:242,1,47.4999987316131,4|8,3:2|0:0,0:0:0:0:
384,157,177374,2,0,L|332:152,1,47.4999987316131,2|8,3:2|0:0,0:0:0:0:
337,66,177815,2,0,L|389:61,1,47.4999987316131,0|8,3:2|0:0,0:0:0:0:
426,53,178110,6,0,P|463:77|479:129,1,94.9999974632263,4|8,3:2|3:0,0:0:0:0:
468,208,178698,2,0,P|444:245|392:261,1,94.9999974632263,4|8,3:2|0:0,0:0:0:0:
313,247,179286,2,0,L|304:310,1,47.4999987316131,4|8,3:2|0:0,0:0:0:0:
220,294,179727,2,0,L|213:246,1,47.4999987316131,2|8,3:2|0:0,0:0:0:0:
127,241,180168,2,0,L|118:304,1,47.4999987316131,2|12,3:2|0:0,0:0:0:0:
120,288,181639,6,0,B|80:291|80:334|36:346,2,99.9999999999999,4|8|10,3:2|0:0|0:0,0:0:0:0:
206,312,182521,1,10,0:0:0:0:
289,279,182815,2,0,P|309:246|293:174,1,99.9999999999999,4|8,3:2|0:0,0:0:0:0:
271,162,183256,1,0,3:2:0:0:
271,162,183403,2,0,L|165:157,1,99.9999999999999,10|10,0:0|0:0,0:0:0:0:
81,151,183992,6,0,P|69:98|98:47,1,99.9999999999999,4|8,3:2|0:0,0:0:0:0:
163,10,184580,1,10,0:0:0:0:
236,62,184874,1,10,0:0:0:0:
306,6,185168,2,0,L|414:1,2,99.9999999999999,4|10|10,3:2|0:0|0:0,0:0:0:0:
236,62,186050,1,10,0:0:0:0:
313,108,186345,6,0,P|331:158|310:213,1,99.9999999999999,6|8,3:2|0:0,0:0:0:0:
276,280,186933,2,0,L|176:289,1,99.9999999999999,2|10,3:2|0:0,0:0:0:0:
143,267,187374,1,2,0:0:0:0:
143,267,187521,2,0,L|43:255,2,99.9999999999999,2|8|0,3:2|0:0|3:2,0:0:0:0:
199,197,188403,1,10,0:0:0:0:
252,269,188697,6,0,P|301:283|355:256,1,99.9999999999999,2|10,3:2|0:0,0:0:0:0:
390,187,189286,1,2,3:2:0:0:
327,122,189580,1,8,0:0:0:0:
367,41,189874,2,0,P|416:27|470:54,1,99.9999999999999,2|10,3:2|0:0,0:0:0:0:
510,118,190463,1,2,3:2:0:0:
443,178,190757,1,10,0:0:0:0:
510,237,191051,6,0,L|499:338,1,99.9999999999999,4|8,3:2|0:0,0:0:0:0:
419,378,191639,2,0,P|365:383|321:360,1,99.9999999999999,2|8,3:2|0:0,0:0:0:0:
308,327,192080,1,2,0:0:0:0:
308,327,192227,2,0,L|302:258,2,50,2|2|8,3:2|0:0|0:0,0:0:0:0:
236,381,192815,2,0,L|136:375,1,99.9999999999999,2|10,3:2|0:0,0:0:0:0:
56,332,193404,6,0,L|52:266,1,50,6|0,3:2|0:0,0:0:0:0:
50,237,193698,1,10,0:0:0:0:
113,173,193992,2,0,L|179:169,1,50,4|0,3:2|0:0,0:0:0:0:
207,169,194286,1,8,0:0:0:0:
279,115,194580,2,0,L|282:56,2,50,4|0|8,3:2|3:2|0:0,0:0:0:0:
340,180,195168,2,0,L|342:229,2,50,0|0|8,3:2|3:2|0:0,0:0:0:0:
425,151,195757,6,0,L|433:45,1,99.9999999999999,4|2,3:2|3:2,0:0:0:0:
351,11,196345,2,0,P|294:7|250:34,1,99.9999999999999,2|0,3:2|3:2,0:0:0:0:
229,112,196933,1,2,3:2:0:0:
283,183,197227,1,2,3:2:0:0:
216,243,197521,2,0,L|110:235,1,99.9999999999999,2|2,3:2|3:2,0:0:0:0:
38,188,198110,6,0,P|26:132|43:85,1,99.9999999999999,6|2,3:2|3:2,0:0:0:0:
106,34,198698,1,2,3:2:0:0:
175,91,198992,1,2,3:2:0:0:
254,49,199286,2,0,L|252:-8,2,50,12|2|10,0:0|3:2|0:0,0:0:0:0:
283,83,199727,2,0,P|307:75|340:81,2,50,2|8|0,3:2|0:0|3:2,0:0:0:0:
255,118,200168,2,0,L|253:167,1,50,10|0,0:0|3:2,0:0:0:0:
249,213,200463,1,12,0:0:0:0:
249,213,201639,6,0,B|202:219|202:219|189:232|189:232|137:240,1,106.999996734619,6|8,3:2|0:0,0:0:0:0:
53,220,202227,2,0,P|35:168|59:111,1,106.999996734619,10|8,0:2|0:0,0:0:0:0:
85,87,202668,1,2,3:2:0:0:
85,87,202815,1,6,3:2:0:0:
165,141,203110,1,10,0:0:0:0:
219,61,203404,1,10,0:0:0:0:
299,115,203699,1,10,0:0:0:0:
362,42,203992,6,0,B|390:24|390:24|473:30,1,106.999996734619,6|10,3:2|0:0,0:0:0:0:
502,66,204433,1,2,3:2:0:0:
502,66,204580,2,0,L|496:181,1,106.999996734619,10|8,0:0|0:0,0:0:0:0:
436,248,205168,1,4,3:2:0:0:
436,248,205315,2,0,L|438:301,2,53.4999983673096,2|10|2,0:0|0:0|3:2,0:0:0:0:
402,212,205757,2,0,P|357:194|303:214,1,106.999996734619,10|8,0:0|0:0,0:0:0:0:
246,290,206345,5,4,3:2:0:0:
157,253,206639,2,0,L|149:138,2,106.999996734619,10|2|10,0:0|3:2|0:0,0:0:0:0:
135,346,207521,2,0,P|97:367|30:355,1,106.999996734619,2|10,3:2|0:0,0:0:0:0:
71,268,208110,1,0,0:0:0:0:
17,187,208404,1,0,0:0:0:0:
85,119,208698,6,0,L|205:115,1,106.999996734619,2|10,3:2|0:0,0:0:0:0:
238,97,209140,1,2,0:0:0:0:
238,97,209286,2,0,L|347:105,1,106.999996734619,2|10,3:2|0:0,0:0:0:0:
420,164,209875,2,0,L|427:291,1,106.999996734619,2|8,3:2|0:0,0:0:0:0:
458,366,210463,1,2,3:2:0:0:
458,366,210610,2,0,P|482:358|515:363,2,53.4999983673096,8|8|8,0:0|0:0|0:0,0:0:0:0:
411,377,211051,6,0,B|365:373|365:373|350:361|350:361|298:358,1,106.999996734619,4|8,3:2|0:0,0:0:0:0:
214,336,211639,2,0,P|197:280|217:227,1,106.999996734619,2|10,3:2|0:0,0:0:0:0:
265,156,212227,1,2,3:2:0:0:
347,206,212522,2,0,L|459:200,1,106.999996734619,10|2,0:0|3:2,0:0:0:0:
505,203,212963,1,0,0:0:0:0:
505,203,213110,1,10,0:0:0:0:
459,118,213404,6,0,B|437:91|437:91|349:84,1,106.999996734619,6|8,3:2|0:0,0:0:0:0:
323,72,213845,1,2,0:0:0:0:
323,72,213992,2,0,L|257:76,1,53.4999983673096,6|0,3:2|3:2,0:0:0:0:
221,76,214286,1,8,0:0:0:0:
145,15,214580,2,0,L|78:19,1,53.4999983673096,4|0,3:2|3:2,0:0:0:0:
43,21,214874,1,8,0:0:0:0:
8,111,215168,2,0,L|12:178,1,53.4999983673096,4|0,3:2|3:2,0:0:0:0:
13,212,215462,1,8,0:0:0:0:
98,257,215757,5,4,3:2:0:0:
176,201,216051,2,0,P|186:147|160:99,2,106.999996734619,2|2|2,3:2|3:2|3:2,0:0:0:0:
266,236,216933,2,0,L|383:225,1,106.999996734619,2|0,3:2|3:2,0:0:0:0:
423,224,217374,1,2,0:0:0:0:
423,224,217521,1,2,3:2:0:0:
487,296,217815,2,0,L|493:352,1,53.4999983673096,2|2,3:2|0:0,0:0:0:0:
452,375,218109,6,0,B|432:359|432:359|347:366,1,106.999996734619,6|2,3:2|3:2,0:0:0:0:
308,356,218550,1,2,0:0:0:0:
308,356,218697,2,0,P|291:303|316:246,1,106.999996734619,2|0,3:2|3:2,0:0:0:0:
386,200,219286,1,4,3:2:0:0:
355,108,219580,2,0,P|324:88|300:87,1,53.4999983673096,10|0,0:0|3:2,0:0:0:0:
260,85,219874,2,0,P|227:101|214:122,1,53.4999983673096,10|0,0:0|3:2,0:0:0:0:
193,156,220168,2,0,P|191:192|202:214,1,53.4999983673096,8|0,0:0|3:2,0:0:0:0:
217,251,220463,5,4,3:2:0:0:
168,334,220757,2,0,P|137:354|113:355,1,53.4999983673096,10|0,0:0|3:2,0:0:0:0:
73,357,221051,2,0,P|40:340|27:319,1,53.4999983673096,10|0,0:0|3:2,0:0:0:0:
6,286,221345,2,0,P|4:249|15:227,1,53.4999983673096,8|8,0:0|0:0,0:0:0:0:
30,191,221640,1,12,0:0:0:0:
30,191,225168,6,0,P|89:184|118:144,1,99.9999999999999,4|10,3:2|0:0,0:0:0:0:
172,86,225757,2,0,P|231:93|260:133,1,99.9999999999999,10|8,0:0|0:0,0:0:0:0:
280,165,226198,1,2,3:2:0:0:
280,165,226345,2,0,L|277:223,2,50,4|0|8,3:2|0:0|0:0,0:0:0:0:
368,148,226933,2,0,L|365:98,2,50,8|0|8,0:0|3:2|0:0,0:0:0:0:
419,221,227521,5,4,3:2:0:0:
375,299,227815,2,0,P|332:315|270:294,1,99.9999999999999,8|8,0:0|0:0,0:0:0:0:
209,246,228404,1,8,0:0:0:0:
126,281,228698,2,0,L|132:391,2,99.9999999999999,4|8|8,3:2|0:0|0:0,0:0:0:0:
60,218,229580,1,10,0:0:0:0:
115,146,229874,6,0,P|160:126|220:146,1,99.9999999999999,4|10,3:2|0:0,0:0:0:0:
278,193,230463,2,0,P|323:213|383:193,1,99.9999999999999,2|8,3:2|0:0,0:0:0:0:
451,162,231051,2,0,L|446:60,1,99.9999999999999,2|8,3:2|0:0,0:0:0:0:
419,33,231492,1,8,0:0:0:0:
419,33,231639,2,0,P|374:13|314:33,1,99.9999999999999,0|8,3:2|0:0,0:0:0:0:
261,86,232227,6,0,P|216:106|156:86,1,99.9999999999999,2|10,3:2|0:0,0:0:0:0:
97,39,232815,1,2,3:2:0:0:
18,84,233110,1,10,0:0:0:0:
44,170,233404,1,2,3:2:0:0:
130,195,233698,2,0,P|169:200|217:240,2,99.9999999999999,8|0|8,0:0|3:2|0:0,0:0:0:0:
106,234,234433,1,8,0:0:0:0:
106,234,234580,6,0,L|114:340,1,99.9999999999999,4|10,3:2|0:0,0:0:0:0:
192,376,235168,2,0,P|244:385|296:372,1,99.9999999999999,2|8,3:2|0:0,0:0:0:0:
353,311,235757,2,0,L|410:314,2,50,2|0|10,3:2|0:0|0:0,0:0:0:0:
303,235,236345,2,0,L|246:238,2,50,2|0|8,3:2|3:2|0:0,0:0:0:0:
378,185,236933,6,0,P|389:136|365:76,1,99.9999999999999,4|10,3:2|0:0,0:0:0:0:
294,49,237521,2,0,L|289:-2,2,50,4|0|8,3:2|3:2|0:0,0:0:0:0:
224,106,238110,2,0,L|219:157,2,50,4|0|10,3:2|3:2|0:0,0:0:0:0:
153,50,238698,2,0,L|148:-1,2,50,4|0|8,3:2|3:2|0:0,0:0:0:0:
116,72,239139,1,8,0:0:0:0:
116,72,239286,6,0,P|87:114|101:181,1,99.9999999999999,4|0,3:2|3:2,0:0:0:0:
144,232,239874,2,0,L|256:237,1,99.9999999999999,0|2,3:2|3:2,0:0:0:0:
309,174,240463,2,0,L|421:169,1,99.9999999999999,0|0,3:2|3:2,0:0:0:0:
485,217,241051,2,0,P|503:267|489:315,1,99.9999999999999,0|2,3:2|3:2,0:0:0:0:
464,347,241492,1,2,0:0:0:0:
464,347,241639,6,0,L|352:342,1,99.9999999999999,4|2,3:2|3:2,0:0:0:0:
301,277,242227,2,0,L|189:282,1,99.9999999999999,2|2,3:2|3:2,0:0:0:0:
137,345,242815,1,4,3:2:0:0:
53,309,243110,1,8,0:0:0:0:
66,220,243404,1,8,0:0:0:0:
153,201,243698,2,0,L|214:193,1,50,8|0,0:0|3:2,0:0:0:0:
247,192,243992,5,4,3:2:0:0:
314,132,244286,1,8,0:0:0:0:
278,49,244580,1,8,0:0:0:0:
188,55,244874,1,8,0:0:0:0:
169,146,245168,1,12,0:0:0:0:
169,146,245315,1,12,0:0:0:0:
