osu file format v14

[General]
AudioFilename: audio.mp3
AudioLeadIn: 0
PreviewTime: 64347
Countdown: 0
SampleSet: Soft
StackLeniency: 0.7
Mode: 3
LetterboxInBreaks: 0
SpecialStyle: 0
WidescreenStoryboard: 0

[Editor]
DistanceSpacing: 0.7
BeatDivisor: 4
GridSize: 32
TimelineZoom: 2.4

[Metadata]
Title:Loser Girl
TitleUnicode:ルーザーガール
Artist:TUYU
ArtistUnicode:ツユ
Creator:deta5859
Version:Haiboku
Source:
Tags:Dudehacker FAMoss Drum-hitnormal 貴方を不幸に誘いますね I'll put you in misery ぷす Pusu 礼衣 Rei あじゅん AzyuN おむたつ Omutatsu jpop pop j-pop Japanese TUYU-0002
BeatmapID:2768993
BeatmapSetID:1336615

[Difficulty]
HPDrainRate:8
CircleSize:4
OverallDifficulty:8.5
ApproachRate:5
SliderMultiplier:1.4
SliderTickRate:1

[Events]
//Background and Video events
0,0,"EqKXmN2VEAILSQN.jpg",0,0
Video,-235,"losergirl.mp4"
//Break Periods
//Storyboard Layer 0 (Background)
//Storyboard Layer 1 (Fail)
//Storyboard Layer 2 (Pass)
//Storyboard Layer 3 (Foreground)
//Storyboard Layer 4 (Overlay)
//Storyboard Sound Samples

[TimingPoints]
477,322.58064516129,4,2,1,50,1,0
5638,-100,4,2,1,60,0,0
12735,322.58064516129,4,2,1,70,1,0
126928,322.58064516129,4,2,1,70,1,0
137250,-100,4,2,1,50,0,0
146282,-100,4,2,1,70,0,0
159831,322.58064516129,4,2,1,70,1,0

[HitObjects]
320,192,477,5,2,0:0:0:0:
448,192,477,1,4,0:0:0:0:
64,192,799,1,0,0:0:0:0:
192,192,1122,128,2,1444:0:0:0:0:
448,192,1122,1,0,0:0:0:0:
320,192,1444,128,0,1767:0:0:0:0:
64,192,1767,1,2,0:0:0:0:
448,192,1767,128,0,2089:0:0:0:0:
192,192,2089,128,0,2412:0:0:0:0:
320,192,2412,128,2,2735:0:0:0:0:
448,192,2412,1,0,0:0:0:0:
64,192,2735,128,0,3057:0:0:0:0:
192,192,3057,1,2,0:0:0:0:
448,192,3057,128,0,3702:0:0:0:0:
320,192,3380,1,0,0:0:0:0:
64,192,3702,128,2,4347:0:0:0:0:
192,192,3702,1,0,0:0:0:0:
320,192,4025,1,0,0:0:0:0:
192,192,4347,1,2,0:0:0:0:
320,192,4347,1,4,0:0:0:0:
448,192,4347,128,0,4993:0:0:0:0:
192,192,4993,1,0,0:0:0:0:
192,192,5154,1,0,0:0:0:0:
64,192,5315,128,8,5557:0:0:0:0:
320,192,5315,1,2,0:0:0:0:
448,192,5315,1,0,0:0:0:0:
320,192,5476,1,8,0:0:0:0:
192,192,5557,1,8,0:0:0:0:
64,192,5638,1,2,0:0:0:0:
320,192,5638,1,0,0:0:0:70:cymbal.wav
448,192,5638,128,0,6122:0:0:0:0:
320,192,6122,128,0,6283:0:0:0:0:
64,192,6283,128,2,6606:0:0:0:0:
192,192,6283,1,0,0:0:0:70:cymbal.wav
448,192,6283,1,0,0:0:0:0:
320,192,6767,128,0,6928:0:0:0:0:
64,192,6928,1,2,0:0:0:0:
192,192,6928,1,0,0:0:0:70:cymbal.wav
448,192,6928,128,0,7089:0:0:0:0:
64,192,7089,128,0,7251:0:0:0:0:
192,192,7251,128,0,7412:0:0:0:0:
320,192,7412,128,0,7573:0:0:0:0:
64,192,7573,1,2,0:0:0:0:
192,192,7573,1,0,0:0:0:70:cymbal.wav
448,192,7573,128,0,7896:0:0:0:0:
64,192,7896,128,0,8218:0:0:0:0:
192,192,8218,1,2,0:0:0:0:
320,192,8218,1,0,0:0:0:70:cymbal.wav
448,192,8218,128,0,8541:0:0:0:0:
64,192,8541,128,0,8864:0:0:0:0:
192,192,8864,128,2,9186:0:0:0:0:
320,192,8864,1,0,0:0:0:70:cymbal.wav
448,192,8864,1,0,0:0:0:0:
320,192,9186,128,0,9509:0:0:0:0:
64,192,9509,128,4,10799:0:0:0:0:
192,192,9509,1,2,0:0:0:0:
448,192,9509,1,0,0:0:0:0:
448,192,10638,1,0,0:0:0:0:
320,192,10718,1,0,0:0:0:0:
192,192,10799,1,2,0:0:0:0:
448,192,10799,1,0,0:0:0:0:
192,192,10960,1,0,0:0:0:0:
64,192,11122,1,2,0:0:0:0:
320,192,11122,1,0,0:0:0:0:
320,192,11283,1,0,0:0:0:0:
64,192,11444,1,2,0:0:0:0:
448,192,11444,1,0,0:0:0:0:
320,192,11525,1,2,0:0:0:0:
192,192,11606,1,2,0:0:0:0:
64,192,11686,1,2,0:0:0:0:
320,192,11767,1,2,0:0:0:0:
448,192,11767,1,8,0:0:0:0:
64,192,11847,1,2,0:0:0:0:
192,192,11847,1,8,0:0:0:0:
320,192,11928,1,2,0:0:0:0:
448,192,11928,1,8,0:0:0:0:
64,192,12009,1,2,0:0:0:0:
192,192,12009,1,8,0:0:0:0:
192,192,12735,1,2,0:0:0:0:
320,192,12735,1,4,0:0:0:0:
448,192,12735,1,0,0:0:0:0:
192,192,12896,1,0,0:0:0:0:
64,192,13057,1,8,0:0:0:0:
320,192,13057,1,0,0:0:0:0:
448,192,13057,1,0,0:0:0:0:
192,192,13218,1,2,0:0:0:0:
64,192,13380,1,8,0:0:0:0:
320,192,13380,1,0,0:0:0:0:
448,192,13380,1,0,0:0:0:0:
192,192,13541,1,2,0:0:0:0:
320,192,13622,1,2,0:0:0:0:
64,192,13702,1,8,0:0:0:0:
192,192,13702,1,0,0:0:0:0:
448,192,13702,1,0,0:0:0:0:
320,192,13864,1,2,0:0:0:0:
192,192,13944,1,2,0:0:0:0:
64,192,14025,1,2,0:0:0:0:
448,192,14025,1,4,0:0:0:0:
192,192,14186,1,2,0:0:0:0:
64,192,14347,1,8,0:0:0:0:
320,192,14347,1,0,0:0:0:0:
448,192,14347,1,0,0:0:0:0:
64,192,14509,1,2,0:0:0:0:
192,192,14509,1,0,0:0:0:0:
192,192,14670,1,8,0:0:0:0:
320,192,14670,1,0,0:0:0:0:
448,192,14670,1,0,0:0:0:0:
64,192,14831,1,2,0:0:0:0:
320,192,14912,1,2,0:0:0:0:
64,192,14993,1,8,0:0:0:0:
192,192,14993,1,0,0:0:0:0:
448,192,14993,1,0,0:0:0:0:
320,192,15154,1,2,0:0:0:0:
192,192,15234,1,2,0:0:0:0:
64,192,15315,1,4,0:0:0:0:
448,192,15315,1,2,0:0:0:0:
192,192,15638,1,8,0:0:0:0:
320,192,15638,1,0,0:0:0:0:
448,192,15638,1,0,0:0:0:0:
64,192,15799,1,2,0:0:0:0:
192,192,15799,1,0,0:0:0:0:
64,192,15960,1,8,0:0:0:0:
320,192,15960,1,0,0:0:0:0:
448,192,15960,1,0,0:0:0:0:
192,192,16122,1,2,0:0:0:0:
320,192,16202,1,2,0:0:0:0:
64,192,16283,1,8,0:0:0:0:
192,192,16283,1,0,0:0:0:0:
448,192,16283,1,0,0:0:0:0:
320,192,16444,1,2,0:0:0:0:
192,192,16525,1,2,0:0:0:0:
64,192,16605,1,4,0:0:0:0:
448,192,16605,1,2,0:0:0:0:
192,192,16767,1,2,0:0:0:0:
320,192,16767,1,0,0:0:0:0:
64,192,16928,1,8,0:0:0:0:
192,192,16928,1,0,0:0:0:0:
448,192,16928,1,0,0:0:0:0:
64,192,17089,1,2,0:0:0:0:
320,192,17089,1,0,0:0:0:0:
192,192,17251,1,8,0:0:0:0:
320,192,17251,1,0,0:0:0:0:
448,192,17251,1,0,0:0:0:0:
64,192,17412,1,2,0:0:0:0:
192,192,17493,1,2,0:0:0:0:
64,192,17573,1,8,0:0:0:0:
320,192,17573,1,0,0:0:0:0:
448,192,17573,1,0,0:0:0:0:
192,192,17734,1,2,0:0:0:0:
320,192,17815,1,2,0:0:0:0:
64,192,17896,128,2,18218:0:0:0:0:
448,192,17896,1,4,0:0:0:0:
320,192,18057,1,0,0:0:0:0:
192,192,18218,1,8,0:0:0:0:
320,192,18218,1,2,0:0:0:0:
448,192,18218,128,0,18541:0:0:0:0:
64,192,18380,1,0,0:0:0:0:
192,192,18541,128,2,18864:0:0:0:0:
320,192,18541,1,0,0:0:0:0:
448,192,18702,1,0,0:0:0:0:
64,192,18864,1,2,0:0:0:0:
320,192,18864,128,8,19186:0:0:0:0:
448,192,18864,1,0,0:0:0:0:
192,192,19025,1,0,0:0:0:0:
64,192,19186,1,2,0:0:0:0:
448,192,19186,128,0,19509:0:0:0:0:
192,192,19347,1,0,0:0:0:0:
64,192,19509,128,2,19831:0:0:0:0:
192,192,19509,1,8,0:0:0:0:
320,192,19509,1,0,0:0:0:0:
448,192,19670,1,0,0:0:0:0:
192,192,19831,1,2,0:0:0:0:
320,192,19831,128,0,20154:0:0:0:0:
64,192,19993,1,0,0:0:0:0:
64,192,20154,1,8,0:0:0:0:
192,192,20154,128,2,20476:0:0:0:0:
448,192,20154,1,0,0:0:0:0:
448,192,20315,1,0,0:0:0:0:
64,192,20476,128,2,20638:0:0:0:0:
320,192,20476,1,0,0:0:0:0:
448,192,20638,128,0,20799:0:0:0:0:
64,192,20799,1,8,0:0:0:0:
192,192,20799,128,2,20960:0:0:0:0:
320,192,20799,1,0,0:0:0:0:
320,192,20960,128,0,21122:0:0:0:0:
64,192,21122,128,2,21283:0:0:0:0:
448,192,21122,1,0,0:0:0:0:
192,192,21283,128,0,21444:0:0:0:0:
64,192,21444,1,8,0:0:0:0:
320,192,21444,1,0,0:0:0:0:
448,192,21444,128,0,21605:0:0:0:0:
320,192,21605,128,0,21767:0:0:0:0:
64,192,21767,1,2,0:0:0:0:
192,192,21767,128,0,21928:0:0:0:0:
448,192,21928,128,0,22089:0:0:0:0:
64,192,22089,128,8,22251:0:0:0:0:
192,192,22089,1,0,0:0:0:0:
320,192,22089,1,0,0:0:0:0:
320,192,22251,128,0,22412:0:0:0:0:
64,192,22412,1,2,0:0:0:0:
192,192,22412,1,0,0:0:0:0:
64,192,22573,1,8,0:0:0:0:
320,192,22573,1,0,0:0:0:0:
448,192,22573,1,0,0:0:0:0:
64,192,22734,1,8,0:0:0:0:
192,192,22734,1,0,0:0:0:0:
448,192,22734,1,0,0:0:0:0:
320,192,22896,1,8,0:0:0:0:
448,192,22896,1,0,0:0:0:0:
64,192,22976,1,8,0:0:0:0:
192,192,22976,1,0,0:0:0:0:
320,192,23057,1,2,0:0:0:0:
448,192,23057,1,4,0:0:0:0:
192,192,23218,1,0,0:0:0:0:
320,192,23299,1,0,0:0:0:0:
64,192,23380,1,8,0:0:0:0:
192,192,23380,1,0,0:0:0:0:
448,192,23380,1,0,0:0:0:0:
192,192,23541,1,2,0:0:0:0:
320,192,23541,1,0,0:0:0:0:
64,192,23702,1,8,0:0:0:0:
320,192,23702,1,0,0:0:0:0:
448,192,23702,1,0,0:0:0:0:
192,192,23864,1,2,0:0:0:0:
320,192,23944,1,2,0:0:0:0:
64,192,24025,1,8,0:0:0:0:
192,192,24025,1,0,0:0:0:0:
448,192,24025,1,0,0:0:0:0:
320,192,24186,1,2,0:0:0:0:
192,192,24267,1,2,0:0:0:0:
64,192,24347,1,2,0:0:0:0:
448,192,24347,1,4,0:0:0:0:
192,192,24509,1,2,0:0:0:0:
320,192,24509,1,0,0:0:0:0:
64,192,24670,1,8,0:0:0:0:
320,192,24670,1,0,0:0:0:0:
448,192,24670,1,0,0:0:0:0:
64,192,24831,1,2,0:0:0:0:
192,192,24831,1,0,0:0:0:0:
192,192,24993,1,8,0:0:0:0:
320,192,24993,1,0,0:0:0:0:
448,192,24993,1,0,0:0:0:0:
64,192,25154,1,2,0:0:0:0:
320,192,25234,1,2,0:0:0:0:
64,192,25315,1,8,0:0:0:0:
192,192,25315,1,0,0:0:0:0:
448,192,25315,1,0,0:0:0:0:
320,192,25476,1,2,0:0:0:0:
192,192,25557,1,2,0:0:0:0:
64,192,25638,1,2,0:0:0:0:
448,192,25638,1,4,0:0:0:0:
64,192,25960,1,8,0:0:0:0:
320,192,25960,1,0,0:0:0:0:
448,192,25960,1,0,0:0:0:0:
192,192,26122,1,2,0:0:0:0:
320,192,26122,1,0,0:0:0:0:
64,192,26283,1,8,0:0:0:0:
192,192,26283,1,0,0:0:0:0:
448,192,26283,1,0,0:0:0:0:
320,192,26444,1,2,0:0:0:0:
192,192,26525,1,2,0:0:0:0:
64,192,26605,1,8,0:0:0:0:
320,192,26605,1,0,0:0:0:0:
448,192,26605,1,0,0:0:0:0:
192,192,26767,1,2,0:0:0:0:
320,192,26847,1,2,0:0:0:0:
64,192,26928,1,2,0:0:0:0:
448,192,26928,1,4,0:0:0:0:
192,192,27089,1,2,0:0:0:0:
320,192,27089,1,0,0:0:0:0:
64,192,27251,1,8,0:0:0:0:
192,192,27251,1,0,0:0:0:0:
448,192,27251,1,0,0:0:0:0:
320,192,27412,1,2,0:0:0:0:
448,192,27412,1,0,0:0:0:0:
64,192,27573,1,8,0:0:0:0:
192,192,27573,1,0,0:0:0:0:
320,192,27573,1,0,0:0:0:0:
448,192,27734,1,2,0:0:0:0:
192,192,27815,1,2,0:0:0:0:
64,192,27896,1,8,0:0:0:0:
320,192,27896,1,0,0:0:0:0:
448,192,27896,1,0,0:0:0:0:
192,192,28057,1,2,0:0:0:0:
320,192,28138,1,2,0:0:0:0:
64,192,28218,1,4,0:0:0:0:
448,192,28218,1,2,0:0:0:0:
192,192,28380,1,0,0:0:0:0:
64,192,28541,1,8,0:0:0:0:
320,192,28541,128,2,28864:0:0:0:0:
448,192,28541,1,0,0:0:0:0:
192,192,28702,1,0,0:0:0:0:
64,192,28864,128,2,29186:0:0:0:0:
448,192,28864,1,0,0:0:0:0:
192,192,29025,1,0,0:0:0:0:
192,192,29186,1,2,0:0:0:0:
320,192,29186,1,8,0:0:0:0:
448,192,29186,128,0,29509:0:0:0:0:
320,192,29347,1,0,0:0:0:0:
64,192,29509,128,2,29831:0:0:0:0:
192,192,29509,1,0,0:0:0:0:
320,192,29670,1,0,0:0:0:0:
192,192,29831,1,2,0:0:0:0:
320,192,29831,128,8,30154:0:0:0:0:
448,192,29831,1,0,0:0:0:0:
64,192,29993,1,0,0:0:0:0:
64,192,30154,1,2,0:0:0:0:
192,192,30154,128,0,30476:0:0:0:0:
448,192,30315,1,0,0:0:0:0:
64,192,30476,1,2,0:0:0:0:
320,192,30476,1,8,0:0:0:0:
448,192,30476,128,0,30799:0:0:0:0:
192,192,30638,1,0,0:0:0:0:
64,192,30799,1,2,0:0:0:0:
320,192,30799,1,4,0:0:0:0:
192,192,30960,1,0,0:0:0:0:
64,192,31122,1,8,0:0:0:0:
320,192,31122,1,0,0:0:0:0:
448,192,31122,1,0,0:0:0:0:
192,192,31283,1,2,0:0:0:0:
320,192,31283,1,0,0:0:0:0:
64,192,31444,1,8,0:0:0:0:
192,192,31444,1,0,0:0:0:0:
448,192,31444,1,0,0:0:0:0:
320,192,31605,1,2,0:0:0:0:
192,192,31686,1,2,0:0:0:0:
64,192,31767,1,8,0:0:0:0:
320,192,31767,1,0,0:0:0:0:
448,192,31767,1,0,0:0:0:0:
192,192,31928,1,2,0:0:0:0:
320,192,32009,1,2,0:0:0:0:
64,192,32089,1,4,0:0:0:0:
448,192,32089,1,2,0:0:0:0:
192,192,32251,1,8,0:0:0:0:
320,192,32251,1,0,0:0:0:0:
448,192,32251,1,0,0:0:0:0:
64,192,32412,1,2,0:0:0:0:
192,192,32493,1,2,0:0:0:0:
64,192,32573,1,8,0:0:0:0:
320,192,32573,1,0,0:0:0:0:
448,192,32573,1,0,0:0:0:0:
192,192,32734,1,2,0:0:0:0:
320,192,32734,1,0,0:0:0:0:
448,192,32815,1,2,0:0:0:0:
64,192,32896,1,8,0:0:0:0:
192,192,32976,1,8,0:0:0:0:
320,192,33057,1,8,0:0:0:0:
448,192,33057,1,0,0:0:0:0:
64,192,33138,1,8,0:0:0:0:
192,192,33138,1,0,0:0:0:0:
320,192,33218,1,8,0:0:0:0:
448,192,33218,1,0,0:0:0:0:
64,192,33299,1,8,0:0:0:0:
192,192,33299,1,0,0:0:0:0:
320,192,33380,128,4,33541:0:0:0:0:
448,192,33380,128,2,34025:0:0:0:0:
64,192,33541,128,0,33702:0:0:0:0:
192,192,33702,128,0,33864:0:0:0:0:
320,192,33864,128,0,34025:0:0:0:0:
64,192,34025,128,2,34670:0:0:0:0:
192,192,34025,128,0,34186:0:0:0:0:
448,192,34186,128,0,34347:0:0:0:0:
320,192,34347,128,0,34509:0:0:0:0:
192,192,34509,128,0,34670:0:0:0:0:
320,192,34670,128,2,34831:0:0:0:0:
448,192,34670,128,0,35315:0:0:0:0:
64,192,34831,128,0,34993:0:0:0:0:
192,192,34993,128,0,35154:0:0:0:0:
320,192,35154,128,0,35315:0:0:0:0:
64,192,35315,128,2,35960:0:0:0:0:
192,192,35315,128,0,35476:0:0:0:0:
448,192,35476,128,0,35638:0:0:0:0:
320,192,35638,128,0,35799:0:0:0:0:
192,192,35799,128,0,35960:0:0:0:0:
320,192,35960,128,2,36122:0:0:0:0:
448,192,35960,128,0,36605:0:0:0:0:
64,192,36122,128,0,36283:0:0:0:0:
192,192,36283,128,0,36444:0:0:0:0:
320,192,36444,128,0,36605:0:0:0:0:
64,192,36605,128,2,37251:0:0:0:0:
192,192,36605,128,0,36767:0:0:0:0:
320,192,36767,128,0,36928:0:0:0:0:
448,192,36928,128,0,37089:0:0:0:0:
192,192,37089,128,0,37251:0:0:0:0:
320,192,37251,128,2,37573:0:0:0:0:
448,192,37251,128,0,37896:0:0:0:0:
64,192,37573,128,0,37896:0:0:0:0:
192,192,37896,128,2,38057:0:0:0:0:
320,192,37896,1,0,0:0:0:0:
64,192,38057,1,2,0:0:0:0:
448,192,38057,128,0,38218:0:0:0:0:
64,192,38218,1,8,0:0:0:0:
192,192,38218,1,0,0:0:0:0:
320,192,38218,128,0,38380:0:0:0:0:
192,192,38380,128,0,38702:0:0:0:0:
320,192,38541,1,2,0:0:0:0:
448,192,38541,128,4,39186:0:0:0:0:
64,192,38702,128,0,38864:0:0:0:0:
320,192,38864,128,0,39025:0:0:0:0:
192,192,39025,128,0,39186:0:0:0:0:
64,192,39186,128,2,39831:0:0:0:0:
320,192,39186,128,0,39347:0:0:0:0:
192,192,39347,128,0,39509:0:0:0:0:
448,192,39509,128,0,39670:0:0:0:0:
320,192,39670,128,0,39831:0:0:0:0:
192,192,39831,128,2,39993:0:0:0:0:
448,192,39831,128,0,40476:0:0:0:0:
320,192,39993,128,0,40154:0:0:0:0:
64,192,40154,128,0,40315:0:0:0:0:
192,192,40315,128,0,40476:0:0:0:0:
64,192,40476,128,2,41122:0:0:0:0:
320,192,40476,128,0,40638:0:0:0:0:
192,192,40638,128,0,40799:0:0:0:0:
448,192,40799,128,0,41122:0:0:0:0:
192,192,41122,128,2,41767:0:0:0:0:
320,192,41122,128,0,41283:0:0:0:0:
64,192,41283,128,0,41444:0:0:0:0:
448,192,41444,128,0,41605:0:0:0:0:
320,192,41605,128,0,41767:0:0:0:0:
64,192,41767,128,2,41928:0:0:0:0:
448,192,41767,128,0,42412:0:0:0:0:
192,192,41928,128,0,42089:0:0:0:0:
320,192,42089,128,0,42251:0:0:0:0:
64,192,42251,128,0,42412:0:0:0:0:
192,192,42412,128,2,42734:0:0:0:0:
320,192,42412,128,0,42734:0:0:0:70:cymbal.wav
64,192,43057,1,0,0:0:0:0:
320,192,43380,1,0,0:0:0:0:
64,192,43702,1,2,0:0:0:0:
192,192,43702,1,4,0:0:0:0:
448,192,43702,1,0,0:0:0:0:
192,192,44025,1,8,0:0:0:0:
320,192,44025,1,0,0:0:0:0:
448,192,44025,1,0,0:0:0:0:
64,192,44186,1,2,0:0:0:0:
448,192,44186,1,0,0:0:0:0:
320,192,44347,1,0,0:0:0:0:
64,192,44509,1,2,0:0:0:0:
192,192,44509,1,0,0:0:0:0:
64,192,44670,1,8,0:0:0:0:
320,192,44670,1,0,0:0:0:0:
448,192,44670,1,0,0:0:0:0:
192,192,44831,1,0,0:0:0:0:
320,192,44993,1,2,0:0:0:0:
448,192,44993,1,0,0:0:0:0:
64,192,45154,1,0,0:0:0:0:
192,192,45315,1,8,0:0:0:0:
320,192,45315,1,0,0:0:0:0:
448,192,45315,1,0,0:0:0:0:
64,192,45476,1,2,0:0:0:0:
192,192,45476,1,0,0:0:0:0:
320,192,45638,1,0,0:0:0:0:
64,192,45799,1,2,0:0:0:0:
448,192,45799,1,0,0:0:0:0:
192,192,45960,1,8,0:0:0:0:
320,192,45960,1,0,0:0:0:0:
448,192,45960,1,0,0:0:0:0:
64,192,46122,1,0,0:0:0:0:
320,192,46283,1,2,0:0:0:0:
448,192,46283,1,0,0:0:0:0:
192,192,46444,1,0,0:0:0:0:
64,192,46605,1,8,0:0:0:0:
320,192,46605,1,0,0:0:0:0:
448,192,46605,1,0,0:0:0:0:
64,192,46767,1,2,0:0:0:0:
192,192,46767,1,0,0:0:0:0:
320,192,46928,1,0,0:0:0:0:
64,192,47089,1,2,0:0:0:0:
448,192,47089,1,0,0:0:0:0:
64,192,47251,1,8,0:0:0:0:
192,192,47251,1,0,0:0:0:0:
320,192,47251,1,0,0:0:0:0:
448,192,47412,1,0,0:0:0:0:
192,192,47573,1,2,0:0:0:0:
320,192,47573,1,0,0:0:0:0:
64,192,47734,1,0,0:0:0:0:
192,192,47896,1,8,0:0:0:0:
320,192,47896,1,0,0:0:0:0:
448,192,47896,1,0,0:0:0:0:
64,192,48057,1,2,0:0:0:0:
448,192,48057,1,0,0:0:0:0:
192,192,48218,1,0,0:0:0:0:
320,192,48380,1,2,0:0:0:0:
448,192,48380,1,0,0:0:0:0:
64,192,48541,1,8,0:0:0:0:
192,192,48541,1,0,0:0:0:0:
448,192,48541,1,0,0:0:0:0:
320,192,48702,1,0,0:0:0:0:
64,192,48864,1,2,0:0:0:0:
448,192,48864,1,4,0:0:0:0:
64,192,49186,1,8,0:0:0:0:
192,192,49186,1,0,0:0:0:0:
320,192,49186,1,0,0:0:0:0:
320,192,49347,1,2,0:0:0:0:
448,192,49347,1,0,0:0:0:0:
192,192,49509,1,0,0:0:0:0:
64,192,49670,1,2,0:0:0:0:
320,192,49670,1,0,0:0:0:0:
64,192,49831,1,8,0:0:0:0:
192,192,49831,1,0,0:0:0:0:
448,192,49831,1,0,0:0:0:0:
320,192,49993,1,0,0:0:0:0:
64,192,50154,1,2,0:0:0:0:
192,192,50154,1,0,0:0:0:0:
448,192,50315,1,0,0:0:0:0:
64,192,50476,1,8,0:0:0:0:
192,192,50476,1,0,0:0:0:0:
320,192,50476,1,0,0:0:0:0:
64,192,50638,1,2,0:0:0:0:
448,192,50638,1,0,0:0:0:0:
192,192,50799,1,0,0:0:0:0:
320,192,50960,1,2,0:0:0:0:
448,192,50960,1,0,0:0:0:0:
64,192,51122,1,8,0:0:0:0:
192,192,51122,1,0,0:0:0:0:
448,192,51122,1,0,0:0:0:0:
320,192,51283,1,0,0:0:0:0:
64,192,51444,1,2,0:0:0:0:
448,192,51444,1,0,0:0:0:0:
192,192,51605,1,0,0:0:0:0:
64,192,51767,1,8,0:0:0:0:
320,192,51767,1,0,0:0:0:0:
448,192,51767,1,0,0:0:0:0:
192,192,51928,1,2,0:0:0:0:
320,192,51928,1,0,0:0:0:0:
448,192,52089,1,0,0:0:0:0:
64,192,52251,1,2,0:0:0:0:
192,192,52251,1,0,0:0:0:0:
64,192,52412,1,8,0:0:0:0:
320,192,52412,1,0,0:0:0:0:
448,192,52412,1,0,0:0:0:0:
192,192,52573,1,0,0:0:0:0:
320,192,52734,1,2,0:0:0:0:
448,192,52734,1,0,0:0:0:0:
64,192,52896,1,0,0:0:0:0:
192,192,53057,1,8,0:0:0:0:
320,192,53057,1,0,0:0:0:0:
448,192,53057,1,0,0:0:0:0:
64,192,53218,1,2,0:0:0:0:
192,192,53218,1,0,0:0:0:0:
448,192,53380,1,0,0:0:0:0:
192,192,53541,1,2,0:0:0:0:
320,192,53541,1,0,0:0:0:0:
64,192,53702,1,8,0:0:0:0:
320,192,53702,1,0,0:0:0:0:
448,192,53702,1,0,0:0:0:0:
64,192,53864,1,8,0:0:0:0:
320,192,53864,1,0,0:0:0:0:
448,192,53864,1,0,0:0:0:0:
64,192,54025,1,2,0:0:0:0:
192,192,54025,1,4,0:0:0:0:
320,192,54186,1,0,0:0:0:0:
64,192,54347,1,8,0:0:0:0:
192,192,54347,1,0,0:0:0:0:
448,192,54347,1,0,0:0:0:0:
320,192,54509,1,2,0:0:0:0:
448,192,54509,1,0,0:0:0:0:
64,192,54670,1,0,0:0:0:0:
192,192,54831,1,2,0:0:0:0:
320,192,54831,1,0,0:0:0:0:
64,192,54993,1,8,0:0:0:0:
192,192,54993,1,0,0:0:0:0:
448,192,54993,1,0,0:0:0:0:
320,192,55154,1,0,0:0:0:0:
192,192,55315,1,2,0:0:0:0:
448,192,55315,1,0,0:0:0:0:
64,192,55476,1,0,0:0:0:0:
192,192,55638,1,8,0:0:0:0:
320,192,55638,1,0,0:0:0:0:
448,192,55638,1,0,0:0:0:0:
64,192,55799,1,2,0:0:0:0:
448,192,55799,1,0,0:0:0:0:
320,192,55960,1,0,0:0:0:0:
64,192,56122,1,2,0:0:0:0:
192,192,56122,1,0,0:0:0:0:
64,192,56283,1,8,0:0:0:0:
320,192,56283,1,0,0:0:0:0:
448,192,56283,1,0,0:0:0:0:
192,192,56444,1,0,0:0:0:0:
320,192,56605,1,2,0:0:0:0:
448,192,56605,1,0,0:0:0:0:
64,192,56767,1,0,0:0:0:0:
192,192,56928,1,8,0:0:0:0:
320,192,56928,1,0,0:0:0:0:
448,192,56928,1,0,0:0:0:0:
64,192,57089,1,2,0:0:0:0:
448,192,57089,1,0,0:0:0:0:
320,192,57251,1,0,0:0:0:0:
64,192,57412,1,2,0:0:0:0:
192,192,57412,1,0,0:0:0:0:
64,192,57573,1,8,0:0:0:0:
320,192,57573,1,0,0:0:0:0:
448,192,57573,1,0,0:0:0:0:
192,192,57734,1,0,0:0:0:0:
320,192,57896,1,2,0:0:0:0:
448,192,57896,1,0,0:0:0:0:
64,192,58057,1,0,0:0:0:0:
192,192,58218,1,8,0:0:0:0:
320,192,58218,1,0,0:0:0:0:
448,192,58218,1,0,0:0:0:0:
64,192,58380,1,2,0:0:0:0:
192,192,58380,1,0,0:0:0:0:
448,192,58541,1,0,0:0:0:0:
192,192,58702,1,2,0:0:0:0:
320,192,58702,1,0,0:0:0:0:
64,192,58864,1,8,0:0:0:0:
320,192,58864,1,0,0:0:0:0:
448,192,58864,1,0,0:0:0:0:
192,192,59025,1,0,0:0:0:0:
64,192,59186,1,2,0:0:0:0:
448,192,59186,1,4,0:0:0:0:
320,192,59347,1,0,0:0:0:0:
64,192,59509,1,8,0:0:0:0:
192,192,59509,1,0,0:0:0:0:
448,192,59509,1,0,0:0:0:0:
320,192,59670,1,2,0:0:0:0:
448,192,59670,1,0,0:0:0:0:
64,192,59831,1,0,0:0:0:0:
192,192,59993,1,2,0:0:0:0:
320,192,59993,1,0,0:0:0:0:
64,192,60154,1,8,0:0:0:0:
320,192,60154,1,0,0:0:0:0:
448,192,60154,1,0,0:0:0:0:
192,192,60315,1,0,0:0:0:0:
64,192,60476,1,2,0:0:0:0:
448,192,60476,1,0,0:0:0:0:
320,192,60638,1,0,0:0:0:0:
64,192,60799,1,8,0:0:0:0:
192,192,60799,1,0,0:0:0:0:
448,192,60799,1,0,0:0:0:0:
192,192,60960,1,2,0:0:0:0:
320,192,60960,1,0,0:0:0:0:
64,192,61122,1,0,0:0:0:0:
320,192,61283,1,2,0:0:0:0:
448,192,61283,1,0,0:0:0:0:
64,192,61444,1,8,0:0:0:0:
192,192,61444,1,0,0:0:0:0:
448,192,61444,1,0,0:0:0:0:
320,192,61605,1,0,0:0:0:0:
64,192,61767,1,2,0:0:0:0:
448,192,61767,1,0,0:0:0:0:
192,192,61928,1,0,0:0:0:0:
64,192,62089,1,8,0:0:0:0:
320,192,62089,1,0,0:0:0:0:
448,192,62089,1,0,0:0:0:0:
192,192,62251,1,2,0:0:0:0:
320,192,62251,1,0,0:0:0:0:
448,192,62412,1,0,0:0:0:0:
64,192,62573,1,2,0:0:0:0:
192,192,62573,1,0,0:0:0:0:
64,192,62734,1,8,0:0:0:0:
320,192,62734,1,0,0:0:0:0:
448,192,62734,1,0,0:0:0:0:
192,192,62896,1,0,0:0:0:0:
320,192,63057,1,2,0:0:0:0:
448,192,63057,1,0,0:0:0:0:
64,192,63218,1,0,0:0:0:0:
192,192,63380,1,8,0:0:0:0:
320,192,63380,1,0,0:0:0:0:
448,192,63380,1,0,0:0:0:0:
64,192,63541,1,2,0:0:0:0:
448,192,63541,1,0,0:0:0:0:
192,192,63702,1,0,0:0:0:0:
320,192,63702,1,0,0:0:0:0:
64,192,63864,1,2,0:0:0:0:
448,192,63864,1,0,0:0:0:0:
192,192,64025,1,8,0:0:0:0:
320,192,64025,1,0,0:0:0:0:
448,192,64025,1,0,0:0:0:0:
64,192,64186,1,8,0:0:0:0:
192,192,64186,1,0,0:0:0:0:
320,192,64267,1,8,0:0:0:0:
448,192,64267,1,0,0:0:0:0:
64,192,64347,128,2,64670:0:0:0:0:
192,192,64347,1,4,0:0:0:0:
320,192,64509,1,0,0:0:0:0:
192,192,64670,1,2,0:0:0:0:
448,192,64670,128,0,64993:0:0:0:0:
320,192,64831,1,0,0:0:0:0:
64,192,64993,1,2,0:0:0:0:
192,192,64993,128,0,65154:0:0:0:0:
320,192,65154,128,0,65315:0:0:0:0:
64,192,65315,128,2,65476:0:0:0:0:
192,192,65315,1,0,0:0:0:0:
448,192,65476,128,0,65638:0:0:0:0:
64,192,65638,1,2,0:0:0:0:
320,192,65638,128,0,65799:0:0:0:0:
192,192,65799,128,0,65960:0:0:0:0:
64,192,65960,128,2,66122:0:0:0:0:
320,192,65960,1,0,0:0:0:0:
448,192,66122,128,0,66283:0:0:0:0:
192,192,66283,128,2,66444:0:0:0:0:
320,192,66283,1,0,0:0:0:0:
320,192,66444,128,0,66605:0:0:0:0:
448,192,66525,1,0,0:0:0:0:
64,192,66605,128,2,66767:0:0:0:0:
192,192,66605,1,0,0:0:0:0:
320,192,66767,1,8,0:0:0:0:
448,192,66767,1,0,0:0:0:0:
64,192,66928,1,2,0:0:0:0:
448,192,66928,128,4,67412:0:0:0:0:
64,192,67251,1,2,0:0:0:0:
192,192,67251,1,0,0:0:0:0:
320,192,67412,128,0,67573:0:0:0:0:
64,192,67573,1,2,0:0:0:0:
192,192,67573,128,0,67896:0:0:0:0:
64,192,67896,1,2,0:0:0:0:
448,192,67896,128,0,68057:0:0:0:0:
64,192,68057,128,0,68218:0:0:0:0:
320,192,68218,128,2,68380:0:0:0:0:
448,192,68218,1,0,0:0:0:0:
192,192,68380,128,0,68541:0:0:0:0:
64,192,68541,128,2,68702:0:0:0:0:
320,192,68541,1,0,0:0:0:0:
448,192,68702,128,0,68864:0:0:0:0:
192,192,68864,1,2,0:0:0:0:
320,192,68864,128,0,69025:0:0:0:0:
64,192,69025,1,8,0:0:0:0:
192,192,69105,1,8,0:0:0:0:
320,192,69186,1,2,0:0:0:0:
448,192,69186,1,0,0:0:0:0:
64,192,69347,1,8,0:0:0:0:
192,192,69347,1,0,0:0:0:0:
448,192,69347,1,0,0:0:0:0:
64,192,69509,1,2,0:0:0:0:
320,192,69509,128,4,69831:0:0:0:0:
448,192,69670,1,0,0:0:0:0:
64,192,69831,1,2,0:0:0:0:
192,192,69831,128,0,70154:0:0:0:0:
448,192,69993,1,0,0:0:0:0:
64,192,70154,128,2,70315:0:0:0:0:
320,192,70154,1,0,0:0:0:0:
192,192,70315,128,0,70476:0:0:0:0:
320,192,70476,1,2,0:0:0:0:
448,192,70476,128,0,70638:0:0:0:0:
64,192,70638,128,0,70799:0:0:0:0:
320,192,70799,128,2,70960:0:0:0:0:
448,192,70799,1,0,0:0:0:0:
192,192,70960,128,0,71122:0:0:0:0:
64,192,71122,128,2,71283:0:0:0:0:
320,192,71122,1,0,0:0:0:0:
448,192,71283,128,0,71444:0:0:0:0:
64,192,71444,1,2,0:0:0:0:
192,192,71444,128,0,71605:0:0:0:0:
320,192,71605,128,0,71767:0:0:0:0:
448,192,71686,1,0,0:0:0:0:
64,192,71767,128,2,71928:0:0:0:0:
192,192,71767,1,0,0:0:0:0:
320,192,71928,1,8,0:0:0:0:
448,192,71928,1,0,0:0:0:0:
64,192,72089,1,2,0:0:0:0:
448,192,72089,128,4,72251:0:0:0:0:
192,192,72251,128,0,72412:0:0:0:0:
320,192,72412,128,2,72573:0:0:0:0:
448,192,72412,1,0,0:0:0:0:
64,192,72573,128,0,72734:0:0:0:0:
192,192,72734,128,2,72896:0:0:0:0:
448,192,72734,1,0,0:0:0:0:
64,192,72896,1,8,0:0:0:0:
320,192,72896,128,0,73057:0:0:0:0:
192,192,73057,128,2,73218:0:0:0:0:
448,192,73057,1,0,0:0:0:0:
64,192,73218,128,8,73380:0:0:0:0:
320,192,73218,1,0,0:0:0:0:
448,192,73299,1,8,0:0:0:0:
192,192,73380,128,2,73541:0:0:0:0:
320,192,73380,128,0,73541:0:0:0:70:cymbal.wav
192,192,73702,128,2,73864:0:0:0:0:
320,192,73702,128,0,73864:0:0:0:70:cymbal.wav
192,192,74025,128,2,74186:0:0:0:0:
320,192,74025,128,0,74186:0:0:0:70:cymbal.wav
64,192,74670,1,4,0:0:0:0:
192,192,74670,1,2,0:0:0:0:
320,192,74670,1,0,0:0:0:0:
320,192,74831,1,0,0:0:0:0:
64,192,74993,1,8,0:0:0:0:
192,192,74993,1,0,0:0:0:0:
448,192,74993,1,0,0:0:0:0:
320,192,75154,1,2,0:0:0:0:
64,192,75315,1,8,0:0:0:0:
192,192,75315,1,0,0:0:0:0:
448,192,75315,1,0,0:0:0:0:
320,192,75476,1,2,0:0:0:0:
192,192,75557,1,2,0:0:0:0:
64,192,75638,1,8,0:0:0:0:
320,192,75638,1,0,0:0:0:0:
448,192,75638,1,0,0:0:0:0:
192,192,75799,1,2,0:0:0:0:
320,192,75880,1,2,0:0:0:0:
64,192,75960,1,4,0:0:0:0:
448,192,75960,1,2,0:0:0:0:
320,192,76122,1,2,0:0:0:0:
64,192,76283,1,8,0:0:0:0:
192,192,76283,1,0,0:0:0:0:
448,192,76283,1,0,0:0:0:0:
320,192,76444,1,2,0:0:0:0:
448,192,76444,1,0,0:0:0:0:
64,192,76605,1,8,0:0:0:0:
192,192,76605,1,0,0:0:0:0:
320,192,76605,1,0,0:0:0:0:
448,192,76767,1,2,0:0:0:0:
192,192,76847,1,2,0:0:0:0:
64,192,76928,1,8,0:0:0:0:
320,192,76928,1,0,0:0:0:0:
448,192,76928,1,0,0:0:0:0:
192,192,77089,1,2,0:0:0:0:
320,192,77170,1,2,0:0:0:0:
64,192,77251,1,2,0:0:0:0:
448,192,77251,1,4,0:0:0:0:
64,192,77573,1,8,0:0:0:0:
192,192,77573,1,0,0:0:0:0:
320,192,77573,1,0,0:0:0:0:
320,192,77734,1,2,0:0:0:0:
448,192,77734,1,0,0:0:0:0:
64,192,77896,1,8,0:0:0:0:
192,192,77896,1,0,0:0:0:0:
448,192,77896,1,0,0:0:0:0:
320,192,78057,1,2,0:0:0:0:
192,192,78138,1,2,0:0:0:0:
64,192,78218,1,8,0:0:0:0:
320,192,78218,1,0,0:0:0:0:
448,192,78218,1,0,0:0:0:0:
192,192,78380,1,2,0:0:0:0:
320,192,78460,1,2,0:0:0:0:
64,192,78541,1,2,0:0:0:0:
448,192,78541,1,4,0:0:0:0:
192,192,78702,1,2,0:0:0:0:
320,192,78702,1,0,0:0:0:0:
64,192,78864,1,8,0:0:0:0:
320,192,78864,1,0,0:0:0:0:
448,192,78864,1,0,0:0:0:0:
192,192,79025,1,2,0:0:0:0:
448,192,79025,1,0,0:0:0:0:
64,192,79186,1,8,0:0:0:0:
192,192,79186,1,0,0:0:0:0:
320,192,79186,1,0,0:0:0:0:
448,192,79347,1,2,0:0:0:0:
320,192,79428,1,2,0:0:0:0:
64,192,79509,1,8,0:0:0:0:
192,192,79509,1,0,0:0:0:0:
448,192,79509,1,0,0:0:0:0:
320,192,79670,1,2,0:0:0:0:
192,192,79751,1,2,0:0:0:0:
64,192,79831,1,4,0:0:0:0:
448,192,79831,128,2,80154:0:0:0:0:
192,192,79993,1,0,0:0:0:0:
64,192,80154,128,2,80476:0:0:0:0:
192,192,80154,1,8,0:0:0:0:
320,192,80154,1,0,0:0:0:0:
448,192,80315,1,0,0:0:0:0:
192,192,80476,1,2,0:0:0:0:
320,192,80476,128,0,80799:0:0:0:0:
64,192,80638,1,0,0:0:0:0:
64,192,80799,1,8,0:0:0:0:
192,192,80799,128,2,81122:0:0:0:0:
448,192,80799,1,0,0:0:0:0:
320,192,80960,1,0,0:0:0:0:
64,192,81122,128,2,81444:0:0:0:0:
448,192,81122,1,0,0:0:0:0:
320,192,81283,1,0,0:0:0:0:
192,192,81444,1,8,0:0:0:0:
320,192,81444,1,2,0:0:0:0:
448,192,81444,128,0,81767:0:0:0:0:
64,192,81605,1,0,0:0:0:0:
192,192,81767,128,2,82089:0:0:0:0:
320,192,81767,1,0,0:0:0:0:
448,192,81928,1,0,0:0:0:0:
64,192,82089,1,2,0:0:0:0:
320,192,82089,128,8,82412:0:0:0:0:
448,192,82089,1,0,0:0:0:0:
64,192,82251,1,0,0:0:0:0:
192,192,82412,1,2,0:0:0:0:
448,192,82412,128,0,82573:0:0:0:0:
64,192,82573,128,0,82734:0:0:0:0:
192,192,82734,1,2,0:0:0:0:
320,192,82734,128,8,82896:0:0:0:0:
448,192,82734,1,0,0:0:0:0:
192,192,82896,128,0,83057:0:0:0:0:
64,192,83057,1,2,0:0:0:0:
448,192,83057,128,0,83218:0:0:0:0:
320,192,83218,128,0,83380:0:0:0:0:
64,192,83380,128,8,83541:0:0:0:0:
192,192,83380,1,0,0:0:0:0:
448,192,83380,1,0,0:0:0:0:
192,192,83541,128,0,83702:0:0:0:0:
320,192,83702,128,2,83864:0:0:0:0:
448,192,83702,1,0,0:0:0:0:
64,192,83864,128,0,84025:0:0:0:0:
192,192,84025,1,8,0:0:0:0:
320,192,84025,1,0,0:0:0:0:
448,192,84025,128,0,84186:0:0:0:0:
192,192,84186,128,0,84347:0:0:0:0:
320,192,84347,1,2,0:0:0:0:
448,192,84347,1,0,0:0:0:0:
64,192,84509,1,8,0:0:0:0:
192,192,84509,1,0,0:0:0:0:
448,192,84509,1,0,0:0:0:0:
64,192,84670,1,8,0:0:0:0:
320,192,84670,1,0,0:0:0:0:
448,192,84670,1,0,0:0:0:0:
64,192,84831,1,8,0:0:0:0:
192,192,84831,1,0,0:0:0:0:
320,192,84912,1,8,0:0:0:0:
448,192,84912,1,0,0:0:0:0:
64,192,84993,1,4,0:0:0:0:
192,192,84993,1,2,0:0:0:0:
320,192,85154,1,0,0:0:0:0:
64,192,85315,1,8,0:0:0:0:
192,192,85315,1,0,0:0:0:0:
448,192,85315,1,0,0:0:0:0:
192,192,85476,1,2,0:0:0:0:
320,192,85476,1,0,0:0:0:0:
64,192,85638,1,8,0:0:0:0:
320,192,85638,1,0,0:0:0:0:
448,192,85638,1,0,0:0:0:0:
192,192,85799,1,2,0:0:0:0:
320,192,85880,1,2,0:0:0:0:
64,192,85960,1,8,0:0:0:0:
192,192,85960,1,0,0:0:0:0:
448,192,85960,1,0,0:0:0:0:
320,192,86122,1,2,0:0:0:0:
192,192,86202,1,2,0:0:0:0:
64,192,86283,1,4,0:0:0:0:
448,192,86283,1,2,0:0:0:0:
192,192,86444,1,2,0:0:0:0:
320,192,86444,1,0,0:0:0:0:
64,192,86605,1,8,0:0:0:0:
192,192,86605,1,0,0:0:0:0:
448,192,86605,1,0,0:0:0:0:
320,192,86767,1,2,0:0:0:0:
448,192,86767,1,0,0:0:0:0:
64,192,86928,1,8,0:0:0:0:
192,192,86928,1,0,0:0:0:0:
320,192,86928,1,0,0:0:0:0:
448,192,87089,1,2,0:0:0:0:
192,192,87170,1,2,0:0:0:0:
64,192,87251,1,8,0:0:0:0:
320,192,87251,1,0,0:0:0:0:
448,192,87251,1,0,0:0:0:0:
192,192,87412,1,2,0:0:0:0:
320,192,87493,1,2,0:0:0:0:
64,192,87573,1,4,0:0:0:0:
448,192,87573,1,2,0:0:0:0:
64,192,87896,1,8,0:0:0:0:
192,192,87896,1,0,0:0:0:0:
448,192,87896,1,0,0:0:0:0:
192,192,88057,1,2,0:0:0:0:
320,192,88057,1,0,0:0:0:0:
64,192,88218,1,8,0:0:0:0:
320,192,88218,1,0,0:0:0:0:
448,192,88218,1,0,0:0:0:0:
192,192,88380,1,2,0:0:0:0:
320,192,88460,1,2,0:0:0:0:
64,192,88541,1,8,0:0:0:0:
192,192,88541,1,0,0:0:0:0:
448,192,88541,1,0,0:0:0:0:
320,192,88702,1,2,0:0:0:0:
192,192,88783,1,2,0:0:0:0:
64,192,88864,1,4,0:0:0:0:
448,192,88864,1,2,0:0:0:0:
192,192,89025,1,2,0:0:0:0:
320,192,89025,1,0,0:0:0:0:
64,192,89186,1,8,0:0:0:0:
320,192,89186,1,0,0:0:0:0:
448,192,89186,1,0,0:0:0:0:
64,192,89347,1,2,0:0:0:0:
192,192,89347,1,0,0:0:0:0:
192,192,89509,1,8,0:0:0:0:
320,192,89509,1,0,0:0:0:0:
448,192,89509,1,0,0:0:0:0:
64,192,89670,1,2,0:0:0:0:
320,192,89751,1,2,0:0:0:0:
64,192,89831,1,8,0:0:0:0:
192,192,89831,1,0,0:0:0:0:
448,192,89831,1,0,0:0:0:0:
320,192,89993,1,2,0:0:0:0:
192,192,90073,1,2,0:0:0:0:
64,192,90154,1,2,0:0:0:0:
448,192,90154,1,4,0:0:0:0:
320,192,90315,1,0,0:0:0:0:
64,192,90476,1,2,0:0:0:0:
192,192,90476,128,8,90799:0:0:0:0:
448,192,90476,1,0,0:0:0:0:
320,192,90638,1,0,0:0:0:0:
64,192,90799,1,2,0:0:0:0:
448,192,90799,128,0,91122:0:0:0:0:
320,192,90960,1,0,0:0:0:0:
64,192,91122,128,8,91444:0:0:0:0:
192,192,91122,1,2,0:0:0:0:
320,192,91122,1,0,0:0:0:0:
192,192,91283,1,0,0:0:0:0:
320,192,91444,1,2,0:0:0:0:
448,192,91444,128,0,91767:0:0:0:0:
192,192,91605,1,0,0:0:0:0:
64,192,91767,1,8,0:0:0:0:
192,192,91767,128,2,92089:0:0:0:0:
320,192,91767,1,0,0:0:0:0:
448,192,91928,1,0,0:0:0:0:
320,192,92089,128,2,92412:0:0:0:0:
448,192,92089,1,0,0:0:0:0:
64,192,92251,1,0,0:0:0:0:
64,192,92412,128,8,92734:0:0:0:0:
192,192,92412,1,2,0:0:0:0:
448,192,92412,1,0,0:0:0:0:
320,192,92573,1,0,0:0:0:0:
192,192,92734,1,4,0:0:0:0:
448,192,92734,1,2,0:0:0:0:
320,192,92896,1,0,0:0:0:0:
64,192,93057,1,8,0:0:0:0:
192,192,93057,1,0,0:0:0:0:
448,192,93057,1,0,0:0:0:0:
192,192,93218,1,2,0:0:0:0:
320,192,93218,1,0,0:0:0:0:
64,192,93380,1,8,0:0:0:0:
320,192,93380,1,0,0:0:0:0:
448,192,93380,1,0,0:0:0:0:
192,192,93541,1,2,0:0:0:0:
320,192,93622,1,2,0:0:0:0:
64,192,93702,1,8,0:0:0:0:
192,192,93702,1,0,0:0:0:0:
448,192,93702,1,0,0:0:0:0:
320,192,93864,1,2,0:0:0:0:
192,192,93944,1,2,0:0:0:0:
64,192,94025,1,2,0:0:0:0:
448,192,94025,1,4,0:0:0:0:
64,192,94186,1,8,0:0:0:0:
192,192,94186,1,0,0:0:0:0:
320,192,94186,1,0,0:0:0:0:
448,192,94347,1,2,0:0:0:0:
320,192,94428,1,2,0:0:0:0:
64,192,94509,1,8,0:0:0:0:
192,192,94509,1,0,0:0:0:0:
448,192,94509,1,0,0:0:0:0:
192,192,94670,1,2,0:0:0:0:
320,192,94670,1,0,0:0:0:0:
64,192,94751,1,2,0:0:0:0:
448,192,94831,1,8,0:0:0:0:
320,192,94912,1,8,0:0:0:0:
64,192,94993,1,8,0:0:0:0:
192,192,94993,1,0,0:0:0:0:
320,192,95073,1,8,0:0:0:0:
448,192,95073,1,0,0:0:0:0:
64,192,95154,1,8,0:0:0:0:
192,192,95154,1,0,0:0:0:0:
320,192,95234,1,8,0:0:0:0:
448,192,95234,1,0,0:0:0:0:
64,192,95315,128,2,95960:0:0:0:0:
192,192,95315,128,4,95476:0:0:0:0:
448,192,95476,128,0,95638:0:0:0:0:
320,192,95638,128,0,95799:0:0:0:0:
192,192,95799,128,0,95960:0:0:0:0:
320,192,95960,128,2,96122:0:0:0:0:
448,192,95960,128,0,96605:0:0:0:0:
64,192,96122,128,0,96283:0:0:0:0:
192,192,96283,128,0,96444:0:0:0:0:
320,192,96444,128,0,96605:0:0:0:0:
64,192,96605,128,2,97251:0:0:0:0:
192,192,96605,128,0,96767:0:0:0:0:
448,192,96767,128,0,96928:0:0:0:0:
320,192,96928,128,0,97089:0:0:0:0:
192,192,97089,128,0,97251:0:0:0:0:
320,192,97251,128,2,97412:0:0:0:0:
448,192,97251,128,0,97896:0:0:0:0:
64,192,97412,128,0,97573:0:0:0:0:
192,192,97573,128,0,97734:0:0:0:0:
320,192,97734,128,0,97896:0:0:0:0:
64,192,97896,128,2,98541:0:0:0:0:
192,192,97896,128,0,98057:0:0:0:0:
448,192,98057,128,0,98218:0:0:0:0:
320,192,98218,128,0,98380:0:0:0:0:
192,192,98380,128,0,98541:0:0:0:0:
320,192,98541,128,2,98702:0:0:0:0:
448,192,98541,128,0,99186:0:0:0:0:
192,192,98702,128,0,98864:0:0:0:0:
64,192,98864,128,0,99025:0:0:0:0:
320,192,99025,128,0,99186:0:0:0:0:
64,192,99186,128,2,99831:0:0:0:0:
192,192,99186,128,0,99509:0:0:0:0:
448,192,99509,128,0,99831:0:0:0:0:
192,192,99831,1,2,0:0:0:0:
320,192,99831,128,0,99993:0:0:0:0:
64,192,99993,128,2,100154:0:0:0:0:
448,192,99993,1,0,0:0:0:0:
192,192,100154,128,8,100315:0:0:0:0:
320,192,100154,1,0,0:0:0:0:
448,192,100154,1,0,0:0:0:0:
320,192,100315,128,0,100638:0:0:0:0:
64,192,100476,128,4,101122:0:0:0:0:
192,192,100476,1,2,0:0:0:0:
448,192,100638,128,0,100799:0:0:0:0:
192,192,100799,128,0,100960:0:0:0:0:
320,192,100960,128,0,101122:0:0:0:0:
192,192,101122,128,2,101283:0:0:0:0:
448,192,101122,128,0,101767:0:0:0:0:
320,192,101283,128,0,101444:0:0:0:0:
64,192,101444,128,0,101605:0:0:0:0:
192,192,101605,128,0,101767:0:0:0:0:
64,192,101767,128,2,102412:0:0:0:0:
320,192,101767,128,0,101928:0:0:0:0:
192,192,101928,128,0,102089:0:0:0:0:
448,192,102089,128,0,102251:0:0:0:0:
320,192,102251,128,0,102412:0:0:0:0:
192,192,102412,128,2,102573:0:0:0:0:
448,192,102412,128,0,103057:0:0:0:0:
320,192,102573,128,0,102734:0:0:0:0:
64,192,102734,128,0,103057:0:0:0:0:
192,192,103057,128,2,103218:0:0:0:0:
320,192,103057,128,0,103702:0:0:0:0:
448,192,103218,128,0,103380:0:0:0:0:
64,192,103380,128,0,103541:0:0:0:0:
192,192,103541,128,0,103702:0:0:0:0:
64,192,103702,128,2,104347:0:0:0:0:
448,192,103702,128,0,103864:0:0:0:0:
320,192,103864,128,0,104025:0:0:0:0:
192,192,104025,128,0,104186:0:0:0:0:
448,192,104186,128,0,104347:0:0:0:0:
192,192,104347,128,2,104670:0:0:0:0:
320,192,104347,128,0,104670:0:0:0:70:cymbal.wav
448,192,104670,1,0,0:0:0:0:
448,192,104831,1,0,0:0:0:0:
64,192,104912,1,0,0:0:0:0:
448,192,104993,1,0,0:0:0:0:
448,192,105154,1,0,0:0:0:0:
448,192,105315,1,0,0:0:0:0:
448,192,105476,1,0,0:0:0:0:
64,192,105557,1,0,0:0:0:0:
192,192,105638,1,4,0:0:0:0:
320,192,105638,1,2,0:0:0:0:
448,192,105638,128,0,105960:0:0:0:0:
64,192,105960,128,8,106283:0:0:0:0:
192,192,105960,1,0,0:0:0:0:
320,192,105960,1,0,0:0:0:0:
448,192,106122,1,2,0:0:0:0:
192,192,106283,1,8,0:0:0:0:
320,192,106283,1,0,0:0:0:0:
448,192,106283,128,0,106444:0:0:0:0:
320,192,106444,128,2,106605:0:0:0:0:
64,192,106525,1,2,0:0:0:0:
192,192,106605,128,8,106767:0:0:0:0:
448,192,106605,1,0,0:0:0:0:
64,192,106767,128,2,106928:0:0:0:0:
448,192,106847,1,2,0:0:0:0:
192,192,106928,1,4,0:0:0:0:
320,192,106928,128,2,107089:0:0:0:0:
64,192,107089,1,2,0:0:0:0:
448,192,107089,128,0,107251:0:0:0:0:
64,192,107251,1,8,0:0:0:0:
192,192,107251,128,0,107412:0:0:0:0:
320,192,107251,1,0,0:0:0:0:
320,192,107412,128,2,107493:0:0:0:0:
64,192,107493,128,0,107573:0:0:0:0:
192,192,107573,1,8,0:0:0:0:
320,192,107573,1,0,0:0:0:0:
448,192,107573,128,0,107734:0:0:0:0:
192,192,107734,128,2,107896:0:0:0:0:
320,192,107815,1,2,0:0:0:0:
64,192,107896,128,8,108057:0:0:0:0:
448,192,107896,1,0,0:0:0:0:
192,192,108057,1,2,0:0:0:0:
320,192,108057,128,0,108380:0:0:0:0:
64,192,108138,1,2,0:0:0:0:
192,192,108218,1,2,0:0:0:0:
448,192,108218,1,4,0:0:0:0:
64,192,108380,128,0,108541:0:0:0:0:
192,192,108541,128,8,108702:0:0:0:0:
320,192,108541,1,0,0:0:0:0:
448,192,108541,1,0,0:0:0:0:
64,192,108702,1,2,0:0:0:0:
320,192,108702,128,0,108864:0:0:0:0:
64,192,108864,1,8,0:0:0:0:
192,192,108864,1,0,0:0:0:0:
448,192,108864,128,0,109025:0:0:0:0:
192,192,109025,128,2,109186:0:0:0:0:
64,192,109105,1,2,0:0:0:0:
320,192,109186,128,8,109347:0:0:0:0:
448,192,109186,1,0,0:0:0:0:
64,192,109347,128,2,109509:0:0:0:0:
320,192,109428,1,2,0:0:0:0:
192,192,109509,1,2,0:0:0:0:
448,192,109509,128,4,109589:0:0:0:0:
320,192,109589,128,0,109670:0:0:0:0:
64,192,109670,1,2,0:0:0:0:
448,192,109670,128,0,109831:0:0:0:0:
64,192,109831,1,8,0:0:0:0:
192,192,109831,128,0,109993:0:0:0:0:
320,192,109831,1,0,0:0:0:0:
64,192,109993,128,2,110638:0:0:0:0:
448,192,109993,1,0,0:0:0:0:
320,192,110154,1,8,0:0:0:0:
448,192,110154,1,0,0:0:0:0:
192,192,110315,1,2,0:0:0:0:
320,192,110396,1,2,0:0:0:0:
192,192,110476,1,8,0:0:0:0:
448,192,110476,1,0,0:0:0:0:
320,192,110638,1,2,0:0:0:0:
192,192,110718,1,2,0:0:0:0:
64,192,110799,1,4,0:0:0:0:
448,192,110799,128,2,110880:0:0:0:0:
320,192,110880,128,0,110960:0:0:0:0:
192,192,110960,128,0,111041:0:0:0:0:
448,192,111041,128,0,111122:0:0:0:0:
64,192,111122,128,8,111202:0:0:0:0:
192,192,111122,1,2,0:0:0:0:
320,192,111202,128,0,111283:0:0:0:0:
64,192,111283,128,0,111364:0:0:0:0:
320,192,111364,128,0,111444:0:0:0:0:
192,192,111444,128,2,111525:0:0:0:0:
448,192,111444,1,0,0:0:0:0:
64,192,111525,128,0,111605:0:0:0:0:
448,192,111605,128,0,111686:0:0:0:0:
192,192,111686,128,0,111767:0:0:0:0:
64,192,111767,1,2,0:0:0:0:
448,192,111767,128,8,111847:0:0:0:0:
192,192,111847,128,0,111928:0:0:0:0:
320,192,111928,1,0,0:0:0:0:
448,192,111968,128,0,112089:0:0:0:0:
192,192,112089,1,2,0:0:0:0:
320,192,112089,1,0,0:0:0:0:
64,192,112130,128,0,112251:0:0:0:0:
320,192,112251,128,0,112331:0:0:0:0:
192,192,112331,128,0,112412:0:0:0:0:
64,192,112412,1,2,0:0:0:0:
448,192,112412,128,8,112493:0:0:0:0:
320,192,112493,128,0,112573:0:0:0:0:
192,192,112573,128,0,112654:0:0:0:0:
64,192,112654,128,0,112734:0:0:0:0:
192,192,112734,1,2,0:0:0:0:
448,192,112734,128,0,112896:0:0:0:0:
320,192,112896,128,0,113057:0:0:0:0:
64,192,113057,1,2,0:0:0:0:
192,192,113057,128,8,113218:0:0:0:0:
448,192,113057,1,0,0:0:0:0:
64,192,113218,128,0,113541:0:0:0:0:
448,192,113380,1,2,0:0:0:0:
320,192,113541,128,0,113702:0:0:0:0:
64,192,113702,1,8,0:0:0:0:
192,192,113702,128,2,113864:0:0:0:0:
448,192,113702,1,0,0:0:0:0:
448,192,113864,128,0,114025:0:0:0:0:
64,192,114025,128,2,114186:0:0:0:0:
192,192,114025,1,0,0:0:0:0:
320,192,114186,128,0,114347:0:0:0:0:
64,192,114347,1,2,0:0:0:0:
192,192,114347,128,8,114509:0:0:0:0:
448,192,114347,1,0,0:0:0:0:
448,192,114509,128,0,114670:0:0:0:0:
192,192,114670,1,2,0:0:0:0:
320,192,114670,128,0,114831:0:0:0:0:
64,192,114831,128,0,114993:0:0:0:0:
192,192,114993,1,2,0:0:0:0:
320,192,114993,1,8,0:0:0:0:
448,192,114993,128,0,115154:0:0:0:0:
64,192,115154,128,0,115315:0:0:0:0:
192,192,115315,128,2,115799:0:0:0:0:
448,192,115315,1,0,0:0:0:0:
64,192,115476,1,8,0:0:0:0:
320,192,115476,1,0,0:0:0:0:
448,192,115476,1,0,0:0:0:0:
64,192,115638,1,8,0:0:0:0:
320,192,115638,1,0,0:0:0:0:
448,192,115638,1,0,0:0:0:0:
320,192,115799,128,8,115880:0:0:0:0:
448,192,115799,1,0,0:0:0:0:
64,192,115880,128,8,115960:0:0:0:0:
192,192,115880,1,0,0:0:0:0:
320,192,115960,1,2,0:0:0:0:
448,192,115960,128,4,116444:0:0:0:0:
64,192,116283,1,8,0:0:0:0:
192,192,116283,1,0,0:0:0:0:
320,192,116283,1,0,0:0:0:0:
64,192,116444,1,2,0:0:0:0:
192,192,116444,128,0,116605:0:0:0:0:
64,192,116605,128,8,117089:0:0:0:0:
320,192,116605,1,0,0:0:0:0:
448,192,116605,1,0,0:0:0:0:
192,192,116767,1,2,0:0:0:0:
448,192,116847,1,2,0:0:0:0:
192,192,116928,1,8,0:0:0:0:
320,192,116928,1,0,0:0:0:0:
320,192,117089,1,2,0:0:0:0:
448,192,117089,1,0,0:0:0:0:
192,192,117170,1,2,0:0:0:0:
64,192,117251,128,2,117573:0:0:0:0:
448,192,117251,1,4,0:0:0:0:
320,192,117412,1,2,0:0:0:0:
192,192,117573,1,8,0:0:0:0:
320,192,117573,1,0,0:0:0:0:
448,192,117573,128,0,117896:0:0:0:0:
192,192,117734,1,2,0:0:0:0:
64,192,117896,128,8,118218:0:0:0:0:
192,192,117896,1,0,0:0:0:0:
320,192,117896,1,0,0:0:0:0:
448,192,118057,1,2,0:0:0:0:
320,192,118138,1,2,0:0:0:0:
192,192,118218,128,8,118541:0:0:0:0:
448,192,118218,1,0,0:0:0:0:
320,192,118380,1,2,0:0:0:0:
448,192,118460,1,2,0:0:0:0:
64,192,118541,1,4,0:0:0:0:
320,192,118541,128,2,119025:0:0:0:0:
192,192,118864,1,8,0:0:0:0:
448,192,118864,1,0,0:0:0:0:
64,192,119025,1,2,0:0:0:0:
192,192,119025,128,0,119186:0:0:0:0:
64,192,119186,1,8,0:0:0:0:
320,192,119186,1,0,0:0:0:0:
448,192,119186,128,0,119509:0:0:0:0:
192,192,119347,1,2,0:0:0:0:
320,192,119428,1,2,0:0:0:0:
64,192,119509,1,8,0:0:0:0:
192,192,119509,128,0,119589:0:0:0:0:
320,192,119589,128,0,119670:0:0:0:0:
64,192,119670,128,2,119751:0:0:0:0:
448,192,119670,1,0,0:0:0:0:
192,192,119751,128,2,119831:0:0:0:0:
320,192,119751,1,0,0:0:0:0:
64,192,119831,1,4,0:0:0:0:
448,192,119831,128,2,119912:0:0:0:0:
320,192,119912,128,0,119993:0:0:0:0:
192,192,119993,128,2,120073:0:0:0:0:
448,192,119993,1,0,0:0:0:0:
64,192,120073,128,0,120154:0:0:0:0:
192,192,120154,1,8,0:0:0:0:
320,192,120154,1,0,0:0:0:0:
448,192,120154,128,0,120315:0:0:0:0:
64,192,120315,128,2,120799:0:0:0:0:
192,192,120315,1,0,0:0:0:0:
192,192,120476,1,8,0:0:0:0:
320,192,120476,1,0,0:0:0:0:
448,192,120638,1,2,0:0:0:0:
192,192,120718,1,2,0:0:0:0:
320,192,120799,1,8,0:0:0:0:
448,192,120799,1,0,0:0:0:0:
64,192,120960,1,2,0:0:0:0:
192,192,120960,1,0,0:0:0:0:
320,192,121041,1,2,0:0:0:0:
64,192,121122,1,2,0:0:0:0:
448,192,121122,128,4,121605:0:0:0:0:
64,192,121444,1,2,0:0:0:0:
192,192,121444,1,8,0:0:0:0:
320,192,121605,128,0,121686:0:0:0:0:
192,192,121686,128,0,121767:0:0:0:0:
64,192,121767,128,2,122251:0:0:0:0:
448,192,121767,1,0,0:0:0:0:
320,192,121928,1,0,0:0:0:0:
192,192,122089,1,8,0:0:0:0:
448,192,122089,1,2,0:0:0:0:
448,192,122251,1,0,0:0:0:0:
192,192,122412,1,2,0:0:0:0:
320,192,122412,128,0,122896:0:0:0:0:
64,192,122573,1,0,0:0:0:0:
64,192,122734,1,8,0:0:0:0:
448,192,122734,1,2,0:0:0:0:
192,192,122896,128,0,122976:0:0:0:0:
192,192,123057,128,2,123541:0:0:0:0:
320,192,123057,1,0,0:0:0:0:
64,192,123218,1,0,0:0:0:0:
320,192,123380,1,8,0:0:0:0:
448,192,123380,1,2,0:0:0:0:
64,192,123541,1,0,0:0:0:0:
320,192,123702,1,4,0:0:0:0:
448,192,123702,128,2,124186:0:0:0:0:
64,192,124025,1,8,0:0:0:0:
320,192,124025,1,0,0:0:0:0:
192,192,124186,128,2,124267:0:0:0:0:
320,192,124186,1,0,0:0:0:0:
192,192,124347,128,8,124831:0:0:0:0:
320,192,124347,1,0,0:0:0:0:
448,192,124347,1,0,0:0:0:0:
64,192,124509,1,2,0:0:0:0:
320,192,124589,1,2,0:0:0:0:
64,192,124670,1,8,0:0:0:0:
448,192,124670,1,0,0:0:0:0:
320,192,124831,1,2,0:0:0:0:
448,192,124831,1,0,0:0:0:0:
192,192,124912,1,2,0:0:0:0:
64,192,124993,1,4,0:0:0:0:
320,192,124993,1,2,0:0:0:0:
64,192,125154,1,8,0:0:0:0:
192,192,125154,1,0,0:0:0:0:
448,192,125154,1,0,0:0:0:0:
320,192,125315,1,2,0:0:0:0:
192,192,125396,1,2,0:0:0:0:
64,192,125476,1,8,0:0:0:0:
320,192,125476,1,0,0:0:0:0:
448,192,125476,1,0,0:0:0:0:
192,192,125638,1,2,0:0:0:0:
320,192,125718,1,2,0:0:0:0:
64,192,125799,1,8,0:0:0:0:
192,192,125799,1,0,0:0:0:0:
448,192,125799,1,0,0:0:0:0:
320,192,125880,1,8,0:0:0:0:
64,192,125960,1,8,0:0:0:0:
192,192,125960,1,0,0:0:0:0:
320,192,126041,1,8,0:0:0:0:
448,192,126041,1,0,0:0:0:0:
64,192,126122,1,8,0:0:0:0:
192,192,126122,1,0,0:0:0:0:
320,192,126202,1,8,0:0:0:0:
448,192,126202,1,0,0:0:0:0:
192,192,126283,128,0,126928:0:0:0:0:
64,192,126928,1,4,0:0:0:0:
448,192,126928,128,2,127250:0:0:0:0:
320,192,127089,1,0,0:0:0:0:
64,192,127250,128,2,127573:0:0:0:0:
192,192,127250,1,0,0:0:0:0:
448,192,127411,1,0,0:0:0:0:
192,192,127573,1,2,0:0:0:0:
320,192,127573,128,0,127734:0:0:0:0:
64,192,127734,128,0,127895:0:0:0:0:
320,192,127895,1,2,0:0:0:0:
448,192,127895,128,0,128057:0:0:0:0:
192,192,128057,128,0,128218:0:0:0:0:
64,192,128218,1,2,0:0:0:0:
320,192,128218,128,0,128379:0:0:0:0:
448,192,128379,128,0,128540:0:0:0:0:
64,192,128540,128,2,128702:0:0:0:0:
192,192,128540,1,0,0:0:0:0:
320,192,128702,128,0,128863:0:0:0:0:
64,192,128863,1,2,0:0:0:0:
448,192,128863,128,0,129024:0:0:0:0:
320,192,129024,128,0,129186:0:0:0:0:
192,192,129105,1,0,0:0:0:0:
64,192,129186,128,2,129347:0:0:0:0:
448,192,129186,1,0,0:0:0:0:
192,192,129347,1,8,0:0:0:0:
320,192,129347,1,0,0:0:0:0:
64,192,129508,1,4,0:0:0:0:
320,192,129508,128,2,129831:0:0:0:0:
64,192,129831,1,2,0:0:0:0:
192,192,129831,1,0,0:0:0:0:
448,192,129992,128,0,130153:0:0:0:0:
64,192,130153,1,2,0:0:0:0:
192,192,130153,128,0,130476:0:0:0:0:
320,192,130315,1,0,0:0:0:0:
64,192,130476,1,2,0:0:0:0:
448,192,130476,128,0,130637:0:0:0:0:
320,192,130637,128,0,130798:0:0:0:0:
64,192,130798,128,2,130960:0:0:0:0:
448,192,130798,1,0,0:0:0:0:
192,192,130960,128,0,131121:0:0:0:0:
320,192,131121,1,2,0:0:0:0:
448,192,131121,128,0,131282:0:0:0:0:
64,192,131282,128,0,131444:0:0:0:0:
192,192,131444,1,2,0:0:0:0:
320,192,131444,128,0,131766:0:0:0:0:
64,192,131605,1,8,0:0:0:0:
192,192,131686,1,8,0:0:0:0:
64,192,131766,1,2,0:0:0:0:
448,192,131766,1,0,0:0:0:0:
192,192,131928,1,8,0:0:0:0:
320,192,131928,1,0,0:0:0:0:
64,192,132089,1,4,0:0:0:0:
448,192,132089,128,2,132411:0:0:0:0:
320,192,132250,1,0,0:0:0:0:
64,192,132411,128,2,132734:0:0:0:0:
192,192,132411,1,0,0:0:0:0:
320,192,132573,1,0,0:0:0:0:
192,192,132734,1,2,0:0:0:0:
448,192,132734,128,0,132895:0:0:0:0:
64,192,132895,128,0,133057:0:0:0:0:
320,192,133057,128,2,133218:0:0:0:0:
448,192,133057,1,0,0:0:0:0:
192,192,133218,128,0,133379:0:0:0:0:
320,192,133379,1,2,0:0:0:0:
448,192,133379,128,0,133540:0:0:0:0:
64,192,133540,128,0,133702:0:0:0:0:
192,192,133702,1,2,0:0:0:0:
320,192,133702,128,0,133863:0:0:0:0:
448,192,133863,128,0,134024:0:0:0:0:
64,192,134024,1,2,0:0:0:0:
192,192,134024,128,0,134186:0:0:0:0:
320,192,134186,128,0,134347:0:0:0:0:
64,192,134266,1,0,0:0:0:0:
192,192,134347,1,2,0:0:0:0:
448,192,134347,128,0,134508:0:0:0:0:
64,192,134508,1,8,0:0:0:0:
192,192,134508,1,0,0:0:0:0:
320,192,134589,1,0,0:0:0:0:
64,192,134669,128,4,134831:0:0:0:0:
448,192,134669,1,2,0:0:0:0:
320,192,134831,128,0,134992:0:0:0:0:
64,192,134992,1,2,0:0:0:0:
192,192,134992,128,0,135153:0:0:0:0:
448,192,135153,128,0,135315:0:0:0:0:
192,192,135315,1,2,0:0:0:0:
320,192,135315,128,0,135476:0:0:0:0:
64,192,135476,128,8,135637:0:0:0:0:
448,192,135476,1,0,0:0:0:0:
192,192,135637,128,2,135960:0:0:0:0:
320,192,135637,1,0,0:0:0:0:
448,192,135798,1,8,0:0:0:0:
320,192,135879,1,8,0:0:0:0:
64,192,135960,128,2,136121:0:0:0:0:
448,192,135960,128,0,136121:0:0:0:70:cymbal.wav
64,192,136282,128,2,136444:0:0:0:0:
448,192,136282,128,0,136444:0:0:0:70:cymbal.wav
64,192,136605,128,2,136766:0:0:0:0:
448,192,136605,128,0,136766:0:0:0:70:cymbal.wav
64,192,137250,1,2,0:0:0:0:
192,192,137250,1,0,0:0:0:0:
448,192,137573,1,0,0:0:0:0:
64,192,137895,1,2,0:0:0:0:
320,192,137895,128,0,138218:0:0:0:0:
192,192,138218,128,0,138540:0:0:0:0:
64,192,138540,128,2,138863:0:0:0:0:
448,192,138540,1,0,0:0:0:0:
320,192,138863,128,0,139186:0:0:0:0:
448,192,139024,1,0,0:0:0:0:
64,192,139186,1,2,0:0:0:0:
192,192,139186,128,0,139508:0:0:0:0:
448,192,139508,128,0,139831:0:0:0:0:
64,192,139831,128,2,140476:0:0:0:0:
320,192,139831,1,0,0:0:0:0:
192,192,140153,1,0,0:0:0:0:
320,192,140476,1,2,0:0:0:0:
448,192,140476,128,0,141121:0:0:0:0:
192,192,140798,1,0,0:0:0:0:
64,192,141121,128,2,141766:0:0:0:0:
320,192,141121,1,0,0:0:0:0:
448,192,141444,1,0,0:0:0:0:
448,192,141605,1,0,0:0:0:0:
192,192,141766,1,2,0:0:0:0:
320,192,141766,1,0,0:0:0:0:
448,192,142089,128,0,142411:0:0:0:0:
192,192,142411,128,2,142895:0:0:0:0:
320,192,142411,1,0,0:0:0:0:
448,192,142734,1,0,0:0:0:0:
64,192,142895,128,0,143057:0:0:0:0:
320,192,143057,1,2,0:0:0:0:
448,192,143057,128,0,143379:0:0:0:0:
64,192,143379,1,0,0:0:0:0:
192,192,143540,128,0,143702:0:0:0:0:
64,192,143702,128,2,143863:0:0:0:0:
320,192,143702,1,0,0:0:0:0:
448,192,143863,128,0,144024:0:0:0:0:
320,192,144024,128,0,144186:0:0:0:0:
192,192,144186,128,0,144347:0:0:0:0:
64,192,144347,128,2,144669:0:0:0:0:
448,192,144347,1,0,0:0:0:0:
448,192,144669,128,0,144992:0:0:0:0:
64,192,144992,128,2,145315:0:0:0:0:
320,192,144992,1,0,0:0:0:0:
448,192,145315,128,0,145637:0:0:0:0:
64,192,145637,1,2,0:0:0:0:
192,192,145637,1,0,0:0:0:0:
320,192,145637,128,0,145960:0:0:0:0:
192,192,145960,128,0,146282:0:0:0:0:
448,192,146121,1,2,0:0:0:0:
320,192,146202,1,2,0:0:0:0:
64,192,146282,1,2,0:0:0:0:
448,192,146282,1,4,0:0:0:0:
64,192,146444,1,8,0:0:0:0:
192,192,146444,1,0,0:0:0:0:
320,192,146444,1,0,0:0:0:0:
448,192,146605,1,2,0:0:0:0:
320,192,146686,1,2,0:0:0:0:
64,192,146766,128,8,146927:0:0:0:0:
192,192,146766,1,0,0:0:0:0:
448,192,146766,1,0,0:0:0:0:
320,192,146927,128,0,147089:0:0:0:0:
192,192,147089,128,2,147250:0:0:0:0:
64,192,147250,1,8,0:0:0:0:
320,192,147250,1,0,0:0:0:0:
448,192,147250,1,0,0:0:0:0:
64,192,147411,1,8,0:0:0:0:
192,192,147492,1,8,0:0:0:0:
320,192,147573,1,4,0:0:0:0:
448,192,147573,1,2,0:0:0:0:
64,192,147734,1,0,0:0:0:0:
64,192,147895,1,8,0:0:0:0:
192,192,147895,1,0,0:0:0:0:
320,192,147895,1,0,0:0:0:0:
448,192,148057,1,0,0:0:0:0:
64,192,148218,1,2,0:0:0:0:
192,192,148218,128,0,148540:0:0:0:0:
448,192,148379,1,2,0:0:0:0:
64,192,148540,1,8,0:0:0:0:
320,192,148540,1,0,0:0:0:0:
448,192,148540,128,0,148863:0:0:0:0:
192,192,148702,1,0,0:0:0:0:
64,192,148863,128,2,149186:0:0:0:0:
320,192,148863,1,0,0:0:0:0:
448,192,149024,1,0,0:0:0:0:
192,192,149186,1,8,0:0:0:0:
320,192,149186,128,0,149508:0:0:0:0:
448,192,149186,1,0,0:0:0:0:
64,192,149347,1,0,0:0:0:0:
64,192,149508,1,2,0:0:0:0:
192,192,149508,128,0,149831:0:0:0:0:
448,192,149669,1,2,0:0:0:0:
64,192,149831,1,8,0:0:0:0:
320,192,149831,1,0,0:0:0:0:
448,192,149831,128,0,150153:0:0:0:0:
192,192,149992,1,0,0:0:0:0:
64,192,150153,1,2,0:0:0:0:
192,192,150153,1,0,0:0:0:0:
320,192,150153,128,0,150798:0:0:0:0:
448,192,150315,1,0,0:0:0:0:
64,192,150476,1,8,0:0:0:0:
192,192,150476,1,0,0:0:0:0:
448,192,150637,1,0,0:0:0:0:
64,192,150798,1,2,0:0:0:0:
192,192,150798,128,0,151444:0:0:0:0:
448,192,150960,1,2,0:0:0:0:
64,192,151121,1,8,0:0:0:0:
448,192,151121,1,0,0:0:0:0:
320,192,151282,1,0,0:0:0:0:
64,192,151444,1,2,0:0:0:0:
448,192,151444,128,0,152089:0:0:0:0:
320,192,151605,1,0,0:0:0:0:
64,192,151766,1,8,0:0:0:0:
192,192,151766,1,0,0:0:0:0:
64,192,151927,1,0,0:0:0:0:
192,192,152089,1,2,0:0:0:0:
320,192,152089,1,0,0:0:0:0:
64,192,152250,1,2,0:0:0:0:
448,192,152250,1,0,0:0:0:0:
192,192,152411,128,8,152734:0:0:0:0:
320,192,152411,1,0,0:0:0:0:
448,192,152411,1,0,0:0:0:0:
64,192,152573,1,8,0:0:0:0:
64,192,152734,1,2,0:0:0:0:
320,192,152734,128,0,153218:0:0:0:70:cymbal.wav
448,192,152734,1,0,0:0:0:0:
448,192,153218,128,0,153379:0:0:0:0:
64,192,153379,128,2,153702:0:0:0:0:
192,192,153379,1,0,0:0:0:70:cymbal.wav
320,192,153379,1,0,0:0:0:0:
320,192,153863,128,0,154024:0:0:0:0:
64,192,154024,1,2,0:0:0:0:
192,192,154024,1,0,0:0:0:70:cymbal.wav
448,192,154024,128,0,154186:0:0:0:0:
192,192,154186,128,0,154347:0:0:0:0:
64,192,154347,128,0,154508:0:0:0:0:
320,192,154508,128,0,154669:0:0:0:0:
64,192,154669,1,2,0:0:0:0:
192,192,154669,1,0,0:0:0:70:cymbal.wav
448,192,154669,128,0,154992:0:0:0:0:
192,192,154992,128,0,155315:0:0:0:0:
64,192,155315,1,2,0:0:0:0:
320,192,155315,128,0,155637:0:0:0:70:cymbal.wav
448,192,155315,1,0,0:0:0:0:
64,192,155637,128,0,155960:0:0:0:0:
192,192,155960,128,2,156282:0:0:0:0:
320,192,155960,1,0,0:0:0:70:cymbal.wav
448,192,155960,1,0,0:0:0:0:
320,192,156282,128,0,156605:0:0:0:0:
64,192,156605,1,2,0:0:0:0:
192,192,156605,1,4,0:0:0:0:
448,192,156605,128,0,157895:0:0:0:0:
64,192,157734,1,0,0:0:0:0:
192,192,157815,1,0,0:0:0:0:
64,192,157895,1,2,0:0:0:0:
320,192,157895,1,0,0:0:0:0:
320,192,158057,1,0,0:0:0:0:
192,192,158218,1,2,0:0:0:0:
448,192,158218,1,0,0:0:0:0:
192,192,158379,1,0,0:0:0:0:
64,192,158540,1,2,0:0:0:0:
448,192,158540,1,0,0:0:0:0:
320,192,158621,1,2,0:0:0:0:
192,192,158702,1,2,0:0:0:0:
448,192,158782,1,2,0:0:0:0:
64,192,158863,1,2,0:0:0:0:
192,192,158863,1,8,0:0:0:0:
320,192,158944,1,2,0:0:0:0:
448,192,158944,1,8,0:0:0:0:
64,192,159024,1,2,0:0:0:0:
192,192,159024,1,8,0:0:0:0:
320,192,159105,1,2,0:0:0:0:
448,192,159105,1,8,0:0:0:0:
192,192,159831,1,2,0:0:0:0:
320,192,159831,1,4,0:0:0:0:
448,192,159831,1,0,0:0:0:0:
192,192,159992,1,0,0:0:0:0:
64,192,160153,1,8,0:0:0:0:
320,192,160153,1,0,0:0:0:0:
448,192,160153,1,0,0:0:0:0:
192,192,160314,1,2,0:0:0:0:
64,192,160476,1,8,0:0:0:0:
320,192,160476,1,0,0:0:0:0:
448,192,160476,1,0,0:0:0:0:
192,192,160637,1,2,0:0:0:0:
320,192,160718,1,2,0:0:0:0:
64,192,160798,1,8,0:0:0:0:
448,192,160798,1,0,0:0:0:0:
192,192,160960,1,2,0:0:0:0:
320,192,161040,1,2,0:0:0:0:
64,192,161121,1,2,0:0:0:0:
448,192,161121,1,4,0:0:0:0:
192,192,161282,1,2,0:0:0:0:
64,192,161443,1,8,0:0:0:0:
320,192,161443,1,0,0:0:0:0:
448,192,161443,1,0,0:0:0:0:
64,192,161605,1,2,0:0:0:0:
192,192,161605,1,0,0:0:0:0:
192,192,161766,1,8,0:0:0:0:
320,192,161766,1,0,0:0:0:0:
448,192,161766,1,0,0:0:0:0:
64,192,161927,1,2,0:0:0:0:
320,192,162008,1,2,0:0:0:0:
64,192,162089,1,8,0:0:0:0:
192,192,162089,1,0,0:0:0:0:
448,192,162089,1,0,0:0:0:0:
320,192,162250,1,2,0:0:0:0:
192,192,162331,1,2,0:0:0:0:
64,192,162411,1,4,0:0:0:0:
448,192,162411,1,2,0:0:0:0:
192,192,162734,1,8,0:0:0:0:
320,192,162734,1,0,0:0:0:0:
448,192,162734,1,0,0:0:0:0:
64,192,162895,1,2,0:0:0:0:
192,192,162895,1,0,0:0:0:0:
64,192,163056,1,8,0:0:0:0:
320,192,163056,1,0,0:0:0:0:
448,192,163056,1,0,0:0:0:0:
192,192,163218,1,2,0:0:0:0:
320,192,163298,1,2,0:0:0:0:
64,192,163379,1,8,0:0:0:0:
192,192,163379,1,0,0:0:0:0:
448,192,163379,1,0,0:0:0:0:
320,192,163540,1,2,0:0:0:0:
192,192,163621,1,2,0:0:0:0:
64,192,163701,1,4,0:0:0:0:
448,192,163701,1,2,0:0:0:0:
192,192,163863,1,2,0:0:0:0:
320,192,163863,1,0,0:0:0:0:
64,192,164024,1,8,0:0:0:0:
192,192,164024,1,0,0:0:0:0:
448,192,164024,1,0,0:0:0:0:
64,192,164185,1,2,0:0:0:0:
320,192,164185,1,0,0:0:0:0:
192,192,164347,1,8,0:0:0:0:
320,192,164347,1,0,0:0:0:0:
448,192,164347,1,0,0:0:0:0:
64,192,164508,1,2,0:0:0:0:
192,192,164589,1,2,0:0:0:0:
64,192,164669,1,8,0:0:0:0:
320,192,164669,1,0,0:0:0:0:
448,192,164669,1,0,0:0:0:0:
192,192,164831,1,2,0:0:0:0:
320,192,164911,1,2,0:0:0:0:
64,192,164992,128,2,165314:0:0:0:0:
448,192,164992,1,4,0:0:0:0:
320,192,165153,1,0,0:0:0:0:
192,192,165314,1,8,0:0:0:0:
320,192,165314,1,2,0:0:0:0:
448,192,165314,128,0,165637:0:0:0:0:
64,192,165476,1,0,0:0:0:0:
192,192,165637,128,2,165960:0:0:0:0:
320,192,165637,1,0,0:0:0:0:
448,192,165798,1,0,0:0:0:0:
64,192,165960,1,2,0:0:0:0:
320,192,165960,128,8,166121:0:0:0:0:
448,192,165960,1,0,0:0:0:0:
192,192,166121,128,0,166282:0:0:0:0:
64,192,166282,1,2,0:0:0:0:
448,192,166282,128,0,166605:0:0:0:0:
320,192,166443,1,0,0:0:0:0:
64,192,166605,128,2,166927:0:0:0:0:
192,192,166605,1,8,0:0:0:0:
320,192,166605,1,0,0:0:0:0:
448,192,166766,1,0,0:0:0:0:
192,192,166927,1,2,0:0:0:0:
320,192,166927,128,0,167250:0:0:0:0:
64,192,167089,1,0,0:0:0:0:
64,192,167250,1,8,0:0:0:0:
192,192,167250,128,2,167572:0:0:0:0:
448,192,167250,1,0,0:0:0:0:
448,192,167411,1,0,0:0:0:0:
64,192,167572,128,2,167734:0:0:0:0:
320,192,167572,1,0,0:0:0:0:
448,192,167734,128,0,167895:0:0:0:0:
64,192,167895,1,8,0:0:0:0:
192,192,167895,128,2,168056:0:0:0:0:
320,192,167895,1,0,0:0:0:0:
320,192,168056,128,0,168218:0:0:0:0:
64,192,168218,128,2,168379:0:0:0:0:
448,192,168218,1,0,0:0:0:0:
192,192,168379,128,0,168540:0:0:0:0:
64,192,168540,1,8,0:0:0:0:
320,192,168540,1,0,0:0:0:0:
448,192,168540,128,0,168701:0:0:0:0:
320,192,168701,128,0,168863:0:0:0:0:
64,192,168863,1,2,0:0:0:0:
192,192,168863,128,0,169024:0:0:0:0:
448,192,169024,128,0,169185:0:0:0:0:
64,192,169185,128,8,169347:0:0:0:0:
192,192,169185,1,0,0:0:0:0:
320,192,169185,1,0,0:0:0:0:
320,192,169347,128,0,169508:0:0:0:0:
64,192,169508,1,2,0:0:0:0:
192,192,169508,1,0,0:0:0:0:
64,192,169669,1,8,0:0:0:0:
320,192,169669,1,0,0:0:0:0:
448,192,169669,1,0,0:0:0:0:
64,192,169831,1,8,0:0:0:0:
192,192,169831,1,0,0:0:0:0:
448,192,169831,1,0,0:0:0:0:
320,192,169992,1,8,0:0:0:0:
448,192,169992,1,0,0:0:0:0:
64,192,170072,1,8,0:0:0:0:
192,192,170072,1,0,0:0:0:0:
320,192,170153,1,2,0:0:0:0:
448,192,170153,1,4,0:0:0:0:
192,192,170314,1,0,0:0:0:0:
64,192,170476,1,8,0:0:0:0:
320,192,170476,1,0,0:0:0:0:
448,192,170476,1,0,0:0:0:0:
192,192,170637,1,2,0:0:0:0:
320,192,170637,1,0,0:0:0:0:
64,192,170798,1,8,0:0:0:0:
192,192,170798,1,0,0:0:0:0:
448,192,170798,1,0,0:0:0:0:
320,192,170960,1,2,0:0:0:0:
192,192,171040,1,2,0:0:0:0:
64,192,171121,1,8,0:0:0:0:
320,192,171121,1,0,0:0:0:0:
448,192,171121,1,0,0:0:0:0:
192,192,171282,1,2,0:0:0:0:
320,192,171363,1,2,0:0:0:0:
64,192,171443,1,2,0:0:0:0:
448,192,171443,1,4,0:0:0:0:
192,192,171605,1,2,0:0:0:0:
320,192,171605,1,0,0:0:0:0:
64,192,171766,1,8,0:0:0:0:
320,192,171766,1,0,0:0:0:0:
448,192,171766,1,0,0:0:0:0:
64,192,171927,1,2,0:0:0:0:
192,192,171927,1,0,0:0:0:0:
192,192,172089,1,8,0:0:0:0:
320,192,172089,1,0,0:0:0:0:
448,192,172089,1,0,0:0:0:0:
64,192,172250,1,2,0:0:0:0:
320,192,172331,1,2,0:0:0:0:
64,192,172411,1,8,0:0:0:0:
192,192,172411,1,0,0:0:0:0:
448,192,172411,1,0,0:0:0:0:
320,192,172572,1,2,0:0:0:0:
192,192,172653,1,2,0:0:0:0:
64,192,172734,1,2,0:0:0:0:
448,192,172734,1,4,0:0:0:0:
64,192,173056,1,8,0:0:0:0:
320,192,173056,1,0,0:0:0:0:
448,192,173056,1,0,0:0:0:0:
192,192,173218,1,2,0:0:0:0:
320,192,173218,1,0,0:0:0:0:
64,192,173379,1,8,0:0:0:0:
192,192,173379,1,0,0:0:0:0:
448,192,173379,1,0,0:0:0:0:
320,192,173540,1,2,0:0:0:0:
192,192,173621,1,2,0:0:0:0:
64,192,173701,1,8,0:0:0:0:
320,192,173701,1,0,0:0:0:0:
448,192,173701,1,0,0:0:0:0:
192,192,173863,1,2,0:0:0:0:
320,192,173943,1,2,0:0:0:0:
64,192,174024,1,2,0:0:0:0:
448,192,174024,1,4,0:0:0:0:
192,192,174185,1,2,0:0:0:0:
320,192,174185,1,0,0:0:0:0:
64,192,174347,1,8,0:0:0:0:
192,192,174347,1,0,0:0:0:0:
448,192,174347,1,0,0:0:0:0:
320,192,174508,1,2,0:0:0:0:
448,192,174508,1,0,0:0:0:0:
64,192,174669,1,8,0:0:0:0:
192,192,174669,1,0,0:0:0:0:
320,192,174669,1,0,0:0:0:0:
448,192,174831,1,2,0:0:0:0:
192,192,174911,1,2,0:0:0:0:
64,192,174992,1,8,0:0:0:0:
320,192,174992,1,0,0:0:0:0:
448,192,174992,1,0,0:0:0:0:
192,192,175153,1,2,0:0:0:0:
320,192,175234,1,2,0:0:0:0:
64,192,175314,1,4,0:0:0:0:
448,192,175314,1,2,0:0:0:0:
192,192,175476,1,0,0:0:0:0:
64,192,175637,1,8,0:0:0:0:
320,192,175637,128,2,175960:0:0:0:0:
448,192,175637,1,0,0:0:0:0:
192,192,175798,1,0,0:0:0:0:
64,192,175960,128,2,176282:0:0:0:0:
448,192,175960,1,0,0:0:0:0:
192,192,176121,1,0,0:0:0:0:
192,192,176282,1,2,0:0:0:0:
320,192,176282,1,8,0:0:0:0:
448,192,176282,128,0,176605:0:0:0:0:
320,192,176443,1,0,0:0:0:0:
64,192,176605,128,2,176927:0:0:0:0:
192,192,176605,1,0,0:0:0:0:
320,192,176766,1,0,0:0:0:0:
192,192,176927,1,2,0:0:0:0:
320,192,176927,128,8,177250:0:0:0:0:
448,192,176927,1,0,0:0:0:0:
64,192,177089,1,0,0:0:0:0:
64,192,177250,1,2,0:0:0:0:
192,192,177250,128,0,177572:0:0:0:0:
448,192,177411,1,0,0:0:0:0:
64,192,177572,1,2,0:0:0:0:
320,192,177572,1,8,0:0:0:0:
448,192,177572,128,0,177895:0:0:0:0:
192,192,177734,1,0,0:0:0:0:
64,192,177895,1,2,0:0:0:0:
320,192,177895,1,4,0:0:0:0:
192,192,178056,1,0,0:0:0:0:
64,192,178218,1,8,0:0:0:0:
320,192,178218,1,0,0:0:0:0:
448,192,178218,1,0,0:0:0:0:
192,192,178379,1,2,0:0:0:0:
320,192,178379,1,0,0:0:0:0:
64,192,178540,1,8,0:0:0:0:
192,192,178540,1,0,0:0:0:0:
448,192,178540,1,0,0:0:0:0:
320,192,178701,1,2,0:0:0:0:
192,192,178782,1,2,0:0:0:0:
64,192,178863,1,8,0:0:0:0:
320,192,178863,1,0,0:0:0:0:
448,192,178863,1,0,0:0:0:0:
192,192,179024,1,2,0:0:0:0:
320,192,179105,1,2,0:0:0:0:
64,192,179185,1,4,0:0:0:0:
192,192,179185,1,2,0:0:0:0:
448,192,179185,1,0,0:0:0:0:
192,192,179347,1,8,0:0:0:0:
320,192,179347,1,0,0:0:0:0:
448,192,179347,1,0,0:0:0:0:
64,192,179508,1,2,0:0:0:0:
192,192,179589,1,2,0:0:0:0:
64,192,179669,1,8,0:0:0:0:
320,192,179669,1,0,0:0:0:0:
448,192,179669,1,0,0:0:0:0:
192,192,179830,1,2,0:0:0:0:
320,192,179911,1,2,0:0:0:0:
64,192,179992,1,8,0:0:0:0:
192,192,179992,1,0,0:0:0:0:
448,192,179992,1,0,0:0:0:0:
64,192,180153,1,8,0:0:0:0:
192,192,180153,1,0,0:0:0:0:
320,192,180234,1,8,0:0:0:0:
448,192,180234,1,0,0:0:0:0:
64,192,180314,1,8,0:0:0:0:
192,192,180314,1,0,0:0:0:0:
320,192,180395,1,8,0:0:0:0:
448,192,180395,1,0,0:0:0:0:
64,192,180476,1,4,0:0:0:0:
192,192,180476,1,2,0:0:0:0:
448,192,180637,1,0,0:0:0:0:
64,192,180798,128,2,181121:0:0:0:0:
192,192,180798,1,8,0:0:0:0:
320,192,180798,1,0,0:0:0:0:
448,192,180960,1,0,0:0:0:0:
192,192,181121,1,2,0:0:0:0:
320,192,181121,128,0,181443:0:0:0:0:
64,192,181282,1,0,0:0:0:0:
64,192,181443,1,2,0:0:0:0:
192,192,181443,128,8,181766:0:0:0:0:
448,192,181443,1,0,0:0:0:0:
320,192,181605,1,0,0:0:0:0:
64,192,181766,1,2,0:0:0:0:
448,192,181766,128,0,182089:0:0:0:0:
320,192,181927,1,0,0:0:0:0:
64,192,182089,128,2,182411:0:0:0:0:
192,192,182089,1,8,0:0:0:0:
320,192,182089,1,0,0:0:0:0:
448,192,182250,1,0,0:0:0:0:
192,192,182411,1,2,0:0:0:0:
320,192,182411,128,0,182734:0:0:0:0:
64,192,182572,1,0,0:0:0:0:
64,192,182734,1,2,0:0:0:0:
192,192,182734,128,8,183056:0:0:0:0:
448,192,182734,1,0,0:0:0:0:
320,192,182895,1,0,0:0:0:0:
64,192,183056,1,2,0:0:0:0:
448,192,183056,1,4,0:0:0:0:
320,192,183218,1,0,0:0:0:0:
64,192,183379,1,8,0:0:0:0:
192,192,183379,1,0,0:0:0:0:
448,192,183379,1,0,0:0:0:0:
192,192,183540,1,2,0:0:0:0:
320,192,183540,1,0,0:0:0:0:
64,192,183701,1,8,0:0:0:0:
320,192,183701,1,0,0:0:0:0:
448,192,183701,1,0,0:0:0:0:
192,192,183863,1,2,0:0:0:0:
320,192,183943,1,0,0:0:0:0:
64,192,184024,1,8,0:0:0:0:
192,192,184024,1,0,0:0:0:0:
448,192,184024,1,0,0:0:0:0:
320,192,184185,1,2,0:0:0:0:
192,192,184266,1,2,0:0:0:0:
64,192,184347,1,4,0:0:0:0:
448,192,184347,1,2,0:0:0:0:
192,192,184508,1,8,0:0:0:0:
320,192,184508,1,0,0:0:0:0:
448,192,184508,1,0,0:0:0:0:
64,192,184669,1,2,0:0:0:0:
192,192,184750,1,2,0:0:0:0:
64,192,184830,1,8,0:0:0:0:
320,192,184830,1,0,0:0:0:0:
448,192,184830,1,0,0:0:0:0:
192,192,184992,1,2,0:0:0:0:
320,192,184992,1,0,0:0:0:0:
448,192,185072,1,2,0:0:0:0:
64,192,185153,1,8,0:0:0:0:
192,192,185153,1,2,0:0:0:0:
320,192,185234,1,2,0:0:0:0:
448,192,185234,1,8,0:0:0:0:
64,192,185314,1,2,0:0:0:0:
192,192,185314,1,8,0:0:0:0:
320,192,185395,1,2,0:0:0:0:
448,192,185395,1,8,0:0:0:0:
64,192,185476,1,2,0:0:0:0:
192,192,185476,1,8,0:0:0:0:
320,192,185556,1,2,0:0:0:0:
448,192,185556,1,8,0:0:0:0:
64,192,185637,128,4,186282:0:0:0:0:
192,192,185637,128,2,185798:0:0:0:0:
448,192,185798,128,0,185960:0:0:0:0:
320,192,185960,128,0,186121:0:0:0:0:
192,192,186121,128,0,186282:0:0:0:0:
320,192,186282,128,2,186443:0:0:0:0:
448,192,186282,128,0,186927:0:0:0:0:
64,192,186443,128,0,186605:0:0:0:0:
192,192,186605,128,0,186766:0:0:0:0:
320,192,186766,128,0,186927:0:0:0:0:
64,192,186927,128,2,187572:0:0:0:0:
192,192,186927,128,0,187089:0:0:0:0:
448,192,187089,128,0,187250:0:0:0:0:
320,192,187250,128,0,187411:0:0:0:0:
192,192,187411,128,0,187572:0:0:0:0:
320,192,187572,128,2,187734:0:0:0:0:
448,192,187572,128,0,188218:0:0:0:0:
64,192,187734,128,0,187895:0:0:0:0:
192,192,187895,128,0,188056:0:0:0:0:
320,192,188056,128,0,188218:0:0:0:0:
64,192,188218,128,2,188863:0:0:0:0:
192,192,188218,128,0,188379:0:0:0:0:
448,192,188379,128,0,188540:0:0:0:0:
320,192,188540,128,0,188701:0:0:0:0:
192,192,188701,128,0,188863:0:0:0:0:
320,192,188863,128,2,189024:0:0:0:0:
448,192,188863,128,0,189508:0:0:0:0:
192,192,189024,128,0,189185:0:0:0:0:
64,192,189185,128,0,189347:0:0:0:0:
320,192,189347,128,0,189508:0:0:0:0:
64,192,189508,128,2,190153:0:0:0:0:
192,192,189508,128,0,189830:0:0:0:0:
448,192,189830,128,0,190153:0:0:0:0:
192,192,190153,1,2,0:0:0:0:
320,192,190153,128,0,190314:0:0:0:0:
192,192,190314,128,2,190476:0:0:0:0:
448,192,190314,1,0,0:0:0:0:
64,192,190476,128,8,190556:0:0:0:0:
320,192,190476,1,0,0:0:0:0:
448,192,190476,1,0,0:0:0:0:
192,192,190556,128,0,190637:0:0:0:0:
320,192,190637,128,0,190718:0:0:0:0:
448,192,190718,128,0,190798:0:0:0:0:
64,192,190798,128,2,191443:0:0:0:0:
192,192,190798,1,4,0:0:0:0:
448,192,190960,128,0,191121:0:0:0:0:
192,192,191121,128,0,191282:0:0:0:0:
320,192,191282,128,0,191443:0:0:0:0:
192,192,191443,128,2,191605:0:0:0:0:
448,192,191443,128,0,192089:0:0:0:0:
320,192,191605,128,0,191766:0:0:0:0:
64,192,191766,128,0,191927:0:0:0:0:
192,192,191927,128,0,192089:0:0:0:0:
64,192,192089,128,2,192734:0:0:0:0:
320,192,192089,128,0,192250:0:0:0:0:
192,192,192250,128,0,192411:0:0:0:0:
448,192,192411,128,0,192572:0:0:0:0:
320,192,192572,128,0,192734:0:0:0:0:
192,192,192734,128,2,192895:0:0:0:0:
448,192,192734,128,0,193379:0:0:0:0:
320,192,192895,128,0,193056:0:0:0:0:
64,192,193056,128,0,193379:0:0:0:0:
192,192,193379,128,2,193540:0:0:0:0:
320,192,193379,128,0,194024:0:0:0:0:
448,192,193540,128,0,193701:0:0:0:0:
64,192,193701,128,0,193863:0:0:0:0:
192,192,193863,128,0,194024:0:0:0:0:
64,192,194024,128,2,194669:0:0:0:0:
448,192,194024,128,0,194185:0:0:0:0:
320,192,194185,128,0,194347:0:0:0:0:
192,192,194347,128,0,194508:0:0:0:0:
448,192,194508,128,0,194669:0:0:0:0:
192,192,194669,128,2,194992:0:0:0:0:
320,192,194669,128,0,194992:0:0:0:70:cymbal.wav
