osu file format v14

[General]
AudioFilename: audio.mp3
AudioLeadIn: 0
PreviewTime:137159
Countdown: 0
SampleSet: Normal
StackLeniency: 0.7
Mode: 1
LetterboxInBreaks: 0
WidescreenStoryboard: 0

[Editor]
Bookmarks: 468,12725,33370,54015,74660,95305,115950,137240,137563,137885,138208,138530,138853,139176,139498,139821,140143,140466,140788,141111,141434,141756,142079,142401,142724,143047,143369,143692,144014,144337,144659,144982,145305,145627,159821,185627,194659
DistanceSpacing: 1.3
BeatDivisor: 4
GridSize: 32
TimelineZoom: 1.9

[Metadata]
Title:Loser Girl
TitleUnicode:ルーザーガール
Artist:TUYU
ArtistUnicode:ツユ
Creator:Hivie
Version:Oni
Source:
Tags:gaston_2199 japanese rock jrock j-rock otmt osu taiko malaysian tournament custom map gs group stage nm1 nomod 1 one ぷす Pusu 礼衣 Reii おむたつ omutatsu ruzagaru pop j-pop jpop miro 貴方を不幸に誘いますね Anata o Fuko ni Sasoimasu ne I'll put you in misery will
BeatmapID:3177594
BeatmapSetID:1555035

[Difficulty]
HPDrainRate:5.5
CircleSize:2
OverallDifficulty:5.5
ApproachRate:9
SliderMultiplier:1.4
SliderTickRate:1

[Events]
//Background and Video events
0,0,"EqKJfORUUAE2wDk.jpg",0,0
//Break Periods
2,137240,145627
//Storyboard Layer 0 (Background)
//Storyboard Layer 1 (Fail)
//Storyboard Layer 2 (Pass)
//Storyboard Layer 3 (Foreground)
//Storyboard Layer 4 (Overlay)
//Storyboard Sound Samples

[TimingPoints]
468,322.58064516129,4,1,0,80,1,0
468,-111.111111111111,4,1,0,80,0,0
12080,322.58064516129,4,1,0,5,1,8
12644,-100,4,1,0,100,0,8
12725,322.58064516129,4,1,0,100,1,1
12725,-86.9565217391304,4,1,0,100,0,1
12886,-100,4,1,0,100,0,1
33370,-100,4,1,0,100,0,0
33531,-111.111111111111,4,1,0,80,0,0
43692,-99.9999999999999,4,1,0,90,0,0
74176,-99.9999999999999,4,1,0,5,0,0
74579,-99.9999999999999,4,1,0,100,0,0
74660,-86.9565217391304,4,1,0,100,0,1
74821,-100,4,1,0,100,0,1
95305,-100,4,1,0,100,0,0
95628,-111.111111111111,4,1,0,80,0,0
104660,-111.111111111111,4,1,0,20,0,0
105547,-111.111111111111,4,1,0,100,0,0
105628,-86.9565217391304,4,1,0,100,0,1
105789,-100,4,1,0,100,0,1
126273,322.58064516129,4,1,0,100,1,8
126918,322.58064516129,4,1,0,90,1,0
137159,-133.333333333333,4,1,0,75,0,0
146111,-100,4,1,0,90,0,0
159176,322.58064516129,4,1,0,5,1,8
159740,-100,4,1,0,100,0,8
159821,322.58064516129,4,1,0,100,1,1
159821,-86.9565217391304,4,1,0,100,0,1
159982,-100,4,1,0,100,0,1
185627,-100,4,1,0,100,0,0
185950,-111.111111111111,4,1,0,80,0,0

[HitObjects]
256,96,468,5,4,0:0:0:0:
256,192,1113,1,8,0:0:0:0:
256,192,1435,1,0,0:0:0:0:
256,192,1758,1,8,0:0:0:0:
256,192,2080,1,8,0:0:0:0:
256,192,2403,1,0,0:0:0:0:
256,192,2726,1,8,0:0:0:0:
256,192,3048,1,0,0:0:0:0:
256,192,3693,1,8,0:0:0:0:
256,96,4338,1,4,0:0:0:0:
256,192,5306,1,8,0:0:0:0:
256,192,5467,1,8,0:0:0:0:
256,192,5548,1,8,0:0:0:0:
256,192,5629,1,0,0:0:0:0:
256,192,6274,1,0,0:0:0:0:
256,192,6919,1,0,0:0:0:0:
256,192,7564,1,0,0:0:0:0:
256,192,8209,1,0,0:0:0:0:
256,192,8855,1,0,0:0:0:0:
256,96,9500,1,12,0:0:0:0:
256,192,10629,1,8,0:0:0:0:
256,192,10709,1,8,0:0:0:0:
256,192,10790,1,0,0:0:0:0:
256,192,11113,1,0,0:0:0:0:
256,192,11274,1,0,0:0:0:0:
256,192,11435,1,8,0:0:0:0:
256,192,11516,1,8,0:0:0:0:
256,192,11597,1,0,0:0:0:0:
256,192,11677,1,0,0:0:0:0:
256,192,11758,1,8,0:0:0:0:
256,192,11919,1,8,0:0:0:0:
256,192,12000,1,8,0:0:0:0:
256,96,12725,1,4,0:0:0:0:
256,192,13047,1,8,0:0:0:0:
256,192,13208,1,0,0:0:0:0:
256,192,13370,1,8,0:0:0:0:
256,192,13531,1,0,0:0:0:0:
256,192,13612,1,0,0:0:0:0:
256,192,13692,1,8,0:0:0:0:
256,192,13854,1,8,0:0:0:0:
256,192,14015,1,0,0:0:0:0:
256,192,14176,1,8,0:0:0:0:
256,192,14257,1,8,0:0:0:0:
256,192,14337,1,0,0:0:0:0:
256,192,14499,1,0,0:0:0:0:
256,192,14660,1,8,0:0:0:0:
256,192,14741,1,0,0:0:0:0:
256,192,14821,1,8,0:0:0:0:
256,192,14983,1,8,0:0:0:0:
256,192,15144,1,0,0:0:0:0:
256,192,15225,1,0,0:0:0:0:
256,192,15305,1,8,0:0:0:0:
256,192,15628,1,0,0:0:0:0:
256,192,15789,1,8,0:0:0:0:
256,192,15950,1,0,0:0:0:0:
256,192,16031,1,0,0:0:0:0:
256,192,16112,1,0,0:0:0:0:
256,192,16273,1,8,0:0:0:0:
256,192,16434,1,0,0:0:0:0:
256,192,16515,1,8,0:0:0:0:
256,192,16595,1,0,0:0:0:0:
256,192,16757,1,0,0:0:0:0:
256,192,16918,1,8,0:0:0:0:
256,192,17079,1,0,0:0:0:0:
256,192,17241,1,8,0:0:0:0:
256,192,17321,1,8,0:0:0:0:
256,192,17402,1,0,0:0:0:0:
256,192,17563,1,8,0:0:0:0:
256,192,17725,1,0,0:0:0:0:
256,96,17886,1,12,0:0:0:0:
256,192,18128,1,0,0:0:0:0:
256,192,18208,1,8,0:0:0:0:
256,192,18370,1,0,0:0:0:0:
256,192,18531,1,8,0:0:0:0:
256,192,18612,1,8,0:0:0:0:
256,192,18692,1,0,0:0:0:0:
256,192,18854,1,8,0:0:0:0:
256,192,19015,1,0,0:0:0:0:
256,192,19176,1,8,0:0:0:0:
256,192,19257,1,8,0:0:0:0:
256,192,19337,1,8,0:0:0:0:
256,192,19499,1,0,0:0:0:0:
256,192,19660,1,0,0:0:0:0:
256,192,19821,1,8,0:0:0:0:
256,192,19983,1,0,0:0:0:0:
256,192,20063,1,0,0:0:0:0:
256,192,20144,1,8,0:0:0:0:
256,192,20466,1,0,0:0:0:0:
256,192,20628,1,0,0:0:0:0:
256,192,20789,1,8,0:0:0:0:
256,192,20950,1,8,0:0:0:0:
256,192,21112,1,0,0:0:0:0:
256,192,21273,1,8,0:0:0:0:
256,192,21354,1,8,0:0:0:0:
256,192,21434,1,0,0:0:0:0:
256,192,21595,1,8,0:0:0:0:
256,192,21757,1,0,0:0:0:0:
256,192,21918,1,8,0:0:0:0:
256,192,22079,1,0,0:0:0:0:
256,192,22160,1,0,0:0:0:0:
256,192,22241,1,8,0:0:0:0:
256,192,22402,1,0,0:0:0:0:
256,192,22563,1,8,0:0:0:0:
256,192,22644,1,0,0:0:0:0:
256,192,22725,1,8,0:0:0:0:
256,192,22805,1,8,0:0:0:0:
256,192,22886,1,0,0:0:0:0:
256,96,23047,1,12,0:0:0:0:
256,192,23370,1,8,0:0:0:0:
256,192,23531,1,0,0:0:0:0:
256,192,23692,1,8,0:0:0:0:
256,192,23854,1,8,0:0:0:0:
256,192,24015,1,0,0:0:0:0:
256,192,24176,1,0,0:0:0:0:
256,192,24257,1,0,0:0:0:0:
256,192,24337,1,8,0:0:0:0:
256,192,24660,1,8,0:0:0:0:
256,192,24821,1,8,0:0:0:0:
256,192,24983,1,0,0:0:0:0:
256,192,25063,1,0,0:0:0:0:
256,192,25144,1,0,0:0:0:0:
256,192,25305,1,8,0:0:0:0:
256,192,25466,1,0,0:0:0:0:
256,96,25628,1,12,0:0:0:0:
256,192,25950,1,8,0:0:0:0:
256,192,26112,1,0,0:0:0:0:
256,192,26273,1,8,0:0:0:0:
256,192,26354,1,0,0:0:0:0:
256,192,26434,1,8,0:0:0:0:
256,192,26595,1,0,0:0:0:0:
256,192,26757,1,0,0:0:0:0:
256,192,26837,1,0,0:0:0:0:
256,192,26918,1,8,0:0:0:0:
256,192,27241,1,8,0:0:0:0:
256,192,27402,1,8,0:0:0:0:
256,192,27563,1,0,0:0:0:0:
256,192,27644,1,0,0:0:0:0:
256,192,27725,1,0,0:0:0:0:
256,192,27886,1,8,0:0:0:0:
256,192,28047,1,0,0:0:0:0:
256,96,28208,1,12,0:0:0:0:
256,192,28450,1,0,0:0:0:0:
256,192,28531,1,8,0:0:0:0:
256,192,28692,1,0,0:0:0:0:
256,192,28854,1,8,0:0:0:0:
256,192,28934,1,8,0:0:0:0:
256,192,29015,1,0,0:0:0:0:
256,192,29176,1,8,0:0:0:0:
256,192,29337,1,0,0:0:0:0:
256,192,29499,1,8,0:0:0:0:
256,192,29579,1,8,0:0:0:0:
256,192,29660,1,8,0:0:0:0:
256,192,29821,1,0,0:0:0:0:
256,192,29983,1,0,0:0:0:0:
256,192,30144,1,8,0:0:0:0:
256,192,30305,1,0,0:0:0:0:
256,192,30386,1,0,0:0:0:0:
256,192,30466,1,8,0:0:0:0:
256,192,30789,1,12,0:0:0:0:
256,192,30950,1,0,0:0:0:0:
256,192,31112,1,8,0:0:0:0:
256,192,31273,1,8,0:0:0:0:
256,192,31434,1,0,0:0:0:0:
256,192,31595,1,8,0:0:0:0:
256,192,31676,1,8,0:0:0:0:
256,192,31757,1,0,0:0:0:0:
256,192,31918,1,8,0:0:0:0:
256,192,32079,1,0,0:0:0:0:
256,192,32241,1,8,0:0:0:0:
256,192,32402,1,0,0:0:0:0:
256,192,32483,1,0,0:0:0:0:
256,192,32563,1,8,0:0:0:0:
256,192,32724,1,0,0:0:0:0:
256,192,32886,1,8,0:0:0:0:
256,192,32966,1,0,0:0:0:0:
256,192,33047,1,8,0:0:0:0:
256,192,33128,1,8,0:0:0:0:
256,192,33208,1,0,0:0:0:0:
256,96,33370,1,12,0:0:0:0:
256,192,34015,5,0,0:0:0:0:
256,192,34660,1,0,0:0:0:0:
256,192,35305,1,0,0:0:0:0:
256,192,35950,1,0,0:0:0:0:
256,192,36595,1,0,0:0:0:0:
256,192,37241,1,0,0:0:0:0:
256,192,37886,1,0,0:0:0:0:
256,192,38047,1,0,0:0:0:0:
256,192,38208,1,8,0:0:0:0:
256,96,38531,1,4,0:0:0:0:
256,192,39176,1,0,0:0:0:0:
256,192,39821,1,0,0:0:0:0:
256,192,40466,1,0,0:0:0:0:
256,192,41112,1,0,0:0:0:0:
256,192,41757,1,0,0:0:0:0:
256,96,42402,1,12,0:0:0:0:
256,96,43692,1,4,0:0:0:0:
256,192,44015,1,8,0:0:0:0:
256,192,44176,1,0,0:0:0:0:
256,192,44499,1,0,0:0:0:0:
256,192,44660,1,8,0:0:0:0:
256,192,44983,1,0,0:0:0:0:
256,192,45144,1,0,0:0:0:0:
256,192,45305,1,8,0:0:0:0:
256,192,45466,1,0,0:0:0:0:
256,192,45789,1,0,0:0:0:0:
256,192,45950,1,8,0:0:0:0:
256,192,46273,1,0,0:0:0:0:
256,192,46595,1,8,0:0:0:0:
256,192,46757,1,0,0:0:0:0:
256,192,47079,1,0,0:0:0:0:
256,192,47241,1,8,0:0:0:0:
256,192,47402,1,8,0:0:0:0:
256,192,47563,1,0,0:0:0:0:
256,192,47886,1,8,0:0:0:0:
256,192,48047,1,8,0:0:0:0:
256,192,48208,1,0,0:0:0:0:
256,192,48370,1,0,0:0:0:0:
256,192,48531,1,8,0:0:0:0:
256,96,48854,1,4,0:0:0:0:
256,192,49176,1,8,0:0:0:0:
256,192,49337,1,0,0:0:0:0:
256,192,49660,1,0,0:0:0:0:
256,192,49821,1,8,0:0:0:0:
256,192,50144,1,0,0:0:0:0:
256,192,50305,1,0,0:0:0:0:
256,192,50466,1,8,0:0:0:0:
256,192,50628,1,0,0:0:0:0:
256,192,50950,1,0,0:0:0:0:
256,192,51112,1,8,0:0:0:0:
256,192,51434,1,0,0:0:0:0:
256,192,51757,1,8,0:0:0:0:
256,192,51918,1,0,0:0:0:0:
256,192,52241,1,0,0:0:0:0:
256,192,52402,1,8,0:0:0:0:
256,192,52563,1,0,0:0:0:0:
256,192,52724,1,0,0:0:0:0:
256,192,52886,1,8,0:0:0:0:
256,192,53047,1,8,0:0:0:0:
256,192,53208,1,0,0:0:0:0:
256,192,53370,1,8,0:0:0:0:
256,192,53692,1,8,0:0:0:0:
256,192,53854,1,8,0:0:0:0:
256,96,54015,1,4,0:0:0:0:
256,192,54337,1,8,0:0:0:0:
256,192,54499,1,0,0:0:0:0:
256,192,54821,1,0,0:0:0:0:
256,192,54983,1,8,0:0:0:0:
256,192,55305,1,0,0:0:0:0:
256,192,55466,1,0,0:0:0:0:
256,192,55628,1,8,0:0:0:0:
256,192,55789,1,0,0:0:0:0:
256,192,56112,1,0,0:0:0:0:
256,192,56273,1,8,0:0:0:0:
256,192,56595,1,0,0:0:0:0:
256,192,56918,1,8,0:0:0:0:
256,192,57079,1,0,0:0:0:0:
256,192,57402,1,0,0:0:0:0:
256,192,57563,1,8,0:0:0:0:
256,192,57724,1,8,0:0:0:0:
256,192,57886,1,0,0:0:0:0:
256,192,58208,1,8,0:0:0:0:
256,192,58370,1,8,0:0:0:0:
256,192,58531,1,0,0:0:0:0:
256,192,58692,1,8,0:0:0:0:
256,192,58854,1,8,0:0:0:0:
256,96,59176,1,4,0:0:0:0:
256,192,59499,1,8,0:0:0:0:
256,192,59660,1,0,0:0:0:0:
256,192,59983,1,0,0:0:0:0:
256,192,60144,1,8,0:0:0:0:
256,192,60466,1,0,0:0:0:0:
256,192,60628,1,0,0:0:0:0:
256,192,60789,1,8,0:0:0:0:
256,192,60950,1,0,0:0:0:0:
256,192,61273,1,0,0:0:0:0:
256,192,61434,1,8,0:0:0:0:
256,192,61757,1,0,0:0:0:0:
256,192,62079,1,8,0:0:0:0:
256,192,62241,1,0,0:0:0:0:
256,192,62563,1,0,0:0:0:0:
256,192,62724,1,8,0:0:0:0:
256,192,62886,1,8,0:0:0:0:
256,192,63047,1,0,0:0:0:0:
256,192,63208,1,0,0:0:0:0:
256,192,63370,1,8,0:0:0:0:
256,192,63531,1,0,0:0:0:0:
256,192,63692,1,8,0:0:0:0:
256,192,64015,1,8,0:0:0:0:
256,192,64176,1,8,0:0:0:0:
256,192,64257,1,8,0:0:0:0:
256,192,64337,1,0,0:0:0:0:
256,192,64660,1,8,0:0:0:0:
256,192,64983,1,0,0:0:0:0:
256,192,65144,1,0,0:0:0:0:
256,192,65305,1,0,0:0:0:0:
256,192,65466,1,8,0:0:0:0:
256,192,65628,1,0,0:0:0:0:
256,192,65789,1,0,0:0:0:0:
256,192,65950,1,8,0:0:0:0:
256,192,66112,1,8,0:0:0:0:
256,192,66273,1,0,0:0:0:0:
256,192,66515,1,0,0:0:0:0:
256,192,66595,1,8,0:0:0:0:
256,192,66757,1,8,0:0:0:0:
256,192,66918,1,4,0:0:0:0:
256,192,67241,1,8,0:0:0:0:
256,192,67402,1,0,0:0:0:0:
256,192,67563,1,8,0:0:0:0:
256,192,67886,1,0,0:0:0:0:
256,192,68047,1,8,0:0:0:0:
256,192,68208,1,8,0:0:0:0:
256,192,68370,1,0,0:0:0:0:
256,192,68531,1,8,0:0:0:0:
256,192,68692,1,0,0:0:0:0:
256,192,68854,1,8,0:0:0:0:
256,192,69015,1,8,0:0:0:0:
256,192,69095,1,8,0:0:0:0:
256,192,69176,1,0,0:0:0:0:
256,192,69337,1,8,0:0:0:0:
256,192,69499,1,4,0:0:0:0:
256,192,69821,1,8,0:0:0:0:
256,192,70144,1,0,0:0:0:0:
256,192,70305,1,8,0:0:0:0:
256,192,70466,1,8,0:0:0:0:
256,192,70628,1,0,0:0:0:0:
256,192,70789,1,0,0:0:0:0:
256,192,70950,1,0,0:0:0:0:
256,192,71112,1,8,0:0:0:0:
256,192,71273,1,8,0:0:0:0:
256,192,71434,1,0,0:0:0:0:
256,192,71595,1,0,0:0:0:0:
256,192,71676,1,0,0:0:0:0:
256,192,71757,1,8,0:0:0:0:
256,192,71918,1,8,0:0:0:0:
256,192,72079,1,0,0:0:0:0:
256,192,72402,1,0,0:0:0:0:
256,192,72563,1,8,0:0:0:0:
256,192,72724,1,0,0:0:0:0:
256,192,72886,1,8,0:0:0:0:
256,192,73047,1,0,0:0:0:0:
256,192,73208,1,8,0:0:0:0:
256,192,73289,1,8,0:0:0:0:
256,192,73370,1,0,0:0:0:0:
256,192,73692,1,0,0:0:0:0:
256,192,74015,1,0,0:0:0:0:
256,96,74660,1,12,0:0:0:0:
256,192,74983,1,8,0:0:0:0:
256,192,75144,1,0,0:0:0:0:
256,192,75306,1,8,0:0:0:0:
256,192,75467,1,0,0:0:0:0:
256,192,75548,1,0,0:0:0:0:
256,192,75628,1,8,0:0:0:0:
256,192,75790,1,8,0:0:0:0:
256,192,75951,1,0,0:0:0:0:
256,192,76112,1,8,0:0:0:0:
256,192,76193,1,8,0:0:0:0:
256,192,76273,1,0,0:0:0:0:
256,192,76435,1,0,0:0:0:0:
256,192,76596,1,8,0:0:0:0:
256,192,76677,1,0,0:0:0:0:
256,192,76757,1,8,0:0:0:0:
256,192,76919,1,8,0:0:0:0:
256,192,77080,1,0,0:0:0:0:
256,192,77161,1,0,0:0:0:0:
256,192,77241,1,8,0:0:0:0:
256,192,77564,1,0,0:0:0:0:
256,192,77725,1,8,0:0:0:0:
256,192,77886,1,0,0:0:0:0:
256,192,77967,1,0,0:0:0:0:
256,192,78048,1,0,0:0:0:0:
256,192,78209,1,8,0:0:0:0:
256,192,78370,1,0,0:0:0:0:
256,192,78451,1,8,0:0:0:0:
256,192,78531,1,0,0:0:0:0:
256,192,78693,1,0,0:0:0:0:
256,192,78854,1,8,0:0:0:0:
256,192,79015,1,0,0:0:0:0:
256,192,79177,1,8,0:0:0:0:
256,192,79257,1,8,0:0:0:0:
256,192,79338,1,0,0:0:0:0:
256,192,79419,1,0,0:0:0:0:
256,192,79499,1,8,0:0:0:0:
256,192,79661,1,0,0:0:0:0:
256,96,79822,1,12,0:0:0:0:
256,192,80064,1,0,0:0:0:0:
256,192,80144,1,8,0:0:0:0:
256,192,80306,1,0,0:0:0:0:
256,192,80467,1,8,0:0:0:0:
256,192,80548,1,8,0:0:0:0:
256,192,80628,1,0,0:0:0:0:
256,192,80790,1,8,0:0:0:0:
256,192,80951,1,0,0:0:0:0:
256,192,81112,1,8,0:0:0:0:
256,192,81193,1,8,0:0:0:0:
256,192,81273,1,8,0:0:0:0:
256,192,81435,1,0,0:0:0:0:
256,192,81596,1,0,0:0:0:0:
256,192,81757,1,8,0:0:0:0:
256,192,81919,1,0,0:0:0:0:
256,192,81999,1,0,0:0:0:0:
256,192,82080,1,8,0:0:0:0:
256,192,82402,1,0,0:0:0:0:
256,192,82564,1,0,0:0:0:0:
256,192,82725,1,8,0:0:0:0:
256,192,82886,1,8,0:0:0:0:
256,192,83048,1,0,0:0:0:0:
256,192,83209,1,8,0:0:0:0:
256,192,83290,1,8,0:0:0:0:
256,192,83370,1,0,0:0:0:0:
256,192,83451,1,0,0:0:0:0:
256,192,83531,1,8,0:0:0:0:
256,192,83693,1,0,0:0:0:0:
256,192,83854,1,8,0:0:0:0:
256,192,84015,1,0,0:0:0:0:
256,192,84096,1,0,0:0:0:0:
256,192,84177,1,8,0:0:0:0:
256,192,84338,1,0,0:0:0:0:
256,192,84499,1,8,0:0:0:0:
256,192,84580,1,0,0:0:0:0:
256,192,84661,1,8,0:0:0:0:
256,192,84741,1,8,0:0:0:0:
256,192,84822,1,0,0:0:0:0:
256,96,84983,1,12,0:0:0:0:
256,192,85306,1,8,0:0:0:0:
256,192,85467,1,0,0:0:0:0:
256,192,85628,1,8,0:0:0:0:
256,192,85790,1,8,0:0:0:0:
256,192,85951,1,0,0:0:0:0:
256,192,86112,1,0,0:0:0:0:
256,192,86193,1,0,0:0:0:0:
256,192,86273,1,8,0:0:0:0:
256,192,86435,1,0,0:0:0:0:
256,192,86596,1,8,0:0:0:0:
256,192,86757,1,8,0:0:0:0:
256,192,86919,1,0,0:0:0:0:
256,192,86999,1,0,0:0:0:0:
256,192,87080,1,0,0:0:0:0:
256,192,87241,1,8,0:0:0:0:
256,192,87402,1,0,0:0:0:0:
256,96,87564,1,12,0:0:0:0:
256,192,87886,1,8,0:0:0:0:
256,192,88048,1,0,0:0:0:0:
256,192,88209,1,8,0:0:0:0:
256,192,88290,1,0,0:0:0:0:
256,192,88370,1,8,0:0:0:0:
256,192,88531,1,0,0:0:0:0:
256,192,88693,1,0,0:0:0:0:
256,192,88773,1,0,0:0:0:0:
256,192,88854,1,8,0:0:0:0:
256,192,89015,1,0,0:0:0:0:
256,192,89177,1,8,0:0:0:0:
256,192,89338,1,8,0:0:0:0:
256,192,89499,1,0,0:0:0:0:
256,192,89580,1,0,0:0:0:0:
256,192,89661,1,0,0:0:0:0:
256,192,89822,1,8,0:0:0:0:
256,192,89983,1,0,0:0:0:0:
256,96,90144,1,12,0:0:0:0:
256,192,90386,1,0,0:0:0:0:
256,192,90467,1,8,0:0:0:0:
256,192,90628,1,0,0:0:0:0:
256,192,90790,1,8,0:0:0:0:
256,192,90870,1,8,0:0:0:0:
256,192,90951,1,0,0:0:0:0:
256,192,91112,1,8,0:0:0:0:
256,192,91273,1,0,0:0:0:0:
256,192,91435,1,8,0:0:0:0:
256,192,91515,1,8,0:0:0:0:
256,192,91596,1,8,0:0:0:0:
256,192,91757,1,0,0:0:0:0:
256,192,91919,1,0,0:0:0:0:
256,192,92080,1,8,0:0:0:0:
256,192,92241,1,0,0:0:0:0:
256,192,92322,1,0,0:0:0:0:
256,192,92402,1,8,0:0:0:0:
256,192,92724,1,12,0:0:0:0:
256,192,92886,1,0,0:0:0:0:
256,192,93048,1,8,0:0:0:0:
256,192,93209,1,8,0:0:0:0:
256,192,93370,1,0,0:0:0:0:
256,192,93531,1,8,0:0:0:0:
256,192,93612,1,8,0:0:0:0:
256,192,93693,1,0,0:0:0:0:
256,192,93854,1,8,0:0:0:0:
256,192,94015,1,0,0:0:0:0:
256,192,94177,1,8,0:0:0:0:
256,192,94338,1,0,0:0:0:0:
256,192,94419,1,0,0:0:0:0:
256,192,94499,1,8,0:0:0:0:
256,192,94660,1,0,0:0:0:0:
256,192,94822,1,8,0:0:0:0:
256,192,94902,1,0,0:0:0:0:
256,192,94983,1,8,0:0:0:0:
256,192,95064,1,8,0:0:0:0:
256,192,95144,1,0,0:0:0:0:
256,96,95306,1,12,0:0:0:0:
256,192,95950,5,0,0:0:0:0:
256,192,96595,1,0,0:0:0:0:
256,192,97241,1,0,0:0:0:0:
256,192,97886,1,0,0:0:0:0:
256,192,98531,1,0,0:0:0:0:
256,192,99176,1,0,0:0:0:0:
256,192,99821,1,0,0:0:0:0:
256,192,99983,1,0,0:0:0:0:
256,192,100144,1,8,0:0:0:0:
256,96,100466,1,4,0:0:0:0:
256,192,101112,1,0,0:0:0:0:
256,192,101757,1,0,0:0:0:0:
256,192,102402,1,0,0:0:0:0:
256,192,103047,1,0,0:0:0:0:
256,192,103692,1,0,0:0:0:0:
256,96,104337,1,12,0:0:0:0:
256,96,105628,1,12,0:0:0:0:
256,192,105950,1,8,0:0:0:0:
256,192,106112,1,0,0:0:0:0:
256,192,106273,1,8,0:0:0:0:
256,192,106354,1,8,0:0:0:0:
256,192,106434,1,0,0:0:0:0:
256,192,106595,1,8,0:0:0:0:
256,192,106757,1,0,0:0:0:0:
256,192,107079,1,0,0:0:0:0:
256,192,107241,1,8,0:0:0:0:
256,192,107402,1,8,0:0:0:0:
256,192,107563,1,0,0:0:0:0:
256,192,107644,1,0,0:0:0:0:
256,192,107724,1,0,0:0:0:0:
256,192,107886,1,8,0:0:0:0:
256,192,108047,1,0,0:0:0:0:
256,192,108370,1,0,0:0:0:0:
256,192,108531,1,8,0:0:0:0:
256,192,108692,1,8,0:0:0:0:
256,192,108854,1,0,0:0:0:0:
256,192,109015,1,8,0:0:0:0:
256,192,109095,1,0,0:0:0:0:
256,192,109176,1,8,0:0:0:0:
256,192,109337,1,0,0:0:0:0:
256,192,109499,1,8,0:0:0:0:
256,192,109606,1,0,0:0:0:0:
256,192,109714,1,0,0:0:0:0:
256,192,109821,1,8,0:0:0:0:
256,192,109983,1,0,0:0:0:0:
256,192,110305,1,0,0:0:0:0:
256,192,110466,1,8,0:0:0:0:
256,192,110628,1,0,0:0:0:0:
256,192,110708,1,0,0:0:0:0:
256,192,110789,1,8,0:0:0:0:
256,192,110950,1,0,0:0:0:0:
256,192,111112,1,8,0:0:0:0:
256,192,111273,1,0,0:0:0:0:
256,192,111354,1,0,0:0:0:0:
256,192,111434,1,8,0:0:0:0:
256,192,111595,1,0,0:0:0:0:
256,192,111757,1,8,0:0:0:0:
256,192,111837,1,8,0:0:0:0:
256,192,111918,1,0,0:0:0:0:
256,192,112079,1,8,0:0:0:0:
256,192,112402,1,0,0:0:0:0:
256,192,112483,1,0,0:0:0:0:
256,192,112563,1,0,0:0:0:0:
256,192,112724,1,8,0:0:0:0:
256,192,112886,1,0,0:0:0:0:
256,192,113047,1,8,0:0:0:0:
256,192,113208,1,8,0:0:0:0:
256,192,113531,1,0,0:0:0:0:
256,192,113692,1,8,0:0:0:0:
256,192,113854,1,8,0:0:0:0:
256,192,114015,1,0,0:0:0:0:
256,192,114176,1,0,0:0:0:0:
256,192,114337,1,8,0:0:0:0:
256,192,114418,1,0,0:0:0:0:
256,192,114499,1,8,0:0:0:0:
256,192,114660,1,0,0:0:0:0:
256,192,114821,1,0,0:0:0:0:
256,192,114983,1,8,0:0:0:0:
256,192,115144,1,0,0:0:0:0:
256,192,115305,1,8,0:0:0:0:
256,192,115466,1,8,0:0:0:0:
256,192,115628,1,0,0:0:0:0:
256,192,115708,1,0,0:0:0:0:
256,192,115789,1,8,0:0:0:0:
256,96,115950,1,4,0:0:0:0:
256,192,116273,1,8,0:0:0:0:
256,192,116434,1,0,0:0:0:0:
256,192,116515,1,0,0:0:0:0:
256,192,116595,1,8,0:0:0:0:
256,192,116757,1,0,0:0:0:0:
256,192,116918,1,8,0:0:0:0:
256,192,117079,1,8,0:0:0:0:
256,192,117160,1,8,0:0:0:0:
256,192,117241,1,0,0:0:0:0:
256,192,117563,1,8,0:0:0:0:
256,192,117724,1,0,0:0:0:0:
256,192,117886,1,8,0:0:0:0:
256,192,117966,1,8,0:0:0:0:
256,192,118047,1,8,0:0:0:0:
256,192,118208,1,0,0:0:0:0:
256,192,118370,1,0,0:0:0:0:
256,192,118450,1,0,0:0:0:0:
256,192,118531,1,8,0:0:0:0:
256,192,118854,1,0,0:0:0:0:
256,192,119015,1,8,0:0:0:0:
256,192,119095,1,8,0:0:0:0:
256,192,119176,1,8,0:0:0:0:
256,192,119337,1,0,0:0:0:0:
256,192,119499,1,8,0:0:0:0:
256,192,119579,1,0,0:0:0:0:
256,192,119660,1,8,0:0:0:0:
256,192,119821,1,0,0:0:0:0:
256,192,119983,1,0,0:0:0:0:
256,192,120063,1,8,0:0:0:0:
256,192,120144,1,0,0:0:0:0:
256,192,120305,1,8,0:0:0:0:
256,192,120466,1,0,0:0:0:0:
256,192,120628,1,0,0:0:0:0:
256,192,120789,1,8,0:0:0:0:
256,192,120950,1,0,0:0:0:0:
256,192,121031,1,0,0:0:0:0:
256,192,121112,1,8,0:0:0:0:
256,192,121434,1,8,0:0:0:0:
256,192,121595,1,0,0:0:0:0:
256,192,121676,1,0,0:0:0:0:
256,192,121757,1,0,0:0:0:0:
256,192,121918,1,0,0:0:0:0:
256,192,122079,1,8,0:0:0:0:
256,192,122241,1,0,0:0:0:0:
256,192,122402,1,8,0:0:0:0:
256,192,122483,1,8,0:0:0:0:
256,192,122563,1,8,0:0:0:0:
256,192,122724,1,0,0:0:0:0:
256,192,122886,1,8,0:0:0:0:
256,192,123047,1,0,0:0:0:0:
256,192,123208,1,0,0:0:0:0:
256,192,123289,1,0,0:0:0:0:
256,192,123370,1,8,0:0:0:0:
256,192,123531,1,8,0:0:0:0:
256,192,123692,1,0,0:0:0:0:
256,192,124015,1,8,0:0:0:0:
256,192,124176,1,0,0:0:0:0:
256,192,124337,1,8,0:0:0:0:
256,192,124499,1,0,0:0:0:0:
256,192,124660,1,8,0:0:0:0:
256,192,124821,1,0,0:0:0:0:
256,192,124902,1,0,0:0:0:0:
256,192,124983,1,8,0:0:0:0:
256,192,125144,1,0,0:0:0:0:
256,192,125305,1,8,0:0:0:0:
256,192,125386,1,8,0:0:0:0:
256,192,125466,1,0,0:0:0:0:
256,192,125547,1,0,0:0:0:0:
256,192,125628,1,8,0:0:0:0:
256,192,125789,1,0,0:0:0:0:
256,192,125870,1,0,0:0:0:0:
256,192,125950,1,0,0:0:0:0:
256,192,126112,1,0,0:0:0:0:
256,192,126273,1,8,0:0:0:0:
256,96,126918,5,4,0:0:0:0:
256,192,127240,1,8,0:0:0:0:
256,192,127563,1,0,0:0:0:0:
256,192,127724,1,0,0:0:0:0:
256,192,127885,1,0,0:0:0:0:
256,192,128047,1,8,0:0:0:0:
256,192,128208,1,0,0:0:0:0:
256,192,128369,1,0,0:0:0:0:
256,192,128530,1,8,0:0:0:0:
256,192,128692,1,0,0:0:0:0:
256,192,128853,1,8,0:0:0:0:
256,192,129014,1,0,0:0:0:0:
256,192,129095,1,0,0:0:0:0:
256,192,129176,1,0,0:0:0:0:
256,192,129337,1,8,0:0:0:0:
256,192,129498,1,4,0:0:0:0:
256,192,129821,1,8,0:0:0:0:
256,192,129982,1,0,0:0:0:0:
256,192,130143,1,8,0:0:0:0:
256,192,130466,1,0,0:0:0:0:
256,192,130627,1,8,0:0:0:0:
256,192,130788,1,8,0:0:0:0:
256,192,130950,1,0,0:0:0:0:
256,192,131111,1,8,0:0:0:0:
256,192,131272,1,0,0:0:0:0:
256,192,131434,1,8,0:0:0:0:
256,192,131595,1,8,0:0:0:0:
256,192,131676,1,8,0:0:0:0:
256,192,131756,1,0,0:0:0:0:
256,192,131918,1,8,0:0:0:0:
256,192,132079,1,4,0:0:0:0:
256,192,132401,1,8,0:0:0:0:
256,192,132724,1,0,0:0:0:0:
256,192,132885,1,8,0:0:0:0:
256,192,133047,1,8,0:0:0:0:
256,192,133208,1,0,0:0:0:0:
256,192,133369,1,0,0:0:0:0:
256,192,133530,1,0,0:0:0:0:
256,192,133692,1,8,0:0:0:0:
256,192,133853,1,8,0:0:0:0:
256,192,134014,1,0,0:0:0:0:
256,192,134176,1,0,0:0:0:0:
256,192,134256,1,0,0:0:0:0:
256,192,134337,1,0,0:0:0:0:
256,192,134498,1,8,0:0:0:0:
256,192,134659,1,4,0:0:0:0:
256,192,134982,1,0,0:0:0:0:
256,192,135143,1,8,0:0:0:0:
256,192,135305,1,0,0:0:0:0:
256,192,135466,1,8,0:0:0:0:
256,192,135627,1,0,0:0:0:0:
256,192,135788,1,8,0:0:0:0:
256,192,135869,1,8,0:0:0:0:
256,192,135950,1,0,0:0:0:0:
256,192,136272,1,0,0:0:0:0:
256,192,136595,1,0,0:0:0:0:
256,96,146272,5,12,0:0:0:0:
256,96,146434,1,12,0:0:0:0:
256,192,146595,1,0,0:0:0:0:
256,96,146756,1,12,0:0:0:0:
256,192,147079,1,0,0:0:0:0:
256,192,147159,1,0,0:0:0:0:
256,192,147240,1,0,0:0:0:0:
256,192,147401,1,8,0:0:0:0:
256,96,147563,1,4,0:0:0:0:
256,192,147885,1,8,0:0:0:0:
256,192,148208,1,0,0:0:0:0:
256,192,148369,1,0,0:0:0:0:
256,192,148530,1,8,0:0:0:0:
256,192,148692,1,0,0:0:0:0:
256,192,148853,1,8,0:0:0:0:
256,192,148934,1,8,0:0:0:0:
256,192,149014,1,0,0:0:0:0:
256,192,149176,1,8,0:0:0:0:
256,192,149337,1,0,0:0:0:0:
256,192,149498,1,8,0:0:0:0:
256,192,149659,1,8,0:0:0:0:
256,192,149821,1,0,0:0:0:0:
256,192,149982,1,0,0:0:0:0:
256,192,150143,1,8,0:0:0:0:
256,192,150466,1,8,0:0:0:0:
256,192,150627,1,0,0:0:0:0:
256,192,150788,1,8,0:0:0:0:
256,192,150950,1,8,0:0:0:0:
256,192,151111,1,0,0:0:0:0:
256,192,151272,1,0,0:0:0:0:
256,192,151353,1,0,0:0:0:0:
256,192,151434,1,8,0:0:0:0:
256,192,151756,1,8,0:0:0:0:
256,192,151917,1,0,0:0:0:0:
256,192,152079,1,8,0:0:0:0:
256,192,152240,1,0,0:0:0:0:
256,192,152401,1,8,0:0:0:0:
256,192,152563,1,8,0:0:0:0:
256,192,152643,1,8,0:0:0:0:
256,192,152724,1,0,0:0:0:0:
256,192,153369,1,0,0:0:0:0:
256,192,154014,1,0,0:0:0:0:
256,192,154659,1,0,0:0:0:0:
256,192,155305,1,0,0:0:0:0:
256,192,155950,1,0,0:0:0:0:
256,96,156595,1,12,0:0:0:0:
256,192,157724,1,8,0:0:0:0:
256,192,157805,1,8,0:0:0:0:
256,192,157885,1,0,0:0:0:0:
256,192,158208,1,0,0:0:0:0:
256,192,158369,1,0,0:0:0:0:
256,192,158530,1,8,0:0:0:0:
256,192,158611,1,8,0:0:0:0:
256,192,158692,1,0,0:0:0:0:
256,192,158772,1,0,0:0:0:0:
256,192,158853,1,8,0:0:0:0:
256,192,159014,1,8,0:0:0:0:
256,192,159095,1,8,0:0:0:0:
256,96,159821,5,4,0:0:0:0:
256,192,160143,1,8,0:0:0:0:
256,192,160304,1,0,0:0:0:0:
256,192,160466,1,8,0:0:0:0:
256,192,160627,1,0,0:0:0:0:
256,192,160708,1,0,0:0:0:0:
256,192,160788,1,8,0:0:0:0:
256,192,160950,1,8,0:0:0:0:
256,192,161111,1,0,0:0:0:0:
256,192,161272,1,8,0:0:0:0:
256,192,161353,1,8,0:0:0:0:
256,192,161433,1,0,0:0:0:0:
256,192,161595,1,0,0:0:0:0:
256,192,161756,1,8,0:0:0:0:
256,192,161837,1,0,0:0:0:0:
256,192,161917,1,8,0:0:0:0:
256,192,162079,1,8,0:0:0:0:
256,192,162240,1,0,0:0:0:0:
256,192,162321,1,0,0:0:0:0:
256,192,162401,1,8,0:0:0:0:
256,192,162724,1,0,0:0:0:0:
256,192,162885,1,8,0:0:0:0:
256,192,163046,1,0,0:0:0:0:
256,192,163127,1,0,0:0:0:0:
256,192,163208,1,0,0:0:0:0:
256,192,163369,1,8,0:0:0:0:
256,192,163530,1,0,0:0:0:0:
256,192,163611,1,8,0:0:0:0:
256,192,163691,1,0,0:0:0:0:
256,192,163853,1,0,0:0:0:0:
256,192,164014,1,8,0:0:0:0:
256,192,164175,1,0,0:0:0:0:
256,192,164337,1,8,0:0:0:0:
256,192,164417,1,8,0:0:0:0:
256,192,164498,1,0,0:0:0:0:
256,192,164579,1,0,0:0:0:0:
256,192,164659,1,8,0:0:0:0:
256,192,164821,1,0,0:0:0:0:
256,96,164982,1,12,0:0:0:0:
256,192,165224,1,0,0:0:0:0:
256,192,165304,1,8,0:0:0:0:
256,192,165466,1,0,0:0:0:0:
256,192,165627,1,8,0:0:0:0:
256,192,165708,1,8,0:0:0:0:
256,192,165788,1,0,0:0:0:0:
256,192,165950,1,8,0:0:0:0:
256,192,166111,1,0,0:0:0:0:
256,192,166191,1,0,0:0:0:0:
256,192,166272,1,8,0:0:0:0:
256,192,166353,1,8,0:0:0:0:
256,192,166433,1,8,0:0:0:0:
256,192,166595,1,0,0:0:0:0:
256,192,166756,1,0,0:0:0:0:
256,192,166917,1,8,0:0:0:0:
256,192,167079,1,0,0:0:0:0:
256,192,167159,1,0,0:0:0:0:
256,192,167240,1,8,0:0:0:0:
256,192,167562,1,0,0:0:0:0:
256,192,167724,1,0,0:0:0:0:
256,192,167885,1,8,0:0:0:0:
256,192,168046,1,8,0:0:0:0:
256,192,168208,1,0,0:0:0:0:
256,192,168369,1,8,0:0:0:0:
256,192,168450,1,8,0:0:0:0:
256,192,168530,1,0,0:0:0:0:
256,192,168611,1,0,0:0:0:0:
256,192,168691,1,8,0:0:0:0:
256,192,168853,1,0,0:0:0:0:
256,192,169014,1,8,0:0:0:0:
256,192,169175,1,0,0:0:0:0:
256,192,169256,1,0,0:0:0:0:
256,192,169337,1,8,0:0:0:0:
256,192,169498,1,0,0:0:0:0:
256,192,169659,1,8,0:0:0:0:
256,192,169740,1,0,0:0:0:0:
256,192,169821,1,8,0:0:0:0:
256,192,169901,1,8,0:0:0:0:
256,192,169982,1,0,0:0:0:0:
256,96,170143,1,12,0:0:0:0:
256,192,170466,1,8,0:0:0:0:
256,192,170627,1,0,0:0:0:0:
256,192,170788,1,8,0:0:0:0:
256,192,170950,1,8,0:0:0:0:
256,192,171111,1,0,0:0:0:0:
256,192,171272,1,0,0:0:0:0:
256,192,171353,1,0,0:0:0:0:
256,192,171433,1,8,0:0:0:0:
256,192,171595,1,0,0:0:0:0:
256,192,171756,1,8,0:0:0:0:
256,192,171917,1,8,0:0:0:0:
256,192,172079,1,0,0:0:0:0:
256,192,172159,1,0,0:0:0:0:
256,192,172240,1,0,0:0:0:0:
256,192,172401,1,8,0:0:0:0:
256,192,172562,1,0,0:0:0:0:
256,96,172724,1,12,0:0:0:0:
256,192,173046,1,8,0:0:0:0:
256,192,173208,1,0,0:0:0:0:
256,192,173369,1,8,0:0:0:0:
256,192,173450,1,0,0:0:0:0:
256,192,173530,1,8,0:0:0:0:
256,192,173691,1,0,0:0:0:0:
256,192,173853,1,0,0:0:0:0:
256,192,173933,1,0,0:0:0:0:
256,192,174014,1,8,0:0:0:0:
256,192,174175,1,0,0:0:0:0:
256,192,174337,1,8,0:0:0:0:
256,192,174498,1,8,0:0:0:0:
256,192,174659,1,0,0:0:0:0:
256,192,174740,1,0,0:0:0:0:
256,192,174821,1,0,0:0:0:0:
256,192,174901,1,0,0:0:0:0:
256,192,174982,1,8,0:0:0:0:
256,192,175143,1,0,0:0:0:0:
256,96,175304,1,12,0:0:0:0:
256,192,175546,1,0,0:0:0:0:
256,192,175627,1,8,0:0:0:0:
256,192,175788,1,0,0:0:0:0:
256,192,175950,1,8,0:0:0:0:
256,192,176030,1,8,0:0:0:0:
256,192,176111,1,0,0:0:0:0:
256,192,176191,1,0,0:0:0:0:
256,192,176272,1,8,0:0:0:0:
256,192,176433,1,0,0:0:0:0:
256,192,176595,1,8,0:0:0:0:
256,192,176675,1,8,0:0:0:0:
256,192,176756,1,8,0:0:0:0:
256,192,176917,1,0,0:0:0:0:
256,192,177079,1,0,0:0:0:0:
256,192,177240,1,8,0:0:0:0:
256,192,177401,1,0,0:0:0:0:
256,192,177482,1,0,0:0:0:0:
256,192,177562,1,8,0:0:0:0:
256,192,177885,1,12,0:0:0:0:
256,192,178046,1,0,0:0:0:0:
256,192,178208,1,8,0:0:0:0:
256,192,178369,1,8,0:0:0:0:
256,192,178530,1,0,0:0:0:0:
256,192,178611,1,0,0:0:0:0:
256,192,178691,1,8,0:0:0:0:
256,192,178772,1,8,0:0:0:0:
256,192,178853,1,0,0:0:0:0:
256,192,179014,1,8,0:0:0:0:
256,192,179175,1,0,0:0:0:0:
256,192,179337,1,8,0:0:0:0:
256,192,179498,1,0,0:0:0:0:
256,192,179579,1,0,0:0:0:0:
256,192,179659,1,8,0:0:0:0:
256,192,179820,1,0,0:0:0:0:
256,192,179982,1,8,0:0:0:0:
256,192,180062,1,0,0:0:0:0:
256,192,180143,1,8,0:0:0:0:
256,192,180224,1,8,0:0:0:0:
256,192,180304,1,0,0:0:0:0:
256,96,180466,1,12,0:0:0:0:
256,192,180708,1,0,0:0:0:0:
256,192,180788,1,8,0:0:0:0:
256,192,180950,1,0,0:0:0:0:
256,192,181111,1,8,0:0:0:0:
256,192,181191,1,8,0:0:0:0:
256,192,181272,1,0,0:0:0:0:
256,192,181433,1,8,0:0:0:0:
256,192,181595,1,0,0:0:0:0:
256,192,181756,1,8,0:0:0:0:
256,192,181837,1,8,0:0:0:0:
256,192,181917,1,8,0:0:0:0:
256,192,182079,1,0,0:0:0:0:
256,192,182240,1,0,0:0:0:0:
256,192,182401,1,8,0:0:0:0:
256,192,182482,1,8,0:0:0:0:
256,192,182562,1,0,0:0:0:0:
256,192,182724,1,8,0:0:0:0:
256,192,183046,1,12,0:0:0:0:
256,192,183208,1,0,0:0:0:0:
256,192,183369,1,8,0:0:0:0:
256,192,183530,1,8,0:0:0:0:
256,192,183691,1,0,0:0:0:0:
256,192,183853,1,8,0:0:0:0:
256,192,183933,1,8,0:0:0:0:
256,192,184014,1,0,0:0:0:0:
256,192,184095,1,0,0:0:0:0:
256,192,184175,1,8,0:0:0:0:
256,192,184337,1,0,0:0:0:0:
256,192,184498,1,8,0:0:0:0:
256,192,184659,1,0,0:0:0:0:
256,192,184740,1,0,0:0:0:0:
256,192,184820,1,8,0:0:0:0:
256,192,184982,1,0,0:0:0:0:
256,192,185143,1,8,0:0:0:0:
256,192,185224,1,0,0:0:0:0:
256,192,185304,1,8,0:0:0:0:
256,192,185385,1,8,0:0:0:0:
256,192,185466,1,0,0:0:0:0:
256,96,185627,1,12,0:0:0:0:
256,192,186272,5,0,0:0:0:0:
256,192,186917,1,0,0:0:0:0:
256,192,187562,1,0,0:0:0:0:
256,192,188208,1,0,0:0:0:0:
256,192,188853,1,0,0:0:0:0:
256,192,189498,1,0,0:0:0:0:
256,192,190143,1,0,0:0:0:0:
256,192,190304,1,0,0:0:0:0:
256,192,190466,1,8,0:0:0:0:
256,96,190788,1,4,0:0:0:0:
256,192,191433,1,0,0:0:0:0:
256,192,192079,1,0,0:0:0:0:
256,192,192724,1,0,0:0:0:0:
256,192,193369,1,0,0:0:0:0:
256,192,194014,1,0,0:0:0:0:
256,96,194659,1,12,0:0:0:0:
