osu file format v14

[General]
AudioFilename: audio.mp3
AudioLeadIn: 0
PreviewTime: 119287
Countdown: 0
SampleSet: Soft
StackLeniency: 0.7
Mode: 3
LetterboxInBreaks: 0
SpecialStyle: 0
WidescreenStoryboard: 1

[Editor]
DistanceSpacing: 0.4
BeatDivisor: 16
GridSize: 32
TimelineZoom: 1.1

[Metadata]
Title:Loneliness and the Future
TitleUnicode:ひとりぼっちと未来
Artist:TUYU
ArtistUnicode:ツユ
Creator:Lami-
Version:Morning Glory
Source:
Tags:japanese jpop j-pop pop pusu hitoribocchi to mirai it's raining after all 5th
BeatmapID:3590641
BeatmapSetID:1754504

[Difficulty]
HPDrainRate:8
CircleSize:4
OverallDifficulty:8
ApproachRate:5
SliderMultiplier:1.4
SliderTickRate:1

[Events]
//Background and Video events
0,0,"FBLOi2GVIAAlxMd.jpg",0,0
//Break Periods
//Storyboard Layer 0 (Background)
//Storyboard Layer 1 (Fail)
//Storyboard Layer 2 (Pass)
//Storyboard Layer 3 (Foreground)
//Storyboard Layer 4 (Overlay)
//Storyboard Sound Samples

[TimingPoints]
1424,697.674418604651,4,2,1,100,1,0
50261,697.674418604651,4,2,1,100,1,0
71888,-100,4,2,1,100,0,1
89330,-100,4,2,1,100,0,0
119330,-100,4,2,1,100,0,1
136772,-100,4,2,1,100,0,0

[HitObjects]
64,192,377,128,0,551:0:0:0:0:
192,192,726,128,0,900:0:0:0:0:
320,192,1075,128,0,1249:0:0:0:0:
64,192,1424,128,0,4083:0:0:0:0:
448,192,1424,128,0,2165:0:0:0:0:
320,192,2470,128,0,2732:0:0:0:0:
448,192,2732,128,0,3168:0:0:0:0:
192,192,3865,128,0,4083:0:0:0:0:
320,192,4083,128,0,5173:0:0:0:0:
448,192,4214,128,0,6830:0:0:0:0:
64,192,4214,1,0,0:0:0:0:
64,192,4912,128,0,5173:0:0:0:0:
192,192,5261,128,0,5479:0:0:0:0:
64,192,5479,128,0,5958:0:0:0:0:
192,192,6656,128,0,6830:0:0:0:0:
64,192,6830,128,0,7877:0:0:0:0:
320,192,7005,128,0,8226:0:0:0:0:
448,192,7005,1,0,0:0:0:0:
448,192,8051,128,0,8226:0:0:0:0:
192,192,8226,128,0,9447:0:0:0:0:
448,192,8400,128,0,9708:0:0:0:0:
64,192,8400,1,0,0:0:0:0:
64,192,9447,128,0,9621:0:0:0:0:
320,192,9708,128,0,10493:0:0:0:0:
64,192,9796,128,0,11191:0:0:0:0:
192,192,9796,1,0,0:0:0:0:
320,192,11191,128,0,11540:0:0:0:0:
448,192,11191,1,0,0:0:0:0:
64,192,11540,128,0,11889:0:0:0:0:
192,192,11540,1,0,0:0:0:0:
192,192,11889,128,0,12237:0:0:0:0:
448,192,11889,128,0,12586:0:0:0:0:
320,192,12237,128,0,12586:0:0:0:0:
192,192,12586,128,0,13458:0:0:0:0:
64,192,12586,128,0,15028:0:0:0:0:
448,192,13633,128,0,13982:0:0:0:0:
320,192,13982,128,0,14330:0:0:0:0:
320,192,15028,128,0,15290:0:0:0:0:
192,192,15290,128,0,16249:0:0:0:0:
448,192,15377,128,0,16598:0:0:0:0:
64,192,15377,1,0,0:0:0:0:
64,192,16249,1,0,0:0:0:0:
320,192,16423,128,0,16598:0:0:0:0:
64,192,16598,128,0,17121:0:0:0:0:
320,192,16772,128,0,17993:0:0:0:0:
192,192,16772,1,0,0:0:0:0:
448,192,17819,128,0,17993:0:0:0:0:
64,192,17993,128,0,19040:0:0:0:0:
192,192,18168,128,0,19214:0:0:0:0:
320,192,18168,1,0,0:0:0:0:
448,192,19214,128,0,19476:0:0:0:0:
320,192,19476,128,0,20610:0:0:0:0:
64,192,19563,128,0,20958:0:0:0:0:
192,192,19563,1,0,0:0:0:0:
448,192,20610,128,0,20784:0:0:0:0:
192,192,20958,128,0,21307:0:0:0:0:
448,192,20958,128,0,22354:0:0:0:0:
192,192,22354,1,0,0:0:0:0:
64,192,22354,128,0,22703:0:0:0:0:
448,192,22703,128,0,23051:0:0:0:0:
320,192,22703,1,0,0:0:0:0:
320,192,23051,128,0,23400:0:0:0:0:
192,192,23051,1,0,0:0:0:0:
64,192,23400,1,0,0:0:0:0:
192,192,23400,128,0,23749:0:0:0:0:
64,192,23749,128,0,25144:0:0:0:0:
320,192,23749,128,0,24447:0:0:0:0:
448,192,24447,128,0,25144:0:0:0:0:
320,192,25144,128,0,26409:0:0:0:0:
192,192,25144,128,0,25493:0:0:0:0:
448,192,25493,128,0,25842:0:0:0:0:
64,192,25842,128,0,26235:0:0:0:0:
448,192,26235,128,0,26409:0:0:0:0:
64,192,26409,128,0,27237:0:0:0:0:
192,192,26540,128,0,27935:0:0:0:0:
448,192,26540,1,0,0:0:0:0:
448,192,27935,128,0,29330:0:0:0:0:
64,192,27935,128,0,28284:0:0:0:0:
320,192,28284,128,0,28633:0:0:0:0:
192,192,28633,128,0,28982:0:0:0:0:
64,192,28982,128,0,29330:0:0:0:0:
320,192,29330,128,0,30551:0:0:0:0:
192,192,29330,128,0,30203:0:0:0:0:
448,192,30377,128,0,30551:0:0:0:0:
64,192,30551,128,0,31075:0:0:0:0:
192,192,30726,128,0,31947:0:0:0:0:
320,192,30726,1,0,0:0:0:0:
320,192,31772,128,0,31947:0:0:0:0:
448,192,31947,128,0,32470:0:0:0:0:
64,192,32121,128,0,33517:0:0:0:0:
192,192,32121,1,0,0:0:0:0:
320,192,32470,128,0,32993:0:0:0:0:
192,192,33342,128,0,33517:0:0:0:0:
448,192,33517,128,0,33865:0:0:0:0:
320,192,33517,128,0,34737:0:0:0:0:
192,192,33865,128,0,34214:0:0:0:0:
64,192,34214,128,0,34389:0:0:0:0:
448,192,34389,128,0,34737:0:0:0:0:
192,192,34737,1,0,0:0:0:0:
64,192,34912,1,0,0:0:0:0:
448,192,34912,128,0,36307:0:0:0:0:
64,192,35610,128,0,36307:0:0:0:0:
320,192,36307,128,0,37397:0:0:0:0:
192,192,36307,128,0,36656:0:0:0:0:
64,192,36656,128,0,37005:0:0:0:0:
448,192,37005,128,0,37397:0:0:0:0:
192,192,37397,128,0,37703:0:0:0:0:
448,192,37703,1,0,0:0:0:0:
64,192,37703,128,0,38400:0:0:0:0:
448,192,38051,128,0,38226:0:0:0:0:
320,192,38226,128,0,38400:0:0:0:0:
448,192,38400,128,0,39098:0:0:0:0:
192,192,38400,128,0,38575:0:0:0:0:
320,192,38575,128,0,38749:0:0:0:0:
64,192,38749,128,0,39098:0:0:0:0:
320,192,39098,128,0,39796:0:0:0:0:
192,192,39098,1,0,0:0:0:0:
192,192,39796,128,0,40493:0:0:0:0:
64,192,39796,1,0,0:0:0:0:
448,192,40144,128,0,40319:0:0:0:0:
448,192,40493,128,0,41889:0:0:0:0:
320,192,40493,128,0,40668:0:0:0:0:
64,192,40886,128,0,40973:0:0:0:0:
64,192,41060,128,0,41278:0:0:0:0:
192,192,41540,128,0,41714:0:0:0:0:
320,192,41889,128,0,42063:0:0:0:0:
448,192,42237,128,0,42412:0:0:0:0:
64,192,42586,128,0,42761:0:0:0:0:
320,192,42586,128,0,42761:0:0:0:0:
448,192,42935,128,0,43110:0:0:0:0:
192,192,42935,128,0,43110:0:0:0:0:
64,192,43284,128,0,44330:0:0:0:0:
448,192,43284,128,0,43633:0:0:0:0:
192,192,43633,128,0,43982:0:0:0:0:
320,192,43982,128,0,44330:0:0:0:0:
448,192,44330,128,0,45726:0:0:0:0:
64,192,44679,128,0,45726:0:0:0:0:
192,192,46075,128,0,47470:0:0:0:0:
320,192,46075,128,0,47470:0:0:0:0:
64,192,49214,128,0,49389:0:0:0:0:
192,192,49563,128,0,49737:0:0:0:0:
320,192,49912,128,0,50086:0:0:0:0:
448,192,50261,128,0,50609:0:0:0:0:
64,192,50261,128,0,51656:0:0:0:0:
320,192,50609,128,0,50958:0:0:0:0:
192,192,50958,128,0,51307:0:0:0:0:
448,192,50958,1,0,0:0:0:0:
320,192,51307,128,0,51481:0:0:0:0:
320,192,51656,128,0,52005:0:0:0:0:
448,192,51656,128,0,53051:0:0:0:0:
64,192,52005,128,0,52354:0:0:0:0:
192,192,52354,128,0,52702:0:0:0:0:
320,192,52354,1,0,0:0:0:0:
320,192,52702,128,0,53051:0:0:0:0:
64,192,53051,128,0,54447:0:0:0:0:
192,192,53051,128,0,53400:0:0:0:0:
320,192,53400,128,0,53749:0:0:0:0:
448,192,53749,128,0,54098:0:0:0:0:
192,192,53749,1,0,0:0:0:0:
192,192,54098,128,0,54447:0:0:0:0:
448,192,54447,128,0,54795:0:0:0:0:
320,192,54447,128,0,55842:0:0:0:0:
192,192,54795,128,0,55144:0:0:0:0:
64,192,55144,128,0,55493:0:0:0:0:
448,192,55144,1,0,0:0:0:0:
448,192,55493,128,0,55842:0:0:0:0:
64,192,55842,128,0,56191:0:0:0:0:
192,192,55842,128,0,57237:0:0:0:0:
320,192,56191,128,0,56540:0:0:0:0:
448,192,56540,128,0,56888:0:0:0:0:
64,192,56540,1,0,0:0:0:0:
64,192,56888,128,0,57237:0:0:0:0:
320,192,57237,128,0,57586:0:0:0:0:
448,192,57237,128,0,58633:0:0:0:0:
192,192,57586,128,0,57935:0:0:0:0:
320,192,57935,1,0,0:0:0:0:
64,192,57935,128,0,58284:0:0:0:0:
192,192,58284,128,0,58633:0:0:0:0:
64,192,58633,128,0,60028:0:0:0:0:
320,192,58633,128,0,58981:0:0:0:0:
448,192,58981,128,0,59330:0:0:0:0:
192,192,59330,128,0,59679:0:0:0:0:
320,192,59330,1,0,0:0:0:0:
320,192,59679,128,0,59854:0:0:0:0:
320,192,60028,128,0,60377:0:0:0:0:
448,192,60028,128,0,61423:0:0:0:0:
192,192,60377,128,0,60726:0:0:0:0:
64,192,60726,128,0,61074:0:0:0:0:
320,192,60726,1,0,0:0:0:0:
192,192,61074,128,0,61423:0:0:0:0:
320,192,61423,128,0,62819:0:0:0:0:
64,192,61423,128,0,61772:0:0:0:0:
448,192,61772,128,0,62121:0:0:0:0:
192,192,62121,128,0,62470:0:0:0:0:
64,192,62121,1,0,0:0:0:0:
64,192,62470,128,0,62819:0:0:0:0:
192,192,62819,128,0,64214:0:0:0:0:
448,192,62819,128,0,63167:0:0:0:0:
320,192,63167,128,0,63516:0:0:0:0:
64,192,63516,128,0,63865:0:0:0:0:
448,192,63516,1,0,0:0:0:0:
320,192,63865,128,0,64214:0:0:0:0:
448,192,64214,128,0,65609:0:0:0:0:
64,192,64214,128,0,64563:0:0:0:0:
320,192,64563,128,0,64912:0:0:0:0:
192,192,64912,128,0,65261:0:0:0:0:
64,192,64912,1,0,0:0:0:0:
320,192,65261,128,0,65609:0:0:0:0:
64,192,65609,128,0,67005:0:0:0:0:
192,192,65609,128,0,65958:0:0:0:0:
320,192,65958,128,0,66307:0:0:0:0:
448,192,66307,128,0,66656:0:0:0:0:
192,192,66307,1,0,0:0:0:0:
320,192,66656,128,0,66874:0:0:0:0:
192,192,66874,128,0,67877:0:0:0:0:
448,192,67005,128,0,68269:0:0:0:0:
320,192,67005,1,0,0:0:0:0:
64,192,68051,128,0,68269:0:0:0:0:
320,192,68269,128,0,69447:0:0:0:0:
192,192,68400,1,0,0:0:0:0:
64,192,68400,128,0,69534:0:0:0:0:
448,192,69447,128,0,69534:0:0:0:0:
320,192,69665,128,0,71016:0:0:0:0:
64,192,71888,1,0,0:0:0:0:
448,192,71888,1,0,0:0:0:0:
64,192,72063,1,0,0:0:0:0:
320,192,72237,1,0,0:0:0:0:
192,192,72237,1,0,0:0:0:0:
320,192,72412,1,0,0:0:0:0:
192,192,72586,128,0,72761:0:0:0:0:
448,192,72586,1,0,0:0:0:0:
64,192,72761,128,0,72935:0:0:0:0:
448,192,72935,128,0,73284:0:0:0:0:
320,192,72935,1,0,0:0:0:0:
192,192,73109,1,0,0:0:0:0:
64,192,73109,1,0,0:0:0:0:
448,192,73458,1,0,0:0:0:0:
320,192,73458,1,0,0:0:0:0:
64,192,73633,1,0,0:0:0:0:
320,192,73807,1,0,0:0:0:0:
192,192,73807,1,0,0:0:0:0:
448,192,73981,128,0,74156:0:0:0:0:
64,192,73981,1,0,0:0:0:0:
320,192,74156,128,0,74330:0:0:0:0:
64,192,74330,128,0,74679:0:0:0:0:
192,192,74330,1,0,0:0:0:0:
320,192,74505,1,0,0:0:0:0:
448,192,74505,1,0,0:0:0:0:
192,192,74854,1,0,0:0:0:0:
320,192,74854,1,0,0:0:0:0:
448,192,75028,1,0,0:0:0:0:
64,192,75202,1,0,0:0:0:0:
320,192,75202,1,0,0:0:0:0:
192,192,75377,128,0,75551:0:0:0:0:
448,192,75377,1,0,0:0:0:0:
320,192,75551,128,0,75726:0:0:0:0:
448,192,75726,128,0,76074:0:0:0:0:
64,192,75726,1,0,0:0:0:0:
192,192,75900,1,0,0:0:0:0:
320,192,75900,1,0,0:0:0:0:
64,192,76249,1,0,0:0:0:0:
448,192,76249,1,0,0:0:0:0:
320,192,76423,1,0,0:0:0:0:
192,192,76598,1,0,0:0:0:0:
64,192,76598,1,0,0:0:0:0:
320,192,76772,128,0,76947:0:0:0:0:
448,192,76772,1,0,0:0:0:0:
192,192,76947,128,0,77121:0:0:0:0:
64,192,77121,128,0,77470:0:0:0:0:
448,192,77121,1,0,0:0:0:0:
320,192,77295,1,0,0:0:0:0:
192,192,77295,1,0,0:0:0:0:
448,192,77644,1,0,0:0:0:0:
320,192,77644,1,0,0:0:0:0:
192,192,77819,1,0,0:0:0:0:
64,192,77993,1,0,0:0:0:0:
320,192,77993,1,0,0:0:0:0:
192,192,78167,128,0,78342:0:0:0:0:
448,192,78167,1,0,0:0:0:0:
320,192,78342,128,0,78516:0:0:0:0:
64,192,78516,128,0,78865:0:0:0:0:
192,192,78516,1,0,0:0:0:0:
320,192,78691,1,0,0:0:0:0:
448,192,78691,1,0,0:0:0:0:
192,192,79040,1,0,0:0:0:0:
320,192,79040,1,0,0:0:0:0:
448,192,79214,1,0,0:0:0:0:
192,192,79388,1,0,0:0:0:0:
64,192,79388,1,0,0:0:0:0:
320,192,79563,128,0,79737:0:0:0:0:
448,192,79563,1,0,0:0:0:0:
192,192,79737,128,0,79912:0:0:0:0:
448,192,79912,128,0,80261:0:0:0:0:
64,192,79912,1,0,0:0:0:0:
320,192,80086,1,0,0:0:0:0:
192,192,80086,1,0,0:0:0:0:
64,192,80435,1,0,0:0:0:0:
320,192,80435,1,0,0:0:0:0:
192,192,80609,1,0,0:0:0:0:
448,192,80784,1,0,0:0:0:0:
320,192,80784,1,0,0:0:0:0:
64,192,80958,128,0,81307:0:0:0:0:
192,192,80958,1,0,0:0:0:0:
448,192,81307,128,0,81656:0:0:0:0:
320,192,81307,1,0,0:0:0:0:
64,192,81481,1,0,0:0:0:0:
192,192,81481,1,0,0:0:0:0:
320,192,81656,128,0,82005:0:0:0:0:
64,192,81830,1,0,0:0:0:0:
192,192,82005,128,0,82179:0:0:0:0:
448,192,82005,1,0,0:0:0:0:
64,192,82179,128,0,82702:0:0:0:0:
320,192,82354,1,0,0:0:0:0:
448,192,82354,128,0,83226:0:0:0:0:
192,192,82702,1,0,0:0:0:0:
320,192,82877,1,0,0:0:0:0:
64,192,82877,1,0,0:0:0:0:
192,192,83226,1,0,0:0:0:0:
320,192,83226,1,0,0:0:0:0:
448,192,83400,1,0,0:0:0:0:
64,192,83574,1,0,0:0:0:0:
192,192,83574,1,0,0:0:0:0:
320,192,83749,128,0,83923:0:0:0:0:
448,192,83749,1,0,0:0:0:0:
192,192,83923,128,0,84098:0:0:0:0:
64,192,84098,128,0,84447:0:0:0:0:
448,192,84098,1,0,0:0:0:0:
192,192,84272,1,0,0:0:0:0:
320,192,84272,1,0,0:0:0:0:
64,192,84621,1,0,0:0:0:0:
192,192,84621,1,0,0:0:0:0:
320,192,84795,1,0,0:0:0:0:
448,192,84970,1,0,0:0:0:0:
192,192,84970,1,0,0:0:0:0:
320,192,85144,128,0,85319:0:0:0:0:
64,192,85144,1,0,0:0:0:0:
448,192,85319,128,0,85493:0:0:0:0:
192,192,85493,128,0,85842:0:0:0:0:
320,192,85493,1,0,0:0:0:0:
64,192,85667,1,0,0:0:0:0:
448,192,85667,1,0,0:0:0:0:
320,192,86016,1,0,0:0:0:0:
192,192,86016,1,0,0:0:0:0:
448,192,86191,1,0,0:0:0:0:
64,192,86365,1,0,0:0:0:0:
320,192,86365,1,0,0:0:0:0:
448,192,86540,128,0,86714:0:0:0:0:
192,192,86540,1,0,0:0:0:0:
320,192,86714,128,0,86888:0:0:0:0:
192,192,86888,128,0,87237:0:0:0:0:
64,192,86888,1,0,0:0:0:0:
320,192,87063,1,0,0:0:0:0:
448,192,87063,1,0,0:0:0:0:
64,192,87412,1,0,0:0:0:0:
192,192,87412,1,0,0:0:0:0:
320,192,87586,1,0,0:0:0:0:
448,192,87586,1,0,0:0:0:0:
192,192,87761,1,0,0:0:0:0:
64,192,87935,128,0,88109:0:0:0:0:
448,192,87935,1,0,0:0:0:0:
192,192,88109,128,0,88284:0:0:0:0:
320,192,88284,128,0,88633:0:0:0:0:
448,192,88284,1,0,0:0:0:0:
192,192,88458,1,0,0:0:0:0:
64,192,88458,1,0,0:0:0:0:
448,192,88807,1,0,0:0:0:0:
192,192,88807,1,0,0:0:0:0:
320,192,88981,1,0,0:0:0:0:
64,192,88981,1,0,0:0:0:0:
192,192,89156,1,0,0:0:0:0:
448,192,89330,128,0,90377:0:0:0:0:
320,192,89330,128,0,89854:0:0:0:0:
64,192,90028,128,0,90377:0:0:0:0:
192,192,90377,128,0,90726:0:0:0:0:
448,192,90726,128,0,91598:0:0:0:0:
320,192,90726,128,0,92034:0:0:0:0:
64,192,91772,128,0,92034:0:0:0:0:
448,192,92034,128,0,92470:0:0:0:0:
192,192,92121,128,0,93516:0:0:0:0:
64,192,92121,1,0,0:0:0:0:
320,192,93516,128,0,93604:0:0:0:0:
448,192,93516,128,0,93604:0:0:0:0:
64,192,93865,128,0,94040:0:0:0:0:
192,192,94214,128,0,94388:0:0:0:0:
320,192,94563,128,0,94737:0:0:0:0:
64,192,94912,128,0,95609:0:0:0:0:
448,192,94912,128,0,97572:0:0:0:0:
320,192,95958,128,0,96220:0:0:0:0:
64,192,96220,128,0,96656:0:0:0:0:
320,192,97354,128,0,97572:0:0:0:0:
192,192,97572,128,0,98574:0:0:0:0:
320,192,97702,128,0,100319:0:0:0:0:
64,192,97702,1,0,0:0:0:0:
448,192,98749,128,0,98967:0:0:0:0:
64,192,98967,128,0,99447:0:0:0:0:
448,192,100144,128,0,100319:0:0:0:0:
192,192,100319,128,0,101365:0:0:0:0:
64,192,100493,128,0,101714:0:0:0:0:
320,192,100493,1,0,0:0:0:0:
320,192,101540,128,0,101714:0:0:0:0:
448,192,101714,128,0,102935:0:0:0:0:
192,192,101888,128,0,103284:0:0:0:0:
64,192,101888,1,0,0:0:0:0:
320,192,102935,128,0,103109:0:0:0:0:
64,192,103197,128,0,103981:0:0:0:0:
448,192,103284,128,0,104679:0:0:0:0:
320,192,103284,1,0,0:0:0:0:
192,192,104679,1,0,0:0:0:0:
64,192,104679,128,0,105028:0:0:0:0:
192,192,105028,128,0,105377:0:0:0:0:
320,192,105028,1,0,0:0:0:0:
448,192,105377,1,0,0:0:0:0:
320,192,105377,128,0,106074:0:0:0:0:
192,192,105726,128,0,106074:0:0:0:0:
448,192,106074,128,0,106947:0:0:0:0:
64,192,106074,128,0,108691:0:0:0:0:
192,192,107121,128,0,107339:0:0:0:0:
448,192,107339,128,0,107644:0:0:0:0:
320,192,108516,128,0,108691:0:0:0:0:
448,192,108691,128,0,109737:0:0:0:0:
192,192,108865,128,0,110086:0:0:0:0:
64,192,108865,1,0,0:0:0:0:
320,192,109912,128,0,110086:0:0:0:0:
64,192,110086,128,0,110609:0:0:0:0:
448,192,110260,128,0,111481:0:0:0:0:
320,192,110260,1,0,0:0:0:0:
192,192,111307,128,0,111481:0:0:0:0:
64,192,111481,128,0,112354:0:0:0:0:
320,192,111656,128,0,112877:0:0:0:0:
448,192,111656,1,0,0:0:0:0:
192,192,112702,128,0,112877:0:0:0:0:
448,192,112877,128,0,114098:0:0:0:0:
64,192,113051,128,0,114272:0:0:0:0:
192,192,113051,1,0,0:0:0:0:
320,192,114098,128,0,114272:0:0:0:0:
448,192,114359,128,0,115842:0:0:0:0:
448,192,119330,1,0,0:0:0:0:
64,192,119330,1,0,0:0:0:0:
64,192,119505,1,0,0:0:0:0:
320,192,119679,1,0,0:0:0:0:
192,192,119679,1,0,0:0:0:0:
320,192,119854,1,0,0:0:0:0:
448,192,120028,128,0,120202:0:0:0:0:
64,192,120028,1,0,0:0:0:0:
320,192,120202,128,0,120377:0:0:0:0:
64,192,120377,128,0,120726:0:0:0:0:
192,192,120377,1,0,0:0:0:0:
320,192,120551,1,0,0:0:0:0:
448,192,120551,1,0,0:0:0:0:
64,192,120900,1,0,0:0:0:0:
192,192,120900,1,0,0:0:0:0:
448,192,121074,1,0,0:0:0:0:
192,192,121249,1,0,0:0:0:0:
320,192,121249,1,0,0:0:0:0:
64,192,121423,128,0,121598:0:0:0:0:
448,192,121423,1,0,0:0:0:0:
192,192,121598,128,0,121772:0:0:0:0:
448,192,121772,128,0,122121:0:0:0:0:
320,192,121772,1,0,0:0:0:0:
192,192,121947,1,0,0:0:0:0:
64,192,121947,1,0,0:0:0:0:
320,192,122295,1,0,0:0:0:0:
192,192,122295,1,0,0:0:0:0:
64,192,122470,1,0,0:0:0:0:
448,192,122644,1,0,0:0:0:0:
192,192,122644,1,0,0:0:0:0:
320,192,122819,128,0,122993:0:0:0:0:
64,192,122819,1,0,0:0:0:0:
192,192,122993,128,0,123167:0:0:0:0:
64,192,123167,128,0,123516:0:0:0:0:
448,192,123167,1,0,0:0:0:0:
320,192,123342,1,0,0:0:0:0:
192,192,123342,1,0,0:0:0:0:
448,192,123691,1,0,0:0:0:0:
320,192,123691,1,0,0:0:0:0:
192,192,123865,1,0,0:0:0:0:
64,192,124040,1,0,0:0:0:0:
320,192,124040,1,0,0:0:0:0:
192,192,124214,128,0,124388:0:0:0:0:
448,192,124214,1,0,0:0:0:0:
320,192,124388,128,0,124563:0:0:0:0:
448,192,124563,128,0,124912:0:0:0:0:
64,192,124563,1,0,0:0:0:0:
192,192,124737,1,0,0:0:0:0:
320,192,124737,1,0,0:0:0:0:
64,192,125086,1,0,0:0:0:0:
192,192,125086,1,0,0:0:0:0:
320,192,125260,1,0,0:0:0:0:
448,192,125435,1,0,0:0:0:0:
192,192,125435,1,0,0:0:0:0:
320,192,125609,128,0,125784:0:0:0:0:
64,192,125609,1,0,0:0:0:0:
192,192,125784,128,0,125958:0:0:0:0:
448,192,125958,128,0,126307:0:0:0:0:
320,192,125958,1,0,0:0:0:0:
192,192,126133,1,0,0:0:0:0:
64,192,126133,1,0,0:0:0:0:
320,192,126481,1,0,0:0:0:0:
192,192,126481,1,0,0:0:0:0:
64,192,126656,1,0,0:0:0:0:
320,192,126830,1,0,0:0:0:0:
448,192,126830,1,0,0:0:0:0:
192,192,127005,128,0,127179:0:0:0:0:
64,192,127005,1,0,0:0:0:0:
320,192,127179,128,0,127354:0:0:0:0:
64,192,127354,128,0,127702:0:0:0:0:
448,192,127354,1,0,0:0:0:0:
192,192,127528,1,0,0:0:0:0:
320,192,127528,1,0,0:0:0:0:
320,192,127877,1,0,0:0:0:0:
192,192,127877,1,0,0:0:0:0:
448,192,128051,1,0,0:0:0:0:
64,192,128226,1,0,0:0:0:0:
192,192,128226,1,0,0:0:0:0:
448,192,128400,128,0,128749:0:0:0:0:
320,192,128400,1,0,0:0:0:0:
64,192,128749,128,0,129098:0:0:0:0:
192,192,128749,1,0,0:0:0:0:
448,192,128923,1,0,0:0:0:0:
320,192,128923,1,0,0:0:0:0:
192,192,129098,128,0,129447:0:0:0:0:
448,192,129272,1,0,0:0:0:0:
320,192,129447,128,0,129621:0:0:0:0:
64,192,129447,1,0,0:0:0:0:
448,192,129621,128,0,130144:0:0:0:0:
192,192,129795,1,0,0:0:0:0:
64,192,129795,128,0,130667:0:0:0:0:
320,192,130144,1,0,0:0:0:0:
448,192,130319,1,0,0:0:0:0:
192,192,130319,1,0,0:0:0:0:
320,192,130667,1,0,0:0:0:0:
192,192,130667,1,0,0:0:0:0:
64,192,130842,1,0,0:0:0:0:
320,192,131016,1,0,0:0:0:0:
448,192,131016,1,0,0:0:0:0:
192,192,131191,128,0,131365:0:0:0:0:
64,192,131191,1,0,0:0:0:0:
320,192,131365,128,0,131540:0:0:0:0:
448,192,131540,128,0,131888:0:0:0:0:
64,192,131540,1,0,0:0:0:0:
320,192,131714,1,0,0:0:0:0:
192,192,131714,1,0,0:0:0:0:
448,192,132063,1,0,0:0:0:0:
320,192,132063,1,0,0:0:0:0:
192,192,132237,1,0,0:0:0:0:
64,192,132412,1,0,0:0:0:0:
320,192,132412,1,0,0:0:0:0:
192,192,132586,128,0,132761:0:0:0:0:
448,192,132586,1,0,0:0:0:0:
64,192,132761,128,0,132935:0:0:0:0:
320,192,132935,128,0,133284:0:0:0:0:
192,192,132935,1,0,0:0:0:0:
448,192,133109,1,0,0:0:0:0:
64,192,133109,1,0,0:0:0:0:
192,192,133458,1,0,0:0:0:0:
448,192,133458,1,0,0:0:0:0:
64,192,133633,1,0,0:0:0:0:
320,192,133807,1,0,0:0:0:0:
192,192,133807,1,0,0:0:0:0:
64,192,133981,128,0,134156:0:0:0:0:
448,192,133981,1,0,0:0:0:0:
192,192,134156,128,0,134330:0:0:0:0:
320,192,134330,128,0,134679:0:0:0:0:
448,192,134330,1,0,0:0:0:0:
192,192,134505,1,0,0:0:0:0:
64,192,134505,1,0,0:0:0:0:
448,192,134854,1,0,0:0:0:0:
320,192,134854,1,0,0:0:0:0:
192,192,135028,1,0,0:0:0:0:
64,192,135028,1,0,0:0:0:0:
320,192,135202,1,0,0:0:0:0:
448,192,135377,128,0,135551:0:0:0:0:
64,192,135377,1,0,0:0:0:0:
320,192,135551,128,0,135726:0:0:0:0:
192,192,135726,128,0,136074:0:0:0:0:
64,192,135726,1,0,0:0:0:0:
320,192,135900,1,0,0:0:0:0:
448,192,135900,1,0,0:0:0:0:
64,192,136249,1,0,0:0:0:0:
320,192,136249,1,0,0:0:0:0:
192,192,136423,1,0,0:0:0:0:
448,192,136423,1,0,0:0:0:0:
320,192,136598,1,0,0:0:0:0:
64,192,136772,128,0,137295:0:0:0:0:
448,192,136772,128,0,137819:0:0:0:0:
320,192,137470,128,0,137819:0:0:0:0:
192,192,137819,128,0,138167:0:0:0:0:
448,192,138167,128,0,139040:0:0:0:0:
64,192,138167,128,0,139432:0:0:0:0:
320,192,138865,128,0,139040:0:0:0:0:
192,192,139214,128,0,139432:0:0:0:0:
448,192,139432,128,0,139912:0:0:0:0:
192,192,139563,128,0,141016:0:0:0:0:
64,192,139563,1,0,0:0:0:0:
448,192,141016,128,0,143574:0:0:0:0:
320,192,141365,128,0,141772:0:0:0:0:
192,192,141772,128,0,142179:0:0:0:0:
64,192,142179,128,0,143574:0:0:0:0:
320,192,142528,128,0,143574:0:0:0:0:
