osu file format v14

[General]
AudioFilename: audio.mp3
AudioLeadIn: 0
PreviewTime: 152228
Countdown: 0
SampleSet: Normal
StackLeniency: 0.5
Mode: 0
LetterboxInBreaks: 0
WidescreenStoryboard: 1

[Editor]
Bookmarks: 61907
DistanceSpacing: 1.3
BeatDivisor: 4
GridSize: 4
TimelineZoom: 2

[Metadata]
Title:Kuraberarekko (TUYU Remix)
TitleUnicode:くらべられっ子 (TUYU Remix)
Artist:TUYU
ArtistUnicode:ツユ
Creator:SnowNiNo_
Version:lfj's Inferior
Source:
Tags:jpop j-pop miro ミロ compared child it's raining after all やっぱり雨は降るんだね 礼衣 reii ぷす pusu kun おむたつ omutatsu azyun japanese novelty pop jonathanlfj bossandy Silent Rock Deppyforce Dogerinoo
BeatmapID:2476304
BeatmapSetID:1182767

[Difficulty]
HPDrainRate:6
CircleSize:4
OverallDifficulty:9
ApproachRate:9.3
SliderMultiplier:1.9
SliderTickRate:1

[Events]
//Background and Video events
0,0,"EZV-Zx1U8AYVY7z.jpg",0,0
Video,0,"video.avi"
//Break Periods
//Storyboard Layer 0 (Background)
//Storyboard Layer 1 (Fail)
//Storyboard Layer 2 (Pass)
//Storyboard Layer 3 (Foreground)
//Storyboard Layer 4 (Overlay)
//Storyboard Sound Samples

[TimingPoints]
1301,309.278350515464,4,2,10,40,1,0
1301,-142.857142857143,4,2,10,40,0,0
16146,-142.857142857143,4,2,10,45,0,0
19857,-142.857142857143,4,2,10,50,0,0
21094,-100,4,1,10,60,0,0
30991,-125,4,2,10,50,0,0
35553,-66.6666666666667,4,2,10,50,0,0
35862,-66.6666666666667,4,2,10,5,0,0
35940,-100,4,1,10,60,0,0
44599,-166.666666666667,4,1,10,60,0,0
45837,-111.111111111111,4,1,10,50,0,0
55733,-100,4,1,10,60,0,0
59445,-100,4,1,10,70,0,0
60682,-200,4,2,10,40,0,0
61919,-90.9090909090909,4,1,10,70,0,1
76764,-100,4,1,10,60,0,0
79239,-90.9090909090909,4,1,10,70,0,1
81249,-80,4,1,10,70,0,1
81713,-100,4,1,10,60,0,0
91610,-125,4,2,10,50,0,0
96172,-66.6666666666667,4,2,10,50,0,0
96481,-66.6666666666667,4,2,10,5,0,0
96558,-100,4,1,10,60,0,0
105218,-166.666666666667,4,1,10,60,0,0
106455,-111.111111111111,4,1,10,50,0,0
116352,-100,4,1,10,60,0,0
120063,-100,4,1,10,70,0,0
121301,-100,4,2,10,50,0,0
121919,-90.9090909090909,4,1,10,60,0,0
122538,-83.3333333333333,4,1,10,70,0,1
137383,-95.2380952380952,4,1,10,60,0,0
139857,-83.3333333333333,4,1,10,70,0,1
141868,-76.9230769230769,4,1,10,70,0,1
142331,-90.9090909090909,4,1,10,60,0,0
152228,-200,4,2,10,40,0,0
157177,-125,4,1,10,50,0,0
159651,-90.9090909090909,4,1,10,60,0,0
159960,-83.3333333333333,4,1,10,60,0,0
160270,-76.9230769230769,4,1,10,60,0,0
160579,-71.4285714285714,4,1,10,60,0,0
160888,-133.333333333333,4,1,10,60,0,0
161507,-142.857142857143,4,1,10,20,0,0
162125,-76.9230769230769,4,1,10,70,0,1
176971,-90.9090909090909,4,1,10,60,0,0
179445,-76.9230769230769,4,1,10,70,0,1
180991,-71.4285714285714,4,1,10,70,0,1
181301,-66.6666666666667,4,1,10,70,0,1
181842,-76.9230769230769,4,1,10,70,0,0
181919,-71.4285714285714,4,1,10,75,0,1
196764,-86.9565217391304,4,1,10,65,0,0
199239,-71.4285714285714,4,1,10,75,0,1
201249,-66.6666666666667,4,1,10,75,0,1
201713,-90.9090909090909,4,1,10,65,0,0

[Colours]
Combo1 : 17,254,176
Combo2 : 173,255,95
Combo3 : 255,88,100
Combo4 : 255,94,55

[HitObjects]
61,192,1301,54,0,P|106:202|153:222,1,88.6666639607748,4|0,0:0|0:0,0:0:0:0:
209,137,1610,2,0,P|264:123|310:103,1,88.6666639607748,2|0,0:3|0:0,0:0:0:0:
364,190,1919,1,2,0:0:0:0:
464,162,2074,1,0,0:0:0:0:
354,193,2228,1,2,0:3:0:0:
474,159,2383,1,2,0:0:0:0:
325,92,2538,6,0,L|235:81,1,88.6666639607748,2|0,0:0|0:0,0:0:0:0:
160,196,2847,2,0,L|252:184,1,88.6666639607748,2|0,0:3|0:0,0:0:0:0:
322,297,3156,1,2,0:0:0:0:
218,285,3311,1,0,0:0:0:0:
329,286,3465,1,2,0:3:0:0:
211,298,3620,1,2,0:0:0:0:
270,182,3775,5,2,0:0:0:0:
270,182,4084,2,0,B|280:140|280:140|264:87,1,88.6666639607748,2|0,0:3|0:0,0:0:0:0:
136,46,4393,1,2,0:0:0:0:
185,143,4548,1,0,0:0:0:0:
146,39,4703,1,2,0:3:0:0:
177,153,4857,2,0,L|170:194,1,33.2499989852906,2|0,0:0|0:0,0:0:0:0:
130,259,5012,6,0,B|159:276|192:267|192:267|225:259|259:276,1,132.999995941162,2|2,0:0|0:3,0:0:0:0:
258,275,5630,2,0,L|251:209,1,66.4999979705811,2|0,0:0|0:0,0:0:0:0:
348,318,5940,2,0,L|356:243,1,66.4999979705811,2|2,0:3|0:0,0:0:0:0:
403,102,6249,6,0,P|365:111|336:141,1,66.4999979705811,2|0,0:0|0:0,0:0:0:0:
430,225,6558,2,0,P|463:219|491:196,1,66.4999979705811,2|0,0:3|0:0,0:0:0:0:
486,11,6868,1,2,0:0:0:0:
403,103,7022,1,0,0:0:0:0:
504,166,7177,2,0,L|495:89,1,66.4999979705811,2|0,0:3|0:0,0:0:0:0:
386,9,7486,5,2,0:0:0:0:
237,173,7692,1,0,0:0:0:0:
237,173,7795,1,2,0:3:0:0:
426,291,8002,1,0,0:0:0:0:
426,291,8105,1,2,0:0:0:0:
320,97,8311,1,0,0:0:0:0:
320,97,8414,1,2,0:3:0:0:
105,150,8620,1,0,0:0:0:0:
105,150,8723,6,0,B|86:191|86:191|95:243,1,88.6666639607748,2|0,0:0|0:0,0:0:0:0:
168,307,9032,2,0,L|263:294,1,88.6666639607748,2|0,0:3|0:0,0:0:0:0:
315,208,9342,1,2,0:0:0:0:
488,360,9651,2,0,P|445:341|392:332,1,88.6666639607748,2|0,0:3|0:0,0:0:0:0:
300,361,9960,6,0,L|315:216,1,132.999995941162,2|2,0:0|0:3,0:0:0:0:
313,228,10579,2,0,P|265:232|219:227,1,88.6666639607748,2|0,0:0|0:0,0:0:0:0:
144,296,10888,2,0,P|88:288|49:289,1,88.6666639607748,2|0,0:3|0:0,0:0:0:0:
39,183,11197,6,0,P|87:166|137:139,1,88.6666639607748,2|0,0:0|0:0,0:0:0:0:
186,57,11507,1,2,0:3:0:0:
357,196,11816,2,0,P|302:157|237:156,1,132.999995941162,2|2,0:0|0:3,0:0:0:0:
167,325,12331,1,0,0:0:0:0:
167,325,12435,6,0,L|258:302,1,88.6666639607748,2|0,0:0|0:0,0:0:0:0:
360,333,12744,1,2,0:3:0:0:
198,196,13053,2,0,L|350:226,1,132.999995941162,2|2,0:0|0:3,0:0:0:0:
328,221,13672,5,2,0:0:0:0:
151,53,13878,1,0,0:0:0:0:
151,53,13981,1,2,0:3:0:0:
94,290,14187,1,0,0:0:0:0:
94,290,14290,2,0,P|138:276|180:192,1,132.999995941162,2|2,0:0|0:3,0:0:0:0:
17,228,14754,1,0,0:0:0:0:
144,371,14909,6,0,B|181:377|208:363|208:363|240:346|274:356,1,132.999995941162,2|2,0:0|0:3,0:0:0:0:
273,356,15527,2,0,P|255:312|252:265,1,88.6666639607748,2|0,0:0|0:0,0:0:0:0:
348,204,15837,2,0,P|360:158|356:110,1,88.6666639607748,2|0,0:3|0:0,0:0:0:0:
265,39,16146,5,2,0:0:0:0:
355,325,16455,1,0,0:0:0:0:
348,204,16610,1,2,0:0:0:0:
251,271,16764,1,2,0:0:0:0:
452,258,16919,1,0,0:0:0:0:
452,258,16996,1,0,0:0:0:0:
452,258,17074,2,0,P|478:213|441:137,1,132.999995941162,2|0,0:0|0:0,0:0:0:0:
345,105,17538,5,0,0:0:0:0:
338,130,17615,1,0,0:0:0:0:
341,156,17692,1,2,0:0:0:0:
438,39,17847,1,0,0:0:0:0:
240,115,18002,1,2,0:0:0:0:
449,142,18156,1,0,0:0:0:0:
283,20,18311,1,0,0:0:0:0:
406,234,18465,1,0,0:0:0:0:
177,168,18620,6,0,L|320:150,1,132.999995941162,2|0,0:0|0:0,0:0:0:0:
141,293,19239,2,0,L|4:273,1,132.999995941162,2|0,0:0|0:0,0:0:0:0:
256,355,19857,5,4,1:0:0:0:
256,355,20476,1,2,0:3:0:0:
256,355,21094,6,2,P|290:297|260:227,1,142.5,6|0,0:0|2:0,0:0:0:0:
164,162,21404,2,2,B|132:176|132:176|14:164,1,142.5,10|0,0:0|2:0,0:0:0:0:
120,78,21713,2,0,L|179:69,1,47.5,2|0,0:2|2:0,0:0:0:0:
217,238,21868,2,0,L|263:231,1,47.5,0|0,0:0|2:0,0:0:0:0:
334,83,22022,1,8,0:0:0:0:
164,162,22177,1,2,2:0:0:0:
339,275,22331,6,0,B|352:230|352:230|335:182,1,95,0|0,0:0|2:0,0:0:0:0:
243,28,22641,1,8,0:0:0:0:
263,230,22795,1,0,0:0:0:0:
380,69,22950,2,0,L|325:86,1,47.5,2|0,0:2|2:0,0:0:0:0:
163,98,23105,2,0,L|101:85,1,47.5,0|0,0:0|2:0,0:0:0:0:
243,28,23259,2,0,L|255:137,1,95,8|2,0:0|2:0,0:0:0:0:
207,357,23569,6,2,P|158:320|193:237,1,142.5,2|0,0:0|2:0,0:0:0:0:
293,270,23878,2,2,B|332:277|362:260|362:260|393:243|431:253,1,142.5,10|0,0:0|2:0,0:0:0:0:
453,347,24187,2,0,P|425:348|393:340,1,47.5,2|0,0:2|2:0,0:0:0:0:
316,176,24342,2,0,P|324:159|346:132,1,47.5,0|0,0:0|2:0,0:0:0:0:
281,295,24496,2,2,P|233:315|150:280,1,142.5,10|0,0:0|2:0,0:0:0:0:
92,141,24806,5,0,0:0:0:0:
92,141,24960,1,0,2:0:0:0:
34,270,25115,2,2,L|191:247,1,142.5,10|0,0:0|2:0,0:0:0:0:
269,237,25424,2,0,L|260:297,1,47.5,2|0,0:2|2:0,0:0:0:0:
201,115,25579,2,0,L|211:175,1,47.5,0|0,0:0|2:0,0:0:0:0:
264,41,25733,1,8,0:0:0:0:
174,249,25888,1,2,2:1:0:0:
36,47,26043,6,2,B|94:11|94:11|182:27,1,142.5,2|0,0:0|2:0,0:0:0:0:
296,128,26352,2,2,B|369:141|369:141|427:105,1,142.5,10|0,0:0|2:0,0:0:0:0:
342,0,26661,2,0,L|352:59,1,47.5,2|0,0:2|2:0,0:0:0:0:
188,179,26816,2,0,L|200:109,1,47.5,0|0,0:0|2:0,0:0:0:0:
252,1,26971,1,8,0:0:0:0:
272,243,27125,1,2,2:0:0:0:
69,135,27280,6,0,L|165:116,1,95,0|2,0:0|2:0,0:0:0:0:
343,81,27589,1,10,0:0:0:0:
98,34,27744,1,0,2:0:0:0:
342,175,27898,2,0,L|396:164,1,47.5,2|0,0:2|2:0,0:0:0:0:
133,239,28053,2,0,L|70:232,1,47.5,0|0,0:0|2:0,0:0:0:0:
227,335,28208,1,10,0:0:0:0:
190,121,28362,1,2,2:1:0:0:
354,260,28517,6,2,P|281:246|250:181,1,142.5,2|0,0:0|2:0,0:0:0:0:
286,97,28826,1,10,0:0:0:0:
293,91,28904,1,2,2:0:0:0:
300,85,28981,1,2,2:0:0:0:
307,79,29058,1,0,2:0:0:0:
314,73,29136,2,0,L|325:124,1,47.5,2|0,0:0|2:0,0:0:0:0:
170,256,29290,2,0,L|160:206,1,47.5,0|0,0:0|2:0,0:0:0:0:
364,205,29445,2,2,B|317:217|317:217|268:196,1,95,10|0,0:0|2:0,0:0:0:0:
46,65,29754,6,2,B|108:58|108:58|159:21|159:21|224:18,2,190,2|8|0,0:0|0:0|0:0,0:0:0:0:
203,121,30527,1,8,0:0:0:0:
15,222,30682,1,8,0:0:0:0:
234,282,30837,1,0,0:0:0:0:
234,282,30914,1,0,0:0:0:0:
234,282,30991,5,2,1:2:0:0:
142,317,31301,2,0,L|136:266,1,38
191,198,31455,2,0,L|194:163,2,19
234,282,31610,5,8,0:0:0:0:
311,223,31919,1,0,0:0:0:0:
386,285,32228,5,2,1:2:0:0:
446,209,32383,1,0,0:0:0:0:
372,147,32538,2,0,L|367:104,1,38
426,33,32692,2,0,L|428:5,2,19
463,118,32847,5,8,0:0:0:0:
372,147,33156,1,0,0:0:0:0:
285,104,33465,5,2,1:2:0:0:
213,168,33620,1,0,0:0:0:0:
128,123,33775,2,0,L|80:119,1,38
25,190,33929,2,0,L|1:193,2,19
106,237,34084,5,8,0:0:0:0:
49,315,34393,1,0,0:0:0:0:
134,360,34703,5,2,1:2:0:0:
228,341,34857,1,0,0:0:0:0:
323,321,35012,2,0,L|321:361,1,38
418,300,35166,2,0,L|416:266,2,19
338,227,35321,5,8,0:0:0:0:
80,258,35553,1,0,1:0:0:0:
115,264,35630,2,0,B|142:216|120:158|120:158|99:105|129:55,1,213.750008153916,8|0,1:3|0:0,0:0:0:0:
228,22,35940,6,0,P|228:78|211:129,1,95,4|0,0:0|2:0,0:0:0:0:
340,141,36249,2,0,P|355:181|390:228,1,95,8|0,0:2|2:0,0:0:0:0:
156,246,36558,2,0,P|124:275|73:298,1,95,2|0,0:2|2:0,0:0:0:0:
392,338,36868,2,0,P|432:355|500:368,1,95,8|0,0:2|2:0,0:0:0:0:
255,362,37177,6,0,B|249:317|249:317|265:271,1,95,2|0,0:2|2:0,0:0:0:0:
403,107,37486,2,0,B|367:135|367:135|319:144,1,95,8|0,0:2|2:0,0:0:0:0:
109,106,37795,2,0,B|151:123|151:123|183:160,1,95,2|0,0:2|2:0,0:0:0:0:
183,160,38027,1,0,2:0:0:0:
183,160,38105,1,8,0:2:0:0:
7,136,38259,1,0,2:0:0:0:
191,40,38414,6,0,B|238:47|238:47|278:79|278:79|327:86,1,142.5,2|0,0:2|2:0,0:0:0:0:
407,61,38723,2,0,L|416:162,1,95,8|0,0:2|2:0,0:0:0:0:
301,296,39032,1,2,0:2:0:0:
491,224,39187,1,0,2:0:0:0:
317,192,39342,1,8,0:2:0:0:
400,371,39496,1,0,2:0:0:0:
193,346,39651,6,0,L|199:251,1,95,2|0,0:2|2:0,0:0:0:0:
166,11,39960,2,0,L|158:105,1,95,8|0,0:2|2:0,0:0:0:0:
100,295,40270,1,2,0:2:0:0:
70,133,40424,5,8,2:0:0:0:
256,192,40579,1,8,0:2:0:0:
442,251,40733,1,8,2:0:0:0:
304,260,40888,6,0,P|294:194|292:104,1,142.5,4|0,0:0|2:0,0:0:0:0:
355,48,41197,2,0,P|326:86|285:122,1,95,8|0,0:2|2:0,0:0:0:0:
114,124,41507,1,2,0:2:0:0:
248,18,41661,1,0,2:0:0:0:
205,187,41816,1,8,0:2:0:0:
139,22,41971,1,2,2:0:0:0:
32,163,42125,6,0,L|187:185,1,142.5,2|0,0:2|2:0,0:0:0:0:
123,288,42435,2,0,L|271:257,1,142.5,8|0,0:2|2:0,0:0:0:0:
380,231,42744,1,2,0:2:0:0:
247,119,42898,1,0,2:0:0:0:
247,119,42976,1,0,2:0:0:0:
247,119,43053,1,8,0:2:0:0:
343,339,43208,1,2,2:0:0:0:
502,154,43362,6,0,P|512:104|509:59,1,95,2|0,0:3|2:0,0:0:0:0:
295,211,43672,2,0,P|367:213|448:251,1,142.5,8|0,2:2|2:0,0:0:0:0:
488,333,43981,1,2,0:3:0:0:
231,298,44136,1,0,0:0:0:0:
366,88,44290,2,0,P|373:136|371:194,1,95,8|0,2:2|2:0,0:0:0:0:
152,355,44599,6,0,B|129:346|102:346|102:346|64:313|65:258|112:221|161:233,1,227.999993041992,4|8,0:0|2:0,0:0:0:0:
160,232,45682,2,0,L|163:276,1,28.4999991302491,0|2,2:0|2:0,2:0:0:0:
252,235,45837,6,0,P|291:188|239:107,1,170.999994781494,4|0,0:0|2:0,0:0:0:0:
160,232,46301,1,0,2:0:0:0:
291,321,46455,2,0,P|332:315|386:314,1,85.4999973907472,8|0,0:0|2:0,0:0:0:0:
489,215,46764,2,0,P|435:200|401:187,1,85.4999973907472,2|0,2:0|2:0,0:0:0:0:
256,64,47074,5,0,0:0:0:0:
353,10,47228,2,0,P|360:56|358:106,1,85.4999973907472,2|0,2:0|0:0,0:0:0:0:
243,243,47538,1,2,2:0:0:0:
114,133,47692,2,0,L|204:148,1,85.4999973907472,8|0,0:0|2:0,0:0:0:0:
279,157,47924,1,0,2:0:0:0:
279,157,48002,2,0,L|275:100,1,42.7499986953736,0|0,2:2|2:2,2:2:0:0:
359,171,48156,2,0,L|354:222,1,42.7499986953736,0|0,2:0|2:0,2:0:0:0:
315,288,48311,6,0,P|356:259|465:297,1,170.999994781494,2|0,0:2|2:0,0:0:0:0:
307,375,48775,1,0,2:0:0:0:
262,215,48929,1,8,0:0:0:0:
388,340,49084,1,0,2:0:0:0:
191,275,49239,2,0,L|142:259,1,42.7499986953736,2|0,2:0|2:0,2:0:0:0:
334,154,49393,2,0,L|383:170,1,42.7499986953736,2|0,2:0|2:0,2:0:0:0:
315,288,49548,5,2,0:2:0:0:
211,138,49703,1,0,2:0:0:0:
191,275,49857,1,0,0:0:0:0:
334,154,50012,1,0,2:0:0:0:
154,37,50166,5,8,0:0:0:0:
262,215,50321,1,2,2:0:0:0:
96,337,50476,2,0,L|84:286,1,42.7499986953736,2|0,2:0|2:0,2:0:0:0:
127,213,50630,2,0,L|133:165,1,42.7499986953736,0|0,2:0|2:0,2:0:0:0:
84,95,50785,6,0,B|128:76|171:92|171:92|212:110|251:96,1,170.999994781494,4|0,0:0|2:0,0:0:0:0:
349,5,51249,1,0,2:0:0:0:
500,181,51404,2,0,P|451:140|389:132,1,128.249996086121,8|0,0:0|2:0,0:0:0:0:
308,165,51713,2,0,P|322:186|339:205,1,42.7499986953736,2|0,2:0|2:0,2:0:0:0:
290,275,51868,2,0,P|314:282|339:286,1,42.7499986953736,2|0,2:0|2:0,2:0:0:0:
411,242,52022,6,0,P|414:186|440:67,1,170.999994781494,2|0,0:2|0:0,0:0:0:0:
262,9,52486,1,2,2:0:0:0:
206,187,52641,2,0,L|253:180,1,42.7499986953736,8|0,0:0|2:0,0:0:0:0:
303,101,52795,2,0,L|362:93,1,42.7499986953736,2|0,2:0|2:0,2:0:0:0:
188,61,52950,2,0,P|204:84|219:107,1,42.7499986953736,0|0,2:2|2:2,2:2:0:0:
335,204,53105,2,0,P|325:223|312:253,1,42.7499986953736,2|0,2:2|2:2,2:2:0:0:
201,318,53259,6,0,P|188:253|166:176,1,128.249996086121,2|0,0:2|2:0,0:0:0:0:
107,122,53569,1,0,2:0:0:0:
107,343,53723,1,2,2:0:0:0:
316,242,53878,2,0,P|359:232|411:225,1,85.4999973907472,8|0,0:0|2:0,0:0:0:0:
286,364,54187,2,0,L|295:314,1,42.7499986953736,2|0,2:0|2:0,2:0:0:0:
249,140,54342,2,0,L|258:191,1,42.7499986953736,2|0,2:0|2:0,2:0:0:0:
198,331,54496,6,0,P|120:335|76:258,1,170.999994781494,2|0,0:2|0:0,0:0:0:0:
315,4,55115,2,0,P|303:62|296:142,1,128.249996086121,8|0,0:0|2:0,0:0:0:0:
318,225,55424,2,0,L|368:219,1,42.7499986953736,8|0,0:0|2:0,0:0:0:0:
223,194,55579,1,8,0:0:0:0:
182,182,55656,1,0,0:0:0:0:
141,171,55733,6,0,L|157:271,1,95,4|0,0:0|2:0,0:0:0:0:
360,219,56043,2,0,L|344:319,1,95,8|0,0:0|2:0,0:0:0:0:
233,32,56352,2,0,L|249:132,1,95,0|0,0:0|2:0,0:0:0:0:
474,149,56662,2,0,L|458:249,1,95,8|0,0:0|2:0,0:0:0:0:
344,66,56971,6,0,P|400:56|450:58,1,95,0|0,0:0|2:0,0:0:0:0:
273,270,57280,2,0,P|329:280|379:278,1,95,8|0,0:0|2:0,0:0:0:0:
123,32,57589,2,0,P|167:18|228:13,1,95,0|0,0:0|2:0,0:0:0:0:
71,305,57898,2,0,P|131:329|180:334,1,95,8|0,0:0|2:0,0:0:0:0:
342,109,58208,5,2,0:3:0:0:
145,228,58362,1,0,0:0:0:0:
382,205,58517,1,2,0:3:0:0:
104,131,58672,1,0,0:0:0:0:
240,343,58826,5,0,0:0:0:0:
269,305,58904,1,0,0:0:0:0:
276,258,58981,1,8,0:0:0:0:
257,214,59058,1,0,0:0:0:0:
218,185,59136,1,8,0:0:0:0:
199,141,59213,1,0,0:0:0:0:
205,94,59290,1,8,0:0:0:0:
234,56,59368,1,0,0:0:0:0:
279,42,59445,5,12,0:0:0:0:
114,247,59754,5,12,0:0:0:0:
374,286,60063,5,12,0:0:0:0:
196,144,60682,5,2,2:3:0:0:
326,164,60991,1,2,2:3:0:0:
244,267,61301,2,0,L|241:288,8,11.875,2|0|0|0|0|0|0|0|0,2:3|2:0|2:0|2:0|2:0|2:0|2:0|2:0|2:0,2:0:0:0:
244,267,61919,6,0,P|197:287|108:249,1,139.333337585449,4|0,0:0|2:0,0:0:0:0:
75,146,62228,1,8,0:0:0:0:
275,362,62383,2,0,B|323:332|323:332|434:351,1,156.750004783631,2|0,0:2|2:0,0:0:0:0:
481,250,62692,2,0,L|413:257,1,52.2500015945435,0|0,0:0|2:0,0:0:0:0:
340,148,62847,2,0,L|462:165,1,104.500003189087,8|0,0:0|2:0,0:0:0:0:
244,267,63156,6,0,P|209:210|229:128,1,139.333337585449,4|0,0:0|2:0,0:0:0:0:
291,45,63465,1,8,0:0:0:0:
73,8,63620,2,0,L|109:162,1,156.750004783631,2|0,0:2|2:0,0:0:0:0:
7,221,63929,2,0,L|15:158,1,52.2500015945435,0|0,0:0|2:0,0:0:0:0:
104,272,64084,2,0,P|56:296|16:330,1,104.500003189087,8|0,0:0|2:0,0:0:0:0:
206,313,64393,6,0,P|255:290|252:144,1,209.000006378174,4|8,0:0|0:0,0:0:0:0:
104,272,64857,1,0,0:0:0:0:
372,221,65012,1,2,2:0:0:0:
150,74,65166,2,0,P|157:106|171:136,1,52.2500015945435,0|0,0:0|2:0,0:0:0:0:
344,96,65321,2,0,P|332:34|310:-5,1,104.500003189087,8|0,0:0|0:0,0:0:0:0:
259,176,65630,6,0,P|324:148|466:119,1,209.000006378174,4|8,0:0|0:0,0:0:0:0:
282,275,66094,1,2,0:2:0:0:
236,77,66249,1,0,2:0:0:0:
408,250,66404,1,8,0:0:0:0:
158,309,66558,1,8,0:0:0:0:
343,71,66713,1,2,0:2:0:0:
343,71,66790,1,0,0:0:0:0:
343,71,66868,6,0,L|350:178,1,104.500003189087,4|0,0:0|2:0,0:0:0:0:
69,239,67177,2,0,P|52:181|84:105,1,139.333337585449,8|0,0:0|2:0,0:0:0:0:
197,71,67486,1,2,0:2:0:0:
337,353,67692,1,0,2:0:0:0:
337,353,67795,1,8,0:0:0:0:
22,333,68002,1,0,2:0:0:0:
22,333,68105,6,0,B|78:348|78:348|152:314,1,139.333337585449,2|0,0:2|2:0,0:0:0:0:
293,245,68414,2,0,B|277:189|277:189|211:141,1,139.333337585449,8|0,0:0|2:0,0:0:0:0:
76,62,68723,1,2,0:2:0:0:
254,341,68929,1,0,2:0:0:0:
254,341,69032,2,0,P|305:333|381:327,1,104.500003189087,8|0,0:0|2:0,0:0:0:0:
493,131,69342,6,0,P|470:185|389:205,1,139.333337585449,2|0,0:2|2:0,0:0:0:0:
292,135,69651,2,0,L|281:27,1,104.500003189087,8|0,0:0|2:0,0:0:0:0:
74,224,69960,2,0,L|85:116,1,104.500003189087,2|0,0:2|2:0,0:0:0:0:
407,311,70270,2,0,L|396:203,1,104.500003189087,8|0,0:0|2:0,0:0:0:0:
288,377,70579,6,0,P|241:359|173:363,1,104.500003189087,2|0,0:2|2:0,0:0:0:0:
74,224,70888,2,0,P|125:223|177:209,1,104.500003189087,8|0,0:0|2:0,0:0:0:0:
362,29,71197,1,2,0:2:0:0:
112,119,71352,1,8,2:2:0:0:
334,134,71507,1,8,0:0:0:0:
143,15,71661,1,8,1:2:0:0:
305,238,71816,6,0,L|421:252,1,104.500003189087,4|0,0:0|2:0,0:0:0:0:
362,29,72125,2,0,P|293:31|242:76,1,139.333337585449,8|0,0:0|2:0,0:0:0:0:
204,223,72435,2,0,P|218:197|226:167,1,52.2500015945435,0|0,0:0|2:0,0:0:0:0:
97,111,72589,2,0,P|105:136|116:160,1,52.2500015945435,0|0,0:0|2:0,0:0:0:0:
137,309,72744,2,0,P|71:287|8:288,1,104.500003189087,8|0,0:0|2:0,0:0:0:0:
259,328,73053,6,0,P|324:306|360:230,1,139.333337585449,2|0,0:2|2:0,0:0:0:0:
256,90,73362,2,0,P|270:158|256:230,1,139.333337585449,8|0,0:0|2:0,0:0:0:0:
110,230,73672,2,0,P|133:216|171:205,1,52.2500015945435,0|0,0:0|2:0,0:0:0:0:
161,359,73826,2,0,P|131:347|107:330,1,52.2500015945435,0|0,0:0|2:0,0:0:0:0:
257,225,73981,2,0,L|368:249,1,104.500003189087,8|0,0:0|2:0,0:0:0:0:
476,362,74290,5,2,0:2:0:0:
156,207,74496,1,0,2:0:0:0:
156,207,74599,1,8,0:0:0:0:
450,7,74806,1,0,2:0:0:0:
450,7,74909,2,0,L|443:66,1,52.2500015945435,0|0,0:0|2:0,0:0:0:0:
329,114,75063,2,0,L|340:168,1,52.2500015945435,0|0,0:0|2:0,0:0:0:0:
207,57,75218,2,0,B|157:44|157:44|98:57,1,104.500003189087,8|0,0:0|2:0,0:0:0:0:
218,294,75527,6,0,L|235:156,1,139.333337585449,2|0,0:2|2:0,0:0:0:0:
70,213,75837,2,0,P|82:250|104:276,2,69.6666687927247,8|2|0,0:0|2:0|2:0,0:0:0:0:
207,150,76146,2,0,L|128:133,1,52.2500015945435,0|0,0:0|2:0,0:0:0:0:
330,212,76301,2,0,L|278:222,1,52.2500015945435,0|0,0:0|2:0,0:0:0:0:
381,80,76455,2,0,L|242:50,1,139.333337585449,8|0,0:0|2:0,0:0:0:0:
115,24,76764,6,0,B|100:69|100:69|119:123,1,95,4|0,0:0|2:0,0:0:0:0:
278,221,77074,2,0,P|195:236|86:276,1,190,2|8,2:0|0:0,0:0:0:0:
244,50,77538,1,2,2:0:0:0:
244,50,77615,1,0,2:0:0:0:
244,50,77692,2,0,P|293:57|347:59,1,95,0|0,2:0|0:0,0:0:0:0:
491,36,78002,5,2,2:0:0:0:
286,142,78156,1,8,0:0:0:0:
490,254,78311,2,0,P|474:208|462:156,1,95,0|0,0:0|2:0,0:0:0:0:
261,253,78620,2,0,P|331:251|394:298,1,142.5,8|0,0:0|2:0,0:0:0:0:
303,348,78929,1,2,2:0:0:0:
197,172,79084,1,8,0:0:0:0:
157,145,79161,1,0,0:0:0:0:
104,143,79239,6,0,L|86:258,1,104.500003189087,4|0,0:0|2:0,0:0:0:0:
10,41,79548,2,0,B|65:51|65:51|110:30|110:30|160:37,1,156.750004783631,8|0,0:0|2:0,0:0:0:0:
243,106,79857,2,0,L|234:164,1,52.2500015945435,0|0,0:0|2:0,0:0:0:0:
87,246,80012,2,0,L|96:188,1,52.2500015945435,0|0,0:0|2:0,0:0:0:0:
295,247,80166,2,0,P|243:252|193:265,1,104.500003189087,8|0,0:0|0:0,0:0:0:0:
124,344,80398,1,8,0:3:0:0:
124,344,80476,5,12,0:0:0:0:
393,297,80630,1,0,0:0:0:0:
96,194,80785,1,8,0:0:0:0:
306,356,80940,1,0,0:0:0:0:
16,284,81094,1,8,0:0:0:0:
258,119,81249,6,0,L|250:185,1,59.375,8|0,0:3|0:0,0:0:0:0:
62,71,81404,2,0,L|54:6,1,59.375,8|0,0:3|0:0,0:0:0:0:
178,241,81558,2,0,L|170:307,1,59.375,8|0,0:3|0:0,0:0:0:0:
29,168,81713,6,2,B|75:182|117:156|117:156|158:131|214:144,1,190,6|2,0:0|2:1,0:0:0:0:
451,312,82331,1,8,0:2:0:0:
349,365,82486,2,2,P|334:312|345:266,1,95,2|0,2:1|2:0,0:0:0:0:
506,143,82795,2,2,P|467:182|422:195,1,95,2|0,2:1|0:0,0:0:0:0:
257,87,83105,5,2,2:1:0:0:
344,185,83259,1,0,0:0:0:0:
332,33,83414,1,2,2:1:0:0:
267,230,83569,1,10,0:2:0:0:
425,105,83723,1,0,2:0:0:0:
210,12,83878,1,2,2:0:0:0:
346,274,84032,1,2,0:2:0:0:
346,274,84110,1,0,0:0:0:0:
346,274,84187,6,2,P|394:263|454:253,1,95,2|0,0:0|2:0,0:0:0:0:
251,352,84496,2,2,P|174:342|151:261,1,142.5,2|0,2:1|2:0,0:0:0:0:
185,195,84806,1,8,0:2:0:0:
15,41,84960,2,2,P|63:94|83:208,1,190,0|2,2:1|2:1,2:1:0:0:
206,63,85424,6,0,P|187:118|180:167,1,95,2|2,0:2|2:1,0:0:0:0:
341,277,85733,1,0,0:0:0:0:
284,137,85888,1,2,2:1:0:0:
441,31,86043,1,10,0:2:0:0:
374,183,86197,1,0,2:0:0:0:
512,326,86352,1,2,2:0:0:0:
454,128,86507,1,2,0:2:0:0:
454,128,86584,1,0,0:0:0:0:
454,128,86661,6,2,P|363:147|252:150,1,190,2|0,0:0|2:0,0:0:0:0:
67,349,87280,2,0,L|211:323,1,142.5,8|0,0:2|2:0,0:0:0:0:
308,304,87589,1,2,2:1:0:0:
93,243,87744,2,2,L|-10:261,1,95,2|0,2:1|0:0,0:0:0:0:
67,349,88053,5,2,2:1:0:0:
203,224,88207,1,0,0:0:0:0:
23,162,88362,1,2,2:1:0:0:
207,323,88517,1,10,0:2:0:0:
283,81,88671,1,0,2:0:0:0:
93,243,88826,1,2,2:0:0:0:
365,324,88980,1,2,0:2:0:0:
365,324,89058,1,0,0:0:0:0:
365,324,89136,6,2,B|375:277|375:277|353:221,1,95,2|0,0:0|2:0,0:0:0:0:
145,146,89445,2,2,P|223:151|282:91,1,142.5,2|0,2:1|2:0,0:0:0:0:
190,58,89755,1,8,0:2:0:0:
212,345,90063,2,2,P|138:293|40:316,1,190,0|2,2:0|0:0,0:0:0:0:
211,222,90527,5,2,2:1:0:0:
18,151,90682,1,0,0:0:0:0:
232,69,90837,1,2,2:1:0:0:
45,17,90991,2,2,L|56:167,1,142.5,8|0,0:2|2:0,0:0:0:0:
66,271,91301,1,8,0:2:0:0:
312,204,91455,1,0,0:0:0:0:
312,204,91532,1,0,0:0:0:0:
312,204,91610,5,2,1:2:0:0:
214,187,91919,2,0,L|217:241,1,38
281,294,92073,2,0,L|284:323,2,19
312,204,92228,5,8,0:0:0:0:
278,112,92537,1,0,0:0:0:0:
214,187,92846,5,2,1:2:0:0:
125,145,93001,1,0,0:0:0:0:
136,48,93156,2,0,L|139:10,1,38
43,86,93310,2,0,L|15:82,2,19
125,145,93465,5,8,0:0:0:0:
66,224,93774,1,0,0:0:0:0:
139,287,94083,5,2,1:2:0:0:
195,211,94238,1,0,0:0:0:0:
267,276,94393,2,0,L|274:324,1,38
321,196,94548,2,0,L|318:169,2,19
393,261,94702,5,8,0:0:0:0:
478,215,95011,1,0,0:0:0:0:
459,122,95321,5,2,1:2:0:0:
363,111,95475,1,0,0:0:0:0:
267,101,95630,2,0,L|256:153,1,38
167,91,95785,2,0,L|159:61,2,19
238,11,95940,5,8,0:0:0:0:
191,269,96172,1,0,1:0:0:0:
188,234,96249,2,0,B|183:209|161:189|161:189|237:232|331:239,1,213.750008153916,8|0,1:3|0:0,0:0:0:0:
412,234,96558,6,0,P|396:290|386:334,1,95,4|0,0:0|2:0,0:0:0:0:
275,86,96868,2,0,P|315:127|348:158,1,95,8|0,0:2|2:0,0:0:0:0:
78,130,97177,2,0,P|134:115|177:102,1,95,2|0,0:2|2:0,0:0:0:0:
17,322,97486,2,0,P|32:266|42:221,1,95,8|0,0:2|2:0,0:0:0:0:
147,12,97795,6,0,L|173:118,1,95,2|0,0:2|2:0,0:0:0:0:
466,187,98105,2,0,L|361:157,1,95,8|0,0:2|2:0,0:0:0:0:
154,376,98414,2,0,L|233:300,1,95,2|0,0:2|2:0,0:0:0:0:
249,285,98646,1,0,2:0:0:0:
249,285,98723,1,8,0:2:0:0:
68,321,98878,1,0,2:0:0:0:
320,359,99032,6,0,B|354:299|354:299|334:213,1,142.5,2|0,0:2|2:0,0:0:0:0:
269,146,99342,1,8,0:2:0:0:
249,285,99496,1,0,2:0:0:0:
125,215,99651,1,2,0:2:0:0:
337,227,99806,1,0,2:0:0:0:
171,129,99961,1,8,0:2:0:0:
340,327,100115,1,0,2:0:0:0:
404,103,100270,6,0,L|268:145,1,142.5,2|0,0:2|2:0,0:0:0:0:
171,129,100579,2,0,P|153:79|156:30,1,95,8|0,0:2|2:0,0:0:0:0:
366,205,100888,1,2,0:2:0:0:
191,350,101043,5,8,2:0:0:0:
256,192,101197,1,8,0:2:0:0:
321,34,101352,1,8,2:0:0:0:
145,129,101507,6,0,L|304:109,1,142.5,4|0,0:0|2:0,0:0:0:0:
374,136,101816,2,0,B|327:135|327:135|284:110,1,95,8|0,0:2|2:0,0:0:0:0:
451,71,102126,1,2,0:2:0:0:
256,192,102280,1,0,2:0:0:0:
457,231,102435,1,8,0:2:0:0:
353,37,102590,1,2,2:0:0:0:
156,168,102744,6,0,P|161:237|214:287,1,142.5,2|0,0:2|2:0,0:0:0:0:
311,310,103054,2,0,P|306:242|248:189,1,142.5,8|0,0:2|2:0,0:0:0:0:
211,285,103363,1,2,0:2:0:0:
394,174,103517,1,2,2:0:0:0:
394,174,103595,1,0,2:0:0:0:
394,174,103672,1,8,0:2:0:0:
208,65,103827,1,2,2:0:0:0:
311,310,103981,6,0,L|414:292,1,95,2|0,0:3|2:0,0:0:0:0:
255,191,104291,2,0,P|201:237|123:236,1,142.5,8|0,2:2|2:0,0:0:0:0:
50,172,104600,1,2,0:3:0:0:
209,347,104755,1,0,0:0:0:0:
357,158,104909,2,0,P|356:109|338:52,1,95,8|0,2:2|2:0,0:0:0:0:
149,84,105218,6,0,B|129:125|143:172|192:199|240:181|240:181|254:156|252:127,1,227.999993041992,4|8,0:0|2:0,0:0:0:0:
252,127,106301,2,0,L|248:85,1,28.4999991302491,0|2,2:0|2:0,2:0:0:0:
326,189,106455,6,0,P|316:248|304:364,1,170.999994781494,4|0,0:0|2:0,0:0:0:0:
411,270,106919,1,0,2:0:0:0:
196,228,107073,2,0,P|208:269|216:313,1,85.4999973907472,8|0,0:0|2:0,0:0:0:0:
241,137,107383,2,0,P|233:117|226:91,1,42.7499986953736,2|0,2:0|2:0,2:0:0:0:
139,56,107538,2,0,P|134:78|131:105,1,42.7499986953736,0|0,2:0|2:0,2:0:0:0:
179,205,107692,5,0,0:0:0:0:
401,102,107847,2,0,P|366:92|298:88,1,85.4999973907472,2|0,2:0|0:0,0:0:0:0:
459,188,108156,1,2,2:0:0:0:
300,275,108310,2,0,P|340:262|391:257,1,85.4999973907472,8|0,0:0|2:0,0:0:0:0:
473,288,108542,1,0,2:0:0:0:
473,288,108620,2,0,L|470:340,1,42.7499986953736,0|0,2:2|2:2,2:2:0:0:
383,256,108774,2,0,L|375:202,1,42.7499986953736,0|0,2:0|2:0,2:0:0:0:
327,367,108929,6,0,P|253:362|200:276,1,170.999994781494,2|0,0:2|2:0,0:0:0:0:
317,136,109393,1,0,2:0:0:0:
300,275,109547,1,8,0:0:0:0:
220,102,109702,1,0,2:0:0:0:
395,105,109857,2,0,L|351:121,1,42.7499986953736,2|0,2:0|2:0,2:0:0:0:
184,187,110011,2,0,L|236:194,1,42.7499986953736,2|0,2:0|2:0,2:0:0:0:
407,216,110166,5,2,0:2:0:0:
196,282,110321,1,0,2:0:0:0:
363,341,110476,2,0,P|355:323|349:298,1,42.7499986953736,0|0,0:0|2:0,0:0:0:0:
317,136,110630,2,0,P|311:156|303:176,1,42.7499986953736,0|0,2:0|2:0,2:0:0:0:
216,364,110784,5,8,0:0:0:0:
161,108,110939,1,2,2:0:0:0:
22,295,111094,2,0,L|70:286,1,42.7499986953736,2|0,2:0|2:0,2:0:0:0:
147,244,111248,2,0,L|197:253,1,42.7499986953736,0|0,2:0|2:0,2:0:0:0:
271,292,111403,6,0,P|307:238|237:175,1,170.999994781494,4|0,0:0|2:0,0:0:0:0:
196,343,111867,1,0,2:0:0:0:
93,166,112022,2,0,P|104:110|196:87,1,128.249996086121,8|0,0:0|2:0,0:0:0:0:
253,40,112331,2,0,P|257:62|258:96,1,42.7499986953736,2|0,2:0|2:0,2:0:0:0:
284,173,112486,2,0,P|253:175|212:169,1,42.7499986953736,2|0,2:0|2:0,2:0:0:0:
351,107,112640,6,0,P|435:136|496:75,1,170.999994781494,2|0,0:2|0:0,0:0:0:0:
331,13,113104,1,2,2:0:0:0:
284,173,113259,2,0,P|289:200|295:222,1,42.7499986953736,8|0,0:0|2:0,0:0:0:0:
384,273,113413,2,0,P|412:273|443:265,1,42.7499986953736,2|0,2:0|2:0,2:0:0:0:
260,337,113568,2,0,L|304:304,1,42.7499986953736,0|0,2:2|2:2,2:2:0:0:
383,174,113723,2,0,L|391:112,1,42.7499986953736,2|0,2:2|2:2,2:2:0:0:
190,49,113878,6,0,P|185:112|172:179,1,128.249996086121,2|0,0:2|2:0,0:0:0:0:
120,254,114187,2,0,P|95:252|69:252,1,42.7499986953736,2|0,2:0|2:0,0:0:0:0:
214,259,114341,1,2,2:0:0:0:
78,142,114496,2,0,P|82:96|92:47,1,85.4999973907472,8|0,0:0|2:0,0:0:0:0:
271,184,114805,2,0,L|265:130,1,42.7499986953736,2|0,2:0|2:0,2:0:0:0:
361,126,114960,2,0,L|349:85,1,42.7499986953736,2|0,2:0|2:0,2:0:0:0:
367,229,115115,6,0,P|403:240|471:241,1,85.4999973907472,2|0,0:2|2:0,0:0:0:0:
282,289,115424,1,0,0:0:0:0:
138,52,115733,2,0,P|75:42|20:73,1,128.249996086121,8|0,0:0|2:0,0:0:0:0:
82,171,116042,2,0,L|91:126,1,42.7499986953736,8|0,0:0|2:0,0:0:0:0:
224,11,116197,1,8,0:0:0:0:
230,53,116274,1,0,0:0:0:0:
236,95,116352,6,0,L|335:75,1,95,4|0,0:0|2:0,0:0:0:0:
276,289,116661,2,0,L|178:309,1,95,8|0,0:0|2:0,0:0:0:0:
361,174,116970,2,0,L|460:187,1,95,0|0,0:0|2:0,0:0:0:0:
151,210,117280,2,0,L|49:197,1,95,8|0,0:0|2:0,0:0:0:0:
268,31,117589,6,0,B|284:76|284:76|273:128,1,95,0|0,0:0|2:0,0:0:0:0:
244,353,117898,2,0,B|228:308|228:308|238:260,1,95,8|0,0:0|2:0,0:0:0:0:
448,93,118207,2,0,B|428:137|428:137|383:168,1,95,0|0,0:0|2:0,0:0:0:0:
64,291,118517,2,0,B|84:249|84:249|129:216,1,95,8|0,0:0|2:0,0:0:0:0:
351,284,118826,5,2,0:3:0:0:
161,100,118980,1,0,0:0:0:0:
212,330,119135,1,2,0:3:0:0:
300,54,119290,1,0,0:0:0:0:
84,195,119444,5,0,0:0:0:0:
123,220,119522,1,0,0:0:0:0:
170,224,119599,1,8,0:0:0:0:
215,210,119676,1,0,0:0:0:0:
251,179,119754,1,8,0:0:0:0:
295,164,119831,1,0,0:0:0:0:
341,168,119908,1,8,0:0:0:0:
383,191,119986,1,0,0:0:0:0:
411,228,120063,5,12,0:0:0:0:
147,308,120373,5,12,0:0:0:0:
209,39,120682,5,12,0:0:0:0:
280,264,121301,5,2,2:3:0:0:
306,135,121610,1,2,0:3:0:0:
182,177,121919,2,0,L|245:191,1,52.2500015945435,2|0,0:3|2:0,0:0:0:0:
199,84,122074,5,8,0:0:0:0:
148,89,122151,1,0,0:0:0:0:
107,120,122228,1,8,0:0:0:0:
88,168,122305,1,0,0:0:0:0:
97,219,122383,1,8,0:0:0:0:
132,257,122460,1,8,0:0:0:0:
182,272,122538,6,0,P|243:241|334:223,1,151.999995361328,4|0,0:0|2:0,0:0:0:0:
456,244,122847,1,8,0:0:0:0:
182,177,123002,2,0,P|119:134|108:31,1,170.999994781494,2|0,0:2|2:0,0:0:0:0:
192,2,123311,2,0,P|198:37|196:67,1,56.9999982604981,2|0,0:2|2:0,0:0:0:0:
12,124,123465,2,0,P|10:47|18:0,1,113.999996520996,8|0,0:0|2:0,0:0:0:0:
289,119,123775,6,0,P|300:198|260:271,1,151.999995361328,4|0,0:0|2:0,0:0:0:0:
141,295,124084,1,8,0:0:0:0:
197,58,124239,2,0,B|238:82|238:82|375:90,1,170.999994781494,2|0,0:2|2:0,0:0:0:0:
508,23,124548,2,0,L|447:35,1,56.9999982604981,2|0,0:2|2:0,0:0:0:0:
452,245,124703,2,0,B|473:193|473:193|449:115,1,113.999996520996,8|0,0:0|2:0,0:0:0:0:
172,194,125012,6,0,B|157:268|157:268|187:356,1,151.999995361328,4|0,0:0|2:0,0:0:0:0:
269,261,125321,1,8,0:0:0:0:
66,125,125476,1,0,0:0:0:0:
255,103,125630,1,2,2:0:0:0:
74,272,125785,2,0,P|43:270|8:260,1,56.9999982604981,2|0,0:2|2:0,0:0:0:0:
172,194,125940,2,0,L|292:177,1,113.999996520996,8|0,0:0|0:0,0:0:0:0:
378,235,126172,1,0,0:0:0:0:
411,255,126249,6,0,B|456:278|456:278|520:202|481:112,1,227.999993041992,4|8,0:0|0:0,0:0:0:0:
294,92,126713,1,2,0:2:0:0:
411,255,126868,1,2,2:0:0:0:
399,33,127023,1,8,0:0:0:0:
300,304,127177,1,8,0:0:0:0:
113,85,127332,1,2,0:2:0:0:
150,49,127409,1,0,0:0:0:0:
188,14,127487,6,0,L|206:129,1,113.999996520996,4|0,0:0|2:0,0:0:0:0:
27,250,127795,2,0,B|60:235|99:250|99:250|135:263|176:247,1,151.999995361328,8|0,0:0|2:0,0:0:0:0:
304,220,128105,2,0,P|291:268|281:336,1,113.999996520996,2|0,0:2|2:0,0:0:0:0:
426,182,128414,2,0,P|391:101|323:92,1,151.999995361328,8|0,0:0|2:0,0:0:0:0:
205,126,128723,5,2,0:2:0:0:
477,354,128929,1,0,2:0:0:0:
477,354,129032,2,0,P|483:302|510:226,1,113.999996520996,8|0,0:0|2:0,0:0:0:0:
312,25,129342,2,0,P|336:95|342:182,1,151.999995361328,2|0,0:2|2:0,0:0:0:0:
237,258,129651,2,0,P|170:250|90:204,1,151.999995361328,8|0,0:0|2:0,0:0:0:0:
121,49,129960,6,0,P|167:85|206:128,1,113.999996520996,2|0,0:2|2:0,0:0:0:0:
256,351,130270,1,8,0:0:0:0:
17,115,130476,1,0,2:0:0:0:
17,115,130579,1,2,0:2:0:0:
343,196,130785,1,0,2:0:0:0:
343,196,130888,1,8,0:0:0:0:
25,305,131094,1,0,2:0:0:0:
25,305,131197,6,0,L|185:282,1,151.999995361328,2|0,0:2|2:0,0:0:0:0:
343,196,131507,2,0,P|284:183|216:194,1,113.999996520996,8|0,0:0|2:0,0:0:0:0:
110,373,131816,1,2,0:2:0:0:
282,287,131971,1,8,2:2:0:0:
83,145,132126,1,8,0:0:0:0:
219,377,132280,1,8,1:2:0:0:
431,207,132435,6,0,P|399:126|321:109,1,151.999995361328,4|0,0:0|2:0,0:0:0:0:
195,176,132744,2,0,P|267:199|342:195,1,151.999995361328,8|0,0:0|2:0,0:0:0:0:
434,303,133053,2,0,P|406:290|367:278,1,56.9999982604981,2|0,0:2|2:0,0:0:0:0:
214,302,133208,2,0,P|187:315|160:338,1,56.9999982604981,0|0,0:0|2:0,0:0:0:0:
306,353,133362,2,0,L|285:187,1,151.999995361328,8|0,0:0|2:0,0:0:0:0:
192,119,133672,6,0,L|206:6,1,113.999996520996,2|0,0:2|2:0,0:0:0:0:
433,15,133981,2,0,P|390:69|306:77,1,151.999995361328,8|0,0:0|2:0,0:0:0:0:
286,202,134290,2,0,P|303:229|313:259,1,56.9999982604981,2|0,0:2|2:0,0:0:0:0:
192,119,134445,2,0,P|160:120|129:113,1,56.9999982604981,0|0,0:0|2:0,0:0:0:0:
155,257,134599,2,0,P|202:212|285:201,1,151.999995361328,8|0,0:0|2:0,0:0:0:0:
402,280,134909,5,2,0:2:0:0:
62,197,135115,1,0,2:0:0:0:
62,197,135218,1,8,0:0:0:0:
379,45,135425,1,0,2:0:0:0:
379,45,135528,2,0,L|304:38,1,56.9999982604981,2|0,0:2|2:0,0:0:0:0:
451,158,135682,2,0,L|517:147,1,56.9999982604981,0|0,0:0|2:0,0:0:0:0:
365,258,135837,2,0,L|346:141,1,113.999996520996,8|0,0:0|2:0,0:0:0:0:
114,222,136146,6,0,B|185:251|185:251|264:214,1,151.999995361328,2|0,0:2|2:0,0:0:0:0:
177,75,136455,1,8,0:0:0:0:
177,75,136558,2,0,P|176:115|190:162,1,75.9999976806641,2|0,2:0|2:0,0:0:0:0:
346,145,136764,2,0,L|290:123,1,56.9999982604981,0|0,0:0|2:0,0:0:0:0:
287,318,136919,2,0,L|357:285,1,56.9999982604981,0|0,0:0|2:0,0:0:0:0:
184,149,137074,2,0,P|153:210|193:292,1,151.999995361328,8|0,0:0|2:0,0:0:0:0:
427,340,137383,6,0,P|437:287|424:233,1,99.7499969558717,4|0,0:0|2:0,0:0:0:0:
302,8,137692,2,0,B|290:69|290:69|306:140|306:140|295:206,1,199.499993911743,2|8,2:0|0:0,0:0:0:0:
90,160,138156,1,2,2:0:0:0:
90,160,138233,1,0,2:0:0:0:
90,160,138311,2,0,L|186:137,1,99.7499969558717,0|0,2:0|0:0,0:0:0:0:
336,319,138620,5,2,2:0:0:0:
157,244,138775,1,8,0:0:0:0:
392,179,138929,2,0,L|290:204,1,99.7499969558717,0|0,0:0|2:0,0:0:0:0:
85,324,139239,2,0,P|121:349|182:352,1,99.7499969558717,8|0,0:0|2:0,0:0:0:0:
206,344,139471,1,0,2:0:0:0:
234,330,139548,2,0,L|225:273,1,49.8749984779358,2|0,0:2|2:0,0:0:0:0:
136,108,139703,1,8,0:0:0:0:
132,157,139780,1,0,0:0:0:0:
160,200,139858,6,0,P|213:181|279:188,1,113.999996520996,4|0,0:0|2:0,0:0:0:0:
499,293,140166,2,0,B|457:322|457:322|333:297,1,170.999994781494,8|0,0:0|2:0,0:0:0:0:
371,144,140476,2,0,L|379:208,1,56.9999982604981,0|0,0:0|2:0,0:0:0:0:
234,330,140630,2,0,L|244:265,1,56.9999982604981,0|0,0:0|2:0,0:0:0:0:
117,121,140785,2,0,B|135:175|135:175|123:232,1,113.999996520996,8|0,0:0|0:0,0:0:0:0:
41,182,141017,1,8,0:3:0:0:
41,182,141095,5,12,0:0:0:0:
298,90,141249,1,0,0:0:0:0:
40,277,141404,1,8,0:0:0:0:
371,351,141559,1,0,0:0:0:0:
123,230,141713,1,8,0:0:0:0:
433,167,141868,6,0,P|466:169|519:179,1,61.7499971733095,8|0,0:3|0:0,0:0:0:0:
298,90,142022,2,0,P|283:61|265:8,1,61.7499971733095,8|0,0:3|0:0,0:0:0:0:
299,247,142177,2,0,P|275:273|244:315,1,61.7499971733095,8|0,0:3|0:0,0:0:0:0:
343,167,142331,5,6,0:0:0:0:
159,259,142486,2,2,B|69:265|20:208|20:208|46:190|81:197,1,209.000006378174,0|2,2:1|2:1,2:1:0:0:
299,247,142950,2,0,P|312:309|318:356,1,104.500003189087,8|0,0:2|2:0,0:0:0:0:
217,135,143259,1,2,2:0:0:0:
422,255,143414,1,2,2:1:0:0:
198,361,143569,6,2,L|208:248,1,104.500003189087,2|0,0:0|2:0,0:0:0:0:
401,139,143878,2,0,L|385:28,1,104.500003189087,0|0,0:0|2:0,0:0:0:0:
144,58,144187,2,0,B|114:95|153:143|197:119|197:119|242:93|287:109,1,209.000006378174,8|0,0:2|2:0,0:0:0:0:
278,288,144651,1,0,0:0:0:0:
251,248,144728,1,0,0:0:0:0:
254,200,144806,5,2,0:0:0:0:
385,321,144960,2,2,P|260:322|182:354,1,209.000006378174,0|2,2:0|2:1,0:0:0:0:
40,215,145424,2,0,P|106:235|150:243,1,104.500003189087,8|0,0:2|2:0,0:0:0:0:
385,194,145733,1,2,2:0:0:0:
130,67,145888,1,2,2:1:0:0:
272,271,146043,6,2,P|257:208|251:147,1,104.500003189087,2|0,0:0|2:0,0:0:0:0:
472,23,146352,2,0,P|457:93|455:138,1,104.500003189087,0|0,0:0|2:0,0:0:0:0:
494,369,146661,2,0,B|499:336|483:308|483:308|423:358|337:343,1,209.000006378174,8|0,0:2|2:0,0:0:0:0:
134,273,147125,1,0,0:0:0:0:
178,257,147202,1,0,0:0:0:0:
222,273,147280,6,2,L|208:381,1,104.500003189087,2|0,0:0|2:0,0:0:0:0:
65,205,147589,2,2,P|85:277|96:366,1,156.750004783631,2|0,2:1|2:0,0:0:0:0:
2,317,147898,1,8,0:2:0:0:
222,273,148053,1,0,2:0:0:0:
193,64,148208,2,2,P|167:132|155:228,1,156.750004783631,2|0,2:1|2:0,0:0:0:0:
193,354,148517,5,0,0:0:0:0:
393,237,148672,1,2,2:0:0:0:
393,237,148749,1,0,2:0:0:0:
393,237,148826,1,2,0:2:0:0:
222,273,148981,1,2,2:1:0:0:
461,335,149136,1,8,0:2:0:0:
279,198,149290,1,2,2:0:0:0:
507,141,149445,1,2,2:1:0:0:
253,45,149599,1,2,0:2:0:0:
253,45,149677,1,0,0:0:0:0:
253,45,149754,6,2,B|256:101|256:101|276:146|276:146|279:200,1,156.750004783631,2|0,0:0|2:0,0:0:0:0:
171,247,150063,6,0,L|182:173,2,69.6666687927247,2|0|0,2:0|2:0|2:0,2:0:0:0:
357,344,150373,2,0,L|346:266,2,69.6666687927247,8|0|0,0:2|2:2|2:0,0:0:0:0:
245,314,150682,1,2,2:0:0:0:
208,334,150785,2,0,P|173:339|123:331,1,69.6666687927247,0|0,2:0|2:0,2:0:0:0:
278,197,150991,1,2,0:2:0:0:
327,171,151094,2,0,P|358:165|407:165,1,69.6666687927247,0|0,2:0|2:0,2:0:0:0:
202,75,151301,1,2,0:2:0:0:
128,106,151404,2,0,P|89:106|45:97,1,69.6666687927247,0|0,2:0|2:0,2:0:0:0:
277,99,151610,5,8,0:2:0:0:
277,99,151919,1,0,0:0:0:0:
144,292,152074,1,0,0:0:0:0:
144,292,152151,1,0,0:0:0:0:
144,292,152228,6,0,B|112:324|116:372|164:404|211:379|223:335|223:335|248:260|254:181|254:181|228:147|199:139|163:155|163:155|138:121|109:113|73:129|73:129|108:55|198:5|293:28|293:28|305:4|305:4|302:30|302:30|399:62|445:151|435:233|435:233|413:200|380:191|344:207|344:207|323:174|290:165|260:180,1,1330,2|2,0:0|0:0,0:0:0:0:
144,292,156868,1,0,0:0:0:0:
305,342,157022,2,0,L|325:365,2,15.8333333333333,2|0|2,0:0|0:0|0:0,0:0:0:0:
240,271,157177,6,0,B|266:245|311:245|311:245|340:268|381:267,1,152,4|0,0:0|2:0,0:0:0:0:
272,113,157795,2,0,B|246:139|201:139|201:139|172:116|131:117,1,152,8|0,0:0|2:0,0:0:0:0:
108,285,158259,6,0,P|121:249|144:205,1,76,0|2,0:2|2:0,0:0:0:0:
350,175,158569,1,8,0:0:0:0:
227,363,158723,2,0,P|217:319|213:276,1,76,0|0,0:0|2:0,0:0:0:0:
417,308,159032,2,0,P|368:302|309:264,1,114,8|0,0:0|2:0,0:0:0:0:
251,159,159342,1,8,0:0:0:0:
37,288,159496,1,2,0:2:0:0:
37,288,159574,1,0,0:0:0:0:
37,288,159651,6,0,L|193:269,1,156.750004783631,4|0,0:0|2:0,0:0:0:0:
356,230,159960,6,0,L|313:268,1,56.9999982604981,8|0,0:0|2:0,0:0:0:0:
178,380,160115,1,0,0:0:0:0:
161,128,160270,6,0,L|207:168,1,61.7499971733095,8|0,0:0|2:0,0:0:0:0:
389,318,160425,1,0,0:0:0:0:
402,11,160579,6,0,L|352:54,1,66.4999979705811,8|0,0:0|2:0,0:0:0:0:
122,218,160734,1,8,0:0:0:0:
122,218,160811,1,0,0:0:0:0:
122,218,160888,6,0,B|175:171|256:192|256:192|331:214|390:167,1,285.000010871888,4|0,0:0|2:0,0:0:0:0:
390,166,162125,6,0,P|426:206|406:334,1,164.666659128825,4|0,0:0|2:0,0:0:0:0:
310,365,162435,1,8,0:0:0:0:
296,106,162589,2,0,P|352:66|470:95,1,185.249991519928,2|0,0:2|2:0,0:0:0:0:
402,225,162898,2,0,P|393:202|390:159,1,61.7499971733095,2|0,0:2|2:0,0:0:0:0:
201,31,163053,2,0,P|199:100|183:166,1,123.499994346619,8|0,0:0|2:0,0:0:0:0:
0,302,163362,6,0,B|39:281|79:295|79:295|118:309|160:290,1,164.666659128825,4|0,0:0|2:0,0:0:0:0:
300,201,163672,1,8,0:0:0:0:
81,24,163826,2,0,P|94:88|114:219,1,185.249991519928,2|0,0:2|2:0,0:0:0:0:
227,99,164136,2,0,P|214:139|206:170,1,61.7499971733095,2|0,0:2|2:0,0:0:0:0:
283,323,164290,2,0,P|294:268|299:200,1,123.499994346619,8|0,0:0|2:0,0:0:0:0:
17,205,164599,6,0,P|70:290|199:244,1,246.999988693238,4|8,0:0|0:0,0:0:0:0:
249,17,165063,1,0,0:0:0:0:
112,206,165218,1,2,2:0:0:0:
359,148,165373,2,0,P|326:140|289:136,1,61.7499971733095,0|0,0:0|2:0,0:0:0:0:
54,111,165527,2,0,P|129:99|188:79,1,123.499994346619,8|2,0:0|2:0,0:0:0:0:
419,269,165837,6,0,B|384:238|384:238|282:228|199:300,1,246.999988693238,4|8,0:0|0:0,0:0:0:0:
380,357,166301,1,2,0:2:0:0:
298,136,166456,1,0,2:0:0:0:
186,326,166611,1,8,0:0:0:0:
428,146,166765,1,8,0:0:0:0:
149,30,166920,1,2,0:2:0:0:
149,30,166997,1,0,0:0:0:0:
149,30,167075,6,0,B|138:92|138:92|159:152,1,123.499994346619,4|0,0:0|2:0,0:0:0:0:
381,278,167383,2,0,B|326:282|326:282|279:315|279:315|224:320,1,164.666659128825,8|0,0:0|2:0,0:0:0:0:
83,277,167692,1,2,0:2:0:0:
428,146,167898,1,0,2:0:0:0:
428,146,168002,1,8,0:0:0:0:
60,48,168208,1,0,2:0:0:0:
60,48,168311,6,0,P|82:124|157:148,1,164.666659128825,2|0,0:2|2:0,0:0:0:0:
288,48,168620,2,0,B|264:33|249:10|249:10|208:48|146:62,1,164.666659128825,8|0,0:0|2:0,0:0:0:0:
277,161,168929,1,2,0:2:0:0:
66,363,169136,1,0,2:0:0:0:
66,363,169239,2,0,P|79:276|76:193,1,164.666659128825,8|0,0:0|2:0,0:0:0:0:
180,297,169548,6,0,B|209:289|238:266|238:266|273:283|342:278,1,164.666659128825,2|0,0:2|2:0,0:0:0:0:
466,236,169857,2,0,P|454:276|443:365,1,123.499994346619,8|0,0:0|2:0,0:0:0:0:
131,89,170166,2,0,P|153:149|168:224,1,123.499994346619,2|0,0:2|2:0,0:0:0:0:
493,66,170476,2,0,P|390:15|332:37,1,164.666659128825,8|0,0:0|2:0,0:0:0:0:
283,160,170785,6,0,P|333:136|406:122,1,123.499994346619,2|0,0:2|2:0,0:0:0:0:
213,279,171094,2,0,P|151:258|86:251,1,123.499994346619,8|0,0:0|2:0,0:0:0:0:
381,257,171404,1,2,0:2:0:0:
193,60,171559,1,8,2:2:0:0:
308,346,171714,1,8,0:0:0:0:
501,109,171868,2,0,P|469:114|415:120,1,61.7499971733095,8|0,0:2|2:0,0:0:0:0:
232,213,172022,6,0,P|298:218|373:242,1,123.499994346619,4|0,0:0|2:0,0:0:0:0:
105,268,172331,2,0,P|123:203|120:101,1,164.666659128825,8|0,0:0|2:0,0:0:0:0:
6,31,172641,2,0,L|33:103,1,61.7499971733095,2|0,0:2|2:0,0:0:0:0:
213,86,172795,2,0,L|238:22,1,61.7499971733095,0|0,0:0|2:0,0:0:0:0:
232,213,172950,2,0,P|145:189|59:183,1,164.666659128825,8|0,0:0|2:0,0:0:0:0:
239,314,173259,6,0,P|302:292|408:271,1,164.666659128825,2|0,0:2|2:0,0:0:0:0:
491,185,173569,2,0,P|430:170|356:147,1,123.499994346619,8|0,0:0|2:0,0:0:0:0:
63,288,173878,2,0,P|95:294|142:309,1,61.7499971733095,2|0,0:2|2:0,0:0:0:0:
280,200,174032,2,0,P|248:194|201:179,1,61.7499971733095,2|0,0:2|2:0,0:0:0:0:
52,57,174187,2,0,P|99:12|210:24,1,164.666659128825,8|0,0:0|2:0,0:0:0:0:
292,104,174496,5,2,0:2:0:0:
10,358,174703,1,0,2:0:0:0:
10,358,174806,1,8,0:0:0:0:
193,13,175012,1,0,2:0:0:0:
193,13,175115,2,0,L|202:84,1,61.7499971733095,2|0,0:2|2:0,0:0:0:0:
333,207,175270,2,0,L|326:279,1,61.7499971733095,2|0,0:2|2:0,0:0:0:0:
95,208,175424,2,0,B|151:181|151:181|215:197,1,123.499994346619,8|0,0:0|2:0,0:0:0:0:
493,96,175733,6,0,B|447:112|447:112|325:81,1,164.666659128825,2|0,0:2|2:0,0:0:0:0:
145,34,176043,1,8,0:0:0:0:
145,34,176146,2,0,L|241:12,1,82.3333295644126,2|0,2:0|2:0,2:0:0:0:
190,215,176352,2,0,L|130:148,1,61.7499971733095,2|0,0:2|2:0,2:0:0:0:
334,83,176507,2,0,L|311:152,1,61.7499971733095,0|0,0:0|2:0,2:0:0:0:
58,149,176661,2,0,L|239:104,1,164.666659128825,8|0,0:0|2:0,0:0:0:0:
322,258,176971,6,0,P|268:238|197:238,1,104.500003189087,4|0,0:0|2:0,0:0:0:0:
432,347,177280,2,0,P|430:279|447:170,1,156.750004783631,2|0,2:0|2:0,2:0:0:0:
497,98,177589,1,8,0:0:0:0:
316,49,177744,1,2,2:0:0:0:
316,49,177821,1,0,2:0:0:0:
316,49,177898,2,0,P|333:105|338:159,1,104.500003189087,2|0,2:0|0:0,0:0:0:0:
179,351,178208,5,2,2:0:0:0:
230,124,178363,1,8,0:0:0:0:
392,271,178517,2,0,P|330:248|224:232,1,156.750004783631,0|0,0:0|2:0,0:0:0:0:
136,254,178826,1,8,0:0:0:0:
125,257,178904,1,0,2:0:0:0:
115,260,178981,1,2,2:0:0:0:
105,263,179058,1,2,2:0:0:0:
94,266,179136,2,0,L|100:202,1,52.2500015945435,0|0,0:0|2:0,0:0:0:0:
28,339,179290,1,8,0:0:0:0:
75,362,179368,1,0,0:0:0:0:
127,357,179445,6,0,P|190:340|258:335,1,123.499994346619,4|0,0:0|2:0,0:0:0:0:
449,198,179754,2,0,P|379:165|280:210,1,185.249991519928,8|0,0:0|2:0,0:0:0:0:
371,271,180063,1,2,0:2:0:0:
293,28,180218,1,0,0:0:0:0:
143,249,180373,2,0,L|275:230,1,123.499994346619,8|0,0:0|0:0,0:0:0:0:
194,89,180605,1,8,0:3:0:0:
194,89,180682,6,0,P|187:122|187:166,1,61.7499971733095,12|0,0:0|2:0,0:0:0:0:
323,344,180837,1,0,0:2:0:0:
293,28,180991,6,0,P|300:63|305:106,1,66.4999979705811,12|0,0:0|2:0,0:0:0:0:
171,323,181146,1,0,0:2:0:0:
439,188,181301,6,0,P|404:176|364:169,1,71.2500027179719,12|0,0:0|2:0,0:0:0:0:
192,192,181455,1,8,0:0:0:0:
201,247,181532,1,0,0:0:0:0:
241,287,181609,1,8,0:0:0:0:
296,297,181687,1,0,0:0:0:0:
347,274,181764,1,8,0:0:0:0:
375,225,181841,1,8,0:0:0:0:
370,169,181919,6,0,B|340:113|331:41|331:41|324:65|312:84,1,177.33332792155,4|0,0:0|2:0,0:0:0:0:
284,206,182228,1,8,0:0:0:0:
434,55,182383,1,2,0:2:0:0:
217,23,182538,1,8,0:0:0:0:
472,183,182692,1,2,0:2:0:0:
193,263,182847,2,0,L|182:185,1,66.4999979705811,8|0,0:0|2:0,0:0:0:0:
321,14,183002,2,0,L|312:97,1,66.4999979705811,0|0,0:0|2:0,0:0:0:0:
111,115,183156,6,0,B|175:92|175:92|299:123,1,177.33332792155,4|0,0:0|2:0,0:0:0:0:
397,151,183465,1,8,0:0:0:0:
183,197,183620,1,2,0:2:0:0:
321,14,183775,1,8,0:0:0:0:
267,293,183929,1,2,0:2:0:0:
19,152,184084,2,0,P|54:145|90:130,1,66.4999979705811,8|0,0:0|2:0,0:0:0:0:
292,150,184239,2,0,P|257:157|221:172,1,66.4999979705811,0|0,0:0|2:0,0:0:0:0:
127,367,184393,6,0,B|157:289|157:289|145:190,1,177.33332792155,4|0,0:0|2:0,0:0:0:0:
128,56,184703,1,8,0:0:0:0:
60,276,184857,1,2,0:2:0:0:
292,150,185012,1,8,0:0:0:0:
19,152,185166,1,2,0:2:0:0:
267,310,185321,2,0,B|264:276|264:276|273:234,1,66.4999979705811,8|0,0:0|2:0,0:0:0:0:
217,27,185476,2,0,B|219:62|219:62|211:103,1,66.4999979705811,0|0,0:0|2:0,0:0:0:0:
387,186,185630,6,0,B|392:122|392:122|362:73|362:73|368:16,1,177.33332792155,4|0,0:0|2:0,0:0:0:0:
292,150,185940,1,8,0:0:0:0:
509,242,186094,1,2,0:2:0:0:
291,339,186249,2,0,P|323:324|369:311,1,66.4999979705811,8|0,0:0|2:0,0:0:0:0:
180,256,186404,2,0,P|144:248|110:244,1,66.4999979705811,2|0,0:2|2:0,0:0:0:0:
292,150,186558,2,0,L|305:225,1,66.4999979705811,8|0,0:0|2:0,0:0:0:0:
133,339,186713,1,8,0:0:0:0:
133,339,186790,1,0,0:0:0:0:
133,339,186868,6,0,P|118:259|96:161,1,177.33332792155,4|0,0:0|2:0,0:0:0:0:
254,5,187177,2,0,P|227:83|202:179,1,177.33332792155,8|0,0:0|2:0,0:0:0:0:
334,307,187486,2,0,P|321:237|303:170,1,132.999995941162,2|0,0:2|2:0,0:0:0:0:
2,307,187795,2,0,P|58:356|151:322,1,177.33332792155,8|0,0:0|2:0,0:0:0:0:
127,133,188105,6,0,P|74:175|89:284,1,177.33332792155,2|0,0:2|2:0,0:0:0:0:
232,342,188414,1,8,0:0:0:0:
355,29,188620,1,0,2:0:0:0:
355,29,188723,1,2,0:2:0:0:
21,77,188929,1,0,2:0:0:0:
21,77,189032,2,0,B|65:64|112:81|112:81|154:96|195:80,1,177.33332792155,8|0,0:0|2:0,0:0:0:0:
322,14,189342,5,2,0:2:0:0:
97,297,189548,1,0,2:2:0:0:
97,297,189651,1,8,0:0:0:0:
445,199,189857,1,0,2:2:0:0:
445,199,189960,1,2,0:2:0:0:
107,74,190166,1,0,2:2:0:0:
107,74,190270,1,8,0:0:0:0:
307,374,190476,1,0,2:2:0:0:
307,374,190579,6,0,P|312:323|342:185,1,177.33332792155,2|0,0:2|2:0,0:0:0:0:
265,35,190888,2,0,P|256:91|233:170,1,132.999995941162,8|0,0:0|2:0,0:0:0:0:
70,293,191197,1,2,0:2:0:0:
337,199,191352,1,8,2:0:0:0:
36,135,191507,1,8,0:0:0:0:
237,348,191661,1,8,0:2:0:0:
407,106,191816,6,0,B|345:83|345:83|271:97,1,132.999995941162,4|0,0:0|2:0,0:0:0:0:
83,225,192125,2,0,B|144:231|144:231|192:262|192:262|250:268,1,177.33332792155,8|0,0:0|2:0,0:0:0:0:
238,109,192435,2,0,L|228:178,1,66.4999979705811,2|0,0:2|2:0,0:0:0:0:
343,297,192589,2,0,L|420:280,1,66.4999979705811,0|0,0:0|2:0,0:0:0:0:
489,141,192744,2,0,L|357:165,1,132.999995941162,8|0,0:0|2:0,0:0:0:0:
111,313,193053,6,0,B|142:271|142:271|122:131,1,177.33332792155,2|0,0:2|2:0,0:0:0:0:
31,52,193362,2,0,B|0:94|0:94|20:234,1,177.33332792155,8|0,0:0|2:0,0:0:0:0:
203,65,193672,2,0,L|134:34,1,66.4999979705811,2|0,0:2|2:0,0:0:0:0:
251,230,193826,2,0,L|240:150,1,66.4999979705811,2|0,0:2|2:0,0:0:0:0:
235,337,193981,2,0,B|380:312|380:312|362:341,1,177.33332792155,8|0,0:0|2:0,0:0:0:0:
400,204,194290,6,0,P|443:225|488:302,1,132.999995941162,2|0,0:2|2:0,0:0:0:0:
118,351,194599,2,0,L|133:157,1,177.33332792155,8|0,0:0|2:0,0:0:0:0:
251,35,194909,2,0,L|180:10,1,66.4999979705811,2|0,0:2|2:0,0:0:0:0:
0,90,195063,2,0,L|72:68,1,66.4999979705811,0|0,0:0|2:0,0:0:0:0:
291,187,195218,2,0,P|202:148|125:179,1,177.33332792155,8|0,0:0|2:0,0:0:0:0:
277,295,195527,6,0,P|377:263|403:196,1,177.33332792155,2|0,0:2|2:0,0:0:0:0:
307,100,195837,1,8,0:0:0:0:
307,100,195940,2,0,P|294:142|291:187,1,88.6666639607748,2|0,2:0|2:0,2:0:0:0:
450,104,196146,2,0,L|436:24,1,66.4999979705811,0|0,0:0|2:0,0:0:0:0:
410,236,196301,2,0,L|421:301,1,66.4999979705811,0|0,0:0|2:0,0:0:0:0:
291,186,196455,2,0,B|242:172|205:198|205:198|167:223|120:211,1,177.33332792155,8|0,0:0|2:0,0:0:0:0:
78,38,196764,6,0,P|119:67|147:118,1,109.250002083778,4|0,0:0|2:0,0:0:0:0:
9,305,197074,2,0,P|30:241|42:124,1,163.875003125668,2|0,2:0|2:0,2:0:0:0:
146,224,197383,2,0,P|124:289|120:344,1,109.250002083778,8|0,0:0|2:0,0:0:0:0:
119,329,197615,1,0,2:0:0:0:
119,329,197692,1,2,2:0:0:0:
259,192,197847,1,0,0:0:0:0:
42,145,198002,5,2,2:0:0:0:
235,302,198156,1,8,0:0:0:0:
422,135,198311,2,0,P|449:75|370:5,1,163.875003125668,0|0,0:0|2:0,0:0:0:0:
327,91,198620,1,8,0:0:0:0:
326,101,198698,1,0,2:0:0:0:
325,111,198775,1,2,2:0:0:0:
325,121,198852,1,2,2:0:0:0:
324,132,198930,2,0,L|266:128,1,54.6250010418892,0|0,0:0|2:0,0:0:0:0:
123,35,199084,1,8,0:0:0:0:
176,28,199162,1,0,0:0:0:0:
229,24,199239,6,0,B|248:84|248:84|226:153,1,132.999995941162,4|0,0:0|2:0,0:0:0:0:
14,267,199548,2,0,B|71:241|71:241|209:270,1,199.499993911743,8|0,0:0|2:0,0:0:0:0:
317,292,199857,1,2,0:2:0:0:
129,86,200012,1,0,0:0:0:0:
413,137,200167,2,0,L|272:161,1,132.999995941162,8|0,0:0|0:0,0:0:0:0:
185,171,200399,1,8,0:3:0:0:
185,171,200476,5,12,0:0:0:0:
435,236,200630,1,0,0:0:0:0:
248,59,200785,1,8,0:0:0:0:
349,331,200940,1,0,0:0:0:0:
362,27,201094,1,8,0:0:0:0:
219,346,201249,6,0,L|203:264,1,71.2500027179719,8|0,0:3|0:0,0:0:0:0:
350,138,201404,2,0,L|340:224,1,71.2500027179719,8|0,0:3|0:0,0:0:0:0:
135,77,201558,2,0,L|145:-2,1,71.2500027179719,8|0,0:3|0:0,0:0:0:0:
249,195,201713,6,0,B|172:273|57:250|57:250|71:192|121:171,1,313.500009567261,4|0,0:0|2:0,0:0:0:0:
296,98,202331,2,0,P|344:145|321:275,1,209.000006378174,8|0,0:0|2:0,0:0:0:0:
134,361,202795,6,0,P|191:337|238:328,1,104.500003189087,2|0,0:2|2:3,0:0:0:0:
404,346,203105,1,8,0:0:0:0:
203,212,203259,2,0,P|265:230|318:236,1,104.500003189087,0|0,0:0|2:0,0:0:0:0:
484,109,203569,2,0,B|432:95|384:120|384:120|338:145|282:129,1,209.000006378174,8|0,0:0|2:0,0:0:0:0:
82,21,204032,1,0,0:0:0:0:
82,21,204110,1,0,0:0:0:0:
82,21,204187,6,0,P|96:79|103:137,1,104.500003189087,2|0,0:2|2:0,0:0:0:0:
295,267,204496,2,0,P|279:199|271:150,1,104.500003189087,0|0,0:0|2:0,0:0:0:0:
162,313,204806,2,0,P|87:332|32:260,1,156.750004783631,8|0,0:0|2:0,0:0:0:0:
39,190,205115,1,2,2:0:0:0:
262,346,205270,6,0,P|273:297|279:236,1,104.500003189087,2|0,0:2|2:3,0:0:0:0:
205,78,205579,1,8,0:0:0:0:
158,218,205733,2,0,P|210:187|255:148,1,104.500003189087,0|0,0:0|2:0,0:0:0:0:
490,77,206043,2,0,B|447:59|447:59|369:83|336:178,1,209.000006378174,8|0,0:0|2:0,0:0:0:0:
97,113,206507,1,0,0:0:0:0:
97,113,206584,1,0,0:0:0:0:
97,113,206661,6,0,B|133:107|160:81|160:81|146:32|85:10|26:40|5:95|29:149,1,313.500009567261,2|0,0:2|2:0,0:0:0:0:
248,236,207280,2,0,P|150:196|93:224,1,156.750004783631,8|0,0:0|2:0,0:0:0:0:
43,288,207589,1,2,2:0:0:0:
227,346,207744,6,0,P|275:326|335:313,1,104.500003189087,2|0,0:2|2:0,0:0:0:0:
471,160,208053,1,8,0:0:0:0:
287,209,208208,2,0,P|346:222|408:228,1,104.500003189087,0|0,0:0|2:0,0:0:0:0:
231,118,208517,2,0,P|173:77|64:144,1,209.000006378174,8|2,0:0|2:0,0:0:0:0:
175,339,208981,1,0,0:0:0:0:
175,339,209058,1,0,0:0:0:0:
175,339,209136,5,2,0:2:0:0:
233,265,209290,1,0,2:2:0:0:
157,207,209445,1,0,0:0:0:0:
99,282,209599,1,2,2:0:0:0:
233,265,209754,5,8,0:0:0:0:
256,130,209909,1,0,2:0:0:0:
138,66,210063,1,2,2:2:0:0:
39,160,210218,1,2,0:2:0:0:
99,282,210373,5,2,2:0:0:0:
256,130,210527,1,8,0:0:0:0:
39,160,210682,1,2,0:2:0:0:
233,265,210837,1,2,2:0:0:0:
138,66,210991,6,0,P|150:124|160:225,1,156.750004783631,8|0,0:0|2:0,0:0:0:0:
230,335,211301,2,0,L|241:272,1,52.2500015945435,8|2,0:0|2:0,0:0:0:0:
256,192,211455,1,8,0:0:0:0:
256,192,211532,1,0,0:0:0:0:
