osu file format v14

[General]
AudioFilename: audio.mp3
AudioLeadIn: 0
PreviewTime: 152228
Countdown: 0
SampleSet: Soft
StackLeniency: 0.4
Mode: 0
LetterboxInBreaks: 0
WidescreenStoryboard: 1

[Editor]
Bookmarks: 1309,16154,21102,30999,35948,45845,61927,76772,79247,81721,91618,96566,106463,120071,122546,137391,139865,142339,152236,157185,162133,176979,179453,180690,180979,181289,181618,181695,181772,181850,181927,196772,199247,201721,211618
DistanceSpacing: 1.2
BeatDivisor: 4
GridSize: 4
TimelineZoom: 2.1

[Metadata]
Title:Kuraberarekko (TUYU Remix)
TitleUnicode:くらべられっ子 (TUYU Remix)
Artist:TUYU
ArtistUnicode:ツユ
Creator:SnowNiNo_
Version:Silent's Hard
Source:
Tags:jpop j-pop miro ミロ compared child it's raining after all やっぱり雨は降るんだね 礼衣 reii ぷす pusu kun おむたつ omutatsu azyun japanese novelty pop jonathanlfj bossandy Silent Rock Deppyforce Dogerinoo
BeatmapID:2470051
BeatmapSetID:1182767

[Difficulty]
HPDrainRate:4
CircleSize:3.6
OverallDifficulty:6
ApproachRate:8
SliderMultiplier:1.4
SliderTickRate:1

[Events]
//Background and Video events
0,0,"EZV-Zx1U8AYVY7z.jpg",0,0
Video,0,"video.avi"
//Break Periods
//Storyboard Layer 0 (Background)
//Storyboard Layer 1 (Fail)
//Storyboard Layer 2 (Pass)
//Storyboard Layer 3 (Foreground)
//Storyboard Layer 4 (Overlay)
//Storyboard Sound Samples

[TimingPoints]
1301,309.278350515464,4,2,0,50,1,0
1301,-142.857142857143,4,2,11,50,0,0
10811,-142.857142857143,4,2,11,5,0,0
10888,-142.857142857143,4,2,11,50,0,0
11120,-142.857142857143,4,2,11,5,0,0
11197,-142.857142857143,4,2,11,50,0,0
12435,-125,4,2,11,50,0,0
13672,-111.111111111111,4,2,11,50,0,0
14909,-125,4,2,11,50,0,0
15527,-142.857142857143,4,2,11,50,0,0
15759,-142.857142857143,4,2,11,5,0,0
15837,-142.857142857143,4,2,11,50,0,0
16069,-142.857142857143,4,2,11,5,0,0
16146,-125,4,2,11,40,0,0
19857,-125,4,2,11,40,0,0
20476,-125,4,2,12,40,0,0
21094,-83.3333333333333,4,2,12,70,0,0
21326,-83.3333333333333,4,2,12,5,0,0
21404,-90.9090909090909,4,2,12,70,0,0
23801,-90.9090909090909,4,2,12,5,0,0
23878,-90.9090909090909,4,2,12,70,0,0
25347,-90.9090909090909,4,2,12,5,0,0
25424,-90.9090909090909,4,2,12,70,0,0
26275,-90.9090909090909,4,2,12,5,0,0
26352,-90.9090909090909,4,2,12,70,0,0
28749,-90.9090909090909,4,2,12,5,0,0
28826,-90.9090909090909,4,2,12,70,0,0
30991,-125,4,2,12,40,0,0
31532,-125,4,2,12,5,0,0
31610,-125,4,2,12,40,0,0
32770,-125,4,2,12,5,0,0
32847,-125,4,2,12,40,0,0
33465,-111.111111111111,4,2,12,40,0,0
34007,-111.111111111111,4,2,12,5,0,0
34084,-111.111111111111,4,2,12,40,0,0
35244,-111.111111111111,4,2,12,5,0,0
35321,-111.111111111111,4,2,12,40,0,0
35630,-142.857142857143,4,2,12,40,0,0
35940,-100,4,2,12,60,0,0
38027,-100,4,2,12,5,0,0
38105,-100,4,2,12,60,0,0
39883,-100,4,2,12,5,0,0
39960,-100,4,2,12,60,0,0
40424,-142.857142857143,4,2,12,60,0,0
40888,-100,4,2,12,60,0,0
44599,-125,4,2,12,60,0,0
45837,-111.111111111111,4,2,12,60,0,0
46378,-111.111111111111,4,2,12,5,0,0
46455,-111.111111111111,4,2,12,60,0,0
48852,-111.111111111111,4,2,12,5,0,0
48929,-111.111111111111,4,2,12,60,0,0
51326,-111.111111111111,4,2,12,5,0,0
51404,-111.111111111111,4,2,12,60,0,0
53801,-111.111111111111,4,2,12,5,0,0
53878,-111.111111111111,4,2,12,60,0,0
55733,-90.9090909090908,4,2,12,60,0,0
55965,-90.9090909090908,4,2,12,5,0,0
56043,-90.9090909090908,4,2,12,60,0,0
56584,-90.9090909090908,4,2,12,5,0,0
56661,-90.9090909090908,4,2,12,60,0,0
57203,-90.9090909090908,4,2,12,5,0,0
57280,-90.9090909090908,4,2,12,60,0,0
57821,-90.9090909090908,4,2,12,5,0,0
57898,-90.9090909090908,4,2,12,60,0,0
59445,-100,4,2,14,60,0,0
60682,-125,4,2,12,40,0,0
61919,-83.3333333333333,4,2,12,60,0,1
62151,-83.3333333333333,4,2,12,5,0,1
62228,-83.3333333333333,4,2,12,60,0,1
63388,-83.3333333333333,4,2,12,5,0,1
63465,-83.3333333333333,4,2,12,60,0,1
64625,-83.3333333333333,4,2,12,5,0,1
64703,-83.3333333333333,4,2,12,60,0,1
65862,-83.3333333333333,4,2,12,5,0,1
65940,-83.3333333333333,4,2,12,60,0,1
67099,-83.3333333333333,4,2,12,5,0,1
67177,-83.3333333333333,4,2,12,60,0,1
67718,-83.3333333333333,4,2,12,5,0,1
67795,-83.3333333333333,4,2,12,60,0,1
68337,-83.3333333333333,4,2,12,5,0,1
68414,-83.3333333333333,4,2,12,60,0,1
68955,-83.3333333333333,4,2,12,5,0,1
69032,-83.3333333333333,4,2,12,60,0,1
69574,-83.3333333333333,4,2,12,5,0,1
69651,-83.3333333333333,4,2,12,60,0,1
70811,-83.3333333333333,4,2,12,5,0,1
70888,-83.3333333333333,4,2,12,60,0,1
71429,-83.3333333333333,4,2,12,5,0,1
71507,-83.3333333333333,4,2,12,60,0,1
72048,-83.3333333333333,4,2,12,5,0,1
72125,-83.3333333333333,4,2,12,60,0,1
73285,-83.3333333333333,4,2,12,5,0,1
73362,-83.3333333333333,4,2,12,60,0,1
74522,-83.3333333333333,4,2,12,5,0,1
74599,-83.3333333333333,4,2,12,60,0,1
74831,-83.3333333333333,4,2,12,5,0,1
74909,-83.3333333333333,4,2,12,60,0,1
75759,-83.3333333333333,4,2,12,5,0,1
75837,-83.3333333333333,4,2,12,60,0,1
76687,-83.3333333333333,4,2,12,5,0,1
76764,-100,4,2,12,60,0,0
79239,-83.3333333333333,4,2,12,60,0,1
79471,-83.3333333333333,4,2,12,5,0,1
79548,-83.3333333333333,4,2,12,60,0,1
79780,-83.3333333333333,4,2,12,5,0,1
79857,-83.3333333333333,4,2,12,60,0,1
81713,-100,4,2,11,60,0,0
81868,-100,4,2,13,60,0,0
91610,-125,4,2,12,60,0,0
92151,-125,4,2,12,5,0,0
92228,-125,4,2,12,60,0,0
93388,-125,4,2,12,5,0,0
93465,-125,4,2,12,60,0,0
94084,-111.111111111111,4,2,12,60,0,0
94625,-111.111111111111,4,2,12,5,0,0
94703,-111.111111111111,4,2,12,60,0,0
95862,-111.111111111111,4,2,12,5,0,0
95940,-111.111111111111,4,2,12,60,0,0
96249,-142.857142857143,4,2,12,60,0,0
96558,-100,4,2,12,60,0,0
98646,-100,4,2,12,5,0,0
98723,-100,4,2,12,60,0,0
100502,-100,4,2,12,5,0,0
100579,-100,4,2,12,60,0,0
101043,-142.857142857143,4,2,12,60,0,0
101507,-100,4,2,12,60,0,0
105218,-125,4,2,12,60,0,0
106455,-111.111111111111,4,2,12,60,0,0
106996,-111.111111111111,4,2,12,5,0,0
107074,-111.111111111111,4,2,12,60,0,0
109471,-111.111111111111,4,2,12,5,0,0
109548,-111.111111111111,4,2,12,60,0,0
111945,-111.111111111111,4,2,12,5,0,0
112022,-111.111111111111,4,2,12,60,0,0
114419,-111.111111111111,4,2,12,5,0,0
114496,-111.111111111111,4,2,12,60,0,0
116352,-90.9090909090908,4,2,12,60,0,0
116584,-90.9090909090908,4,2,12,5,0,0
116661,-90.9090909090908,4,2,12,60,0,0
117203,-90.9090909090908,4,2,12,5,0,0
117280,-90.9090909090908,4,2,12,60,0,0
117821,-90.9090909090908,4,2,12,5,0,0
117898,-90.9090909090908,4,2,12,60,0,0
118440,-90.9090909090908,4,2,12,5,0,0
118517,-90.9090909090908,4,2,12,60,0,0
120063,-100,4,2,14,60,0,0
120991,-125,4,2,12,60,0,0
121919,-100,4,2,12,60,0,0
122538,-83.3333333333333,4,2,12,60,0,1
122770,-83.3333333333333,4,2,12,5,0,1
122847,-83.3333333333333,4,2,12,60,0,1
124007,-83.3333333333333,4,2,12,5,0,1
124084,-83.3333333333333,4,2,12,60,0,1
125244,-83.3333333333333,4,2,12,5,0,1
125321,-83.3333333333333,4,2,12,60,0,1
126481,-83.3333333333333,4,2,12,5,0,1
126558,-83.3333333333333,4,2,12,60,0,1
127718,-83.3333333333333,4,2,12,5,0,1
127795,-83.3333333333333,4,2,12,60,0,1
128337,-83.3333333333333,4,2,12,5,0,1
128414,-83.3333333333333,4,2,12,60,0,1
128955,-83.3333333333333,4,2,12,5,0,1
129032,-83.3333333333333,4,2,12,60,0,1
129574,-83.3333333333333,4,2,12,5,0,1
129651,-83.3333333333333,4,2,12,60,0,1
130192,-83.3333333333333,4,2,12,5,0,1
130270,-83.3333333333333,4,2,12,60,0,1
130811,-83.3333333333333,4,2,12,5,0,1
130888,-83.3333333333333,4,2,12,60,0,1
131971,-83.3333333333333,4,2,12,40,0,1
132125,-83.3333333333333,4,2,12,50,0,1
132280,-83.3333333333333,4,2,12,60,0,1
132666,-83.3333333333333,4,2,12,5,0,1
132744,-83.3333333333333,4,2,12,60,0,1
133904,-83.3333333333333,4,2,12,5,0,1
133981,-83.3333333333333,4,2,12,60,0,1
135141,-83.3333333333333,4,2,12,5,0,1
135218,-83.3333333333333,4,2,12,60,0,1
135450,-83.3333333333333,4,2,12,5,0,1
135527,-83.3333333333333,4,2,12,60,0,1
136378,-83.3333333333333,4,2,12,5,0,1
136455,-83.3333333333333,4,2,12,60,0,1
137306,-83.3333333333333,4,2,12,5,0,1
137383,-100,4,2,12,60,0,0
139857,-83.3333333333333,4,2,12,60,0,1
140089,-83.3333333333333,4,2,12,5,0,1
140166,-83.3333333333333,4,2,12,60,0,1
140398,-83.3333333333333,4,2,12,5,0,1
140476,-83.3333333333333,4,2,12,60,0,1
142331,-100,4,2,11,60,0,0
142486,-100,4,2,13,60,0,0
152228,-166.666666666667,4,2,12,60,0,0
157177,-100,4,2,11,60,0,0
159032,-100,4,2,12,60,0,0
160888,-111.111111111111,4,2,12,60,0,0
161429,-111.111111111111,4,2,12,5,0,0
161507,-125,4,2,12,60,0,0
162048,-125,4,2,12,5,0,0
162125,-76.923076923077,4,2,12,60,0,1
162357,-76.923076923077,4,2,12,5,0,1
162435,-76.923076923077,4,2,12,60,0,1
163594,-76.923076923077,4,2,12,5,0,1
163672,-76.923076923077,4,2,12,60,0,1
164831,-76.923076923077,4,2,12,5,0,1
164909,-76.923076923077,4,2,12,60,0,1
166069,-76.923076923077,4,2,12,5,0,1
166146,-76.923076923077,4,2,12,60,0,1
167306,-76.923076923077,4,2,12,5,0,1
167383,-76.923076923077,4,2,12,60,0,1
167924,-76.923076923077,4,2,12,5,0,1
168002,-76.923076923077,4,2,12,60,0,1
168543,-76.923076923077,4,2,12,5,0,1
168620,-76.923076923077,4,2,12,60,0,1
169161,-76.923076923077,4,2,12,5,0,1
169239,-76.923076923077,4,2,12,60,0,1
169780,-76.923076923077,4,2,12,5,0,1
169857,-76.923076923077,4,2,12,60,0,1
170089,-76.923076923077,4,2,12,5,0,1
170166,-76.923076923077,4,2,12,60,0,1
171017,-76.923076923077,4,2,12,5,0,1
171094,-76.923076923077,4,2,12,60,0,1
171636,-76.923076923077,4,2,12,5,0,1
171713,-76.923076923077,4,2,12,60,0,1
172254,-76.923076923077,4,2,12,5,0,1
172331,-76.923076923077,4,2,12,60,0,1
173491,-76.923076923077,4,2,12,5,0,1
173569,-76.923076923077,4,2,12,60,0,1
174728,-76.923076923077,4,2,12,5,0,1
174806,-76.923076923077,4,2,12,60,0,1
175038,-76.923076923077,4,2,12,5,0,1
175115,-76.923076923077,4,2,12,60,0,1
175965,-76.923076923077,4,2,12,5,0,1
176043,-76.923076923077,4,2,12,60,0,1
176893,-76.923076923077,4,2,12,5,0,1
176971,-90.9090909090909,4,2,12,60,0,0
179445,-76.923076923077,4,2,12,60,0,1
179677,-76.923076923077,4,2,12,5,0,0
179754,-76.923076923077,4,2,12,60,0,1
179986,-76.923076923077,4,2,12,5,0,0
180063,-76.923076923077,4,2,12,60,0,0
180373,-76.923076923077,4,2,12,60,0,1
180527,-76.923076923077,4,2,12,60,0,0
180682,-76.923076923077,4,2,12,60,0,1
180837,-76.923076923077,4,2,12,60,0,0
180991,-76.923076923077,4,2,12,60,0,1
181146,-76.923076923077,4,2,12,60,0,0
181301,-76.923076923077,4,2,12,60,0,1
181455,-76.923076923077,4,2,12,60,0,0
181610,-90.9090909090909,4,2,12,60,0,1
181842,-90.9090909090909,4,2,12,60,0,0
181919,-76.923076923077,4,2,12,60,0,1
182151,-76.923076923077,4,2,12,5,0,1
182228,-76.923076923077,4,2,12,60,0,1
183388,-76.923076923077,4,2,12,5,0,1
183465,-76.923076923077,4,2,12,60,0,1
184625,-76.923076923077,4,2,12,5,0,1
184703,-76.923076923077,4,2,12,60,0,1
184935,-76.923076923077,4,2,12,5,0,1
185012,-76.923076923077,4,2,12,60,0,1
185862,-76.923076923077,4,2,12,5,0,1
185940,-76.923076923077,4,2,12,60,0,1
187099,-76.923076923077,4,2,12,5,0,1
187177,-76.923076923077,4,2,12,60,0,1
187718,-76.923076923077,4,2,12,5,0,1
187795,-76.923076923077,4,2,12,60,0,1
188337,-76.923076923077,4,2,12,5,0,1
188414,-76.923076923077,4,2,12,60,0,1
188955,-76.923076923077,4,2,12,5,0,1
189032,-76.923076923077,4,2,12,60,0,1
189574,-76.923076923077,4,2,12,5,0,1
189651,-76.923076923077,4,2,12,60,0,1
190192,-76.923076923077,4,2,12,5,0,1
190270,-76.923076923077,4,2,12,60,0,1
191429,-76.923076923077,4,2,12,5,0,1
191507,-76.923076923077,4,2,12,60,0,1
192048,-76.923076923077,4,2,12,5,0,1
192125,-76.923076923077,4,2,12,60,0,1
193285,-76.923076923077,4,2,12,5,0,1
193362,-76.923076923077,4,2,12,60,0,1
194522,-76.923076923077,4,2,12,5,0,1
194599,-76.923076923077,4,2,12,60,0,1
194831,-76.923076923077,4,2,12,5,0,1
194909,-76.923076923077,4,2,12,60,0,1
195759,-76.923076923077,4,2,12,5,0,1
195837,-76.923076923077,4,2,12,60,0,1
196687,-76.923076923077,4,2,12,5,0,1
196764,-90.9090909090909,4,2,12,60,0,0
199239,-76.923076923077,4,2,12,60,0,1
199471,-76.923076923077,4,2,12,5,0,1
199548,-76.923076923077,4,2,12,60,0,1
199780,-76.923076923077,4,2,12,5,0,1
199857,-76.923076923077,4,2,12,60,0,1
201713,-100,4,2,11,60,0,0
201868,-100,4,2,13,60,0,0
203878,-90.9090909090909,4,2,12,60,0,0
204187,-100,4,2,13,60,0,0
204960,-100,4,2,12,60,0,0
205115,-111.111111111111,4,2,12,60,0,0
205424,-111.111111111111,4,2,13,60,0,0
206352,-95.2380952380952,4,2,12,60,0,0
206661,-90.9090909090909,4,2,13,60,0,0
207589,-95.2380952380952,4,2,12,60,0,0
207744,-100,4,2,12,60,0,0
207898,-100,4,2,13,60,0,0
208826,-86.9565217391304,4,2,12,60,0,0
208981,-83.3333333333333,4,2,12,60,0,0
209136,-83.3333333333333,4,2,13,60,0,0
209754,-83.3333333333333,4,2,13,60,0,0
210373,-83.3333333333333,4,2,13,40,0,0
210991,-83.3333333333333,4,2,13,30,0,0
211610,-83.3333333333333,4,2,11,20,0,0

[Colours]
Combo1 : 203,69,108
Combo2 : 255,190,190

[HitObjects]
6,167,1301,6,0,P|54:175|96:198,3,97.9999970092774,4|2|10|2,0:0|0:3|0:0|0:3,0:0:0:0:
106,37,2538,2,0,P|139:73|157:118,3,97.9999970092774,2|2|10|2,0:0|0:3|0:0|0:3,0:0:0:0:
256,7,3775,6,0,L|256:108,1,97.9999970092774,2|2,0:0|0:3,0:0:0:0:
405,36,4393,2,0,P|372:73|354:118,1,97.9999970092774,10|2,0:0|0:3,0:0:0:0:
505,167,5012,2,0,P|456:175|414:198,3,97.9999970092774,2|2|10|2,0:0|0:3|0:0|0:3,0:0:0:0:
311,344,6249,6,0,P|327:298|328:249,1,97.9999970092774,2|2,0:0|0:3,0:0:0:0:
256,86,6868,2,0,P|287:123|328:148,1,97.9999970092774,10|2,0:0|0:3,0:0:0:0:
201,344,7486,2,0,P|184:298|183:249,1,97.9999970092774,2|2,0:0|0:3,0:0:0:0:
256,86,8105,2,0,P|224:123|183:148,1,97.9999970092774,10|2,0:0|0:3,0:0:0:0:
7,167,8723,6,0,P|55:175|97:198,1,97.9999970092774,2|2,0:0|0:3,0:0:0:0:
203,342,9342,1,10,0:0:0:0:
183,148,9651,1,2,0:3:0:0:
288,291,9960,2,0,P|330:314|379:323,1,97.9999970092774,2|2,0:0|0:3,0:0:0:0:
512,226,10579,2,0,L|499:144,1,73.4999977569581,10|0,0:0|0:0,0:0:0:0:
461,142,10888,2,0,L|448:60,1,73.4999977569581,2|0,0:3|0:0,0:0:0:0:
410,58,11197,6,0,L|306:72,1,97.9999970092774,2|2,0:0|0:3,0:0:0:0:
461,142,11816,2,0,L|357:156,1,97.9999970092774,10|2,0:0|0:3,0:0:0:0:
211,348,12435,6,0,L|211:228,1,112,2|2,0:0|0:3,0:0:0:0:
301,348,13053,2,0,L|301:228,1,112,10|2,0:0|0:3,0:0:0:0:
75,54,13672,6,0,L|199:70,1,125.999996154785,2|2,0:0|0:3,0:0:0:0:
23,138,14290,2,0,L|147:154,1,125.999996154785,10|2,0:0|0:3,0:0:0:0:
461,142,14909,6,0,B|451:143|451:143|445:139|445:139|447:149|447:149|441:144|441:144|350:157,1,112,2|2,0:0|0:3,0:0:0:0:
185,296,15527,2,0,P|204:265|237:250,1,73.4999977569581,10|0,0:0|0:0,0:0:0:0:
274,250,15837,2,0,P|307:265|327:296,1,73.4999977569581,2|0,0:3|0:0,0:0:0:0:
256,327,16146,5,2,0:0:0:0:
126,213,16455,1,0,0:0:0:0:
256,109,16764,1,10,0:0:0:0:
385,213,17073,1,0,0:0:0:0:
256,327,17383,6,0,B|256:284|256:284|248:272|248:272|248:224|248:224|256:208|256:208|256:168|256:168|260:160|260:160|260:148|260:148|256:140|256:140|256:104,1,224,2|10,0:0|0:0,0:0:0:0:
126,213,18311,1,0,0:0:0:0:
340,287,18620,6,0,P|470:228|369:127,1,336,2|0,0:0|0:0,0:0:0:0:
172,287,19857,5,2,3:0:0:0:
143,128,20476,5,2,0:3:0:0:
20,233,21094,6,0,P|68:282|136:260,1,125.999996154785,4|0,3:1|0:0,0:0:0:0:
171,287,21404,2,0,P|193:255|229:245,1,77.0000023498536,8|0,0:1|0:0,0:0:0:0:
318,255,21713,1,2,3:0:0:0:
318,255,21868,1,0,3:0:0:0:
291,174,22022,2,0,P|283:136|302:104,1,77.0000023498536,8|0,0:1|0:0,0:0:0:0:
386,118,22331,6,0,P|393:155|374:187,1,77.0000023498536,2|0,3:0|0:0,0:0:0:0:
318,255,22641,2,0,P|280:253|250:277,1,77.0000023498536,8|0,0:1|0:0,0:0:0:0:
171,246,22950,1,2,3:0:0:0:
100,293,23105,1,0,3:0:0:0:
38,234,23259,2,0,L|51:151,1,77.0000023498536,8|0,0:1|0:0,0:0:0:0:
24,76,23569,6,0,P|71:106|128:99,1,115.50000352478,2|0,3:0|0:0,0:0:0:0:
177,76,23878,2,0,P|213:65|251:69,1,77.0000023498536,8|0,0:1|0:0,0:0:0:0:
331,111,24187,1,2,3:0:0:0:
331,111,24342,1,0,3:0:0:0:
283,180,24496,2,0,L|293:258,1,77.0000023498536,8|0,0:1|0:0,0:0:0:0:
377,264,24806,6,0,L|367:187,1,77.0000023498536,2|0,3:0|0:0,0:0:0:0:
461,271,25115,2,0,B|459:258|459:258|466:248|466:248|455:235|455:235|447:152,1,115.50000352478,8|0,0:1|0:0,0:0:0:0:
440,108,25424,2,0,P|401:105|367:88,1,77.0000023498536,2|0,3:0|3:0,0:0:0:0:
303,33,25733,2,0,P|264:35|230:52,1,77.0000023498536,8|0,0:1|0:0,0:0:0:0:
168,111,26043,6,0,B|181:193|181:193|161:218,1,115.50000352478,2|0,3:0|0:0,0:0:0:0:
126,260,26352,2,0,P|162:268|187:297,1,77.0000023498536,8|0,0:1|0:0,0:0:0:0:
256,246,26661,1,2,3:0:0:0:
256,246,26816,1,0,3:0:0:0:
324,297,26971,2,0,P|348:268|385:259,1,77.0000023498536,8|0,0:1|0:0,0:0:0:0:
428,333,27280,6,0,P|403:361|366:370,1,77.0000023498536,2|0,3:0|0:0,0:0:0:0:
281,370,27589,2,0,P|253:344|215:339,1,77.0000023498536,8|0,0:1|0:0,0:0:0:0:
136,370,27898,1,2,3:0:0:0:
148,286,28053,1,0,3:2:0:0:
73,244,28208,2,0,P|58:208|68:172,1,77.0000023498536,8|0,0:1|0:2,0:0:0:0:
132,116,28517,6,0,L|258:132,1,115.50000352478,2|0,3:0|0:0,0:0:0:0:
301,139,28826,2,0,P|286:174|296:210,1,77.0000023498536,8|0,0:1|0:0,0:0:0:0:
370,263,29136,1,2,3:0:0:0:
370,263,29290,1,0,3:0:0:0:
452,225,29445,2,0,P|488:236|512:266,1,77.0000023498536,8|0,0:1|0:0,0:0:0:0:
499,349,29754,6,0,B|456:338|456:338|423:365|423:365|392:358|392:358|375:372|375:372|359:371,1,154.000004699707,2|8,3:0|0:1,0:0:0:0:
56,299,30373,1,2,3:0:0:0:
76,218,30527,1,8,3:1:0:0:
156,194,30682,1,8,0:1:0:0:
226,259,30837,1,8,0:1:0:0:
226,259,30914,1,8,0:1:0:0:
226,259,30991,6,0,P|333:273|380:197,1,196,0|0,3:0|0:0,0:0:0:0:
378,209,31610,1,8,0:0:0:0:
41,304,32228,2,0,P|134:296|183:376,1,196,0|0,3:0|0:0,0:0:0:0:
182,375,32847,1,8,0:0:0:0:
471,121,33465,6,0,L|446:358,1,220.499993270874,0|0,3:0|0:0,0:0:0:0:
447,340,34084,1,8,0:0:0:0:
201,38,34703,2,0,L|226:275,1,220.499993270874,0|0,3:0|0:0,0:0:0:0:
224,257,35321,1,8,0:0:0:0:
402,160,35630,1,10,0:3:0:0:
402,160,35940,6,0,P|370:146|335:147,1,70,4|0,3:2|0:0,0:0:0:0:
304,76,36249,2,0,P|276:96|259:127,1,70,8|0,3:2|0:0,0:0:0:0:
182,118,36558,2,0,P|186:152|204:182,1,70,0|0,3:0|0:0,0:0:0:0:
157,244,36868,2,0,P|188:257|223:256,1,70,8|0,3:2|0:0,0:0:0:0:
291,306,37177,6,0,P|303:273|329:249,1,70,0|0,3:0|0:0,0:0:0:0:
388,200,37486,2,0,P|366:172|358:138,1,70,8|0,3:2|0:0,0:0:0:0:
343,62,37795,2,0,P|292:64|247:38,1,105,0|0,3:0|0:0,0:0:0:0:
220,4,38105,2,0,P|214:52|200:68,1,70,8|0,3:2|0:0,0:0:0:0:
133,119,38414,6,0,P|100:178|114:246,1,140,0|8,3:0|3:2,0:0:0:0:
178,288,38878,1,0,0:0:0:0:
248,258,39032,2,0,P|281:251|315:260,1,70,0|0,3:0|0:0,0:0:0:0:
378,306,39342,2,0,P|411:312|445:303,1,70,8|0,3:2|0:0,0:0:0:0:
505,254,39651,6,0,L|494:129,1,105,0|0,3:0|0:0,0:0:0:0:
495,149,39960,1,8,3:2:0:0:
305,336,40270,1,0,3:0:0:0:
249,281,40424,2,0,L|257:232,2,48.9999985046387,8|8|8,0:0|0:0|0:0,0:0:0:0:
175,343,40888,6,0,P|147:321|113:313,1,70,4|0,3:2|0:0,0:0:0:0:
53,265,41197,2,0,P|80:243|114:235,1,70,8|0,3:2|0:0,0:0:0:0:
175,186,41507,2,0,P|147:164|113:156,1,70,0|0,3:0|0:0,0:0:0:0:
37,149,41816,1,8,3:2:0:0:
37,149,41971,1,0,0:0:0:0:
114,156,42125,6,0,P|147:147|174:126,1,70,0|0,3:0|0:0,0:0:0:0:
248,100,42435,2,0,P|281:108|308:129,1,70,8|0,3:2|0:0,0:0:0:0:
382,156,42744,2,0,P|415:147|442:126,1,70,0|0,3:0|0:0,0:0:0:0:
496,69,43053,1,8,3:2:0:0:
420,52,43208,1,0,0:0:0:0:
420,52,43362,5,2,3:0:0:0:
420,332,43826,1,2,0:0:0:0:
499,318,43981,1,2,3:0:0:0:
499,318,44135,1,0,3:0:0:0:
442,258,44290,2,0,P|415:237|382:228,1,70,8|0,0:0|0:0,0:0:0:0:
301,225,44599,6,0,P|256:305|211:223,1,224,12|8,3:1|0:0,0:0:0:0:
512,69,45837,6,0,B|406:42|426:134|301:97,1,220.499993270874,4|0,3:0|0:0,0:0:0:0:
301,97,46455,1,8,0:0:0:0:
84,306,47074,5,0,3:0:0:0:
84,306,47383,1,0,3:0:0:0:
83,306,47692,2,0,P|121:258|110:198,1,125.999996154785,8|0,0:0|0:0,0:0:0:0:
0,69,48311,6,0,B|105:42|85:134|210:97,1,220.499993270874,0|0,3:0|0:0,0:0:0:0:
209,97,48929,1,8,0:0:0:0:
428,306,49548,5,0,3:0:0:0:
428,306,49857,1,0,3:0:0:0:
429,306,50166,2,0,P|390:258|401:198,1,125.999996154785,8|0,0:0|0:0,0:0:0:0:
512,69,50785,6,0,B|425:60|425:60|400:27|400:27|308:17,1,220.499993270874,4|0,3:0|0:0,0:0:0:0:
308,17,51404,1,8,0:0:0:0:
57,192,52022,5,0,3:0:0:0:
57,192,52331,1,0,3:0:0:0:
57,192,52641,2,0,B|119:198|119:198|105:135,1,125.999996154785,8|0,0:0|0:0,0:0:0:0:
0,315,53259,6,0,B|87:324|87:324|112:357|112:357|204:367,1,220.499993270874,0|0,3:0|0:0,0:0:0:0:
203,366,53878,1,8,0:0:0:0:
455,192,54496,5,0,3:0:0:0:
455,192,54806,1,0,3:0:0:0:
300,279,55115,1,8,0:0:0:0:
300,279,55425,1,8,0:0:0:0:
256,213,55579,1,8,0:3:0:0:
256,213,55656,1,8,0:3:0:0:
256,213,55733,6,0,L|140:221,1,115.50000352478,4|0,3:1|0:0,0:0:0:0:
140,220,56043,1,10,3:2:0:0:
307,99,56352,2,0,L|191:107,1,115.50000352478,2|0,3:2|0:0,0:0:0:0:
191,106,56661,1,10,3:2:0:0:
373,247,56971,6,0,L|488:255,1,115.50000352478,2|0,3:2|0:0,0:0:0:0:
488,255,57280,1,10,3:2:0:0:
322,361,57589,2,0,L|437:369,1,115.50000352478,2|0,3:2|0:0,0:0:0:0:
437,369,57898,1,10,3:2:0:0:
256,236,58208,6,0,L|256:159,3,77.0000023498536,2|2|2|2,3:2|3:2|3:2|3:2,0:0:0:0:
256,106,58826,2,0,L|256:68,7,38.5000011749268,2|0|8|0|8|0|8|0,3:2|3:0|3:2|3:2|3:2|3:2|3:2|3:0,0:0:0:0:
256,15,59445,5,2,3:2:0:0:
256,15,59754,1,2,3:0:0:0:
256,15,60063,1,2,3:2:0:0:
256,369,60682,5,0,0:0:0:0:
256,369,60991,1,2,0:3:0:0:
256,369,61300,1,0,0:0:0:0:
14,210,61919,6,0,P|71:188|125:232,1,125.999996154785,4|0,3:1|0:0,0:0:0:0:
120,221,62228,1,8,0:1:0:0:
97,315,62383,2,0,P|145:251|224:261,1,167.999994873047,2|2,3:2|3:0,0:0:0:0:
294,322,62847,2,0,P|303:281|336:257,1,83.9999974365235,8|0,0:1|0:0,0:0:0:0:
441,289,63156,6,0,L|429:146,1,125.999996154785,4|0,3:1|0:0,0:0:0:0:
430,163,63465,1,8,0:1:0:0:
511,117,63620,2,0,L|343:131,1,167.999994873047,2|0,3:2|3:0,0:0:0:0:
256,98,64084,2,0,L|263:181,1,83.9999974365235,8|0,0:1|0:0,0:0:0:0:
175,248,64393,6,0,P|163:189|105:178,1,125.999996154785,4|0,3:1|0:0,0:0:0:0:
105,177,64703,1,8,0:1:0:0:
88,269,64857,1,2,3:2:0:0:
151,335,65012,2,0,P|192:338|230:322,2,83.9999974365235,2|0|8,0:0|3:0|0:1,0:0:0:0:
289,151,65630,6,0,P|350:162|398:201,1,125.999996154785,4|0,3:1|0:0,0:0:0:0:
398,201,65940,1,8,0:1:0:0:
354,282,66094,1,2,3:2:0:0:
354,282,66404,1,0,3:0:0:0:
424,341,66558,1,8,0:1:0:0:
507,141,66868,6,0,B|489:56|489:56|453:40,1,125.999996154785,4|0,3:1|0:0,0:0:0:0:
453,40,67177,1,8,0:1:0:0:
385,243,67486,2,0,B|367:158|367:158|331:142,1,125.999996154785,0|0,3:0|0:0,0:0:0:0:
331,142,67795,1,8,0:1:0:0:
127,243,68105,6,0,B|145:158|145:158|181:142,1,125.999996154785,0|0,3:0|0:0,0:0:0:0:
180,142,68414,1,8,0:1:0:0:
5,141,68723,2,0,B|23:56|23:56|59:40,1,125.999996154785,0|0,3:0|0:0,0:0:0:0:
58,40,69032,1,8,0:1:0:0:
127,243,69342,6,0,P|75:240|23:298,1,125.999996154785,0|0,3:0|0:0,0:0:0:0:
15,334,69651,1,8,0:1:0:0:
15,334,69806,1,2,0:0:0:0:
99,370,69960,2,0,P|139:378|180:368,1,83.9999974365235,0|2,3:0|0:0,0:0:0:0:
265,329,70270,2,0,P|305:319|346:327,1,83.9999974365235,8|2,0:1|0:0,0:0:0:0:
424,376,70579,6,0,P|433:316|486:282,1,125.999996154785,0|0,3:0|0:0,0:0:0:0:
484,282,70888,1,8,0:1:0:0:
342,127,71197,2,0,P|351:187|404:221,1,125.999996154785,0|0,3:0|0:0,0:0:0:0:
402,220,71507,1,8,3:1:0:0:
484,282,71661,1,8,0:1:0:0:
424,376,71816,6,0,L|283:363,1,125.999996154785,4|0,3:1|0:0,0:0:0:0:
298,364,72125,1,8,0:1:0:0:
135,192,72435,2,0,L|220:192,2,83.9999974365235,2|0|8,3:2|0:3|0:1,0:0:0:0:
424,8,73053,6,0,L|283:21,1,125.999996154785,0|0,3:0|0:0,0:0:0:0:
298,19,73362,1,8,0:1:0:0:
135,192,73672,2,0,L|220:192,2,83.9999974365235,2|0|8,3:2|3:0|0:1,0:0:0:0:
424,376,74290,6,0,P|406:316|433:261,1,125.999996154785,0|0,3:0|0:0,0:0:0:0:
470,226,74599,2,0,P|496:170|479:111,1,125.999996154785,8|0,0:1|0:0,0:0:0:0:
435,83,74909,2,0,L|351:90,2,83.9999974365235,2|0|8,3:2|3:0|0:1,0:0:0:0:
219,192,75527,6,0,L|344:203,1,125.999996154785,0|0,3:0|0:0,0:0:0:0:
344,203,75837,1,8,0:1:0:0:
128,312,76146,1,2,3:2:0:0:
128,312,76301,1,0,3:0:0:0:
74,249,76455,2,0,P|77:207|74:104,1,125.999996154785,8|0,0:1|0:0,0:0:0:0:
67,69,76764,6,0,P|133:84|186:43,1,140,4|2,3:1|0:0,0:0:0:0:
444,69,77383,2,0,P|378:84|325:43,1,140,8|2,0:1|0:0,0:0:0:0:
256,83,77847,1,0,3:0:0:0:
309,143,78002,6,0,L|292:230,2,70,2|8|0,0:3|0:1|3:0,0:0:0:0:
131,324,78620,2,0,L|102:180,1,140,8|0,0:1|3:0,0:0:0:0:
71,120,79084,1,8,0:3:0:0:
71,120,79161,1,8,0:3:0:0:
71,120,79239,6,0,B|108:144|108:144|194:116,1,125.999996154785,4|0,3:1|0:0,0:0:0:0:
232,102,79548,2,0,B|309:76|309:76|346:100,1,125.999996154785,8|0,0:1|0:0,0:0:0:0:
391,133,79857,1,2,3:2:0:0:
391,133,80012,1,0,3:0:0:0:
332,209,80166,2,0,P|334:251|340:293,1,83.9999974365235,8|0,0:1|0:0,0:0:0:0:
195,310,80476,6,0,P|234:325|272:345,1,83.9999974365235,12|0,0:1|3:0,0:0:0:0:
182,223,80785,2,0,P|215:197|250:174,1,83.9999974365235,8|0,0:1|3:0,0:0:0:0:
99,191,81094,2,0,P|93:149|91:107,1,83.9999974365235,8|0,0:1|3:0,0:0:0:0:
30,247,81404,2,0,P|15:232|-3:209,3,41.9999987182618,0|0|8|8,3:0|3:0|3:0|3:0,0:0:0:0:
40,257,81713,1,4,3:2:0:0:
256,192,81868,12,2,82950,3:2:0:0:
145,234,83259,5,0,3:0:0:0:
367,150,83569,1,10,0:0:0:0:
42,90,84032,5,0,3:0:0:0:
42,90,84110,1,0,3:0:0:0:
42,90,84187,1,2,0:2:0:0:
470,294,84806,1,10,0:0:0:0:
224,2,85424,5,2,3:2:0:0:
256,192,85733,1,0,3:0:0:0:
287,381,86043,1,8,0:0:0:0:
42,294,86507,5,0,3:0:0:0:
42,294,86585,1,0,3:0:0:0:
42,294,86662,1,2,3:2:0:0:
470,90,87280,1,10,0:0:0:0:
213,347,87898,5,2,3:2:0:0:
256,192,88208,1,0,3:0:0:0:
298,36,88517,1,10,0:0:0:0:
53,192,88981,5,0,3:0:0:0:
53,192,89058,1,0,3:0:0:0:
53,192,89136,1,2,3:2:0:0:
458,192,89754,1,10,0:0:0:0:
53,192,90373,5,2,3:2:0:0:
256,192,90682,1,0,3:0:0:0:
458,192,90991,1,10,0:0:0:0:
149,109,91610,6,0,B|129:75|96:52|48:57|48:57|67:98|104:106,1,196,0|0,3:0|0:0,0:0:0:0:
101,105,92228,1,8,0:0:0:0:
363,109,92847,2,0,B|382:75|415:52|463:57|463:57|444:98|407:106,1,196,0|0,3:0|0:0,0:0:0:0:
408,105,93465,1,8,0:0:0:0:
327,274,94084,6,0,B|355:359|441:382|441:382|415:368|403:341,1,220.499993270874,0|0,3:0|0:0,0:0:0:0:
403,341,94703,1,8,0:0:0:0:
185,274,95321,2,0,B|157:359|71:382|71:382|97:368|108:341,1,220.499993270874,0|0,3:0|0:0,0:0:0:0:
107,341,95940,1,8,0:0:0:0:
0,191,96249,1,10,0:3:0:0:
0,191,96558,6,0,L|74:205,1,70,4|0,3:2|0:0,0:0:0:0:
84,128,96868,2,0,L|158:114,1,70,8|0,3:2|0:0,0:0:0:0:
168,191,97177,2,0,L|242:205,1,70,0|0,3:0|0:0,0:0:0:0:
252,128,97486,2,0,L|326:114,1,70,8|0,3:2|0:0,0:0:0:0:
380,170,97795,6,0,P|370:195|364:243,1,70,0|0,3:0|0:0,0:0:0:0:
293,282,98105,2,0,P|311:301|334:344,1,70,8|0,3:2|0:0,0:0:0:0:
407,303,98414,2,0,P|425:351|470:375,1,105,0|0,3:0|0:0,0:0:0:0:
512,363,98723,2,0,P|511:328|507:293,1,70,8|0,3:2|0:0,0:0:0:0:
463,213,99032,6,0,P|464:143|478:74,1,140,0|8,3:0|3:2,0:0:0:0:
425,21,99496,1,0,0:0:0:0:
359,63,99651,2,0,P|324:68|290:60,1,70,0|0,3:0|0:0,0:0:0:0:
217,35,99960,2,0,P|182:27|148:31,1,70,8|0,3:2|0:0,0:0:0:0:
85,77,100270,6,0,L|98:202,1,105,0|0,3:0|0:0,0:0:0:0:
95,181,100579,1,8,3:2:0:0:
369,150,100888,1,0,3:0:0:0:
360,227,101043,2,0,L|354:275,2,48.9999985046387,8|8|8,0:0|0:0|0:0,0:0:0:0:
269,177,101507,6,0,L|278:246,1,70,4|0,3:2|0:0,0:0:0:0:
217,299,101816,2,0,L|152:272,1,70,8|0,0:0|0:0,0:0:0:0:
137,192,102125,1,0,3:0:0:0:
137,192,102280,1,0,0:0:0:0:
202,137,102435,1,8,0:0:0:0:
202,137,102590,1,0,0:0:0:0:
186,56,102745,6,0,L|122:30,1,70,0|0,3:0|0:0,0:0:0:0:
62,79,103053,2,0,L|71:147,1,70,8|0,0:0|0:0,0:0:0:0:
137,192,103362,2,0,L|127:260,1,70,0|0,3:0|0:0,0:0:0:0:
78,321,103672,1,8,0:0:0:0:
144,368,103826,1,0,0:0:0:0:
144,368,103981,5,2,3:0:0:0:
256,225,104290,1,8,0:0:0:0:
368,368,104599,1,2,3:0:0:0:
368,368,104754,1,0,3:0:0:0:
434,321,104908,1,8,0:0:0:0:
181,231,105218,6,0,P|256:300|330:230,1,224,12|8,3:1|0:0,0:0:0:0:
77,352,106455,6,0,B|63:278|63:278|77:225|77:225|60:137,1,220.499993270874,4|0,3:0|0:0,0:0:0:0:
59,136,107074,1,8,0:0:0:0:
354,31,107692,5,0,3:0:0:0:
354,31,108002,1,0,3:0:0:0:
354,31,108311,2,0,L|329:155,1,125.999996154785,8|0,0:0|0:0,0:0:0:0:
435,352,108929,6,0,B|448:278|448:278|434:225|434:225|451:137,1,220.499993270874,0|0,3:0|0:0,0:0:0:0:
451,136,109548,1,8,0:0:0:0:
158,31,110166,5,0,3:0:0:0:
158,31,110476,1,0,3:0:0:0:
158,31,110785,2,0,L|182:155,1,125.999996154785,8|0,0:0|0:0,0:0:0:0:
77,352,111404,6,0,P|171:361|150:269,1,220.499993270874,4|0,3:0|0:0,0:0:0:0:
149,268,112022,1,8,0:0:0:0:
467,188,112641,5,0,3:0:0:0:
467,188,112950,1,0,3:0:0:0:
467,188,113259,2,0,B|446:281|446:281|438:252,1,125.999996154785,8|0,0:0|0:0,0:0:0:0:
435,32,113878,6,0,P|340:24|361:116,1,220.499993270874,0|0,3:0|0:0,0:0:0:0:
360,115,114496,1,8,0:0:0:0:
45,196,115115,5,0,3:0:0:0:
45,196,115424,1,0,3:0:0:0:
200,109,115733,1,8,0:0:0:0:
200,109,116043,1,8,0:0:0:0:
149,48,116197,1,8,0:3:0:0:
149,48,116275,1,8,0:3:0:0:
149,48,116352,6,0,L|25:30,1,115.50000352478,4|0,3:1|0:0,0:0:0:0:
34,31,116661,1,10,3:2:0:0:
158,213,116971,2,0,L|34:195,1,115.50000352478,2|0,3:2|0:0,0:0:0:0:
43,196,117280,1,10,3:2:0:0:
354,213,117589,6,0,L|478:195,1,115.50000352478,2|0,3:2|0:0,0:0:0:0:
468,196,117898,1,10,3:2:0:0:
363,48,118208,2,0,L|487:30,1,115.50000352478,2|0,3:2|0:0,0:0:0:0:
477,31,118517,1,10,3:2:0:0:
256,148,118826,6,0,L|256:225,3,77.0000023498536,2|2|2|2,3:2|3:2|3:2|3:2,0:0:0:0:
256,278,119445,2,0,L|256:316,7,38.5000011749268,2|0|8|0|8|0|8|0,3:2|3:0|3:2|3:0|3:2|3:0|3:2|3:0,0:0:0:0:
256,369,120063,5,2,3:2:0:0:
256,369,120372,1,2,3:0:0:0:
256,369,120681,1,2,3:2:0:0:
256,15,121301,5,0,0:0:0:0:
256,15,121610,1,2,0:3:0:0:
256,15,121919,1,4,3:0:0:0:
193,77,122074,2,0,L|156:72,5,35,8|0|8|0|8|0,0:3|0:3|0:3|0:3|0:3|0:3,0:0:0:0:
104,61,122538,6,0,P|111:124|88:182,1,125.999996154785,4|0,3:1|0:0,0:0:0:0:
88,181,122847,1,8,0:1:0:0:
10,231,123002,2,0,P|92:231|153:285,1,167.999994873047,2|0,3:2|3:0,0:0:0:0:
172,376,123465,2,0,P|206:359|250:369,1,83.9999974365235,8|0,0:1|0:0,0:0:0:0:
353,328,123775,6,0,B|334:184,1,125.999996154785,4|0,3:1|0:0,0:0:0:0:
336,203,124084,1,8,0:1:0:0:
425,227,124239,2,0,B|400:40,1,167.999994873047,2|0,3:2|3:0,0:0:0:0:
492,84,124703,2,0,B|479:-9,1,83.9999974365235,8|0,0:1|0:0,0:0:0:0:
403,61,125012,6,0,P|347:88|285:80,1,125.999996154785,4|0,3:1|0:0,0:0:0:0:
285,80,125321,1,8,0:1:0:0:
202,38,125476,1,2,3:2:0:0:
135,101,125630,2,0,L|145:184,2,83.9999974365235,2|0|8,0:0|3:0|0:1,0:0:0:0:
347,236,126249,6,0,P|285:234|241:277,1,125.999996154785,4|0,3:1|0:0,0:0:0:0:
241,276,126558,1,8,0:1:0:0:
209,364,126713,1,2,3:2:0:0:
209,364,127022,1,0,3:0:0:0:
122,331,127177,1,8,0:1:0:0:
198,92,127486,6,0,B|209:191|209:191|187:176,1,125.999996154785,4|0,3:1|0:0,0:0:0:0:
187,176,127795,1,8,0:1:0:0:
121,384,128105,2,0,B|110:285|110:285|132:300,1,125.999996154785,0|0,3:0|0:0,0:0:0:0:
131,299,128414,1,8,0:1:0:0:
391,384,128723,6,0,B|402:285|402:285|380:300,1,125.999996154785,0|0,3:0|0:0,0:0:0:0:
380,299,129032,1,8,0:1:0:0:
314,92,129342,2,0,B|303:191|303:191|325:176,1,125.999996154785,0|0,3:0|0:0,0:0:0:0:
324,176,129651,1,8,0:1:0:0:
131,300,129960,6,0,P|125:249|170:274,1,125.999996154785,0|0,3:0|0:0,0:0:0:0:
169,273,130270,1,8,0:1:0:0:
331,367,130579,2,0,P|336:316|291:341,1,125.999996154785,0|0,3:0|0:0,0:0:0:0:
290,341,130888,1,8,0:1:0:0:
469,239,131197,6,0,P|488:194|510:166,1,83.9999974365235,0|2,3:0|0:0,0:0:0:0:
422,133,131507,2,0,P|403:87|399:52,1,83.9999974365235,8|2,0:1|0:0,0:0:0:0:
314,92,131816,2,0,P|269:73|241:51,1,83.9999974365235,0|8,3:0|0:1,0:0:0:0:
208,139,132125,1,8,0:1:0:0:
208,139,132280,1,8,0:1:0:0:
268,229,132435,6,0,L|392:206,1,125.999996154785,4|0,3:1|0:0,0:0:0:0:
391,206,132744,1,8,0:1:0:0:
230,361,133053,2,0,L|312:345,2,83.9999974365235,2|0|8,3:2|3:0|0:1,0:0:0:0:
243,154,133672,6,0,L|119:177,1,125.999996154785,0|0,3:0|0:0,0:0:0:0:
119,176,133981,1,8,0:1:0:0:
282,23,134290,2,0,L|199:38,2,83.9999974365235,2|0|8,3:2|3:0|0:1,0:0:0:0:
464,127,134909,6,0,P|413:159|421:218,1,125.999996154785,0|0,3:0|0:0,0:0:0:0:
461,253,135218,2,0,P|511:285|503:344,1,125.999996154785,8|0,0:1|0:0,0:0:0:0:
466,383,135527,2,0,L|382:377,2,83.9999974365235,2|0|8,3:2|3:0|0:1,0:0:0:0:
296,226,136146,6,0,L|421:217,1,125.999996154785,0|0,3:0|0:0,0:0:0:0:
421,216,136455,1,8,0:1:0:0:
251,60,136764,1,2,3:2:0:0:
251,60,136919,1,0,3:0:0:0:
185,125,137074,2,0,B|168:185|208:178|196:247,1,125.999996154785,8|0,0:1|0:0,0:0:0:0:
181,296,137383,6,0,B|151:306|123:283|123:283|113:322|74:339,1,140,4|2,3:1|0:0,0:0:0:0:
331,296,138002,2,0,B|361:306|389:283|389:283|399:322|437:339,1,140,8|2,0:1|0:0,0:0:0:0:
473,260,138465,1,0,3:0:0:0:
410,198,138620,6,0,P|409:163|418:129,2,70,2|8|0,0:3|0:1|3:0,0:0:0:0:
309,328,139239,2,0,P|261:278|192:272,1,140,8|0,0:1|3:0,0:0:0:0:
125,315,139703,1,8,0:3:0:0:
125,315,139780,1,8,0:3:0:0:
125,315,139857,6,0,B|156:278|156:278|144:196,1,125.999996154785,4|0,3:1|0:0,0:0:0:0:
136,151,140166,2,0,B|124:74|124:74|155:37,1,125.999996154785,8|0,0:1|0:0,0:0:0:0:
197,9,140476,1,0,3:0:0:0:
197,9,140630,1,0,3:0:0:0:
234,102,140785,2,0,P|276:107|317:99,1,83.9999974365235,8|0,0:1|0:0,0:0:0:0:
445,27,141094,6,0,P|419:60|406:100,1,83.9999974365235,8|0,0:1|3:0,0:0:0:0:
406,248,141404,2,0,P|389:209|362:178,1,83.9999974365235,8|0,0:1|3:0,0:0:0:0:
234,102,141713,2,0,P|276:107|317:99,1,83.9999974365235,8|0,0:1|3:0,0:0:0:0:
445,27,142022,2,0,L|438:70,3,41.9999987182618,0|0|0|0,3:0|3:0|3:0|3:0,0:0:0:0:
449,13,142331,1,4,3:2:0:0:
256,192,142486,12,2,143569,3:2:0:0:
112,336,143878,5,0,3:2:0:0:
60,139,144187,1,10,0:0:0:0:
256,384,144652,5,0,3:2:0:0:
256,384,144729,1,0,3:2:0:0:
256,384,144806,1,2,0:0:0:0:
256,0,145424,1,10,0:0:0:0:
400,336,146043,5,2,3:2:0:0:
452,139,146352,1,0,3:2:0:0:
256,192,146661,1,10,0:0:0:0:
467,17,147125,5,0,3:2:0:0:
467,17,147203,1,0,3:2:0:0:
467,17,147280,1,2,3:2:0:0:
512,346,147898,1,10,0:0:0:0:
256,0,148517,5,2,3:2:0:0:
256,192,148826,1,0,3:2:0:0:
256,384,149136,1,10,0:0:0:0:
0,346,149599,5,0,3:2:0:0:
0,346,149677,1,0,3:2:0:0:
0,346,149754,1,2,3:2:0:0:
45,17,150372,1,10,0:0:0:0:
256,335,150991,5,2,3:2:0:0:
256,192,151301,1,0,3:2:0:0:
256,48,151610,1,10,0:0:0:0:
256,335,152228,5,2,0:0:0:0:
256,48,153465,2,0,L|256:139,2,83.9999974365235,2|0|2,0:0|0:0|0:0,0:0:0:0:
51,192,154703,5,2,0:0:0:0:
460,192,155940,1,2,0:0:0:0:
256,140,156868,5,2,0:0:0:0:
256,140,157177,1,4,3:2:0:0:
256,192,157331,12,8,159032,0:0:0:0:
115,90,159342,5,8,0:0:0:0:
186,148,159496,1,8,0:3:0:0:
186,148,159574,1,8,0:3:0:0:
186,148,159651,6,0,L|284:136,1,70,4|0,3:1|0:0,0:0:0:0:
115,206,159960,2,0,L|17:194,1,70,8|0,0:0|3:0,0:0:0:0:
186,264,160270,2,0,L|284:252,1,70,8|0,0:0|3:0,0:0:0:0:
115,322,160579,2,0,L|17:310,1,70,8|0,0:0|0:3,0:0:0:0:
186,380,160888,6,0,L|404:353,1,220.499993270874,4|0,0:1|0:0,0:0:0:0:
433,340,161507,6,0,L|238:363,1,196,2|0,0:0|0:0,0:0:0:0:
186,379,162125,6,0,P|201:316|151:275,1,136.499993751526,4|0,3:1|0:0,0:0:0:0:
150,274,162435,1,8,0:1:0:0:
62,292,162589,2,0,P|139:264|114:186,1,181.999991668702,2|0,3:2|3:0,0:0:0:0:
38,132,163053,2,0,P|81:131|106:95,1,90.9999958343508,8|0,0:1|0:0,0:0:0:0:
193,0,163362,6,0,B|189:62|250:49|246:120,1,136.499993751526,4|0,3:1|0:0,0:0:0:0:
246,119,163672,1,8,0:1:0:0:
195,193,163826,2,0,B|258:245|292:170|364:229,1,181.999991668702,2|0,3:2|3:0,0:0:0:0:
400,314,164290,2,0,B|441:312|428:272|475:270,1,90.9999958343508,8|0,0:1|0:0,0:0:0:0:
449,171,164599,6,0,P|407:137|403:40,1,136.499993751526,4|0,3:1|0:0,0:0:0:0:
395,58,164909,1,8,0:1:0:0:
312,21,165063,1,2,3:2:0:0:
243,81,165218,2,0,L|255:180,2,90.9999958343508,2|0|8,0:0|3:0|0:1,0:0:0:0:
22,0,165837,6,0,L|5:135,1,136.499993751526,4|0,3:1|0:0,0:0:0:0:
4,135,166146,1,8,0:1:0:0:
95,120,166301,1,2,3:2:0:0:
95,120,166610,1,0,3:0:0:0:
137,201,166764,1,8,0:1:0:0:
18,384,167074,6,0,B|6:331|6:331|43:244,1,136.499993751526,4|0,3:1|0:0,0:0:0:0:
38,255,167383,1,8,0:1:0:0:
157,72,167692,2,0,B|169:125|169:125|132:212,1,136.499993751526,0|0,3:0|0:0,0:0:0:0:
136,200,168001,1,8,0:1:0:0:
355,72,168311,6,0,B|343:125|343:125|380:212,1,136.499993751526,0|0,3:0|0:0,0:0:0:0:
375,200,168620,1,8,0:1:0:0:
494,384,168929,2,0,B|506:331|506:331|469:244,1,136.499993751526,0|0,3:0|0:0,0:0:0:0:
473,255,169238,1,8,0:1:0:0:
285,355,169548,6,0,P|221:376|161:348,1,136.499993751526,0|0,3:0|0:0,0:0:0:0:
113,332,169857,2,0,P|133:268|105:208,1,136.499993751526,8|0,0:1|0:0,0:0:0:0:
70,172,170166,2,0,P|49:133|50:88,1,90.9999958343508,0|2,3:0|0:0,0:0:0:0:
120,28,170476,2,0,P|140:67|139:112,1,90.9999958343508,8|2,0:1|0:0,0:0:0:0:
202,178,170785,6,0,B|272:161|266:213|333:200,1,136.499993751526,0|0,3:0|0:0,0:0:0:0:
381,189,171094,2,0,P|418:162|463:158,1,90.9999958343508,8|0,0:1|0:0,0:0:0:0:
510,235,171404,2,0,P|460:278|393:278,1,136.499993751526,0|0,3:0|0:0,0:0:0:0:
392,277,171713,1,8,0:1:0:0:
332,200,171868,1,8,0:1:0:0:
247,275,172022,6,0,B|255:325|277:368|277:368|259:357|240:357,1,136.499993751526,4|0,3:1|0:0,0:0:0:0:
240,357,172331,1,8,0:1:0:0:
71,204,172641,2,0,P|80:248|97:290,2,90.9999958343508,2|0|8,3:2|3:0|0:1,0:0:0:0:
265,109,173259,6,0,B|257:59|235:16|235:16|253:27|271:26,1,136.499993751526,0|0,3:0|0:0,0:0:0:0:
271,25,173569,1,8,0:1:0:0:
441,180,173878,2,0,P|431:135|414:93,2,90.9999958343508,2|0|8,3:2|3:0|0:1,0:0:0:0:
247,276,174496,6,0,P|182:257|117:277,1,136.499993751526,0|0,3:0|0:0,0:0:0:0:
81,314,174806,2,0,B|74:323|70:337|70:337|81:274|52:230,1,136.499993751526,8|0,0:1|0:0,0:0:0:0:
22,187,175115,2,0,P|6:144|13:100,2,90.9999958343508,2|0|8,3:2|3:0|0:1,0:0:0:0:
247,276,175733,6,0,B|281:276|306:251|306:251|323:284|358:295,1,136.499993751526,0|0,3:0|0:0,0:0:0:0:
357,295,176043,1,8,0:1:0:0:
363,86,176352,1,2,3:2:0:0:
363,86,176507,1,0,3:0:0:0:
280,125,176661,2,0,P|215:145|152:120,1,136.499993751526,8|0,0:1|0:0,0:0:0:0:
124,81,176971,6,0,B|100:57|95:26|95:26|96:66|64:110,1,154.000004699707,4|2,3:1|0:0,0:0:0:0:
124,303,177589,2,0,B|100:327|95:358|95:358|96:318|64:274,1,154.000004699707,8|2,0:1|0:0,0:0:0:0:
96,192,178053,1,0,3:0:0:0:
173,228,178208,6,0,P|200:256|212:292,2,77.0000023498536,2|8|0,3:0|0:1|3:0,0:0:0:0:
322,64,178826,2,0,P|280:127|290:201,1,154.000004699707,8|0,0:1|3:0,0:0:0:0:
361,265,179290,1,8,0:3:0:0:
361,265,179368,1,8,0:3:0:0:
361,265,179445,6,0,B|460:254|460:254|487:278,1,136.499993751526,4|0,3:1|0:0,0:0:0:0:
492,332,179754,2,0,B|471:362|471:362|372:373,1,136.499993751526,8|0,0:1|0:0,0:0:0:0:
322,384,180063,1,0,3:0:0:0:
322,384,180218,1,0,3:0:0:0:
256,310,180373,1,8,0:1:0:0:
190,384,180527,1,0,0:0:0:0:
110,338,180682,6,0,P|68:318|23:313,1,90.9999958343508,8|0,0:1|3:0,0:0:0:0:
171,267,180991,2,0,P|200:232|239:209,1,90.9999958343508,8|0,0:1|3:0,0:0:0:0:
86,227,181301,2,0,P|44:207|0:202,1,90.9999958343508,8|0,0:1|3:0,0:0:0:0:
147,157,181610,2,0,P|159:141|172:127,3,38.5000011749268,0|0|8|8,3:0|3:0|3:0|3:0,0:0:0:0:
139,141,181919,6,0,P|112:80|59:38,1,136.499993751526,4|0,3:1|0:0,0:0:0:0:
10,24,182228,2,0,L|116:11,1,90.9999958343508,8|0,0:1|3:0,0:0:0:0:
188,40,182538,2,0,L|294:27,1,90.9999958343508,8|0,0:1|3:0,0:0:0:0:
366,56,182847,2,0,L|472:43,1,90.9999958343508,8|0,0:1|3:0,0:0:0:0:
511,140,183156,6,0,P|452:169|443:234,1,136.499993751526,4|0,3:1|0:0,0:0:0:0:
471,276,183465,2,0,P|426:267|384:282,1,90.9999958343508,8|0,0:1|3:0,0:0:0:0:
317,345,183775,2,0,P|302:302|267:273,1,90.9999958343508,8|0,0:1|3:0,0:0:0:0:
180,246,184084,2,0,P|209:211|217:167,1,90.9999958343508,8|0,0:1|3:0,0:0:0:0:
192,64,184393,6,0,B|257:46|259:92|324:77,1,136.499993751526,4|0,3:1|0:0,0:0:0:0:
376,64,184703,2,0,P|434:44|461:101,1,136.499993751526,8|0,0:1|0:0,0:0:0:0:
434,146,185012,2,0,P|418:187|427:231,1,90.9999958343508,8|0,0:1|3:0,0:0:0:0:
469,312,185321,2,0,P|457:355|423:384,1,90.9999958343508,8|0,0:1|3:0,0:0:0:0:
318,342,185630,6,0,B|276:324|276:324|183:351,1,136.499993751526,4|0,3:1|0:0,0:0:0:0:
147,372,185940,1,8,0:1:0:0:
147,372,186094,1,0,3:0:0:0:
132,286,186249,1,8,0:1:0:0:
132,286,186403,1,0,3:0:0:0:
117,200,186559,1,8,0:1:0:0:
117,200,186713,1,0,3:0:0:0:
6,164,186868,6,0,P|70:167|97:109,1,136.499993751526,4|0,3:1|0:0,0:0:0:0:
96,108,187177,1,8,0:1:0:0:
148,339,187486,2,0,P|183:285|146:232,1,136.499993751526,0|0,3:0|0:0,0:0:0:0:
146,232,187795,1,8,0:1:0:0:
322,75,188105,6,0,P|292:131|228:126,1,136.499993751526,0|0,3:0|0:0,0:0:0:0:
226,125,188414,1,8,0:1:0:0:
402,284,188723,2,0,P|337:287|310:228,1,136.499993751526,0|0,3:0|0:0,0:0:0:0:
309,229,189032,1,8,0:1:0:0:
55,176,189342,6,0,P|119:172|146:231,1,136.499993751526,0|0,3:0|0:0,0:0:0:0:
146,230,189651,1,8,0:1:0:0:
321,73,189960,2,0,P|256:68|228:126,1,136.499993751526,0|0,3:0|0:0,0:0:0:0:
227,124,190269,1,8,0:1:0:0:
402,284,190579,6,0,P|372:206|446:170,1,181.999991668702,0|8,3:0|0:1,0:0:0:0:
327,383,191197,2,0,P|301:324|236:316,1,136.499993751526,0|0,3:0|0:0,0:0:0:0:
236,316,191507,1,8,0:1:0:0:
158,367,191661,1,8,0:1:0:0:
78,300,191816,6,0,L|98:159,1,136.499993751526,4|0,3:1|0:0,0:0:0:0:
97,164,192125,1,8,0:1:0:0:
256,0,192435,2,0,L|243:90,2,90.9999958343508,2|0|8,3:2|3:0|0:1,0:0:0:0:
434,84,193053,6,0,L|414:225,1,136.499993751526,0|0,3:0|0:0,0:0:0:0:
414,219,193362,1,8,0:1:0:0:
256,384,193672,2,0,L|268:293,2,90.9999958343508,2|0|8,3:2|3:0|0:1,0:0:0:0:
78,300,194290,6,0,L|58:159,1,136.499993751526,0|0,3:0|0:0,0:0:0:0:
54,111,194599,2,0,L|195:131,1,136.499993751526,8|0,0:1|0:0,0:0:0:0:
242,137,194909,2,0,L|254:46,2,90.9999958343508,2|0|8,3:2|3:0|0:1,0:0:0:0:
453,22,195527,6,0,L|472:157,1,136.499993751526,0|0,3:0|0:0,0:0:0:0:
472,157,195837,1,8,0:1:0:0:
330,291,196146,1,2,3:2:0:0:
330,291,196301,1,0,3:0:0:0:
261,231,196455,2,0,P|193:237|128:259,1,136.499993751526,8|0,0:1|0:0,0:0:0:0:
81,285,196764,6,0,B|88:227|88:227|71:202|71:202|74:133,1,154.000004699707,4|2,3:1|0:0,0:0:0:0:
271,0,197383,2,0,B|264:58|264:58|281:83|281:83|278:152,1,154.000004699707,8|2,0:1|0:0,0:0:0:0:
422,384,198002,6,0,B|514:367|547:265|510:214|448:209|405:227|401:277,1,308.000009399414,2|8,0:0|0:1,0:0:0:0:
97,353,198929,1,0,3:0:0:0:
111,274,199084,1,8,0:3:0:0:
111,274,199161,1,8,0:3:0:0:
111,274,199239,6,0,P|108:206|95:139,1,136.499993751526,4|0,3:1|0:0,0:0:0:0:
85,84,199548,2,0,B|153:100|156:57|218:74,1,136.499993751526,8|0,0:1|0:0,0:0:0:0:
275,93,199857,1,0,3:0:0:0:
275,93,200012,1,0,3:0:0:0:
340,159,200166,2,0,P|383:146|423:125,1,90.9999958343508,8|0,0:1|0:0,0:0:0:0:
486,272,200476,6,0,P|488:226|498:182,1,90.9999958343508,8|0,0:1|3:0,0:0:0:0:
328,252,200785,2,0,P|366:276|399:307,1,90.9999958343508,8|0,0:1|3:0,0:0:0:0:
423,125,201094,2,0,P|383:146|340:159,1,90.9999958343508,8|0,0:1|3:0,0:0:0:0:
206,107,201404,2,0,P|229:111|251:117,3,45.4999979171754,0|0|8|8,3:0|3:0|3:0|3:0,0:0:0:0:
191,105,201713,1,4,3:2:0:0:
256,192,201868,12,8,203569,0:0:0:0:
90,303,203878,5,2,0:0:0:0:
90,303,204187,2,0,B|134:276|184:291|204:337|272:381|365:344,1,280,2|8,3:2|0:0,0:0:0:0:
417,298,204960,1,2,0:0:0:0:
370,233,205115,5,2,0:0:0:0:
370,233,205270,2,0,P|308:224|255:254,1,125.999996154785,2|8,3:2|0:0,0:0:0:0:
194,316,205733,2,0,P|138:338|89:302,1,125.999996154785,0|10,3:0|0:0,0:0:0:0:
213,52,206352,5,2,0:0:0:0:
213,53,206661,2,0,B|263:127|226:205|189:219|148:210|148:210|170:180|231:206,1,308.000009399414,2|8,3:2|0:0,0:0:0:0:
414,338,207589,5,2,0:0:0:0:
414,338,207744,2,0,B|464:375|514:347|514:347|499:307|509:257|509:257|488:264|475:262|475:262|430:214|368:238,1,350,2|8,3:2|0:0,0:0:0:0:
100,311,208826,5,2,0:0:0:0:
100,311,208981,2,0,B|101:345|129:381|180:390|224:372|234:329|261:210|261:210|323:190|368:238|368:238|429:215|475:262|475:262|482:151|405:77|307:36|307:36|310:0|310:0|298:34|298:34|190:29|88:61|46:164|46:164|110:140|154:188|154:188|203:168|243:204,1,1427.9999564209,2|0,3:2|0:0,0:0:0:0:
