osu file format v14

[General]
AudioFilename: audio.mp3
AudioLeadIn: 0
PreviewTime: 152228
Countdown: 0
SampleSet: Soft
StackLeniency: 0.7
Mode: 0
LetterboxInBreaks: 0
WidescreenStoryboard: 1

[Editor]
Bookmarks: 61907,122526,162113,181907
DistanceSpacing: 1.5
BeatDivisor: 4
GridSize: 4
TimelineZoom: 2.1

[Metadata]
Title:Kuraberarekko (TUYU Remix)
TitleUnicode:くらべられっ子 (TUYU Remix)
Artist:TUYU
ArtistUnicode:ツユ
Creator:SnowNiNo_
Version:Boss' Insane
Source:
Tags:jpop j-pop miro ミロ compared child it's raining after all やっぱり雨は降るんだね 礼衣 reii ぷす pusu kun おむたつ omutatsu azyun japanese novelty pop jonathanlfj bossandy Silent Rock Deppyforce Dogerinoo
BeatmapID:2476791
BeatmapSetID:1182767

[Difficulty]
HPDrainRate:5
CircleSize:4
OverallDifficulty:8
ApproachRate:9
SliderMultiplier:1.6
SliderTickRate:1

[Events]
//Background and Video events
0,0,"EZV-Zx1U8AYVY7z.jpg",0,0
Video,0,"video.avi"
//Break Periods
//Storyboard Layer 0 (Background)
//Storyboard Layer 1 (Fail)
//Storyboard Layer 2 (Pass)
//Storyboard Layer 3 (Foreground)
//Storyboard Layer 4 (Overlay)
//Storyboard Sound Samples

[TimingPoints]
1301,309.278350515464,4,2,2,40,1,0
1301,-125,4,2,2,40,0,0
21094,-111.111111111111,4,2,1,70,0,0
30991,-125,4,2,3,40,0,0
35940,-111.111111111111,4,2,3,60,0,0
45837,-125,4,2,1,50,0,0
55733,-111.111111111111,4,2,3,70,0,0
59677,-100,4,2,1,5,0,0
59754,-100,4,2,1,70,0,0
59986,-100,4,2,1,5,0,0
60063,-100,4,2,1,70,0,0
60295,-100,4,2,1,5,0,0
60373,-100,4,2,1,20,0,0
60682,-400,4,2,1,20,0,0
61919,-100,4,2,1,90,0,1
81713,-111.111111111111,4,2,1,60,0,0
91610,-125,4,2,3,40,0,0
96558,-111.111111111111,4,2,3,60,0,0
106455,-125,4,2,1,50,0,0
116352,-111.111111111111,4,2,3,70,0,0
120295,-100,4,2,1,5,0,0
120373,-100,4,2,1,70,0,0
120605,-100,4,2,1,5,0,0
120682,-100,4,2,1,70,0,0
120914,-100,4,2,1,5,0,0
120991,-100,4,2,1,20,0,0
121301,-400,4,2,1,20,0,0
121919,-100,4,2,1,70,0,0
122538,-100,4,2,1,90,0,1
142331,-125,4,2,1,60,0,0
152228,-125,4,2,2,20,0,0
157177,-125,4,2,1,40,0,0
159651,-100,4,2,1,70,0,0
160888,-200,4,2,1,70,0,0
161507,-200,4,2,1,20,0,0
162125,-90.9090909090909,4,2,1,90,0,1
181842,-90.9090909090909,4,2,1,90,0,0
181919,-90.9090909090909,4,2,1,90,0,1
201713,-125,4,2,1,60,0,0

[Colours]
Combo1 : 203,69,108
Combo2 : 255,190,190

[HitObjects]
76,28,1301,6,0,P|53:68|57:123,1,85.3333333333333,2|2,0:0|0:0,0:0:0:0:
199,146,1610,2,0,P|175:111|138:90,1,85.3333333333333,2|2,0:0|0:0,0:0:0:0:
116,180,1919,1,2,0:0:0:0:
255,64,2228,1,2,0:0:0:0:
233,236,2538,6,0,P|273:259|328:255,1,85.3333333333333,2|2,0:0|0:0,0:0:0:0:
351,112,2847,2,0,P|316:136|295:173,1,85.3333333333333,2|2,0:0|0:0,0:0:0:0:
385,196,3156,1,2,0:0:0:0:
255,64,3465,1,2,0:0:0:0:
448,132,3775,6,0,P|468:188|432:252,1,128,2|2,0:0|0:0,0:0:0:0:
381,184,4239,1,0,0:0:0:0:
320,244,4393,2,0,B|280:256|244:236|244:236|196:252,1,128,2|2,0:0|0:0,0:0:0:0:
304,336,5012,6,0,B|340:340|368:324|368:324|388:348|432:356,2,128,2|0|0,0:0|0:0|0:0,0:0:0:0:
292,168,5940,1,0,0:0:0:0:
196,269,6249,6,0,P|164:280|132:280,1,64,2|2,0:0|0:0,0:0:0:0:
88,188,6558,2,0,P|119:188|149:199,1,64,2|2,0:0|0:0,0:0:0:0:
56,264,6868,1,2,0:0:0:0:
56,264,7022,1,0,0:0:0:0:
64,108,7177,2,0,P|127:109|187:130,1,128,2|2,0:0|0:0,0:0:0:0:
292,240,7692,5,0,0:0:0:0:
292,240,7795,2,0,P|336:248|390:229,1,85.3333333333333,2|0,0:0|0:0,0:0:0:0:
404,204,8105,2,0,L|416:103,1,85.3333333333333,2|2,0:0|0:0,0:0:0:0:
420,76,8414,2,0,P|368:68|323:81,1,85.3333333333333,2|2,0:0|0:0,0:0:0:0:
300,100,8723,5,2,0:0:0:0:
136,156,8929,1,2,0:0:0:0:
136,156,9032,2,0,P|183:147|228:158,1,85.3333333333333,2|2,0:0|0:0,0:0:0:0:
251,184,9342,2,0,L|229:288,1,85.3333333333333,2|0,0:0|0:0,0:0:0:0:
224,312,9651,1,2,0:0:0:0:
64,204,9960,6,0,P|52:165|88:80,1,128,2|0,0:0|0:0,0:0:0:0:
148,248,10579,2,0,P|191:249|243:228,1,85.3333333333333,2|2,0:0|0:0,0:0:0:0:
268,212,10888,2,0,P|311:211|361:232,1,85.3333333333333,2|2,0:0|0:0,0:0:0:0:
384,252,11197,5,2,0:0:0:0:
472,148,11404,1,2,0:0:0:0:
472,148,11507,2,0,B|436:139|436:139|421:142|421:142|381:133,1,85.3333333333333,2|0,0:0|0:0,0:0:0:0:
360,108,11816,2,0,P|312:68|249:67,1,128,2|2,0:0|0:0,0:0:0:0:
168,104,12280,1,0,0:0:0:0:
200,184,12435,6,0,P|208:216|183:276,1,85.3333333333333,2|2,0:0|0:0,0:0:0:0:
160,296,12744,1,2,0:0:0:0:
56,192,13053,2,0,B|52:216|40:236|40:236|136:220,1,128,2|0,0:0|0:0,0:0:0:0:
304,336,13672,6,0,L|292:234,1,85.3333333333333,2|2,0:0|0:0,0:0:0:0:
288,204,13981,1,2,0:0:0:0:
416,236,14187,1,2,0:0:0:0:
416,236,14290,2,0,L|432:96,1,128,2|2,0:0|0:0,0:0:0:0:
328,44,14754,1,0,0:0:0:0:
224,108,14909,6,0,P|166:94|92:96,1,128,2|0,0:0|0:0,0:0:0:0:
217,194,15527,2,0,P|272:180|326:184,1,85.3333333333333,2|2,0:0|0:0,0:0:0:0:
348,184,15837,2,0,P|402:199|443:227,1,85.3333333333333,2|2,0:0|0:0,0:0:0:0:
460,244,16146,5,2,0:0:0:0:
324,100,16455,1,2,0:0:0:0:
252,284,16764,1,2,0:0:0:0:
188,100,17074,1,2,0:0:0:0:
51,244,17383,6,0,P|48:211|64:172,1,64,2|0,0:0|0:0,0:0:0:0:
132,220,17692,2,0,P|150:192|187:172,1,64,0|0,0:0|0:0,0:0:0:0:
295,363,18002,2,0,P|273:340|245:327,1,64,0|0,0:0|0:0,0:0:0:0:
270,248,18311,2,0,P|238:244|208:253,1,64,2|0,0:0|0:0,0:0:0:0:
347,287,18620,6,0,P|434:246|455:190,1,128,2|0,0:0|0:0,0:0:0:0:
360,89,19239,2,0,P|272:129|251:185,1,128,2|0,0:0|0:0,0:0:0:0:
270,247,19857,5,6,0:0:0:0:
443,127,20476,1,0,0:0:0:0:
192,220,21094,6,0,P|164:288|180:360,1,143.999995605469,4|10,1:0|0:0,0:0:0:0:
264,288,21558,1,0,0:0:0:0:
344,172,21713,2,0,L|351:243,1,71.9999978027344,2|2,1:2|1:2,0:0:0:0:
264,288,22022,1,10,0:0:0:0:
128,172,22177,1,2,0:0:0:0:
224,64,22331,6,0,L|216:136,1,71.9999978027344,0|0,1:0|0:0,0:0:0:0:
344,172,22641,2,0,P|380:160|416:160,1,71.9999978027344,10|2,0:0|0:0,0:0:0:0:
392,248,22950,1,2,1:2:0:0:
392,248,23105,1,2,1:2:0:0:
308,92,23259,1,10,0:2:0:0:
264,196,23414,1,2,0:0:0:0:
344,332,23569,6,0,P|400:292|484:312,1,143.999995605469,2|10,1:2|0:0,0:0:0:0:
420,376,24032,1,0,0:0:0:0:
264,308,24187,2,0,B|228:304|228:304|192:320,1,71.9999978027344,2|0,1:2|1:0,0:0:0:0:
240,384,24496,1,10,0:0:0:0:
284,236,24651,1,0,0:0:0:0:
144,184,24806,6,0,B|180:180|180:180|216:196,1,71.9999978027344,0|0,1:0|0:0,0:0:0:0:
64,208,25115,2,0,P|60:164|96:112,1,107.999996704102,10|0,0:2|0:0,0:0:0:0:
128,96,25424,1,2,1:2:0:0:
164,264,25579,1,2,1:2:0:0:
236,148,25733,1,10,0:0:0:0:
284,236,25888,1,2,0:0:0:0:
364,104,26043,6,0,B|402:97|402:97|433:106|433:106|459:87|459:87|498:80,2,143.999995605469,2|10|2,1:2|0:0|1:2,0:0:0:0:
392,192,26816,1,2,1:2:0:0:
392,16,26971,2,0,L|320:28,1,71.9999978027344,10|2,0:0|0:0,0:0:0:0:
204,144,27280,5,0,1:0:0:0:
292,172,27435,1,0,0:0:0:0:
220,52,27589,2,0,P|184:48|152:64,1,71.9999978027344,10|2,0:0|0:0,0:0:0:0:
180,207,27898,2,0,P|201:177|203:142,1,71.9999978027344,2|2,1:2|1:2,0:0:0:0:
72,88,28208,2,0,P|86:121|116:140,1,71.9999978027344,10|2,0:0|0:0,0:0:0:0:
284,104,28517,6,0,B|344:96|344:96|368:108|368:108|428:100,1,143.999995605469,2|10,1:2|0:0,0:0:0:0:
228,280,29136,2,0,B|156:292,1,71.9999978027344,2|0,1:2|1:0,0:0:0:0:
212,200,29445,2,0,B|140:212,1,71.9999978027344,10|0,0:0|0:0,0:0:0:0:
196,120,29754,6,0,B|52:144,1,143.999995605469,2|8,1:2|0:0,0:0:0:0:
53,143,30373,1,0,1:0:0:0:
109,52,30527,1,8,1:2:0:0:
212,200,30682,1,8,1:2:0:0:
156,291,30837,1,8,1:2:0:0:
156,291,30914,1,8,1:2:0:0:
156,291,30991,6,0,B|228:280|228:280|248:312|292:324,1,128,2|0,0:0|0:0,0:0:0:0:
308,240,31455,1,0,0:0:0:0:
348,168,31610,1,8,0:0:0:0:
492,252,31919,1,0,0:0:0:0:
452,324,32074,1,0,0:0:0:0:
420,208,32228,6,0,L|452:148,1,64,2|0,0:0|0:0,0:0:0:0:
308,240,32538,2,0,L|277:296,1,64,0|0,0:0|0:0,0:0:0:0:
276,124,32847,1,8,0:0:0:0:
380,280,33156,1,0,0:0:0:0:
348,168,33311,1,0,0:0:0:0:
232,204,33465,6,0,P|200:204|168:216,1,64,2|0,0:0|0:0,0:0:0:0:
112,276,33775,2,0,P|84:260|50:254,1,64,0|0,0:0|0:0,0:0:0:0:
156,348,34084,1,8,0:0:0:0:
156,348,34393,1,0,0:0:0:0:
216,284,34548,1,0,0:0:0:0:
92,176,34703,6,0,L|104:104,1,64,2|0,0:0|0:0,0:0:0:0:
204,36,35012,2,0,L|214:99,1,64,0|0,0:0|0:0,0:0:0:0:
312,188,35321,2,0,L|327:93,1,96,8|0,0:0|1:2,0:0:0:0:
327,93,35630,1,0,1:2:0:0:
352,296,35940,6,0,P|384:312|428:312,1,71.9999978027344,2|0,1:2|0:0,0:0:0:0:
311,188,36249,2,0,P|279:202|255:229,1,71.9999978027344,10|0,1:2|0:0,0:0:0:0:
159,296,36558,2,0,P|128:311|92:313,1,71.9999978027344,2|0,1:2|0:0,0:0:0:0:
200,188,36868,2,0,P|232:202|256:229,1,71.9999978027344,10|0,1:2|0:0,0:0:0:0:
169,367,37177,6,0,L|157:275,1,71.9999978027344,2|0,1:2|0:0,0:0:0:0:
352,296,37486,2,0,L|342:367,1,71.9999978027344,10|0,1:2|0:0,0:0:0:0:
256,232,37795,2,0,B|248:200|256:180|256:180|264:160|256:120,1,107.999996704102,2|0,1:2|0:0,0:0:0:0:
184,152,38105,1,10,1:2:0:0:
332,204,38259,1,2,0:0:0:0:
296,56,38414,6,0,B|244:76|244:76|156:32,1,143.999995605469,2|10,1:2|1:2,0:0:0:0:
48,136,38878,1,0,0:0:0:0:
140,124,39032,2,0,P|168:155|176:192,1,71.9999978027344,2|2,1:2|0:0,0:0:0:0:
40,276,39342,2,0,P|11:244|4:208,1,71.9999978027344,10|2,1:2|0:0,0:0:0:0:
128,268,39651,6,0,B|176:288|216:268|216:268|264:228,2,143.999995605469,2|10|2,1:2|1:2|1:2,0:0:0:0:
175,183,40424,1,8,0:0:0:0:
256,336,40579,1,8,1:2:0:0:
337,183,40733,1,8,0:0:0:0:
418,336,40888,6,0,P|452:324|498:324,1,71.9999978027344,2|0,1:2|0:0,0:0:0:0:
336,276,41197,2,0,P|264:244|180:268,1,143.999995605469,10|2,1:2|1:2,0:0:0:0:
136,320,41661,1,2,0:0:0:0:
56,208,41816,2,0,P|52:244|68:292,1,71.9999978027344,10|2,1:2|0:0,0:0:0:0:
152,172,42125,6,0,B|160:120|160:120|140:88|140:88|148:32,1,143.999995605469,2|10,1:2|1:2,0:0:0:0:
76,140,42589,1,0,0:0:0:0:
228,64,42744,2,0,B|260:52|280:56|280:56|312:76|312:76|340:80|368:68,1,143.999995605469,2|8,1:2|1:0,0:0:0:0:
440,12,43208,1,2,0:0:0:0:
512,125,43362,6,0,L|505:278,1,143.999995605469,2|8,1:2|1:0,0:0:0:0:
438,330,43826,1,2,0:0:0:0:
412,248,43981,2,0,P|373:236|335:240,1,71.9999978027344,2|0,1:2|1:0,0:0:0:0:
294,310,44290,1,10,0:0:0:0:
220,84,44599,6,0,B|180:148|237:216|237:216|160:176|96:204,1,287.999991210938,2|8,1:2|0:0,0:0:0:0:
412,136,45837,6,0,P|355:158|273:132,1,128,2|2,1:2|0:0,0:0:0:0:
347,74,46301,1,2,0:0:0:0:
220,204,46455,2,0,P|214:234|222:273,1,64,8|2,0:0|0:0,0:0:0:0:
104,380,46764,2,0,P|116:317|106:271,1,96,2|0,0:0|0:0,0:0:0:0:
106,255,47074,6,0,P|96:180|120:120,1,128,2|0,1:2|0:0,0:0:0:0:
399,131,47692,2,0,P|417:192|406:255,1,128,8|0,0:0|0:0,0:0:0:0:
312,200,48156,1,0,0:0:0:0:
201,198,48311,6,0,P|256:172|312:200,1,128,2|2,1:2|0:0,0:0:0:0:
256,308,48775,1,2,0:0:0:0:
168,216,48929,2,0,L|164:148,1,64,10|2,0:0|0:0,0:0:0:0:
104,276,49239,2,0,P|88:248|84:216,1,64,2|2,0:0|0:0,0:0:0:0:
184,92,49548,6,0,P|179:124|164:151,1,64,2|2,1:2|0:0,0:0:0:0:
107,36,49857,2,0,L|104:99,1,64,2|2,1:2|0:0,0:0:0:0:
240,188,50166,1,10,0:0:0:0:
260,100,50321,1,2,0:0:0:0:
280,12,50476,1,2,0:0:0:0:
322,164,50785,6,0,B|338:212|338:212|330:244|330:244|340:288,1,128,6|0,1:2|0:0,0:0:0:0:
424,256,51249,1,2,0:0:0:0:
248,208,51404,2,0,B|240:176|240:176|236:144|248:100|300:84,1,128,10|0,0:0|0:0,0:0:0:0:
322,164,51868,1,2,0:0:0:0:
232,24,52022,6,0,P|180:68|156:144,1,128,2|0,1:2|1:0,0:0:0:0:
157,122,52641,1,10,0:0:0:0:
181,226,52795,1,2,0:0:0:0:
205,330,52950,1,2,0:0:0:0:
108,300,53105,1,2,0:0:0:0:
272,260,53259,6,0,B|296:224|296:224|276:132,1,128,2|2,1:2|0:0,0:0:0:0:
212,204,53723,1,2,0:0:0:0:
372,176,53878,2,0,B|380:212|380:212|384:240|372:264|372:264|348:300,1,128,10|0,0:0|0:0,0:0:0:0:
372,176,54342,1,2,0:0:0:0:
408,348,54496,6,0,P|353:334|268:340,1,128,2|0,1:2|1:0,0:0:0:0:
372,176,55115,2,0,P|434:161|497:164,1,128,8|8,0:0|0:0,0:0:0:0:
360,36,55579,1,8,1:2:0:0:
360,36,55656,1,8,1:2:0:0:
360,36,55733,6,0,P|344:76|312:108,1,71.9999978027344,2|0,1:2|0:0,0:0:0:0:
412,296,56043,2,0,P|372:280|340:248,1,71.9999978027344,10|0,1:2|0:0,0:0:0:0:
152,348,56352,2,0,P|168:308|200:276,1,71.9999978027344,2|0,1:2|0:0,0:0:0:0:
100,88,56661,2,0,P|140:104|172:136,1,71.9999978027344,10|0,1:2|0:0,0:0:0:0:
371,174,56971,6,0,P|407:170|439:155,1,71.9999978027344,2|0,1:2|0:0,0:0:0:0:
238,76,57280,2,0,P|234:40|219:8,1,71.9999978027344,10|0,1:2|0:0,0:0:0:0:
140,209,57589,2,0,P|104:213|72:228,1,71.9999978027344,2|0,1:2|0:0,0:0:0:0:
273,307,57898,2,0,P|277:343|292:375,1,71.9999978027344,10|0,1:2|0:0,0:0:0:0:
350,261,58208,5,2,1:2:0:0:
162,123,58362,1,0,1:0:0:0:
187,286,58517,1,2,1:2:0:0:
325,98,58672,1,0,1:0:0:0:
176,208,58826,2,0,L|132:212,3,35.9999989013672,0|0|0|0,1:0|1:0|1:0|1:0,0:0:0:0:
88,215,59136,5,0,1:0:0:0:
91,169,59213,1,0,1:0:0:0:
95,125,59290,1,0,1:0:0:0:
99,80,59368,1,0,1:0:0:0:
103,35,59445,1,4,1:2:0:0:
88,215,59754,1,4,1:2:0:0:
256,132,60063,1,4,1:2:0:0:
448,216,60682,5,0,0:0:0:0:
256,132,60991,1,0,0:0:0:0:
64,216,61301,1,0,0:0:0:0:
448,100,61919,6,0,L|309:119,1,106.666666666667,6|2,1:2|0:0,0:0:0:0:
288,120,62228,2,0,L|304:36,1,80,10|0,0:2|1:0,0:0:0:0:
212,172,62538,1,2,0:0:0:0:
328,204,62692,1,0,1:0:0:0:
216,72,62847,2,0,B|176:76|176:76|140:100,1,80,10|0,0:0|0:0,0:0:0:0:
20,256,63156,6,0,P|24:197|67:138,1,106.666666666667,6|2,1:2|0:0,0:0:0:0:
81,180,63465,2,0,P|120:198|172:196,1,80,10|0,0:0|1:0,0:0:0:0:
244,156,63775,1,2,0:0:0:0:
196,288,63929,1,0,1:0:0:0:
356,264,64084,2,0,P|316:245|264:247,1,80,10|0,0:0|0:0,0:0:0:0:
304,368,64393,6,0,P|375:332|454:327,1,160,6|10,1:2|0:0,0:0:0:0:
396,192,64857,1,0,1:0:0:0:
454,56,65012,2,0,P|414:59|375:51,1,80,2|0,0:0|1:0,0:0:0:0:
236,124,65321,2,0,P|275:120|314:128,1,80,10|0,0:0|0:0,0:0:0:0:
259,324,65630,6,0,L|270:218,1,106.666666666667,6|0,1:2|0:0,0:0:0:0:
235,226,65940,2,0,L|141:246,1,80,10|2,0:0|1:2,0:0:0:0:
88,200,66249,1,2,0:0:0:0:
140,320,66404,1,2,1:2:0:0:
56,208,66558,2,0,L|72:116,1,80,10|2,0:0|0:0,0:0:0:0:
235,226,66868,6,0,L|217:84,1,106.666666666667,6|0,1:2|0:0,0:0:0:0:
215,64,67177,1,10,1:2:0:0:
432,124,67383,1,2,0:0:0:0:
439,175,67486,2,0,L|454:291,1,106.666666666667,2|2,1:2|0:0,0:0:0:0:
326,362,67795,2,0,L|340:257,1,106.666666666667,10|2,1:2|0:0,0:0:0:0:
308,168,68105,6,0,B|272:164|272:164|232:172|232:172|182:169,1,106.666666666667,2|0,1:2|0:0,0:0:0:0:
148,168,68414,1,10,1:2:0:0:
264,248,68569,1,0,0:0:0:0:
216,92,68723,2,0,B|216:60|240:32|240:32|203:6,1,106.666666666667,2|0,1:2|0:0,0:0:0:0:
300,92,69032,2,0,P|352:92|404:45,1,106.666666666667,10|0,1:2|0:0,0:0:0:0:
480,88,69342,6,0,L|460:225,1,106.666666666667,2|0,1:2|0:0,0:0:0:0:
456,248,69651,1,10,1:2:0:0:
377,121,69806,1,0,0:0:0:0:
308,208,69960,2,0,L|228:216,1,80,2|0,1:2|0:0,0:0:0:0:
248,8,70270,2,0,L|328:16,1,80,10|0,1:2|0:0,0:0:0:0:
512,136,70579,6,0,P|464:164|376:120,1,160,2|8,1:2|1:2,0:0:0:0:
400,40,71043,1,0,0:0:0:0:
235,68,71197,2,0,L|316:56,1,80,2|0,1:2|0:0,0:0:0:0:
183,141,71507,2,0,L|104:128,1,80,10|8,1:2|1:2,0:0:0:0:
261,204,71816,6,0,P|310:179|357:178,1,80,6|2,1:2|0:0,0:0:0:0:
426,291,72125,2,0,P|377:266|316:265,1,106.666666666667,10|2,0:0|0:0,0:0:0:0:
359,343,72435,1,2,1:2:0:0:
359,343,72589,1,0,1:0:0:0:
255,209,72744,2,0,P|241:249|248:288,1,80,10|0,0:0|0:0,0:0:0:0:
290,135,73053,6,0,P|241:160|180:161,1,106.666666666667,2|2,1:2|0:0,0:0:0:0:
119,53,73362,2,0,P|168:78|229:79,1,106.666666666667,10|2,0:0|0:0,0:0:0:0:
186,1,73672,1,2,1:2:0:0:
186,1,73826,1,0,1:0:0:0:
70,116,73981,2,0,L|76:212,1,80,8|0,0:0|0:0,0:0:0:0:
119,53,74290,6,0,B|163:29|163:29|248:40,1,106.666666666667,2|2,1:2|0:0,0:0:0:0:
290,136,74599,2,0,B|246:112|246:112|160:124,1,106.666666666667,10|2,0:0|0:0,0:0:0:0:
230,196,74909,1,2,1:2:0:0:
314,64,75063,1,0,1:0:0:0:
189,119,75218,1,10,0:0:0:0:
330,204,75373,1,0,0:0:0:0:
170,280,75527,6,0,B|254:272|254:272|282:304|346:308,1,160,2|10,1:2|0:0,0:0:0:0:
330,204,75991,1,0,0:0:0:0:
415,263,76146,2,0,P|423:299|404:357,1,80,2|0,1:2|1:0,0:0:0:0:
316,113,76455,2,0,P|352:114|403:147,1,80,10|0,0:0|0:0,0:0:0:0:
396,12,76764,6,0,P|316:16|246:54,1,160,6|2,1:2|0:0,0:0:0:0:
256,184,77383,2,0,P|185:146|106:141,1,160,10|2,0:0|0:0,0:0:0:0:
136,312,77847,1,0,1:0:0:0:
121,227,78002,6,0,P|160:229|195:247,1,80,2|8,0:0|0:0,0:0:0:0:
256,184,78311,2,0,P|326:146|405:141,1,160,0|8,1:0|0:0,0:0:0:0:
315,247,78929,2,0,P|351:228|391:227,1,80,2|10,1:2|0:0,0:0:0:0:
496,280,79239,6,0,P|477:244|475:205,1,80,4|0,1:0|0:0,0:0:0:0:
405,141,79548,2,0,B|432:100|432:100|424:28,1,120,8|0,0:0|0:0,0:0:0:0:
384,20,79857,1,0,1:0:0:0:
484,92,80012,1,0,1:0:0:0:
332,92,80166,2,0,B|296:104|296:104|252:92|252:92|220:56,1,120,8|8,0:0|0:0,0:0:0:0:
336,184,80476,6,0,L|428:152,1,80,10|0,0:0|1:0,0:0:0:0:
176,200,80785,2,0,L|84:232,1,80,10|0,0:0|1:0,0:0:0:0:
360,264,81094,2,0,L|452:232,1,80,10|8,0:0|0:0,0:0:0:0:
200,280,81404,1,10,0:0:0:0:
181,286,81481,1,8,0:0:0:0:
162,293,81558,1,10,0:0:0:0:
143,299,81636,1,10,0:0:0:0:
124,306,81713,6,0,B|55:325|55:325|25:250,1,143.999995605469,6|2,1:2|0:0,0:0:0:0:
256,272,82331,1,10,0:0:0:0:
347,294,82486,2,0,B|416:313|416:313|446:238,2,143.999995605469,2|2|2,0:0|0:0|0:0,0:0:0:0:
256,272,83259,6,0,L|276:192,1,71.9999978027344,2|2,1:2|0:0,0:0:0:0:
416,124,83569,2,0,P|381:140|336:146,1,71.9999978027344,10|2,0:0|0:0,0:0:0:0:
180,224,83878,2,0,P|144:208|100:204,1,71.9999978027344,2|2,0:0|1:2,0:0:0:0:
152,72,84187,6,0,P|88:96|12:80,1,143.999995605469,0|2,1:0|0:0,0:0:0:0:
80,8,84806,1,10,0:0:0:0:
228,132,84960,2,0,B|296:164|296:164|376:140,1,143.999995605469,2|2,0:0|0:0,0:0:0:0:
304,68,85579,1,2,0:0:0:0:
448,128,85733,6,0,P|448:164|429:197,1,71.9999978027344,2|2,1:2|0:0,0:0:0:0:
396,276,86043,2,0,P|364:258|345:225,1,71.9999978027344,10|2,0:0|0:0,0:0:0:0:
293,156,86352,2,0,P|324:138|362:137,1,71.9999978027344,2|2,0:0|1:2,0:0:0:0:
240,236,86661,6,0,P|200:188|212:96,1,143.999995605469,2|0,1:2|0:0,0:0:0:0:
412,24,87280,2,0,B|372:24|344:52|344:52|256:40,1,143.999995605469,8|2,0:0|0:0,0:0:0:0:
412,120,87744,2,0,B|420:172|420:172|404:208|404:208|412:272,1,143.999995605469,2|2,0:0|0:0,0:0:0:0:
504,160,88208,6,0,L|492:80,1,71.9999978027344,2|2,1:2|0:0,0:0:0:0:
320,216,88517,2,0,L|330:287,1,71.9999978027344,10|2,0:0|0:0,0:0:0:0:
488,240,88826,1,2,0:0:0:0:
340,140,88981,1,2,1:2:0:0:
340,140,89058,1,2,1:2:0:0:
340,140,89136,6,0,B|296:136|272:148|272:148|248:160|196:152,1,143.999995605469,2|2,1:2|0:0,0:0:0:0:
24,48,89754,2,0,B|57:50|75:41|75:41|93:32|130:38,1,107.999996704102,10|0,0:0|0:0,0:0:0:0:
108,120,90063,2,0,B|94:170|119:202|119:202|104:288,1,143.999995605469,2|2,0:0|1:2,0:0:0:0:
198,152,90527,5,0,0:0:0:0:
32,220,90682,1,0,0:0:0:0:
108,120,90837,1,0,0:0:0:0:
204,252,90991,2,0,P|236:236|292:232,1,71.9999978027344,10|0,0:0|0:0,0:0:0:0:
209,145,91301,1,8,0:0:0:0:
360,244,91455,1,8,0:0:0:0:
360,244,91532,1,8,0:0:0:0:
360,244,91610,6,0,P|336:288|260:312,1,128,0|0,1:0|0:0,0:0:0:0:
204,252,92074,1,0,0:0:0:0:
128,288,92228,1,8,0:0:0:0:
56,136,92538,1,0,0:0:0:0:
132,100,92692,1,0,0:0:0:0:
93,215,92847,6,0,P|57:223|21:219,1,64,0|0,1:0|0:0,0:0:0:0:
204,252,93156,2,0,P|240:244|276:248,1,64,0|0,0:0|0:0,0:0:0:0:
163,363,93465,1,8,0:0:0:0:
166,177,93775,1,0,0:0:0:0:
128,288,93929,1,0,0:0:0:0:
237,329,94084,6,0,P|270:332|303:325,1,64,0|0,1:0|0:0,0:0:0:0:
360,268,94393,2,0,P|387:284|418:292,1,64,0|0,0:0|0:0,0:0:0:0:
336,184,94703,1,8,0:0:0:0:
336,184,95012,1,0,0:0:0:0:
280,244,95166,1,0,0:0:0:0:
416,204,95321,6,0,L|492:220,1,64,0|0,1:0|0:0,0:0:0:0:
320,100,95630,2,0,L|396:84,1,64,0|0,0:0|0:0,0:0:0:0:
186,224,95940,2,0,L|279:243,1,96,8|0,0:0|1:0,0:0:0:0:
322,252,96249,1,0,1:0:0:0:
168,320,96558,6,0,L|96:308,1,71.9999978027344,2|0,1:2|0:0,0:0:0:0:
256,184,96868,2,0,L|256:112,1,71.9999978027344,10|0,1:2|0:0,0:0:0:0:
344,320,97177,2,0,L|416:308,1,71.9999978027344,2|0,1:2|0:0,0:0:0:0:
184,240,97486,1,10,1:2:0:0:
328,240,97641,1,0,0:0:0:0:
168,160,97795,6,0,L|96:172,1,71.9999978027344,2|0,1:2|0:0,0:0:0:0:
344,160,98105,2,0,L|416:172,1,71.9999978027344,10|0,1:2|0:0,0:0:0:0:
308,12,98414,2,0,P|256:0|204:12,1,107.999996704102,2|0,1:2|0:0,0:0:0:0:
184,84,98723,1,10,1:2:0:0:
328,84,98878,1,2,0:0:0:0:
256,172,99032,6,0,B|216:204|216:204|176:180|128:204,1,143.999995605469,2|10,1:2|1:2,0:0:0:0:
176,284,99496,1,2,0:0:0:0:
40,192,99651,2,0,P|50:157|75:132,1,71.9999978027344,2|2,1:2|0:0,0:0:0:0:
72,280,99960,2,0,P|37:287|2:278,1,71.9999978027344,10|2,1:2|0:0,0:0:0:0:
128,204,100270,6,0,B|176:184|176:184|210:198|210:198|263:171,2,143.999995605469,2|10|2,1:2|1:2|1:2,0:0:0:0:
205,111,101043,1,8,0:0:0:0:
177,269,101197,1,8,1:2:0:0:
75,132,101352,1,8,0:0:0:0:
48,290,101507,6,0,L|38:369,1,71.9999978027344,2|0,1:2|0:0,0:0:0:0:
192,204,101816,2,0,B|140:236|140:236|44:204,1,143.999995605469,10|2,1:2|1:2,0:0:0:0:
136,320,102280,1,2,0:0:0:0:
268,240,102435,2,0,P|276:205|272:169,1,71.9999978027344,10|2,1:2|0:0,0:0:0:0:
59,68,102744,6,0,P|47:144|66:221,1,143.999995605469,2|10,1:2|1:2,0:0:0:0:
168,140,103208,1,0,0:0:0:0:
274,310,103362,2,0,P|286:234|267:157,1,143.999995605469,2|10,1:2|1:2,0:0:0:0:
165,238,103826,1,2,0:0:0:0:
240,80,103981,6,0,B|288:56|288:56|392:64,1,143.999995605469,2|10,1:2|1:2,0:0:0:0:
464,72,104445,1,0,0:0:0:0:
368,152,104599,2,0,L|292:144,1,71.9999978027344,2|0,1:2|1:0,0:0:0:0:
456,164,104909,1,10,0:0:0:0:
380,292,105218,6,0,B|344:316|288:300|288:300|256:264|256:264|224:300|224:300|168:316|132:292,1,287.999991210938,6|8,0:0|0:0,0:0:0:0:
332,220,106455,6,0,P|389:242|468:224,1,128,6|2,1:2|0:0,0:0:0:0:
400,160,106919,1,2,0:0:0:0:
256,264,107074,2,0,P|226:270|187:262,1,64,8|2,0:0|0:0,0:0:0:0:
40,140,107383,2,0,B|100:120|100:120|156:136,1,96,2|0,0:0|0:0,0:0:0:0:
176,144,107692,6,0,B|236:160|236:160|296:128,1,128,2|0,1:2|1:2,0:0:0:0:
193,264,108311,2,0,B|133:248|133:248|73:280,1,128,8|0,0:0|0:0,0:0:0:0:
144,336,108775,1,0,0:0:0:0:
8,236,108929,6,0,B|0:192|0:192|16:152|16:152|8:104,1,128,2|2,1:2|0:0,0:0:0:0:
80,40,109393,1,2,0:0:0:0:
144,104,109548,2,0,L|212:108,1,64,10|2,0:0|0:0,0:0:0:0:
272,172,109857,2,0,B|300:160|300:160|344:160,1,64,2|2,0:0|0:0,0:0:0:0:
496,132,110166,6,0,L|428:128,1,64,2|2,1:2|0:0,0:0:0:0:
368,64,110476,2,0,B|340:76|340:76|296:76,1,64,0|2,1:2|0:0,0:0:0:0:
452,40,110785,1,10,0:0:0:0:
432,128,110940,1,2,0:0:0:0:
412,216,111094,1,2,0:0:0:0:
216,64,111404,6,0,B|152:56|152:56|100:96,1,128,6|0,1:2|0:0,0:0:0:0:
176,144,111868,1,2,0:0:0:0:
28,52,112022,2,0,P|20:116|76:172,1,128,10|0,0:0|0:0,0:0:0:0:
101,94,112486,1,2,0:0:0:0:
124,224,112641,6,0,B|136:276|136:276|124:296|124:296|136:352,1,128,2|0,1:2|1:2,0:0:0:0:
134,346,113259,1,10,0:0:0:0:
232,316,113414,1,2,0:0:0:0:
328,288,113569,1,2,0:0:0:0:
308,384,113723,1,2,0:0:0:0:
248,224,113878,6,0,B|232:176|232:176|256:96,1,128,2|2,1:2|0:0,0:0:0:0:
316,172,114342,1,2,0:0:0:0:
296,24,114496,2,0,P|232:13|176:52,1,128,10|0,0:0|0:0,0:0:0:0:
336,92,114960,1,2,0:0:0:0:
200,193,115115,2,0,P|263:203|320:165,1,128,2|2,1:2|1:2,0:0:0:0:
432,296,115733,6,0,P|378:263|316:274,1,128,10|10,0:0|0:0,0:0:0:0:
196,336,116197,1,8,1:2:0:0:
196,336,116275,1,8,1:2:0:0:
196,336,116352,6,0,P|156:320|124:288,1,71.9999978027344,2|0,1:2|0:0,0:0:0:0:
112,132,116661,2,0,P|128:92|160:60,1,71.9999978027344,10|0,1:2|0:0,0:0:0:0:
316,48,116971,2,0,P|356:64|388:96,1,71.9999978027344,2|0,1:2|0:0,0:0:0:0:
400,252,117280,2,0,P|384:292|352:324,1,71.9999978027344,10|0,1:2|0:0,0:0:0:0:
412,144,117589,6,0,P|396:104|364:72,1,71.9999978027344,2|0,1:2|0:0,0:0:0:0:
208,36,117898,2,0,P|168:52|136:84,1,71.9999978027344,10|0,1:2|0:0,0:0:0:0:
100,240,118208,2,0,P|116:280|148:312,1,71.9999978027344,2|0,1:2|0:0,0:0:0:0:
304,348,118517,2,0,P|344:332|376:300,1,71.9999978027344,10|0,1:2|0:0,0:0:0:0:
176,204,118826,5,0,1:0:0:0:
333,245,118981,1,0,1:0:0:0:
229,118,119136,1,0,1:0:0:0:
238,281,119290,1,0,1:0:0:0:
326,144,119445,2,0,L|320:84,3,35.9999989013672,0|0|0|0,1:0|1:0|1:0|1:0,0:0:0:0:
320,64,119754,5,0,1:0:0:0:
366,67,119831,1,0,1:0:0:0:
410,71,119909,1,0,1:0:0:0:
455,75,119986,1,0,1:0:0:0:
500,79,120063,1,4,1:2:0:0:
320,64,120373,1,4,1:2:0:0:
408,224,120682,1,4,1:2:0:0:
104,224,121301,5,0,0:0:0:0:
256,384,121610,1,0,0:0:0:0:
408,224,121919,2,0,L|400:164,1,40,2|0,0:0|0:0,0:0:0:0:
444,116,122074,1,8,0:0:0:0:
444,116,122151,1,8,0:0:0:0:
444,116,122228,2,0,L|436:56,3,40,8|8|8|8,0:0|0:0|0:0|0:0,0:0:0:0:
424,0,122538,6,0,L|311:18,1,106.666666666667,6|2,1:2|0:0,0:0:0:0:
280,48,122847,2,0,L|200:44,1,80,10|0,0:0|1:0,0:0:0:0:
352,104,123156,1,2,0:0:0:0:
256,160,123311,1,0,1:0:0:0:
124,40,123465,2,0,L|116:120,1,80,10|0,0:0|0:0,0:0:0:0:
230,250,123775,6,0,L|220:144,1,106.666666666667,6|2,1:2|0:0,0:0:0:0:
256,160,124084,2,0,P|295:178|347:176,1,80,10|0,0:0|1:0,0:0:0:0:
316,88,124393,1,2,0:0:0:0:
424,212,124548,1,0,1:0:0:0:
340,344,124703,2,0,L|356:256,1,80,10|0,0:0|0:0,0:0:0:0:
240,360,125012,6,0,B|172:316|172:316|136:332|88:336,1,160,6|10,1:2|0:0,0:0:0:0:
16,284,125476,1,0,1:0:0:0:
208,224,125630,2,0,L|280:272,1,80,2|0,0:0|1:0,0:0:0:0:
490,256,125940,2,0,L|423:211,1,80,10|0,0:0|0:0,0:0:0:0:
366,53,126249,6,0,L|356:160,1,106.666666666667,6|0,1:2|0:0,0:0:0:0:
320,140,126558,2,0,P|280:124|241:123,1,80,10|2,0:0|1:2,0:0:0:0:
348,248,126868,1,2,0:0:0:0:
442,129,127022,1,2,1:2:0:0:
243,122,127177,2,0,L|259:214,1,80,10|2,0:0|0:0,0:0:0:0:
148,352,127486,6,0,P|176:304|161:216,1,106.666666666667,4|0,1:2|0:0,0:0:0:0:
152,204,127795,1,10,0:0:0:0:
268,298,128002,1,2,0:0:0:0:
308,264,128105,2,0,L|419:278,1,106.666666666667,2|0,1:2|0:0,0:0:0:0:
512,164,128414,2,0,L|396:179,1,106.666666666667,10|2,0:0|0:0,0:0:0:0:
328,352,128723,6,0,B|272:360|272:360|210:344,1,106.666666666667,2|2,1:2|0:0,0:0:0:0:
172,332,129032,1,10,0:0:0:0:
248,248,129187,1,0,0:0:0:0:
92,164,129342,2,0,L|112:46,1,106.666666666667,2|0,1:2|0:0,0:0:0:0:
220,28,129651,2,0,L|242:142,1,106.666666666667,10|0,0:0|0:0,0:0:0:0:
252,184,129960,6,0,L|116:167,1,106.666666666667,2|0,1:2|0:0,0:0:0:0:
92,164,130270,1,10,0:0:0:0:
292,100,130476,1,0,0:0:0:0:
250,96,130579,2,0,L|170:88,1,80,2|0,1:2|0:0,0:0:0:0:
336,172,130888,2,0,L|416:164,1,80,10|0,0:0|0:0,0:0:0:0:
508,268,131197,6,0,B|460:276|424:252|424:252|348:260,1,160,2|10,1:2|0:0,0:0:0:0:
484,180,131661,1,0,0:0:0:0:
408,340,131816,2,0,L|328:348,1,80,2|0,1:2|0:0,0:0:0:0:
180,310,132125,2,0,L|260:302,1,80,10|8,0:0|0:0,0:0:0:0:
102,320,132435,6,0,P|47:324|0:295,1,106.666666666667,6|0,1:2|0:0,0:0:0:0:
70,236,132744,2,0,P|125:240|172:211,1,106.666666666667,10|0,0:0|0:0,0:0:0:0:
101,154,133053,1,2,1:2:0:0:
101,154,133208,1,0,1:0:0:0:
10,57,133362,2,0,L|116:72,1,106.666666666667,10|2,0:0|0:0,0:0:0:0:
247,31,133672,6,0,P|302:27|349:56,1,106.666666666667,2|0,1:2|0:0,0:0:0:0:
279,115,133981,2,0,P|224:111|177:140,1,106.666666666667,10|0,0:0|0:0,0:0:0:0:
248,197,134290,1,2,1:2:0:0:
248,197,134445,1,0,1:0:0:0:
376,122,134599,2,0,P|367:153|325:189,1,80,8|0,0:0|0:0,0:0:0:0:
352,276,134909,6,0,P|400:252|480:264,1,106.666666666667,2|2,1:2|0:0,0:0:0:0:
384,356,135218,2,0,P|336:332|256:344,1,106.666666666667,10|2,0:0|0:0,0:0:0:0:
216,384,135527,1,2,1:2:0:0:
248,252,135682,1,0,1:0:0:0:
124,384,135837,1,10,0:0:0:0:
168,216,135991,1,0,0:0:0:0:
4,264,136146,6,0,B|83:255|83:255|104:296|168:312,1,160,2|10,1:2|0:0,0:0:0:0:
257,173,136610,1,0,0:0:0:0:
160,136,136764,2,0,L|171:230,1,80,2|0,1:2|1:0,0:0:0:0:
238,331,137074,2,0,L|247:251,1,80,10|0,0:0|0:0,0:0:0:0:
268,86,137383,6,0,B|338:48|338:48|418:44,1,160,6|2,1:2|0:0,0:0:0:0:
257,173,138002,2,0,B|186:135|186:135|107:130,1,160,10|2,0:0|0:0,0:0:0:0:
136,305,138465,1,0,1:0:0:0:
193,237,138620,6,0,B|157:218|157:218|118:215,1,80,2|8,0:0|0:0,0:0:0:0:
255,173,138929,2,0,B|326:135|326:135|405:130,1,160,0|8,1:0|0:0,0:0:0:0:
319,237,139548,2,0,B|355:218|355:218|394:215,1,80,2|10,1:2|0:0,0:0:0:0:
245,85,139857,6,0,L|256:0,1,80,6|0,1:2|0:0,0:0:0:0:
175,145,140166,2,0,B|167:215|167:215|166:244|178:267,1,120,8|0,0:0|0:0,0:0:0:0:
192,300,140476,1,0,1:0:0:0:
248,224,140630,1,0,1:0:0:0:
388,344,140785,2,0,P|328:344|280:296,1,120,8|8,0:0|0:0,0:0:0:0:
360,260,141094,6,0,B|371:237|367:221|371:206|360:183,1,80,10|0,0:0|1:0,0:0:0:0:
152,183,141404,2,0,B|140:206|144:221|140:237|152:260,1,80,10|0,0:0|1:0,0:0:0:0:
294,120,141713,2,0,B|271:108|255:112|240:108|217:120,1,80,10|8,0:0|0:0,0:0:0:0:
256,288,142022,1,10,0:0:0:0:
256,268,142099,1,8,0:0:0:0:
256,248,142177,1,10,0:0:0:0:
256,228,142254,1,8,0:0:0:0:
256,208,142331,5,14,1:2:0:0:
172,336,142486,2,0,L|92:348,1,64,2|0,0:0|0:0,0:0:0:0:
339,335,142795,2,0,B|436:348|436:348|472:308,1,128,2|0,0:0|0:0,0:0:0:0:
384,144,143259,6,0,L|400:68,1,64,2|2,0:0|0:0,0:0:0:0:
420,236,143569,1,2,1:2:0:0:
292,120,143878,1,0,1:0:0:0:
252,284,144187,2,0,B|192:264|192:264|132:288,1,128,8|0,0:0|0:0,0:0:0:0:
20,332,144651,1,0,1:0:0:0:
20,332,144728,1,0,1:0:0:0:
20,332,144806,6,0,L|28:248,1,64,2|2,1:2|0:0,0:0:0:0:
120,192,145115,1,0,0:0:0:0:
26,115,145270,2,0,B|18:28|18:28|36:41|66:40,1,128,2|0,0:0|0:0,0:0:0:0:
152,16,145733,2,0,P|185:14|229:21,1,64,2|2,0:0|0:0,0:0:0:0:
256,104,146043,5,2,1:2:0:0:
112,192,146352,1,0,1:0:0:0:
256,280,146661,2,0,P|288:192|256:104,1,192,8|0,0:0|1:0,0:0:0:0:
171,245,147280,6,0,P|193:221|204:192,1,64,2|0,1:2|0:0,0:0:0:0:
184,332,147589,2,0,P|120:316|80:260,1,128,2|10,0:0|0:0,0:0:0:0:
256,288,148053,1,2,0:0:0:0:
328,332,148208,2,0,P|392:316|432:260,1,128,2|0,0:0|1:0,0:0:0:0:
332,168,148672,5,0,0:0:0:0:
332,168,148749,1,2,0:0:0:0:
332,168,148826,2,0,L|340:248,1,64,2|2,1:2|0:0,0:0:0:0:
180,168,149136,2,0,L|173:231,1,64,10|2,0:0|0:0,0:0:0:0:
256,320,149445,1,2,0:0:0:0:
256,192,149599,1,2,1:2:0:0:
256,56,149754,1,2,1:2:0:0:
396,112,150063,6,0,L|448:112,2,42.6666666666667,2|2|2,0:0|0:0|0:0,0:0:0:0:
344,200,150373,2,0,L|380:236,2,42.6666666666667,10|2|2,0:0|0:0|0:0,0:0:0:0:
256,252,150682,2,0,L|256:304,2,42.6666666666667,2|2|2,0:0|0:0|0:0,0:0:0:0:
168,200,150991,2,0,L|131:236,2,42.6666666666667,2|2|2,1:2|0:0|0:0,0:0:0:0:
116,112,151301,2,0,L|73:112,2,42.6666666666667,2|2|2,1:2|0:0|0:0,0:0:0:0:
168,24,151610,5,8,0:0:0:0:
344,24,151919,1,8,0:0:0:0:
256,116,152074,1,8,0:0:0:0:
256,124,152151,1,8,0:0:0:0:
256,132,152228,1,0,0:0:0:0:
256,192,154703,5,2,0:0:0:0:
256,272,155940,5,2,0:0:0:0:
208,348,156558,5,2,0:0:0:0:
304,348,156868,1,0,0:0:0:0:
120,348,157177,6,0,L|136:152,1,192,0|0,1:0|0:0,0:0:0:0:
376,156,157795,2,0,L|392:348,1,192,8|0,0:0|1:0,0:0:0:0:
301,287,158414,6,0,L|295:215,2,64,0|8|0,0:0|0:0|1:0,0:0:0:0:
211,97,159032,1,8,0:0:0:0:
135,156,159342,1,8,0:0:0:0:
217,289,159496,1,8,0:0:0:0:
217,289,159574,1,8,0:0:0:0:
217,289,159651,6,0,P|196:325|159:351,1,80,0|0,1:0|0:0,0:0:0:0:
168,219,159960,1,8,1:2:0:0:
301,287,160115,1,0,1:0:0:0:
350,221,160270,1,8,1:2:0:0:
217,289,160424,1,0,1:0:0:0:
217,153,160579,1,8,1:2:0:0:
350,221,160733,2,0,L|395:221,1,40,0|0,1:0|1:0,0:0:0:0:
295,153,160888,6,0,L|129:153,1,160,4|0,1:2|0:0,0:0:0:0:
287,72,162125,6,0,B|349:72|349:72|416:136,1,117.333336914063,6|2,1:2|0:0,0:0:0:0:
436,172,162435,2,0,P|420:224|432:288,1,88.000002685547,10|0,0:0|1:2,0:0:0:0:
492,324,162744,1,2,0:0:0:0:
508,228,162898,1,0,1:0:0:0:
400,348,163053,2,0,L|288:324,1,88.000002685547,10|0,0:0|0:0,0:0:0:0:
148,236,163362,6,0,P|220:248|252:292,1,117.333336914063,6|2,1:2|0:0,0:0:0:0:
172,316,163672,2,0,P|132:318|84:296,1,88.000002685547,10|0,0:0|1:0,0:0:0:0:
240,360,163981,1,2,0:0:0:0:
148,236,164136,1,0,1:0:0:0:
16,264,164290,2,0,P|12:312|32:356,1,88.000002685547,10|0,0:0|0:0,0:0:0:0:
72,208,164599,6,0,B|88:136|88:136|104:84|68:32,1,176.000005371094,6|10,1:2|0:0,0:0:0:0:
0,100,165063,1,0,1:0:0:0:
156,216,165218,2,0,L|176:128,1,88.000002685547,2|0,0:0|1:0,0:0:0:0:
248,228,165527,2,0,L|228:313,1,88.000002685547,10|0,0:0|0:0,0:0:0:0:
344,160,165837,6,0,L|368:296,1,132.00000402832,4|0,1:2|0:0,0:0:0:0:
380,368,166146,2,0,P|416:352|444:304,1,88.000002685547,10|2,0:0|0:0,0:0:0:0:
308,344,166455,1,2,1:2:0:0:
432,240,166610,1,0,1:0:0:0:
344,160,166764,2,0,L|254:175,1,88.000002685547,8|0,0:0|0:0,0:0:0:0:
136,100,167074,6,0,P|200:100|240:56,1,117.333336914063,6|0,1:2|0:0,0:0:0:0:
168,32,167383,1,10,1:2:0:0:
104,168,167589,1,2,0:0:0:0:
68,240,167692,2,0,L|151:341,1,117.333336914063,2|2,1:2|0:0,0:0:0:0:
219,148,168002,2,0,L|89:169,1,117.333336914063,10|2,1:2|0:0,0:0:0:0:
176,240,168311,6,0,B|224:232|224:232|248:240|248:240|312:228,1,117.333336914063,2|0,1:2|0:0,0:0:0:0:
368,212,168620,1,10,1:2:0:0:
219,148,168826,1,2,0:0:0:0:
136,160,168929,2,0,L|156:40,1,117.333336914063,2|2,1:2|0:0,0:0:0:0:
56,164,169239,2,0,L|36:279,1,117.333336914063,10|0,1:2|0:0,0:0:0:0:
88,328,169548,6,0,P|136:308|212:316,1,117.333336914063,2|2,1:2|0:0,0:0:0:0:
272,344,169857,1,10,1:2:0:0:
192,224,170063,1,2,0:0:0:0:
263,191,170166,2,0,P|320:186|375:207,1,117.333336914063,2|0,1:2|0:0,0:0:0:0:
480,100,170476,2,0,P|425:121|367:116,1,117.333336914063,10|2,1:2|0:0,0:0:0:0:
304,268,170785,6,0,P|220:268|168:192,1,176.000005371094,2|10,1:2|1:2,0:0:0:0:
376,208,171249,1,0,0:0:0:0:
456,348,171404,2,0,L|448:256,1,88.000002685547,2|0,1:2|0:0,0:0:0:0:
383,120,171713,2,0,L|376:208,1,88.000002685547,10|8,1:2|0:0,0:0:0:0:
332,48,172022,6,0,P|277:44|220:84,1,117.333336914063,6|0,1:2|0:0,0:0:0:0:
172,132,172331,2,0,L|184:-12,1,117.333336914063,10|0,0:0|0:0,0:0:0:0:
300,128,172641,1,2,1:2:0:0:
300,128,172795,1,0,1:0:0:0:
164,227,172950,2,0,P|199:203|242:196,1,88.000002685547,10|0,0:0|0:0,0:0:0:0:
120,296,173259,6,0,P|120:232|100:160,1,117.333336914063,2|0,1:2|0:0,0:0:0:0:
54,124,173569,2,0,L|182:132,1,117.333336914063,10|0,0:0|0:0,0:0:0:0:
232,288,173878,1,2,1:2:0:0:
232,288,174032,1,0,1:0:0:0:
396,236,174187,2,0,L|308:243,1,88.000002685547,8|0,0:0|0:0,0:0:0:0:
456,304,174496,6,0,P|484:252|472:180,1,117.333336914063,2|2,1:2|0:0,0:0:0:0:
404,156,174806,2,0,B|344:160|344:160|312:156|280:132,1,117.333336914063,10|0,0:2|0:0,0:0:0:0:
352,76,175115,1,2,1:2:0:0:
418,258,175270,1,0,1:0:0:0:
291,139,175424,1,10,0:0:0:0:
479,195,175579,1,0,0:0:0:0:
232,200,175733,6,0,B|168:184|168:184|128:200|128:200|56:184,1,176.000005371094,2|10,1:2|1:2,0:0:0:0:
188,272,176197,1,0,0:0:0:0:
112,120,176352,2,0,B|100:80|100:80|120:16,1,88.000002685547,2|0,1:2|1:0,0:0:0:0:
4,144,176661,2,0,B|16:184|16:184|-4:248,1,88.000002685547,10|0,0:0|0:0,0:0:0:0:
92,308,176971,6,0,B|136:338|136:338|204:352|204:352|260:344,1,176.000005371094,6|2,1:2|0:0,0:0:0:0:
464,176,177589,2,0,B|420:206|420:206|352:220|352:220|296:212,1,176.000005371094,10|2,0:0|0:0,0:0:0:0:
352,60,178053,1,0,1:2:0:0:
408,120,178208,6,0,B|386:135|386:135|352:142|352:142|324:138,1,88.000002685547,2|8,0:0|0:0,0:0:0:0:
48,176,178517,2,0,B|92:206|92:206|160:220|160:220|216:212,1,176.000005371094,0|8,1:0|0:0,0:0:0:0:
104,120,179136,2,0,B|126:135|126:135|160:142|160:142|188:138,1,88.000002685547,2|8,1:2|0:0,0:0:0:0:
16,244,179445,6,0,P|12:296|28:340,1,88.000002685547,6|0,1:2|0:0,0:0:0:0:
112,276,179754,2,0,B|182:268|182:268|220:264|252:296,1,132.00000402832,8|0,0:0|0:0,0:0:0:0:
292,340,180063,1,0,1:0:0:0:
176,360,180218,1,0,1:0:0:0:
292,220,180373,2,0,P|236:192|164:188,1,132.00000402832,8|8,0:0|0:0,0:0:0:0:
88,208,180682,6,0,L|80:112,1,88.000002685547,10|0,0:0|1:0,0:0:0:0:
256,260,180991,2,0,L|256:348,1,88.000002685547,10|0,0:0|1:0,0:0:0:0:
424,208,181301,2,0,L|432:112,1,88.000002685547,10|8,0:0|0:0,0:0:0:0:
256,16,181610,1,10,0:0:0:0:
257,37,181687,1,8,0:0:0:0:
259,59,181764,1,8,0:0:0:0:
261,81,181842,1,8,0:0:0:0:
264,104,181919,6,0,L|132:84,1,117.333336914063,6|2,1:2|0:0,0:0:0:0:
88,148,182228,2,0,B|108:188|108:188|116:260,1,88.000002685547,10|0,0:0|1:0,0:0:0:0:
184,172,182538,1,10,0:0:0:0:
8,304,182692,1,0,1:0:0:0:
8,304,182770,1,0,0:0:0:0:
8,304,182847,2,0,B|12:260|12:260|32:220,1,88.000002685547,10|0,0:0|1:0,0:0:0:0:
68,364,183156,6,0,B|124:360|124:360|176:308,1,117.333336914063,6|2,1:2|0:0,0:0:0:0:
224,252,183465,2,0,L|320:292,1,88.000002685547,10|0,0:0|1:0,0:0:0:0:
236,348,183775,1,10,0:0:0:0:
388,232,183929,1,0,1:0:0:0:
388,232,184007,1,0,0:0:0:0:
388,232,184084,2,0,L|306:198,1,88.000002685547,10|0,0:0|1:0,0:0:0:0:
420,152,184393,6,0,P|468:208|460:292,1,117.333336914063,4|2,0:0|0:0,0:0:0:0:
416,312,184703,2,0,P|372:312|320:288,1,88.000002685547,10|0,0:0|1:0,0:0:0:0:
388,232,185012,1,10,0:0:0:0:
248,264,185166,1,0,1:0:0:0:
248,264,185244,1,0,0:0:0:0:
248,264,185321,2,0,P|208:248|156:248,1,88.000002685547,10|0,0:0|1:0,0:0:0:0:
80,356,185630,6,0,P|134:334|192:333,1,117.333336914063,6|0,1:2|0:0,0:0:0:0:
272,348,185940,2,0,L|248:264,1,88.000002685547,10|2,0:0|1:2,0:0:0:0:
344,328,186249,1,10,0:0:0:0:
356,164,186404,1,2,1:2:0:0:
356,164,186481,1,0,0:0:0:0:
356,164,186558,2,0,L|332:248,1,88.000002685547,10|2,0:0|1:2,0:0:0:0:
464,208,186868,6,0,L|432:96,1,117.333336914063,6|0,1:2|0:0,0:0:0:0:
408,16,187177,1,10,1:2:0:0:
288,120,187383,1,2,0:0:0:0:
208,108,187486,2,0,L|92:92,1,117.333336914063,2|0,1:2|0:0,0:0:0:0:
20,192,187795,2,0,B|68:168|68:168|140:180,1,117.333336914063,10|2,1:2|0:0,0:0:0:0:
104,316,188105,6,0,B|136:264|136:264|80:253,1,117.333336914063,2|0,1:2|0:0,0:0:0:0:
24,312,188414,1,10,1:2:0:0:
180,340,188620,1,2,0:0:0:0:
216,272,188723,2,0,L|332:288,1,117.333336914063,2|2,1:2|0:0,0:0:0:0:
404,320,189032,2,0,P|408:264|360:212,1,117.333336914063,10|0,1:2|0:0,0:0:0:0:
344,372,189342,6,0,L|224:356,1,117.333336914063,2|2,1:2|0:0,0:0:0:0:
152,348,189651,1,10,1:2:0:0:
40,220,189857,1,0,0:0:0:0:
116,208,189960,2,0,L|232:192,1,117.333336914063,2|2,1:2|0:0,0:0:0:0:
320,120,190270,2,0,B|272:124|272:124|248:112|248:112|180:120,1,117.333336914063,10|2,1:2|0:0,0:0:0:0:
296,44,190579,6,0,L|472:24,1,176.000005371094,2|8,1:2|1:2,0:0:0:0:
404,144,191043,1,0,0:0:0:0:
480,276,191197,2,0,L|374:264,1,88.000002685547,2|0,1:2|0:0,0:0:0:0:
304,348,191507,2,0,L|316:242,1,88.000002685547,10|8,1:2|0:0,0:0:0:0:
224,336,191816,6,0,L|100:324,1,117.333336914063,6|0,1:2|0:0,0:0:0:0:
56,240,192125,2,0,P|111:244|168:204,1,117.333336914063,10|0,0:0|0:0,0:0:0:0:
92,160,192435,1,2,1:2:0:0:
20,316,192589,1,0,1:0:0:0:
92,160,192744,2,0,L|80:64,1,88.000002685547,10|0,0:0|0:0,0:0:0:0:
183,143,193053,6,0,P|234:172|296:168,1,117.333336914063,2|2,1:2|0:0,0:0:0:0:
368,56,193362,2,0,P|310:53|259:81,1,117.333336914063,10|0,0:0|0:0,0:0:0:0:
292,169,193672,1,2,1:2:0:0:
180,56,193826,1,0,1:0:0:0:
380,184,193981,2,0,P|371:215|329:251,1,88.000002685547,10|0,0:0|0:0,0:0:0:0:
140,252,194290,6,0,P|188:228|272:244,1,117.333336914063,2|0,1:2|0:0,0:0:0:0:
292,169,194599,2,0,B|272:132|284:101|284:101|308:52,1,117.333336914063,10|0,0:0|0:0,0:0:0:0:
360,128,194909,1,2,1:2:0:0:
252,0,195063,1,0,1:0:0:0:
380,44,195218,1,10,0:0:0:0:
215,73,195373,1,0,0:0:0:0:
336,208,195527,6,0,B|304:308|304:308|236:352,1,176.000005371094,2|10,1:2|0:0,0:0:0:0:
396,280,195991,1,0,0:0:0:0:
236,252,196146,2,0,L|264:164,1,88.000002685547,2|0,1:2|1:0,0:0:0:0:
164,352,196455,2,0,L|152:260,1,88.000002685547,10|0,0:0|0:0,0:0:0:0:
84,88,196764,6,0,B|60:272,1,176.000005371094,6|0,1:2|0:0,0:0:0:0:
256,72,197383,2,0,B|440:48,1,176.000005371094,8|0,0:0|0:0,0:0:0:0:
364,224,197847,1,0,1:0:0:0:
308,148,198002,6,0,B|395:136,1,88.000002685547,0|8,0:0|0:0,0:0:0:0:
256,72,198311,2,0,B|72:48,1,176.000005371094,0|8,1:0|0:0,0:0:0:0:
204,148,198929,2,0,B|116:136,1,88.000002685547,2|8,1:2|0:0,0:0:0:0:
256,304,199239,6,0,L|256:208,1,88.000002685547,6|0,1:2|0:0,0:0:0:0:
320,152,199548,2,0,P|380:180|456:152,1,132.00000402832,8|0,0:0|0:0,0:0:0:0:
388,96,199857,1,0,1:0:0:0:
496,232,200012,1,0,1:0:0:0:
320,152,200166,2,0,P|260:180|184:152,1,132.00000402832,8|8,0:0|0:0,0:0:0:0:
252,96,200476,5,10,0:0:0:0:
144,232,200630,1,0,1:0:0:0:
124,128,200785,5,10,0:0:0:0:
232,264,200940,1,0,1:0:0:0:
198,164,201094,5,10,0:0:0:0:
90,300,201249,1,10,0:0:0:0:
70,196,201404,6,0,L|63:152,1,44.0000013427735,10|8,0:0|0:0,0:0:0:0:
178,332,201558,2,0,L|185:376,1,44.0000013427735,10|8,0:0|0:0,0:0:0:0:
256,292,201713,6,0,P|316:312|388:296,1,128,6|0,1:2|0:0,0:0:0:0:
396,116,202331,2,0,P|348:157|326:228,1,128,8|0,0:0|0:0,0:0:0:0:
484,324,202795,6,0,P|471:262|421:207,1,128,0|8,1:0|0:0,0:0:0:0:
430,213,203259,1,0,1:0:0:0:
256,292,203569,1,8,0:0:0:0:
82,213,203878,1,0,0:0:0:0:
156,276,204032,1,0,1:0:0:0:
156,276,204110,1,0,1:0:0:0:
156,276,204187,6,0,P|138:183|148:128,1,128,0|0,1:0|1:0,0:0:0:0:
370,150,204806,2,0,P|372:214|356:276,1,128,8|0,0:0|0:0,0:0:0:0:
256,164,205270,6,0,L|256:8,1,128,0|8,1:0|0:0,0:0:0:0:
256,36,205733,1,0,1:0:0:0:
141,150,206043,1,8,0:0:0:0:
370,150,206352,1,0,0:0:0:0:
256,256,206507,1,0,1:0:0:0:
256,256,206584,1,0,1:0:0:0:
256,256,206661,6,0,P|184:260|128:320,1,128,0|0,1:0|0:0,0:0:0:0:
260,124,207280,2,0,P|197:123|146:86,1,128,8|0,0:0|0:0,0:0:0:0:
336,131,207744,6,0,B|320:175|320:175|320:208|320:208|336:252,1,128,0|8,1:0|0:0,0:0:0:0:
400,192,208208,1,0,1:0:0:0:
228,40,208517,1,8,0:0:0:0:
228,344,208826,1,0,0:0:0:0:
160,276,208981,1,0,1:0:0:0:
160,276,209058,1,0,1:0:0:0:
160,276,209136,6,0,L|24:340,1,128,0|0,1:0|1:0,0:0:0:0:
44,53,209754,2,0,L|160:108,1,128,8|0,0:0|0:0,0:0:0:0:
44,224,210218,6,0,B|100:192|100:192|44:160,1,128,0|8,1:0|0:0,0:0:0:0:
44,160,210682,1,0,1:0:0:0:
256,88,210991,1,8,0:0:0:0:
468,160,211301,1,8,0:0:0:0:
340,200,211455,1,8,0:0:0:0:
340,200,211532,1,8,0:0:0:0:
340,200,211610,1,0,0:0:0:0:
