osu file format v14

[General]
AudioFilename: audio.mp3
AudioLeadIn: 0
PreviewTime:9858
Countdown: 0
SampleSet: Normal
StackLeniency: 0.7
Mode: 1
LetterboxInBreaks: 0
WidescreenStoryboard: 1

[Editor]
Bookmarks: 617,10313,23041,32737,47283,84858,104858
DistanceSpacing: 1.2
BeatDivisor: 4
GridSize: 32
TimelineZoom: 1.9

[Metadata]
Title:Kore Dakara Yamerannai!
TitleUnicode:これだからやめらんない!
Artist:TUYU
ArtistUnicode:ツユ
Creator:_HeLLFly_
Version:Lenkon's Oni!
Source:
Tags:under mentality 3rd album アンダーメンタリティ tsuyu and that's why i can't stop! anime is energy アニメってエネルギーだ dアニメストア japanese jpop j-pop pop jrock j-rock rock 礼衣 ぷす ミロ 双葉陽 rei pusu miro futaba haru azyun vocals female gaston_2199 -_Lenkon Lenkon
BeatmapID:4071849
BeatmapSetID:1959074

[Difficulty]
HPDrainRate:5
CircleSize:7
OverallDifficulty:6
ApproachRate:9
SliderMultiplier:1.4
SliderTickRate:1

[Events]
//Background and Video events
0,0,"bg.jpg",0,-20
//Break Periods
//Storyboard Layer 0 (Background)
//Storyboard Layer 1 (Fail)
//Storyboard Layer 2 (Pass)
//Storyboard Layer 3 (Foreground)
//Storyboard Layer 4 (Overlay)
//Storyboard Sound Samples

[TimingPoints]
617,303.030303030303,4,1,0,70,1,0
5465,-90.9090909090909,4,1,0,70,0,0
5768,-95.2380952380952,4,1,0,70,0,0
6071,-100,4,1,0,70,0,0
6374,-105.263157894737,4,1,0,70,0,0
6677,-111.111111111111,4,1,0,70,0,0
7889,-105.263157894737,4,1,0,70,0,0
8192,-103.231027943607,4,1,0,70,0,0
8344,-102.244052463468,4,1,0,70,0,0
8495,-101.275770885849,4,1,0,70,0,0
8571,-100.798525922357,4,1,0,70,0,0
8647,-100.325757735367,4,1,0,70,0,0
8798,-99.3933032767984,4,1,0,70,0,0
9101,-97.579539522153,4,1,0,70,0,0
9253,-96.6972100920944,4,1,0,70,0,0
9404,-95.83078583161,4,1,0,70,0,0
9480,-95.4032792015127,4,1,0,70,0,0
9556,-94.9796601057884,4,1,0,70,0,0
9632,-94.5597863705306,4,1,0,70,0,0
9707,-94.1435199132373,4,1,0,70,0,0
9859,-93.3220600284819,4,1,0,70,0,0
10010,-92.5147260315161,4,1,0,70,0,0
10086,-92.1163171159486,4,1,0,70,0,0
10162,-91.7212408049456,4,1,0,70,0,0
10238,-91.3296223063469,4,1,0,70,0,0
10313,-90.9090909090909,4,1,0,90,0,1
19101,-91.743119266055,4,1,0,90,0,1
19253,-93.7358224568534,4,1,0,90,0,1
19404,-95.8171043112906,4,1,0,90,0,1
19556,-97.9928132070794,4,1,0,90,0,1
19707,-100.269725561761,4,1,0,90,0,1
19859,-102.654859989036,4,1,0,90,0,1
20010,-105.15623061182,4,1,0,90,0,0
21223,-111.111111111111,4,1,0,90,0,0
22435,303.030303030303,4,1,0,90,1,8
22435,-109.89010989011,4,1,0,90,0,8
22510,-106.571973915444,4,1,0,90,0,8
22586,-103.448240190262,4,1,0,90,0,8
22738,-97.7199015374272,4,1,0,90,0,8
22813,-95.0871330944111,4,1,0,90,0,8
22889,-92.5925925925926,4,1,0,90,0,8
22965,-90.9090909090909,4,1,0,90,0,8
23041,303.030303030303,4,1,0,90,1,1
23041,-89.2857142857143,4,1,0,90,0,1
46071,-89.2857142857143,4,1,0,90,0,0
46828,-117.647058823529,4,1,0,90,0,0
46980,-115.415067206194,4,1,0,90,0,0
47131,-113.266060844263,4,1,0,90,0,0
47283,-111.195743426942,4,1,0,90,0,0
52131,-90.9090909090909,4,1,0,70,0,0
56980,-91.743119266055,4,1,0,70,0,0
57283,-92.8997639416998,4,1,0,70,0,0
57586,-94.0860341513487,4,1,0,70,0,0
57737,-94.6906031886114,4,1,0,70,0,0
57813,-94.9957204427941,4,1,0,70,0,0
57889,-95.3029012109187,4,1,0,70,0,0
58041,-95.9232613908873,4,1,0,70,0,0
58116,-96.2364799775192,4,1,0,70,0,0
58192,-96.5517507728968,4,1,0,70,0,0
58344,-97.1884357424079,4,1,0,70,0,0
58495,-97.8336690658743,4,1,0,70,0,0
58647,-98.4875270471371,4,1,0,70,0,0
58798,-99.1501837748656,4,1,0,70,0,0
58874,-99.4847683845365,4,1,0,70,0,0
58950,-99.8217184109181,4,1,0,70,0,0
59101,-100.502512562814,4,1,0,70,0,0
59177,-100.846403867661,4,1,0,70,0,0
59253,-101.192656651292,4,1,0,70,0,0
59328,-101.541295321688,4,1,0,70,0,0
59404,-101.892240803971,4,1,0,70,0,0
60010,-104.790387787309,4,1,0,70,0,0
60616,-107.858226832323,4,1,0,70,0,0
61222,-111.111111111111,4,1,0,70,0,0
61828,-90.9090909090909,4,1,0,90,0,1
66677,-90.9090909090909,4,1,0,85,0,0
67131,-100,4,1,0,85,0,0
67283,-98.0550775370526,4,1,0,85,0,0
67359,-97.110760649166,4,1,0,85,0,0
67434,-96.184458707531,4,1,0,85,0,0
67586,-94.3837871305819,4,1,0,85,0,0
67662,-93.5085434080685,4,1,0,85,0,0
67737,-92.6492973940532,4,1,0,85,0,0
67813,-91.8057830298846,4,1,0,85,0,0
67889,303.030303030303,4,1,0,85,1,0
67889,-90.9774066708274,4,1,0,85,0,0
73192,-80,4,1,0,85,0,0
73267,-81.6098689182285,4,1,0,85,0,0
73343,-83.2857910276217,4,1,0,85,0,0
73495,-86.8530533190894,4,1,0,85,0,0
73646,-90.7395728888304,4,1,0,85,0,0
73798,-80,4,1,0,85,0,0
73873,-81.6098689182285,4,1,0,85,0,0
73949,-83.2857910276217,4,1,0,85,0,0
74101,-86.8530533190894,4,1,0,85,0,0
74252,-90.7395728888304,4,1,0,85,0,0
74404,-80,4,1,0,85,0,0
74479,-81.6098689182285,4,1,0,85,0,0
74555,-83.2857910276217,4,1,0,85,0,0
74707,-86.8530533190894,4,1,0,85,0,0
74858,-90.7395728888304,4,1,0,85,0,0
75010,-80,4,1,0,85,0,0
75085,-81.6098689182285,4,1,0,85,0,0
75161,-83.2857910276217,4,1,0,85,0,0
75313,-86.8530533190894,4,1,0,85,0,0
75464,-90.7395728888304,4,1,0,85,0,0
75767,-111.111111111111,4,1,0,85,0,0
76373,-106.79607503065,4,1,0,85,0,0
76525,-105.769179918663,4,1,0,85,0,0
76676,-104.76195464855,4,1,0,85,0,0
76828,-103.773624065519,4,1,0,85,0,0
76979,-102.803767141243,4,1,0,85,0,0
77131,-101.851870713309,4,1,0,85,0,0
77282,-100.917440451141,4,1,0,85,0,0
77434,-100,4,1,0,85,0,0
77585,-90.9090909090909,4,1,0,70,0,0
80161,-91.4268472070305,4,1,0,70,0,0
80464,-92.4837848149561,4,1,0,70,0,0
80616,-93.0232558139535,4,1,0,70,0,0
80767,-93.5654456324545,4,1,0,70,0,0
80919,-94.1176470588235,4,1,0,70,0,0
81070,-94.6727073894704,4,1,0,70,0,0
81222,-95.2380952380952,4,1,0,70,0,0
81373,-95.8064898620608,4,1,0,70,0,0
81525,-96.3855421686747,4,1,0,70,0,0
81676,-96.9677574205936,4,1,0,70,0,0
81828,-97.5609756097561,4,1,0,70,0,0
81979,-98.1575217655396,4,1,0,70,0,0
82282,-99.3768448671696,4,1,0,70,0,0
82434,-86.9565217391304,4,1,0,70,0,0
82737,-89.5429904851618,4,1,0,70,0,0
83040,-92.288042053815,4,1,0,70,0,0
83343,-95.2067223562521,4,1,0,70,0,0
83495,-96.7364039402672,4,1,0,70,0,0
83646,-98.316042818603,4,1,0,70,0,0
83722,-99.1253181922714,4,1,0,70,0,0
83798,-99.9481269221274,4,1,0,70,0,0
83949,-101.635312172861,4,1,0,70,0,0
84025,-102.500394626519,4,1,0,70,0,0
84101,-103.380436906402,4,1,0,70,0,0
84176,-104.275612958122,4,1,0,70,0,0
84252,-105.186537806145,4,1,0,70,0,0
84555,-111.111111111111,4,1,0,70,0,0
84858,303.030303030303,4,1,0,70,1,0
94554,-99.9481269221274,4,1,0,70,0,0
99403,-90.9090909090909,4,1,0,70,0,0
99706,-95.2380952380952,4,1,0,70,0,0
100009,-100,4,1,0,70,0,0
100312,-105.263157894737,4,1,0,70,0,0
100615,-111.111111111111,4,1,0,70,0,0
101827,-105.263157894737,4,1,0,70,0,0
102130,-103.448275862069,4,1,0,70,0,0
102282,-102.561209522735,4,1,0,70,0,0
102433,-101.694915254237,4,1,0,70,0,0
102509,-101.264412632986,4,1,0,70,0,0
102585,-100.837539519663,4,1,0,70,0,0
102736,-100,4,1,0,70,0,0
103039,-98.3606557377049,4,1,0,70,0,0
103191,-97.5583579286289,4,1,0,70,0,0
103342,-96.7741935483871,4,1,0,70,0,0
103418,-96.384264659103,4,1,0,70,0,0
103494,-95.9974654134544,4,1,0,70,0,0
103570,-95.6137582833701,4,1,0,70,0,0
103645,-95.2380952380952,4,1,0,70,0,0
103797,-96.7776241625013,4,1,0,70,0,0
103948,-98.357111975789,4,1,0,70,0,0
104100,-100,4,1,0,70,0,0
104251,303.030303030303,4,1,0,70,1,8
104858,303.030303030303,4,1,0,90,1,1
104858,-90.9090909090909,4,1,0,90,0,1
113645,-91.743119266055,4,1,0,90,0,1
113797,-93.7358224568534,4,1,0,90,0,1
113948,-95.8171043112906,4,1,0,90,0,1
114100,-97.9928132070794,4,1,0,90,0,1
114251,-100.269725561761,4,1,0,90,0,1
114403,-102.654859989036,4,1,0,90,0,1
114554,-105.15623061182,4,1,0,90,0,0
115767,-111.111111111111,4,1,0,90,0,0
116979,303.030303030303,4,1,0,90,1,8
116979,-109.89010989011,4,1,0,90,0,8
117054,-106.571973915444,4,1,0,90,0,8
117130,-103.448240190262,4,1,0,90,0,8
117282,-97.7199015374272,4,1,0,90,0,8
117357,-95.0871330944111,4,1,0,90,0,8
117433,-92.5925925925926,4,1,0,90,0,8
117509,-90.9090909090909,4,1,0,90,0,8
117585,303.030303030303,4,1,0,90,1,1
117585,-89.2857142857143,4,1,0,90,0,1
140615,-89.2857142857143,4,1,0,90,0,0
141372,-117.647058823529,4,1,0,90,0,0
141524,-115.415067206194,4,1,0,90,0,0
141675,-113.266060844263,4,1,0,90,0,0
141827,-111.195743426942,4,1,0,90,0,0
146675,-90.9090909090909,4,1,0,70,0,0
151524,-91.743119266055,4,1,0,70,0,0
151827,-92.8997639416998,4,1,0,70,0,0
152130,-94.0860341513487,4,1,0,70,0,0
152281,-94.6906031886114,4,1,0,70,0,0
152357,-94.9957204427941,4,1,0,70,0,0
152433,-95.3029012109187,4,1,0,70,0,0
152585,-95.9232613908873,4,1,0,70,0,0
152660,-96.2364799775192,4,1,0,70,0,0
152736,-96.5517507728968,4,1,0,70,0,0
152888,-97.1884357424079,4,1,0,70,0,0
153039,-97.8336690658743,4,1,0,70,0,0
153191,-98.4875270471371,4,1,0,70,0,0
153342,-99.1501837748656,4,1,0,70,0,0
153418,-99.4847683845365,4,1,0,70,0,0
153494,-99.8217184109181,4,1,0,70,0,0
153645,-100.502512562814,4,1,0,70,0,0
153721,-100.846403867661,4,1,0,70,0,0
153797,-101.192656651292,4,1,0,70,0,0
153872,-101.541295321688,4,1,0,70,0,0
153948,-101.892240803971,4,1,0,70,0,0
154554,-104.790387787309,4,1,0,70,0,0
155160,-107.858226832323,4,1,0,70,0,0
155766,-111.111111111111,4,1,0,70,0,0
156372,-90.9090909090909,4,1,0,90,0,1
161221,-90.9090909090909,4,1,0,85,0,0

[HitObjects]
64,96,617,5,12,1:0:0:0:
128,32,844,1,0,1:0:0:0:
64,32,920,1,8,1:0:0:0:
128,32,1071,1,0,1:0:0:0:
64,32,1223,1,8,1:0:0:0:
64,32,1374,1,8,1:0:0:0:
128,32,1526,1,0,1:0:0:0:
128,32,1677,1,0,1:0:0:0:
64,32,1829,1,8,1:0:0:0:
128,32,2132,1,0,1:0:0:0:
64,32,2435,1,8,1:0:0:0:
128,32,2738,1,0,1:0:0:0:
128,32,2889,1,0,1:0:0:0:
64,32,3041,1,8,1:0:0:0:
64,32,3344,1,8,1:0:0:0:
64,32,3495,1,8,1:0:0:0:
128,32,3647,1,0,1:0:0:0:
128,32,3950,1,0,1:0:0:0:
64,32,4101,1,8,1:0:0:0:
128,32,4253,1,0,1:0:0:0:
64,32,4556,1,8,1:0:0:0:
128,32,4707,1,0,1:0:0:0:
128,32,5162,1,0,1:0:0:0:
64,128,5465,1,12,1:0:0:0:
128,32,5768,1,0,1:0:0:0:
64,32,6071,1,12,1:0:0:0:
128,32,6374,1,0,1:0:0:0:
64,32,6677,1,12,1:0:0:0:
64,128,7889,1,12,1:0:0:0:
64,32,8192,1,8,1:0:0:0:
64,32,8344,1,8,1:0:0:0:
128,32,8495,1,0,1:0:0:0:
128,32,8571,1,0,1:0:0:0:
64,32,8647,1,8,1:0:0:0:
128,32,8798,1,0,1:0:0:0:
64,32,9101,1,8,1:0:0:0:
64,32,9253,1,8,1:0:0:0:
128,32,9404,1,0,1:0:0:0:
128,32,9480,1,0,1:0:0:0:
64,32,9556,1,8,1:0:0:0:
64,32,9632,1,8,1:0:0:0:
128,32,9707,1,0,1:0:0:0:
64,32,9859,1,8,1:0:0:0:
128,32,10010,1,0,1:0:0:0:
128,32,10086,1,0,1:0:0:0:
128,32,10162,1,0,1:0:0:0:
128,32,10238,1,0,1:0:0:0:
64,128,10313,1,12,1:0:0:0:
64,32,10617,1,8,1:0:0:0:
64,32,10920,1,8,1:0:0:0:
128,32,11223,1,0,1:0:0:0:
64,32,11298,1,8,1:0:0:0:
128,32,11374,1,0,1:0:0:0:
64,32,11526,1,8,1:0:0:0:
64,32,11677,1,8,1:0:0:0:
128,32,11829,1,0,1:0:0:0:
128,32,11980,1,0,1:0:0:0:
64,32,12132,1,8,1:0:0:0:
128,32,12435,1,0,1:0:0:0:
128,32,12510,1,0,1:0:0:0:
64,32,12586,1,8,1:0:0:0:
128,32,12738,1,0,1:0:0:0:
64,32,12889,1,8,1:0:0:0:
128,32,13041,1,0,1:0:0:0:
128,32,13192,1,0,1:0:0:0:
64,32,13344,1,8,1:0:0:0:
128,32,13495,1,0,1:0:0:0:
64,32,13647,1,8,1:0:0:0:
64,32,13723,1,8,1:0:0:0:
128,32,13798,1,0,1:0:0:0:
64,32,13950,1,8,1:0:0:0:
64,32,14253,1,8,1:0:0:0:
64,32,14404,1,8,1:0:0:0:
128,32,14556,1,0,1:0:0:0:
128,32,14707,1,0,1:0:0:0:
64,32,14859,1,8,1:0:0:0:
128,32,14935,1,0,1:0:0:0:
128,32,15010,1,0,1:0:0:0:
128,32,15086,1,0,1:0:0:0:
64,128,15162,1,12,1:0:0:0:
128,32,15465,1,0,1:0:0:0:
64,32,15768,1,8,1:0:0:0:
128,32,16071,1,0,1:0:0:0:
64,32,16147,1,8,1:0:0:0:
64,32,16223,1,8,1:0:0:0:
128,32,16374,1,0,1:0:0:0:
128,32,16526,1,0,1:0:0:0:
64,32,16677,1,8,1:0:0:0:
64,32,16829,1,8,1:0:0:0:
128,32,16980,1,0,1:0:0:0:
64,32,17283,1,8,1:0:0:0:
128,32,17435,1,0,1:0:0:0:
64,32,17586,1,8,1:0:0:0:
128,32,17662,1,0,1:0:0:0:
64,32,17738,1,8,1:0:0:0:
128,32,17889,1,0,1:0:0:0:
128,32,18041,1,0,1:0:0:0:
64,32,18192,1,8,1:0:0:0:
64,32,18344,1,8,1:0:0:0:
128,32,18495,1,0,1:0:0:0:
128,32,18571,1,0,1:0:0:0:
64,32,18647,1,8,1:0:0:0:
128,32,18798,1,0,1:0:0:0:
128,32,19101,1,0,1:0:0:0:
128,32,19253,1,0,1:0:0:0:
64,32,19404,1,8,1:0:0:0:
128,32,19556,1,0,1:0:0:0:
128,32,19707,1,0,1:0:0:0:
64,32,19859,1,8,1:0:0:0:
128,160,20010,1,4,1:0:0:0:
64,128,21223,1,12,1:0:0:0:
128,32,22435,1,0,1:0:0:0:
128,32,22510,1,0,1:0:0:0:
128,32,22586,1,0,1:0:0:0:
128,32,22738,1,0,1:0:0:0:
128,32,22813,1,0,1:0:0:0:
128,32,22889,1,0,1:0:0:0:
128,32,22965,1,0,1:0:0:0:
64,128,23041,1,12,1:0:0:0:
128,32,23192,1,0,1:0:0:0:
64,32,23344,1,8,1:0:0:0:
128,32,23495,1,0,1:0:0:0:
64,32,23647,1,8,1:0:0:0:
128,32,23722,1,0,1:0:0:0:
64,32,23798,1,8,1:0:0:0:
128,32,23950,1,0,1:0:0:0:
64,32,24101,1,8,1:0:0:0:
128,32,24253,1,0,1:0:0:0:
128,32,24556,1,0,1:0:0:0:
128,32,24707,1,0,1:0:0:0:
64,32,24859,1,8,1:0:0:0:
64,32,24934,1,8,1:0:0:0:
128,32,25010,1,0,1:0:0:0:
128,32,25162,1,0,1:0:0:0:
128,32,25237,1,0,1:0:0:0:
64,32,25313,1,8,1:0:0:0:
64,32,25389,1,8,1:0:0:0:
128,32,25465,1,0,1:0:0:0:
64,32,25768,1,8,1:0:0:0:
128,32,25919,1,0,1:0:0:0:
64,32,26071,1,8,1:0:0:0:
64,32,26147,1,8,1:0:0:0:
128,32,26222,1,0,1:0:0:0:
128,32,26374,1,0,1:0:0:0:
128,32,26450,1,0,1:0:0:0:
64,32,26525,1,8,1:0:0:0:
128,32,26677,1,0,1:0:0:0:
64,32,26980,1,8,1:0:0:0:
64,32,27131,1,8,1:0:0:0:
128,32,27283,1,0,1:0:0:0:
64,32,27359,1,8,1:0:0:0:
64,32,27434,1,8,1:0:0:0:
128,32,27586,1,0,1:0:0:0:
128,32,27662,1,0,1:0:0:0:
64,32,27737,1,8,1:0:0:0:
128,32,27813,1,0,1:0:0:0:
32,192,27889,1,12,1:0:0:0:
128,32,28344,1,0,1:0:0:0:
64,32,28495,1,8,1:0:0:0:
64,32,28571,1,8,1:0:0:0:
128,32,28647,1,0,1:0:0:0:
64,32,28798,1,8,1:0:0:0:
64,32,28950,1,8,1:0:0:0:
128,32,29101,1,0,1:0:0:0:
128,32,29177,1,0,1:0:0:0:
64,32,29253,1,8,1:0:0:0:
64,32,29404,1,8,1:0:0:0:
64,32,29480,1,8,1:0:0:0:
128,32,29556,1,0,1:0:0:0:
64,32,29707,1,8,1:0:0:0:
64,32,29859,1,8,1:0:0:0:
128,32,30010,1,0,1:0:0:0:
128,32,30162,1,0,1:0:0:0:
64,32,30313,1,8,1:0:0:0:
128,32,30616,1,0,1:0:0:0:
64,32,30768,1,8,1:0:0:0:
128,32,30919,1,0,1:0:0:0:
64,32,30995,1,8,1:0:0:0:
128,32,31071,1,0,1:0:0:0:
128,32,31147,1,0,1:0:0:0:
64,32,31222,1,8,1:0:0:0:
64,32,31374,1,8,1:0:0:0:
128,32,31525,1,0,1:0:0:0:
128,32,31677,1,0,1:0:0:0:
64,32,31828,1,8,1:0:0:0:
128,32,31980,1,0,1:0:0:0:
64,32,32131,1,8,1:0:0:0:
64,32,32283,1,8,1:0:0:0:
128,32,32434,1,0,1:0:0:0:
128,32,32510,1,0,1:0:0:0:
128,32,32586,1,0,1:0:0:0:
64,128,32737,1,12,1:0:0:0:
128,32,33041,1,0,1:0:0:0:
64,32,33344,1,8,1:0:0:0:
64,32,33419,1,8,1:0:0:0:
128,32,33495,1,0,1:0:0:0:
64,32,33647,1,8,1:0:0:0:
128,32,33798,1,0,1:0:0:0:
64,32,33950,1,8,1:0:0:0:
128,32,34253,1,0,1:0:0:0:
64,32,34556,1,8,1:0:0:0:
128,32,34707,1,0,1:0:0:0:
64,32,34859,1,8,1:0:0:0:
64,32,34934,1,8,1:0:0:0:
128,32,35010,1,0,1:0:0:0:
64,32,35162,1,8,1:0:0:0:
128,32,35465,1,0,1:0:0:0:
64,32,35768,1,8,1:0:0:0:
128,32,35919,1,0,1:0:0:0:
64,32,36071,1,8,1:0:0:0:
128,32,36147,1,0,1:0:0:0:
128,32,36222,1,0,1:0:0:0:
64,32,36374,1,8,1:0:0:0:
128,32,36677,1,0,1:0:0:0:
128,32,36753,1,0,1:0:0:0:
64,32,36828,1,8,1:0:0:0:
128,32,36980,1,0,1:0:0:0:
64,32,37131,1,8,1:0:0:0:
128,32,37283,1,0,1:0:0:0:
64,32,37434,1,8,1:0:0:0:
128,32,37586,1,0,1:0:0:0:
64,32,37889,1,8,1:0:0:0:
64,32,38041,1,8,1:0:0:0:
128,32,38192,1,0,1:0:0:0:
128,32,38344,1,0,1:0:0:0:
64,32,38495,1,8,1:0:0:0:
64,32,38647,1,8,1:0:0:0:
128,32,38798,1,0,1:0:0:0:
64,32,38874,1,8,1:0:0:0:
128,32,38950,1,0,1:0:0:0:
64,32,39101,1,8,1:0:0:0:
128,32,39253,1,8,1:0:0:0:
128,32,39404,1,0,1:0:0:0:
64,32,39707,1,8,1:0:0:0:
64,32,39859,1,8,1:0:0:0:
128,32,40010,1,0,1:0:0:0:
128,32,40313,1,8,1:0:0:0:
128,32,40465,1,0,1:0:0:0:
64,32,40616,1,8,1:0:0:0:
128,32,40768,1,0,1:0:0:0:
64,32,40919,1,8,1:0:0:0:
128,32,40995,1,0,1:0:0:0:
64,32,41071,1,8,1:0:0:0:
64,32,41147,1,8,1:0:0:0:
128,32,41222,1,0,1:0:0:0:
128,32,41525,1,8,1:0:0:0:
64,32,41677,1,8,1:0:0:0:
128,32,41828,1,0,1:0:0:0:
64,32,41980,1,8,1:0:0:0:
128,32,42131,1,0,1:0:0:0:
128,32,42283,1,0,1:0:0:0:
64,160,42434,1,12,1:0:0:0:
128,32,42737,1,0,1:0:0:0:
128,32,42889,1,0,1:0:0:0:
128,32,43041,1,0,1:0:0:0:
128,32,43344,1,0,1:0:0:0:
128,32,43495,1,0,1:0:0:0:
64,32,43647,1,8,1:0:0:0:
128,32,43950,1,0,1:0:0:0:
64,32,44101,1,8,1:0:0:0:
128,32,44253,1,0,1:0:0:0:
128,32,44404,1,0,1:0:0:0:
64,32,44556,1,8,1:0:0:0:
128,32,44707,1,0,1:0:0:0:
128,32,44783,1,0,1:0:0:0:
64,128,44859,1,12,1:0:0:0:
64,32,45162,1,8,1:0:0:0:
128,32,45313,1,0,1:0:0:0:
64,32,45465,1,8,1:0:0:0:
128,32,45616,1,0,1:0:0:0:
128,32,45768,1,0,1:0:0:0:
128,32,45919,1,0,1:0:0:0:
64,32,46071,1,8,1:0:0:0:
128,32,46828,1,0,1:0:0:0:
128,32,46980,1,0,1:0:0:0:
128,32,47131,1,0,1:0:0:0:
64,128,47283,1,12,1:0:0:0:
64,32,47434,1,8,1:0:0:0:
128,32,47586,1,0,1:0:0:0:
128,32,47662,1,0,1:0:0:0:
128,32,47737,1,0,1:0:0:0:
64,32,47889,1,8,1:0:0:0:
64,32,48041,1,8,1:0:0:0:
128,32,48192,1,0,1:0:0:0:
128,32,48268,1,0,1:0:0:0:
128,32,48344,1,0,1:0:0:0:
64,32,48495,1,8,1:0:0:0:
128,32,48647,1,0,1:0:0:0:
64,32,48798,1,8,1:0:0:0:
128,32,48950,1,0,1:0:0:0:
64,32,49101,1,8,1:0:0:0:
64,32,49253,1,8,1:0:0:0:
128,32,49404,1,0,1:0:0:0:
128,32,49480,1,0,1:0:0:0:
128,32,49556,1,0,1:0:0:0:
64,32,49707,1,8,1:0:0:0:
128,32,50010,1,0,1:0:0:0:
64,32,50162,1,8,1:0:0:0:
128,32,50313,1,0,1:0:0:0:
128,32,50465,1,0,1:0:0:0:
64,32,50616,1,8,1:0:0:0:
64,32,50692,1,8,1:0:0:0:
64,32,50768,1,8,1:0:0:0:
128,32,50919,1,0,1:0:0:0:
128,32,51222,1,0,1:0:0:0:
64,32,51374,1,8,1:0:0:0:
64,32,51677,1,8,1:0:0:0:
128,32,51828,1,0,1:0:0:0:
128,32,51980,1,0,1:0:0:0:
64,160,52131,1,12,1:0:0:0:
128,32,52283,1,0,1:0:0:0:
64,32,52434,1,8,1:0:0:0:
64,32,52510,1,8,1:0:0:0:
128,32,52586,1,0,1:0:0:0:
64,32,52737,1,8,1:0:0:0:
128,32,52889,1,0,1:0:0:0:
64,32,53041,1,8,1:0:0:0:
64,32,53116,1,8,1:0:0:0:
128,32,53192,1,0,1:0:0:0:
64,32,53344,1,8,1:0:0:0:
64,32,53495,1,8,1:0:0:0:
128,32,53647,1,0,1:0:0:0:
128,32,53798,1,0,1:0:0:0:
64,32,53950,1,8,1:0:0:0:
128,32,54101,1,0,1:0:0:0:
64,32,54253,1,8,1:0:0:0:
128,32,54328,1,0,1:0:0:0:
64,32,54404,1,8,1:0:0:0:
128,32,54480,1,0,1:0:0:0:
64,32,54556,1,8,1:0:0:0:
64,32,54859,1,8,1:0:0:0:
128,32,55162,1,0,1:0:0:0:
128,32,55313,1,0,1:0:0:0:
64,32,55465,1,8,1:0:0:0:
64,32,55541,1,8,1:0:0:0:
128,32,55616,1,0,1:0:0:0:
128,32,55692,1,0,1:0:0:0:
64,32,55768,1,8,1:0:0:0:
128,32,55919,1,0,1:0:0:0:
64,32,56071,1,8,1:0:0:0:
128,32,56222,1,0,1:0:0:0:
128,32,56298,1,0,1:0:0:0:
64,32,56374,1,8,1:0:0:0:
64,32,56525,1,8,1:0:0:0:
128,32,56677,1,0,1:0:0:0:
128,32,56828,1,0,1:0:0:0:
64,160,56980,1,12,1:0:0:0:
128,32,57283,1,0,1:0:0:0:
128,32,57586,1,0,1:0:0:0:
128,32,57737,1,0,1:0:0:0:
64,32,57813,1,8,1:0:0:0:
128,32,57889,1,0,1:0:0:0:
64,32,58041,1,8,1:0:0:0:
128,32,58116,1,0,1:0:0:0:
64,32,58192,1,8,1:0:0:0:
64,32,58344,1,8,1:0:0:0:
128,32,58495,1,0,1:0:0:0:
64,32,58647,1,8,1:0:0:0:
128,32,58798,1,0,1:0:0:0:
128,32,58874,1,0,1:0:0:0:
64,32,58950,1,8,1:0:0:0:
64,32,59101,1,8,1:0:0:0:
64,32,59177,1,8,1:0:0:0:
128,32,59253,1,0,1:0:0:0:
128,32,59328,1,0,1:0:0:0:
64,32,59404,1,12,1:0:0:0:
128,128,60010,1,4,1:0:0:0:
128,128,60616,1,4,1:0:0:0:
128,128,61222,1,4,1:0:0:0:
64,128,61828,1,12,1:0:0:0:
64,32,62131,1,8,1:0:0:0:
64,32,62434,1,8,1:0:0:0:
128,32,62737,1,0,1:0:0:0:
128,32,62813,1,0,1:0:0:0:
64,32,62889,1,8,1:0:0:0:
128,32,62965,1,0,1:0:0:0:
64,32,63040,1,8,1:0:0:0:
64,32,63192,1,8,1:0:0:0:
128,32,63344,1,0,1:0:0:0:
128,32,63495,1,0,1:0:0:0:
64,32,63647,1,8,1:0:0:0:
128,32,63722,1,0,1:0:0:0:
64,32,63798,1,8,1:0:0:0:
128,32,63950,1,0,1:0:0:0:
128,32,64101,1,0,1:0:0:0:
64,128,64253,1,12,1:0:0:0:
128,32,64556,1,0,1:0:0:0:
128,32,64859,1,0,1:0:0:0:
64,32,65162,1,8,1:0:0:0:
128,32,65237,1,0,1:0:0:0:
64,32,65313,1,8,1:0:0:0:
128,32,65465,1,0,1:0:0:0:
128,32,65616,1,0,1:0:0:0:
64,32,65768,1,8,1:0:0:0:
64,32,65919,1,8,1:0:0:0:
128,32,66071,1,0,1:0:0:0:
128,32,66147,1,0,1:0:0:0:
64,32,66222,1,8,1:0:0:0:
64,32,66374,1,8,1:0:0:0:
128,32,66450,1,0,1:0:0:0:
64,32,66525,1,8,1:0:0:0:
128,32,66601,1,0,1:0:0:0:
128,32,66677,1,0,1:0:0:0:
64,128,66828,1,12,1:0:0:0:
128,32,67131,1,0,1:0:0:0:
64,32,67283,1,8,1:0:0:0:
64,32,67359,1,8,1:0:0:0:
128,32,67434,1,0,1:0:0:0:
64,32,67586,1,8,1:0:0:0:
128,32,67662,1,0,1:0:0:0:
128,32,67737,1,0,1:0:0:0:
128,32,67813,1,0,1:0:0:0:
96,96,67889,1,12,1:0:0:0:
128,32,68040,1,0,1:0:0:0:
128,32,68116,1,0,1:0:0:0:
64,32,68192,1,8,1:0:0:0:
128,32,68343,1,0,1:0:0:0:
64,32,68495,1,8,1:0:0:0:
128,32,68646,1,0,1:0:0:0:
64,32,68798,1,8,1:0:0:0:
128,32,68873,1,0,1:0:0:0:
64,32,68949,1,8,1:0:0:0:
128,32,69025,1,0,1:0:0:0:
64,32,69101,1,8,1:0:0:0:
128,32,69404,1,0,1:0:0:0:
64,32,69555,1,8,1:0:0:0:
128,32,69707,1,0,1:0:0:0:
128,32,69858,1,0,1:0:0:0:
64,32,70010,1,8,1:0:0:0:
64,32,70085,1,8,1:0:0:0:
128,32,70161,1,0,1:0:0:0:
128,32,70237,1,0,1:0:0:0:
64,32,70313,1,8,1:0:0:0:
64,32,70616,1,8,1:0:0:0:
64,32,70767,1,8,1:0:0:0:
64,32,70843,1,8,1:0:0:0:
128,32,70919,1,0,1:0:0:0:
64,32,71070,1,8,1:0:0:0:
128,32,71222,1,0,1:0:0:0:
128,32,71298,1,0,1:0:0:0:
128,32,71373,1,0,1:0:0:0:
64,32,71525,1,8,1:0:0:0:
128,32,71676,1,0,1:0:0:0:
64,32,71828,1,8,1:0:0:0:
128,32,71904,1,0,1:0:0:0:
64,32,71979,1,8,1:0:0:0:
64,32,72055,1,8,1:0:0:0:
128,32,72131,1,0,1:0:0:0:
128,32,72282,1,0,1:0:0:0:
64,32,72434,1,8,1:0:0:0:
128,32,72585,1,0,1:0:0:0:
64,128,72737,1,12,1:0:0:0:
64,32,73192,1,8,1:0:0:0:
64,32,73267,1,8,1:0:0:0:
128,32,73343,1,0,1:0:0:0:
64,32,73495,1,8,1:0:0:0:
64,32,73798,1,8,1:0:0:0:
64,32,73873,1,8,1:0:0:0:
128,32,73949,1,0,1:0:0:0:
64,32,74101,1,8,1:0:0:0:
64,32,74404,1,8,1:0:0:0:
64,32,74479,1,8,1:0:0:0:
128,32,74555,1,0,1:0:0:0:
64,32,74707,1,8,1:0:0:0:
64,32,75010,1,8,1:0:0:0:
128,32,75085,1,0,1:0:0:0:
64,32,75161,1,8,1:0:0:0:
64,32,75767,1,8,1:0:0:0:
64,32,76373,1,8,1:0:0:0:
128,32,76525,1,0,1:0:0:0:
128,32,76676,1,0,1:0:0:0:
128,32,76828,1,0,1:0:0:0:
64,32,76979,1,8,1:0:0:0:
128,32,77131,1,0,1:0:0:0:
128,32,77282,1,0,1:0:0:0:
128,32,77434,1,0,1:0:0:0:
64,128,77585,1,12,1:0:0:0:
128,32,77737,1,0,1:0:0:0:
64,32,77889,1,8,1:0:0:0:
128,32,78040,1,0,1:0:0:0:
128,32,78116,1,0,1:0:0:0:
64,32,78192,1,8,1:0:0:0:
64,32,78343,1,8,1:0:0:0:
128,32,78495,1,0,1:0:0:0:
128,32,78646,1,0,1:0:0:0:
64,32,78798,1,8,1:0:0:0:
64,32,78873,1,8,1:0:0:0:
128,32,78949,1,0,1:0:0:0:
64,32,79101,1,8,1:0:0:0:
128,32,79252,1,0,1:0:0:0:
64,32,79404,1,8,1:0:0:0:
64,32,79555,1,8,1:0:0:0:
128,32,79707,1,0,1:0:0:0:
128,32,79782,1,0,1:0:0:0:
64,32,79858,1,8,1:0:0:0:
128,32,79934,1,0,1:0:0:0:
64,32,80010,1,8,1:0:0:0:
128,32,80161,1,0,0:0:0:0:
128,32,80464,1,8,1:0:0:0:
128,32,80616,1,0,1:0:0:0:
128,32,80767,1,8,1:0:0:0:
128,32,80919,1,8,1:0:0:0:
128,32,81070,1,8,1:0:0:0:
64,32,81222,1,0,1:0:0:0:
128,32,81373,1,8,1:0:0:0:
128,32,81525,1,8,1:0:0:0:
128,32,81676,1,8,1:0:0:0:
128,32,81828,1,0,1:0:0:0:
128,32,81979,1,0,0:0:0:0:
128,32,82282,1,0,1:0:0:0:
64,128,82434,1,12,1:0:0:0:
128,32,82737,1,0,1:0:0:0:
128,32,83040,1,0,1:0:0:0:
128,32,83343,1,0,1:0:0:0:
128,32,83495,1,0,1:0:0:0:
64,32,83646,1,8,1:0:0:0:
64,32,83722,1,8,1:0:0:0:
128,32,83798,1,0,1:0:0:0:
64,32,83949,1,8,1:0:0:0:
64,32,84025,1,8,1:0:0:0:
128,32,84101,1,0,1:0:0:0:
128,32,84176,1,0,1:0:0:0:
64,32,84252,1,8,1:0:0:0:
128,32,84555,1,0,1:0:0:0:
128,32,84707,1,0,1:0:0:0:
64,128,84858,1,12,1:0:0:0:
128,32,85085,1,0,1:0:0:0:
128,32,85161,1,0,1:0:0:0:
64,32,85312,1,8,1:0:0:0:
128,32,85464,1,0,1:0:0:0:
128,32,85615,1,0,1:0:0:0:
64,32,85767,1,8,1:0:0:0:
128,32,85918,1,0,1:0:0:0:
64,32,86070,1,8,1:0:0:0:
128,32,86373,1,0,1:0:0:0:
128,32,86676,1,0,1:0:0:0:
64,32,86979,1,8,1:0:0:0:
64,32,87130,1,8,1:0:0:0:
128,32,87282,1,0,1:0:0:0:
128,32,87585,1,0,1:0:0:0:
128,32,87736,1,0,1:0:0:0:
64,32,87888,1,8,1:0:0:0:
64,32,88191,1,8,1:0:0:0:
128,32,88342,1,0,1:0:0:0:
64,32,89403,1,8,1:0:0:0:
128,32,89554,1,0,1:0:0:0:
64,128,89706,1,12,1:0:0:0:
128,32,89933,1,0,1:0:0:0:
128,32,90009,1,0,1:0:0:0:
128,32,90161,1,0,1:0:0:0:
64,32,90312,1,8,1:0:0:0:
64,32,90464,1,8,1:0:0:0:
128,32,90615,1,0,1:0:0:0:
128,32,90767,1,0,1:0:0:0:
64,32,90918,1,8,1:0:0:0:
128,32,91221,1,0,1:0:0:0:
64,32,91524,1,8,1:0:0:0:
128,32,91827,1,0,1:0:0:0:
64,32,91979,1,8,1:0:0:0:
64,32,92130,1,8,1:0:0:0:
64,32,92433,1,8,1:0:0:0:
128,32,92585,1,0,1:0:0:0:
128,32,92736,1,0,1:0:0:0:
64,32,93039,1,8,1:0:0:0:
64,32,93191,1,8,1:0:0:0:
128,32,94251,1,0,1:0:0:0:
64,128,94554,1,12,1:0:0:0:
128,32,94782,1,0,1:0:0:0:
64,32,94858,1,8,1:0:0:0:
128,32,95009,1,0,1:0:0:0:
64,32,95161,1,8,1:0:0:0:
64,32,95312,1,8,1:0:0:0:
128,32,95464,1,0,1:0:0:0:
128,32,95615,1,0,1:0:0:0:
64,32,95767,1,8,1:0:0:0:
128,32,96070,1,0,1:0:0:0:
128,32,96373,1,0,1:0:0:0:
64,32,96676,1,8,1:0:0:0:
128,32,96827,1,0,1:0:0:0:
64,32,96979,1,8,1:0:0:0:
64,32,97282,1,8,1:0:0:0:
64,32,97433,1,8,1:0:0:0:
128,32,97585,1,0,1:0:0:0:
128,32,97888,1,0,1:0:0:0:
128,32,98039,1,0,1:0:0:0:
64,32,98191,1,8,1:0:0:0:
64,32,98494,1,8,1:0:0:0:
128,32,98645,1,0,1:0:0:0:
128,32,99100,1,0,1:0:0:0:
64,128,99403,1,12,1:0:0:0:
128,32,99706,1,0,1:0:0:0:
64,32,100009,1,12,1:0:0:0:
128,32,100312,1,0,1:0:0:0:
64,32,100615,1,12,1:0:0:0:
64,128,101827,1,12,1:0:0:0:
64,32,102130,1,8,1:0:0:0:
64,32,102282,1,8,1:0:0:0:
128,32,102433,1,0,1:0:0:0:
128,32,102509,1,0,1:0:0:0:
64,32,102585,1,8,1:0:0:0:
128,32,102736,1,0,1:0:0:0:
64,32,103039,1,8,1:0:0:0:
64,32,103191,1,8,1:0:0:0:
128,32,103342,1,0,1:0:0:0:
128,32,103418,1,0,1:0:0:0:
64,32,103494,1,8,1:0:0:0:
64,32,103570,1,8,1:0:0:0:
128,32,103645,1,0,1:0:0:0:
128,32,103797,1,0,1:0:0:0:
64,32,103948,1,8,1:0:0:0:
128,32,104100,1,0,1:0:0:0:
128,32,104402,1,0,1:0:0:0:
128,32,104705,1,0,1:0:0:0:
64,128,104858,1,12,1:0:0:0:
64,32,105161,1,8,1:0:0:0:
64,32,105464,1,8,1:0:0:0:
64,32,105767,1,8,1:0:0:0:
128,32,105842,1,0,1:0:0:0:
128,32,105918,1,0,1:0:0:0:
64,32,106070,1,8,1:0:0:0:
64,32,106221,1,8,1:0:0:0:
128,32,106373,1,0,1:0:0:0:
128,32,106524,1,0,1:0:0:0:
64,32,106676,1,8,1:0:0:0:
128,32,106979,1,0,1:0:0:0:
128,32,107054,1,0,1:0:0:0:
64,32,107130,1,8,1:0:0:0:
128,32,107282,1,0,1:0:0:0:
64,32,107433,1,8,1:0:0:0:
128,32,107585,1,0,1:0:0:0:
64,32,107736,1,8,1:0:0:0:
128,32,107888,1,0,1:0:0:0:
128,32,108039,1,0,1:0:0:0:
64,32,108191,1,8,1:0:0:0:
64,32,108267,1,8,1:0:0:0:
128,32,108342,1,0,1:0:0:0:
64,32,108494,1,8,1:0:0:0:
128,32,108797,1,0,1:0:0:0:
128,32,108948,1,0,1:0:0:0:
64,32,109100,1,8,1:0:0:0:
64,32,109251,1,8,1:0:0:0:
128,32,109403,1,0,1:0:0:0:
64,32,109479,1,8,1:0:0:0:
128,32,109554,1,0,1:0:0:0:
128,32,109630,1,0,1:0:0:0:
64,128,109706,1,12,1:0:0:0:
128,32,110009,1,0,1:0:0:0:
64,32,110312,1,8,1:0:0:0:
128,32,110615,1,0,1:0:0:0:
64,32,110691,1,8,1:0:0:0:
64,32,110767,1,8,1:0:0:0:
128,32,110918,1,0,1:0:0:0:
128,32,111070,1,0,1:0:0:0:
64,32,111221,1,8,1:0:0:0:
64,32,111373,1,8,1:0:0:0:
128,32,111524,1,0,1:0:0:0:
128,32,111676,1,0,1:0:0:0:
64,32,111827,1,8,1:0:0:0:
128,32,111979,1,0,1:0:0:0:
64,32,112130,1,8,1:0:0:0:
128,32,112206,1,0,1:0:0:0:
64,32,112282,1,8,1:0:0:0:
128,32,112433,1,0,1:0:0:0:
128,32,112585,1,0,1:0:0:0:
64,32,112736,1,8,1:0:0:0:
64,32,112888,1,8,1:0:0:0:
128,32,113039,1,0,1:0:0:0:
128,32,113115,1,0,1:0:0:0:
64,32,113191,1,8,1:0:0:0:
128,32,113342,1,0,1:0:0:0:
128,32,113645,1,0,1:0:0:0:
128,32,113797,1,0,1:0:0:0:
64,32,113948,1,8,1:0:0:0:
128,32,114100,1,0,1:0:0:0:
128,32,114251,1,0,1:0:0:0:
64,32,114403,1,8,1:0:0:0:
128,160,114554,1,4,1:0:0:0:
64,128,115767,1,12,1:0:0:0:
128,32,116979,1,0,1:0:0:0:
128,32,117054,1,0,1:0:0:0:
128,32,117130,1,0,1:0:0:0:
128,32,117282,1,0,1:0:0:0:
128,32,117357,1,0,1:0:0:0:
128,32,117433,1,0,1:0:0:0:
128,32,117509,1,0,1:0:0:0:
64,128,117585,1,12,1:0:0:0:
128,32,117736,1,0,1:0:0:0:
64,32,117888,1,8,1:0:0:0:
64,32,118039,1,8,1:0:0:0:
128,32,118191,1,0,1:0:0:0:
64,32,118266,1,8,1:0:0:0:
64,32,118342,1,8,1:0:0:0:
128,32,118494,1,0,1:0:0:0:
128,32,118645,1,0,1:0:0:0:
64,32,118797,1,8,1:0:0:0:
64,32,119100,1,8,1:0:0:0:
128,32,119251,1,0,1:0:0:0:
64,32,119403,1,8,1:0:0:0:
64,32,119478,1,8,1:0:0:0:
128,32,119554,1,0,1:0:0:0:
64,32,119706,1,8,1:0:0:0:
128,32,119781,1,0,1:0:0:0:
64,32,119857,1,8,1:0:0:0:
64,32,119933,1,8,1:0:0:0:
128,32,120009,1,0,1:0:0:0:
64,32,120312,1,8,1:0:0:0:
128,32,120463,1,0,1:0:0:0:
64,32,120615,1,8,1:0:0:0:
64,32,120691,1,8,1:0:0:0:
128,32,120766,1,0,1:0:0:0:
128,32,120918,1,0,1:0:0:0:
128,32,120994,1,0,1:0:0:0:
64,32,121069,1,8,1:0:0:0:
128,32,121221,1,0,1:0:0:0:
64,32,121524,1,8,1:0:0:0:
64,32,121675,1,8,1:0:0:0:
128,32,121827,1,0,1:0:0:0:
128,32,121903,1,0,1:0:0:0:
64,32,121978,1,8,1:0:0:0:
64,32,122130,1,8,1:0:0:0:
64,32,122206,1,8,1:0:0:0:
128,32,122281,1,0,1:0:0:0:
128,32,122357,1,0,1:0:0:0:
32,192,122433,1,12,1:0:0:0:
128,32,122888,1,0,1:0:0:0:
64,32,123039,1,8,1:0:0:0:
128,32,123115,1,0,1:0:0:0:
64,32,123191,1,8,1:0:0:0:
128,32,123342,1,0,1:0:0:0:
128,32,123494,1,0,1:0:0:0:
64,32,123645,1,8,1:0:0:0:
128,32,123721,1,0,1:0:0:0:
128,32,123797,1,0,1:0:0:0:
64,32,123948,1,8,1:0:0:0:
64,32,124024,1,8,1:0:0:0:
128,32,124100,1,0,1:0:0:0:
64,32,124251,1,8,1:0:0:0:
64,32,124403,1,8,1:0:0:0:
128,32,124554,1,0,1:0:0:0:
128,32,124706,1,0,1:0:0:0:
64,32,124857,1,8,1:0:0:0:
128,32,125160,1,0,1:0:0:0:
64,32,125312,1,8,1:0:0:0:
128,32,125463,1,0,1:0:0:0:
64,32,125539,1,8,1:0:0:0:
128,32,125615,1,0,1:0:0:0:
64,32,125766,1,8,1:0:0:0:
64,32,125918,1,8,1:0:0:0:
128,32,126069,1,0,1:0:0:0:
128,32,126221,1,0,1:0:0:0:
64,32,126372,1,8,1:0:0:0:
128,32,126524,1,0,1:0:0:0:
64,32,126675,1,8,1:0:0:0:
128,32,126827,1,0,1:0:0:0:
64,32,126978,1,8,1:0:0:0:
64,32,127054,1,8,1:0:0:0:
128,32,127130,1,0,1:0:0:0:
64,128,127281,1,12,1:0:0:0:
64,32,127585,1,8,1:0:0:0:
128,32,127888,1,0,1:0:0:0:
64,32,127963,1,8,1:0:0:0:
128,32,128039,1,0,1:0:0:0:
128,32,128191,1,0,1:0:0:0:
128,32,128342,1,0,1:0:0:0:
64,32,128494,1,8,1:0:0:0:
128,32,128797,1,0,1:0:0:0:
64,32,129100,1,8,1:0:0:0:
128,32,129251,1,0,1:0:0:0:
64,32,129403,1,8,1:0:0:0:
64,32,129478,1,8,1:0:0:0:
128,32,129554,1,0,1:0:0:0:
64,32,129706,1,8,1:0:0:0:
128,32,130009,1,0,1:0:0:0:
64,32,130312,1,8,1:0:0:0:
128,32,130463,1,0,1:0:0:0:
64,32,130615,1,8,1:0:0:0:
64,32,130691,1,8,1:0:0:0:
128,32,130766,1,0,1:0:0:0:
64,32,130918,1,8,1:0:0:0:
128,32,131221,1,0,1:0:0:0:
128,32,131297,1,0,1:0:0:0:
64,32,131372,1,8,1:0:0:0:
64,32,131524,1,8,1:0:0:0:
64,32,131600,1,8,1:0:0:0:
128,32,131675,1,0,1:0:0:0:
128,32,131827,1,0,1:0:0:0:
64,32,131978,1,8,1:0:0:0:
128,32,132130,1,0,1:0:0:0:
64,32,132433,1,8,1:0:0:0:
64,32,132585,1,8,1:0:0:0:
128,32,132736,1,0,1:0:0:0:
128,32,132888,1,0,1:0:0:0:
64,32,133039,1,8,1:0:0:0:
64,32,133191,1,8,1:0:0:0:
128,32,133342,1,0,1:0:0:0:
64,32,133418,1,8,1:0:0:0:
128,32,133494,1,0,1:0:0:0:
64,32,133645,1,8,1:0:0:0:
128,32,133797,1,0,1:0:0:0:
128,32,133948,1,8,1:0:0:0:
64,32,134251,1,8,1:0:0:0:
64,32,134403,1,8,1:0:0:0:
128,32,134554,1,0,1:0:0:0:
128,32,134857,1,8,1:0:0:0:
128,32,135009,1,0,1:0:0:0:
64,32,135160,1,8,1:0:0:0:
128,32,135312,1,0,1:0:0:0:
64,32,135463,1,8,1:0:0:0:
128,32,135539,1,0,1:0:0:0:
64,32,135615,1,8,1:0:0:0:
64,32,135691,1,8,1:0:0:0:
128,32,135766,1,0,1:0:0:0:
64,32,136069,1,8,1:0:0:0:
64,32,136221,1,8,1:0:0:0:
128,32,136372,1,0,1:0:0:0:
64,32,136524,1,8,1:0:0:0:
128,32,136675,1,0,1:0:0:0:
128,32,136827,1,0,1:0:0:0:
64,160,136978,1,12,1:0:0:0:
128,32,137281,1,0,1:0:0:0:
128,32,137433,1,0,1:0:0:0:
128,32,137585,1,0,1:0:0:0:
128,32,137888,1,0,1:0:0:0:
128,32,138039,1,0,1:0:0:0:
64,32,138191,1,8,1:0:0:0:
64,32,138342,1,8,1:0:0:0:
128,32,138494,1,0,1:0:0:0:
64,32,138645,1,8,1:0:0:0:
128,32,138797,1,0,1:0:0:0:
128,32,138948,1,0,1:0:0:0:
64,32,139100,1,8,1:0:0:0:
128,32,139251,1,0,1:0:0:0:
128,32,139327,1,0,1:0:0:0:
64,128,139403,1,12,1:0:0:0:
64,32,139706,1,8,1:0:0:0:
128,32,139857,1,0,1:0:0:0:
64,32,140009,1,8,1:0:0:0:
128,32,140160,1,0,1:0:0:0:
128,32,140312,1,0,1:0:0:0:
128,32,140463,1,0,1:0:0:0:
64,32,140615,1,8,1:0:0:0:
128,32,141372,1,0,1:0:0:0:
128,32,141524,1,0,1:0:0:0:
128,32,141675,1,0,1:0:0:0:
64,128,141827,1,12,1:0:0:0:
128,32,141978,1,0,1:0:0:0:
64,32,142130,1,8,1:0:0:0:
64,32,142206,1,8,1:0:0:0:
64,32,142281,1,8,1:0:0:0:
128,32,142433,1,0,1:0:0:0:
128,32,142585,1,0,1:0:0:0:
64,32,142736,1,8,1:0:0:0:
64,32,142812,1,8,1:0:0:0:
64,32,142888,1,8,1:0:0:0:
128,32,143039,1,0,1:0:0:0:
128,32,143191,1,0,1:0:0:0:
64,32,143342,1,8,1:0:0:0:
128,32,143494,1,0,1:0:0:0:
64,32,143645,1,8,1:0:0:0:
128,32,143797,1,0,1:0:0:0:
64,32,143948,1,8,1:0:0:0:
64,32,144024,1,8,1:0:0:0:
64,32,144100,1,8,1:0:0:0:
128,32,144251,1,0,1:0:0:0:
128,32,144554,1,0,1:0:0:0:
64,32,144706,1,8,1:0:0:0:
128,32,144857,1,0,1:0:0:0:
64,32,145009,1,8,1:0:0:0:
128,32,145160,1,0,1:0:0:0:
128,32,145236,1,0,1:0:0:0:
128,32,145312,1,0,1:0:0:0:
64,32,145463,1,8,1:0:0:0:
128,32,145766,1,0,1:0:0:0:
64,32,145918,1,8,1:0:0:0:
64,32,146221,1,8,1:0:0:0:
128,32,146372,1,0,1:0:0:0:
128,32,146524,1,0,1:0:0:0:
64,160,146675,1,12,1:0:0:0:
128,32,146827,1,0,1:0:0:0:
64,32,146978,1,8,1:0:0:0:
128,32,147054,1,0,1:0:0:0:
64,32,147130,1,8,1:0:0:0:
128,32,147281,1,0,1:0:0:0:
128,32,147433,1,0,1:0:0:0:
64,32,147585,1,8,1:0:0:0:
128,32,147660,1,0,1:0:0:0:
64,32,147736,1,8,1:0:0:0:
128,32,147888,1,0,1:0:0:0:
128,32,148039,1,0,1:0:0:0:
64,32,148191,1,8,1:0:0:0:
128,32,148342,1,0,1:0:0:0:
64,32,148494,1,8,1:0:0:0:
64,32,148645,1,8,1:0:0:0:
128,32,148797,1,0,1:0:0:0:
128,32,148872,1,0,1:0:0:0:
64,32,148948,1,8,1:0:0:0:
128,32,149024,1,0,1:0:0:0:
64,32,149100,1,8,1:0:0:0:
64,32,149403,1,8,1:0:0:0:
64,32,149706,1,8,1:0:0:0:
128,32,149857,1,0,1:0:0:0:
64,32,150009,1,8,1:0:0:0:
64,32,150085,1,8,1:0:0:0:
128,32,150160,1,0,1:0:0:0:
128,32,150236,1,0,1:0:0:0:
64,32,150312,1,8,1:0:0:0:
128,32,150463,1,0,1:0:0:0:
64,32,150615,1,8,1:0:0:0:
128,32,150766,1,0,1:0:0:0:
128,32,150842,1,0,1:0:0:0:
64,32,150918,1,8,1:0:0:0:
64,32,151069,1,8,1:0:0:0:
128,32,151221,1,0,1:0:0:0:
128,32,151372,1,0,1:0:0:0:
64,160,151524,1,12,1:0:0:0:
128,32,151827,1,0,1:0:0:0:
128,32,152130,1,0,1:0:0:0:
128,32,152281,1,0,1:0:0:0:
64,32,152357,1,8,1:0:0:0:
64,32,152433,1,8,1:0:0:0:
64,32,152585,1,8,1:0:0:0:
128,32,152660,1,0,1:0:0:0:
128,32,152736,1,0,1:0:0:0:
64,32,152888,1,8,1:0:0:0:
128,32,153039,1,0,1:0:0:0:
64,32,153191,1,8,1:0:0:0:
128,32,153342,1,0,1:0:0:0:
128,32,153418,1,0,1:0:0:0:
64,32,153494,1,8,1:0:0:0:
64,32,153645,1,8,1:0:0:0:
128,32,153721,1,0,1:0:0:0:
64,32,153797,1,8,1:0:0:0:
64,32,153872,1,8,1:0:0:0:
128,128,153948,1,4,1:0:0:0:
128,128,154554,1,4,1:0:0:0:
128,128,155160,1,4,1:0:0:0:
128,128,155766,1,4,1:0:0:0:
64,128,156372,1,12,1:0:0:0:
64,32,156675,1,8,1:0:0:0:
64,32,156978,1,8,1:0:0:0:
128,32,157281,1,0,1:0:0:0:
64,32,157357,1,8,1:0:0:0:
128,32,157433,1,0,1:0:0:0:
128,32,157509,1,0,1:0:0:0:
64,32,157585,1,8,1:0:0:0:
64,32,157736,1,8,1:0:0:0:
128,32,157888,1,0,1:0:0:0:
128,32,158039,1,0,1:0:0:0:
64,32,158191,1,8,1:0:0:0:
128,32,158266,1,0,1:0:0:0:
64,32,158342,1,8,1:0:0:0:
128,32,158494,1,0,1:0:0:0:
128,32,158645,1,0,1:0:0:0:
64,128,158797,1,12,1:0:0:0:
128,32,159100,1,0,1:0:0:0:
128,32,159403,1,0,1:0:0:0:
64,32,159706,1,8,1:0:0:0:
128,32,159781,1,0,1:0:0:0:
64,32,159857,1,8,1:0:0:0:
128,32,160009,1,0,1:0:0:0:
128,32,160160,1,0,1:0:0:0:
64,32,160312,1,8,1:0:0:0:
64,32,160463,1,8,1:0:0:0:
128,32,160615,1,0,1:0:0:0:
128,32,160691,1,0,1:0:0:0:
64,32,160766,1,8,1:0:0:0:
64,32,160918,1,8,1:0:0:0:
128,32,160994,1,0,1:0:0:0:
64,32,161069,1,8,1:0:0:0:
128,32,161145,1,0,1:0:0:0:
128,32,161221,1,0,1:0:0:0:
