osu file format v14

[General]
AudioFilename: audio.mp3
AudioLeadIn: 0
PreviewTime: 9831
Countdown: 0
SampleSet: Soft
StackLeniency: 0.5
Mode: 0
LetterboxInBreaks: 0
WidescreenStoryboard: 1

[Editor]
Bookmarks: 589,10286,19983,22407,23013,46043,47255,59376,66649,66800,67861,77558,84831,99376,101800,104225,104831,114527,116952,117558,140588,141800,153921,156345,161118
DistanceSpacing: 1
BeatDivisor: 4
GridSize: 32
TimelineZoom: 1.4

[Metadata]
Title:Kore Dakara Yamerannai!
TitleUnicode:これだからやめらんない!
Artist:TUYU
ArtistUnicode:ツユ
Creator:Len
Version:GodHacc's Normal
Source:
Tags:And That's Why I Can't Stop! Yamerarenai Anime is energy アニメってエネルギーだ japanese jpop j-pop pop jrock j-rock rock 礼衣 ぷす ミロ 双葉陽 rei pusu miro futaba haru azyun vocals female fast godhacc half eringira pnky l1ght_u light_u -hitomi dアニメストア cm NTTドコモ NTT DOCOMO
BeatmapID:4053876
BeatmapSetID:1956534

[Difficulty]
HPDrainRate:3
CircleSize:2.8
OverallDifficulty:4
ApproachRate:6
SliderMultiplier:0.999999999999999
SliderTickRate:1

[Events]
//Background and Video events
0,0,"tu.jpg",0,0
//Break Periods
2,85031,88629
2,89879,93175
//Storyboard Layer 0 (Background)
//Storyboard Layer 1 (Fail)
//Storyboard Layer 2 (Pass)
//Storyboard Layer 3 (Foreground)
//Storyboard Layer 4 (Overlay)
//Storyboard Sound Samples

[TimingPoints]
-623,303.030303030303,4,2,1,60,1,0
589,-100,4,2,2,50,0,0
740,-100,4,2,1,50,0,0
5437,-111.111111111111,4,2,2,50,0,0
5589,-111.111111111111,4,2,1,50,0,0
7861,-100,4,2,2,70,0,0
8013,-100,4,2,1,70,0,0
10286,-100,4,2,3,80,0,0
10437,-100,4,2,1,80,0,0
19983,-100,4,2,1,60,0,0
20286,-100,4,2,1,50,0,0
23013,303.030303030303,4,2,2,70,1,0
23013,-100,4,2,2,70,0,0
23164,-100,4,2,1,70,0,0
42406,-100,4,2,2,70,0,0
42558,-100,4,2,1,70,0,0
46800,-100,4,2,1,60,0,0
47255,-111.111111111111,4,2,2,50,0,0
47406,-111.111111111111,4,2,1,50,0,0
52103,-100,4,2,2,60,0,0
52255,-100,4,2,1,60,0,0
56952,-100,4,2,2,60,0,0
57103,-100,4,2,1,60,0,0
57861,-100,4,2,1,45,0,0
58164,-100,4,2,1,60,0,0
59376,-100,4,2,2,50,0,0
59528,-100,4,2,1,50,0,0
61800,-100,4,2,2,80,0,0
62103,-100,4,2,1,80,0,0
66649,-100,4,2,1,70,0,0
66800,-100,4,2,1,70,0,0
67861,-100,4,2,2,70,0,0
68013,-100,4,2,1,60,0,0
72709,-100,4,2,2,70,0,0
72861,-100,4,2,1,70,0,0
75134,-111.111111111111,4,2,1,50,0,0
77558,-100,4,2,2,70,0,0
77709,-100,4,2,1,70,0,0
79982,-100,4,2,1,50,0,0
82406,-100,4,2,2,70,0,0
82558,-100,4,2,1,70,0,0
84528,-100,4,2,1,40,0,0
84831,-100,4,2,2,40,0,0
89679,-100,4,2,2,40,0,0
94225,-100,4,2,1,40,0,0
94528,-100,4,2,2,50,0,0
94679,-100,4,2,1,50,0,0
99376,-111.111111111111,4,2,2,50,0,0
99528,-111.111111111111,4,2,1,60,0,0
101800,-100,4,2,2,70,0,0
101952,-100,4,2,1,70,0,0
104831,303.030303030303,4,2,3,80,1,0
104831,-100,4,2,3,80,0,0
105134,-100,4,2,1,80,0,0
114527,-100,4,2,1,60,0,0
114830,-100,4,2,1,50,0,0
117558,303.030303030303,4,2,2,70,1,0
117558,-100,4,2,2,70,0,0
117709,-100,4,2,1,70,0,0
136951,-100,4,2,2,70,0,0
137103,-100,4,2,1,70,0,0
141345,-100,4,2,1,60,0,0
141800,-111.111111111111,4,2,2,50,0,0
141951,-111.111111111111,4,2,1,50,0,0
146648,-100,4,2,2,60,0,0
146800,-100,4,2,1,60,0,0
151497,-100,4,2,2,60,0,0
151648,-100,4,2,1,60,0,0
152406,-100,4,2,1,45,0,0
152709,-100,4,2,1,60,0,0
153921,-100,4,2,2,50,0,0
154073,-100,4,2,1,50,0,0
156345,-100,4,2,2,80,0,0
156648,-100,4,2,1,80,0,0
161194,-100,4,2,1,5,0,0

[Colours]
Combo1 : 255,184,149
Combo2 : 133,196,248

[HitObjects]
99,318,589,5,6,1:2:0:0:
180,260,892,2,0,L|298:282,1,99.9999999999999,0|2,1:0|1:2,0:0:0:0:
357,338,1498,1,2,1:2:0:0:
438,280,1801,2,0,P|462:322|460:372,2,99.9999999999999,2|2|2,1:2|1:2|1:2,0:0:0:0:
386,194,2710,1,2,1:2:0:0:
438,109,3013,2,0,P|392:85|339:76,1,99.9999999999999,2|2,1:2|1:2,0:0:0:0:
257,124,3619,1,2,1:2:0:0:
171,72,3922,1,2,1:2:0:0:
105,147,4225,6,0,L|86:264,1,99.9999999999999,2|2,1:2|1:2,0:0:0:0:
109,291,4680,2,0,P|159:309|219:302,1,99.9999999999999
244,337,5134,1,2,1:2:0:0:
315,282,5437,5,4,1:2:0:0:
478,357,6043,1,2,1:2:0:0:
479,177,6649,1,2,1:2:0:0:
324,84,7255,1,2,0:0:0:0:
277,161,7558,1,2,0:1:0:0:
178,145,7861,6,0,L|201:255,1,99.9999999999999,6|8,1:2|0:0,0:0:0:0:
183,293,8316,1,0,1:0:0:0:
183,293,8467,1,8,0:0:0:0:
254,362,8770,2,0,L|316:371,1,50,10|2,0:2|1:2,0:0:0:0:
350,353,9073,1,2,1:2:0:0:
414,275,9377,1,2,1:2:0:0:
333,215,9680,2,0,L|306:101,1,99.9999999999999,2|2,1:2|1:2,0:0:0:0:
312,72,10134,1,2,1:2:0:0:
312,72,10286,5,4,1:0:0:0:
399,120,10589,1,8,0:0:0:0:
475,55,10892,1,2,1:2:0:0:
502,151,11195,2,0,L|516:222,1,50,8|0,0:0|0:0,0:0:0:0:
504,249,11498,1,2,1:2:0:0:
416,298,11801,2,0,L|345:312,1,50,10|2,0:2|0:2,0:0:0:0:
318,321,12104,1,2,1:2:0:0:
251,245,12407,2,0,L|197:231,1,50,10|0,0:0|0:0,0:0:0:0:
162,262,12710,6,0,P|175:317|192:370,2,99.9999999999999,2|10|2,1:2|0:0|1:2,0:0:0:0:
111,175,13619,1,10,0:0:0:0:
23,223,13922,2,0,P|-3:172|7:114,1,99.9999999999999,2|10,1:2|0:0,0:0:0:0:
41,101,14376,1,2,0:0:0:0:
41,101,14528,1,2,1:2:0:0:
111,175,14831,1,10,0:0:0:0:
191,116,15134,6,0,L|170:7,2,99.9999999999999,4|10|2,1:0|0:0|1:2,0:0:0:0:
260,188,16043,1,10,0:0:0:0:
247,287,16346,2,0,P|302:283|344:236,1,99.9999999999999,2|10,1:2|0:0,0:0:0:0:
386,276,16801,1,2,0:0:0:0:
386,276,16952,1,2,1:2:0:0:
441,192,17255,2,0,L|457:137,1,50,10|2,0:0|0:0,0:0:0:0:
471,96,17558,5,2,1:2:0:0:
406,22,17861,2,0,L|339:10,1,50,10|0,0:0|0:0,0:0:0:0:
316,41,18164,1,2,1:2:0:0:
222,5,18467,1,10,0:0:0:0:
167,90,18770,2,0,L|60:72,1,99.9999999999999,2|10,1:2|0:0,0:0:0:0:
28,53,19225,1,2,0:0:0:0:
28,53,19377,1,2,1:2:0:0:
3,149,19680,2,0,L|13:212,1,50,10|10,0:0|0:0,0:0:0:0:
33,244,19983,5,2,1:0:0:0:
256,373,21195,1,2,1:0:0:0:
491,242,22407,2,0,L|477:174,1,50,2|2,0:0|0:0,0:0:0:0:
495,145,22710,1,2,3:2:0:0:
448,56,23013,6,0,P|397:72|341:75,1,99.9999999999999,4|10,1:2|0:0,0:0:0:0:
321,116,23467,1,0,1:0:0:0:
321,116,23619,2,0,L|337:177,2,50,10|0|10,0:0|1:0|0:0,0:0:0:0:
234,66,24225,1,2,1:2:0:0:
200,160,24528,2,0,L|144:171,1,50,10|0,0:0|1:0,0:0:0:0:
119,208,24831,1,10,0:0:0:0:
119,208,24982,2,0,L|51:193,1,50,0|10,1:0|0:0,0:0:0:0:
5,120,25437,5,10,0:0:0:0:
55,33,25740,2,0,L|104:38,1,50,10|0,0:0|1:0,0:0:0:0:
134,79,26043,2,0,P|185:78|239:65,1,99.9999999999999,10|10,0:0|0:0,0:0:0:0:
300,140,26649,2,0,P|350:126|408:119,1,99.9999999999999,10|10,0:0|0:0,0:0:0:0:
444,149,27103,1,0,1:0:0:0:
444,149,27255,1,10,0:0:0:0:
497,64,27558,1,10,0:0:0:0:
411,11,27861,6,0,P|352:6|299:-4,1,99.9999999999999,14|10,0:0|0:0,0:0:0:0:
283,41,28316,1,0,1:0:0:0:
283,41,28467,2,0,L|297:97,2,50,10|0|10,0:0|1:0|0:0,0:0:0:0:
189,5,29073,1,10,0:0:0:0:
111,68,29376,1,10,0:0:0:0:
161,154,29679,2,0,L|177:262,1,99.9999999999999,10|10,0:0|0:0,0:0:0:0:
164,304,30134,1,0,1:0:0:0:
164,304,30285,5,10,0:0:0:0:
252,351,30588,1,10,0:0:0:0:
344,316,30891,2,0,P|366:270|365:215,1,99.9999999999999,10|10,0:0|0:0,0:0:0:0:
352,179,31346,1,0,1:0:0:0:
352,179,31497,1,10,0:0:0:0:
295,96,31800,1,10,0:0:0:0:
220,162,32103,2,0,L|155:150,1,50,10|0,0:0|1:0,0:0:0:0:
123,137,32406,2,0,L|106:68,1,50,10|0,0:0|0:0,0:0:0:0:
99,39,32709,5,4,1:0:0:0:
193,72,33013,1,8,0:0:0:0:
267,5,33316,2,0,L|331:19,1,50,2|0,1:2|0:0,0:0:0:0:
354,48,33619,1,10,0:0:0:0:
445,7,33922,2,0,P|449:61|428:115,1,99.9999999999999,2|8,1:2|0:0,0:0:0:0:
369,179,34528,2,0,L|383:245,1,50,2|2,1:2|0:0,0:0:0:0:
409,268,34831,1,10,0:0:0:0:
475,342,35134,6,0,L|374:364,1,99.9999999999999,2|8,1:2|0:0,0:0:0:0:
288,316,35740,2,0,L|276:379,2,50,2|2|10,1:2|0:0|0:0,0:0:0:0:
327,230,36346,1,2,1:2:0:0:
246,170,36649,2,0,P|195:178|152:219,1,99.9999999999999,10|2,0:0|1:2,0:0:0:0:
114,225,37103,1,2,0:2:0:0:
114,225,37255,1,10,0:2:0:0:
74,317,37558,5,4,1:0:0:0:
151,380,37861,2,0,L|213:370,1,50,10|0,0:0|1:0,0:0:0:0:
238,340,38164,1,10,0:0:0:0:
330,378,38467,1,10,0:0:0:0:
410,318,38770,2,0,P|451:347|517:333,2,99.9999999999999,2|10|10,1:2|0:0|0:0,0:0:0:0:
383,221,39679,1,10,0:0:0:0:
297,273,39982,5,2,1:2:0:0:
248,185,40285,1,10,0:0:0:0:
170,247,40588,2,0,L|105:257,1,50,10|0,0:0|1:0,0:0:0:0:
76,230,40891,1,10,0:0:0:0:
84,130,41194,2,0,P|32:126|-6:81,2,99.9999999999999,2|10|10,1:2|0:0|0:0,0:0:0:0:
148,53,42103,1,10,0:0:0:0:
238,96,42406,6,0,L|357:78,1,99.9999999999999,4|8,1:2|0:0,0:0:0:0:
428,40,43013,2,0,P|433:95|415:147,1,99.9999999999999,0|8,1:0|0:0,0:0:0:0:
456,230,43619,1,2,1:2:0:0:
375,289,43922,1,10,0:0:0:0:
287,241,44225,2,0,L|227:225,1,50,2|0,1:2|1:2,0:0:0:0:
192,247,44528,1,10,0:0:0:0:
111,187,44831,6,0,P|82:235|91:291,1,99.9999999999999,4|10,1:0|0:0,0:0:0:0:
59,319,45285,1,0,1:0:0:0:
155,361,45588,1,4,3:0:0:0:
155,361,45740,2,0,L|213:372,1,50,12|8,3:0|0:0,0:0:0:0:
247,345,46043,1,14,0:0:0:0:
296,100,46800,6,0,L|302:51,2,50,2|2|2,3:2|3:2|3:2,0:0:0:0:
280,142,47255,1,4,1:2:0:0:
195,110,47558,1,2,1:2:0:0:
142,182,47861,2,0,L|156:241,1,44.999998626709,2|2,1:2|0:2,0:0:0:0:
135,267,48164,1,2,1:2:0:0:
201,327,48467,2,0,L|186:385,2,44.999998626709,2|2|2,1:2|0:2|1:2,0:0:0:0:
269,268,49073,1,2,1:2:0:0:
328,335,49376,1,2,1:2:0:0:
399,281,49679,6,0,L|488:293,1,89.999997253418,2|2,1:0|1:2,0:0:0:0:
510,206,50285,1,2,1:2:0:0:
501,116,50588,1,2,1:2:0:0:
440,49,50891,2,0,L|350:61,1,89.999997253418,4|2,1:0|1:2,0:0:0:0:
315,89,51346,1,2,0:0:0:0:
234,52,51649,2,0,L|245:8,2,44.999998626709,0|8|8,1:0|0:0|0:0,0:0:0:0:
200,89,52103,6,0,P|179:100|151:101,1,50,6|8,1:2|0:0,0:0:0:0:
104,88,52407,1,2,1:2:0:0:
63,178,52709,2,0,P|49:208|47:242,1,50,2|8,1:2|0:0,0:0:0:0:
76,265,53013,1,2,1:2:0:0:
149,332,53316,2,0,L|141:381,2,50,2|10|2,1:2|0:0|1:2,0:0:0:0:
189,301,53770,1,2,1:2:0:0:
189,301,53922,1,2,1:2:0:0:
155,206,54225,1,2,1:2:0:0:
222,131,54528,5,2,1:0:0:0:
294,201,54831,2,0,L|359:210,1,50,10|0,0:0|0:0,0:0:0:0:
381,175,55134,1,2,1:2:0:0:
462,232,55437,1,10,0:0:0:0:
506,142,55740,2,0,L|514:77,1,50,2|2,1:2|0:2,0:0:0:0:
502,43,56043,1,10,0:2:0:0:
411,86,56346,2,0,L|296:109,1,99.9999999999999,2|10,1:2|0:2,0:0:0:0:
222,62,56952,5,4,1:2:0:0:
169,147,57255,1,8,0:0:0:0:
240,216,57558,2,0,L|253:280,1,50,2|2,1:2|0:0,0:0:0:0:
231,311,57861,1,2,3:2:0:0:
315,364,58164,2,0,L|414:353,1,99.9999999999999,2|10,1:2|0:0,0:0:0:0:
460,329,58619,1,2,1:2:0:0:
460,329,58770,1,10,0:2:0:0:
411,241,59073,2,0,L|422:192,1,50,10|8,0:2|0:0,0:0:0:0:
436,144,59376,5,4,1:2:0:0:
274,26,59982,1,2,1:2:0:0:
120,154,60588,1,2,1:2:0:0:
232,319,61194,2,0,L|265:213,1,99.9999999999999,0|0,1:0|3:0,0:0:0:0:
282,180,61649,1,0,3:0:0:0:
282,180,61800,5,4,1:2:0:0:
367,231,62103,2,0,L|417:216,1,50,8|0,0:0|0:0,0:0:0:0:
456,188,62406,1,2,1:2:0:0:
508,273,62709,2,0,L|498:341,1,50,10|0,0:0|0:0,0:0:0:0:
471,363,63013,2,0,L|365:340,1,99.9999999999999,2|10,1:2|0:0,0:0:0:0:
331,365,63467,1,2,0:0:0:0:
331,365,63619,1,2,1:2:0:0:
254,301,63922,2,0,L|193:314,1,50,10|2,0:0|0:0,0:0:0:0:
161,286,64225,6,0,L|137:394,2,99.9999999999999,4|8|2,1:0|0:0|1:2,0:0:0:0:
73,238,65134,1,8,0:0:0:0:
64,138,65437,2,0,P|112:164|169:172,1,99.9999999999999,2|10,1:2|0:0,0:0:0:0:
208,162,65891,1,10,0:0:0:0:
208,162,66043,1,2,1:2:0:0:
243,67,66346,1,2,1:2:0:0:
391,87,66800,6,0,L|455:99,1,50,8|8,0:0|0:0,0:0:0:0:
483,69,67103,1,0,1:0:0:0:
483,69,67255,2,0,P|496:103|488:174,1,99.9999999999999,8|8,0:0|0:0,0:0:0:0:
408,221,67861,6,0,L|427:325,1,99.9999999999999,4|2,1:2|1:2,0:0:0:0:
402,365,68316,1,2,0:0:0:0:
402,365,68467,2,0,B|363:358|363:358|339:369|339:369|289:360,1,99.9999999999999,2|2,1:2|1:2,0:0:0:0:
224,303,69073,1,2,1:2:0:0:
145,365,69376,2,0,L|80:353,1,50,2|2,1:2|0:0,0:0:0:0:
63,317,69679,2,0,L|51:254,1,50,2|2,1:2|0:0,0:0:0:0:
43,218,69982,1,2,1:2:0:0:
141,235,70285,5,2,1:1:0:0:
192,151,70588,1,2,1:2:0:0:
192,151,70740,2,0,B|227:161|227:161|291:151,1,99.9999999999999,2|2,0:0|0:0,0:0:0:0:
331,178,71194,1,2,1:2:0:0:
286,267,71497,1,2,1:2:0:0:
342,356,71800,1,2,1:2:0:0:
342,356,71952,2,0,B|378:362|378:362|454:336,1,99.9999999999999,2|2,0:2|0:2,0:0:0:0:
486,353,72406,1,10,0:2:0:0:
510,255,72709,5,4,1:2:0:0:
467,163,73013,2,0,L|412:175,1,50,10|2,0:2|0:2,0:0:0:0:
372,194,73316,2,0,B|327:181|327:181|299:189|270:177,1,99.9999999999999,2|8,1:2|0:0,0:0:0:0:
234,161,73770,1,2,0:0:0:0:
234,161,73922,1,2,1:2:0:0:
141,123,74225,2,0,L|129:177,1,50,8|2,0:0|0:0,0:0:0:0:
157,214,74528,2,0,B|160:236|169:258|169:258|165:271|165:271|170:290|173:315,1,99.9999999999999,2|8,1:2|0:0,0:0:0:0:
153,359,74982,1,2,0:2:0:0:
153,359,75134,5,2,1:2:0:0:
244,204,75740,1,0,1:0:0:0:
398,296,76346,1,0,1:0:0:0:
239,381,76952,1,2,1:2:0:0:
331,203,77558,6,0,B|363:219|363:219|433:201,1,99.9999999999999,4|10,1:2|0:0,0:0:0:0:
463,170,78013,1,0,0:0:0:0:
463,170,78164,2,0,L|479:63,1,99.9999999999999,2|10,1:2|0:0,0:0:0:0:
394,16,78770,2,0,B|358:21|358:21|341:38|341:38|301:45,1,99.9999999999999,2|10,1:2|0:0,0:0:0:0:
260,27,79225,1,0,0:0:0:0:
260,27,79376,1,2,1:2:0:0:
182,90,79679,2,0,L|130:99,1,50,8|8,0:0|0:0,0:0:0:0:
84,85,79982,5,4,1:0:0:0:
242,207,80588,1,0,1:0:0:0:
110,357,81194,1,0,1:0:0:0:
45,167,81800,1,2,1:0:0:0:
192,300,82406,6,0,B|246:278|308:288|308:288|347:337|424:342,1,250,4|0,1:2|0:0,0:0:0:0:
470,322,83316,1,0,1:0:0:0:
434,228,83619,2,0,L|418:162,1,50,6|2,1:2|1:2,0:0:0:0:
453,140,83922,2,0,L|467:74,1,50,2|2,1:2|1:2,0:0:0:0:
451,42,84225,1,2,1:2:0:0:
280,145,84831,5,4,1:2:0:0:
61,197,89679,5,4,1:2:0:0:
154,0,94225,5,8,0:1:0:0:
74,61,94528,2,0,L|56:176,1,99.9999999999999,4|8,1:2|1:1,0:0:0:0:
83,256,95134,1,0,1:0:0:0:
167,202,95437,1,8,1:1:0:0:
252,253,95740,2,0,P|276:206|273:145,2,99.9999999999999,0|8|0,1:0|1:1|1:0,0:0:0:0:
169,309,96649,1,8,1:1:0:0:
246,371,96952,2,0,L|359:356,1,99.9999999999999,0|8,1:0|1:1,0:0:0:0:
437,319,97558,1,0,1:0:0:0:
464,222,97861,1,8,1:1:0:0:
396,148,98164,6,0,P|352:132|293:131,1,99.9999999999999,0|8,1:0|1:0,0:0:0:0:
265,167,98619,2,0,L|160:181,1,99.9999999999999,0|2,0:0|0:2,0:0:0:0:
127,212,99073,1,8,1:0:0:0:
54,159,99376,5,4,1:2:0:0:
165,17,99982,1,2,1:2:0:0:
265,167,100588,1,2,1:2:0:0:
414,66,101194,1,0,0:0:0:0:
465,139,101497,1,0,0:0:0:0:
401,216,101800,6,0,L|379:331,1,99.9999999999999,6|8,1:2|0:0,0:0:0:0:
401,360,102255,1,0,1:0:0:0:
401,360,102406,1,8,0:0:0:0:
302,374,102709,2,0,L|249:362,1,50,10|10,0:2|0:2,0:0:0:0:
226,319,103013,1,10,0:2:0:0:
255,223,103316,1,10,0:2:0:0:
166,176,103619,2,0,L|152:68,1,99.9999999999999,10|10,0:2|0:2,0:0:0:0:
146,27,104073,5,10,0:2:0:0:
49,2,104376,1,0,0:0:0:0:
19,100,104679,1,0,0:0:0:0:
19,100,104831,6,0,L|3:213,1,99.9999999999999,4|8,1:0|0:0,0:0:0:0:
13,298,105437,1,2,1:2:0:0:
111,280,105740,2,0,L|176:267,1,50,8|0,0:0|0:0,0:0:0:0:
202,243,106043,1,2,1:2:0:0:
247,332,106346,2,0,L|312:345,1,50,10|2,0:2|0:2,0:0:0:0:
340,365,106649,1,2,1:2:0:0:
415,299,106952,2,0,L|426:239,1,50,10|0,0:0|0:0,0:0:0:0:
406,202,107255,6,0,L|387:95,2,99.9999999999999,2|10|2,1:2|0:0|1:2,0:0:0:0:
327,263,108164,1,10,0:0:0:0:
263,185,108467,2,0,L|155:205,1,99.9999999999999,2|10,1:2|0:0,0:0:0:0:
129,237,108921,1,2,0:0:0:0:
129,237,109073,1,2,1:2:0:0:
41,189,109376,1,10,0:0:0:0:
82,99,109679,6,0,P|44:97|-3:49,2,99.9999999999999,4|10|2,1:0|0:0|1:2,0:0:0:0:
159,35,110588,1,10,0:0:0:0:
224,110,110891,2,0,L|332:89,1,99.9999999999999,2|10,1:2|0:0,0:0:0:0:
371,74,111346,1,2,0:0:0:0:
371,74,111497,1,2,1:2:0:0:
444,142,111800,2,0,L|436:210,1,50,10|2,0:0|0:0,0:0:0:0:
450,240,112103,5,2,1:2:0:0:
476,336,112406,2,0,L|366:313,1,99.9999999999999,10|2,0:0|1:2,0:0:0:0:
337,342,112861,1,2,0:0:0:0:
337,342,113012,1,10,0:0:0:0:
244,378,113315,2,0,P|221:338|221:266,1,99.9999999999999,2|10,1:2|0:0,0:0:0:0:
210,240,113770,1,2,0:0:0:0:
210,240,113921,1,2,1:2:0:0:
156,155,114224,2,0,L|96:163,1,50,10|10,0:0|0:0,0:0:0:0:
69,195,114527,5,2,1:0:0:0:
219,34,115740,1,2,1:0:0:0:
442,138,116952,2,0,L|432:195,1,50,2|2,0:0|0:0,0:0:0:0:
456,232,117255,1,2,3:2:0:0:
402,316,117558,6,0,L|293:291,1,99.9999999999999,4|10,1:2|0:0,0:0:0:0:
259,287,118012,1,0,1:0:0:0:
259,287,118164,2,0,L|246:349,2,50,10|0|10,0:0|1:0|0:0,0:0:0:0:
269,187,118770,1,2,1:2:0:0:
176,223,119073,2,0,L|112:239,1,50,10|0,0:0|1:0,0:0:0:0:
93,198,119376,2,0,L|44:185,1,50,10|0,0:0|1:0,0:0:0:0:
2,212,119679,1,10,0:0:0:0:
4,312,119982,5,10,0:0:0:0:
81,375,120285,2,0,L|143:361,1,50,10|0,0:0|1:0,0:0:0:0:
165,329,120588,2,0,L|213:340,1,50,10|0,0:0|1:0,0:0:0:0:
253,370,120891,1,10,0:0:0:0:
332,309,121194,1,10,0:0:0:0:
424,347,121497,2,0,L|435:285,1,50,10|0,0:0|1:0,0:0:0:0:
465,260,121800,2,0,L|455:201,1,50,10|0,0:0|1:0,0:0:0:0:
480,166,122103,1,10,0:0:0:0:
427,80,122406,6,0,L|321:102,1,99.9999999999999,14|10,0:0|0:0,0:0:0:0:
292,133,122861,1,0,1:0:0:0:
292,133,123012,2,0,L|307:197,2,50,10|0|10,0:0|1:0|0:0,0:0:0:0:
222,61,123618,1,10,0:0:0:0:
129,99,123921,1,10,0:0:0:0:
162,193,124224,2,0,L|148:263,1,50,10|0,0:0|1:0,0:0:0:0:
110,270,124527,2,0,L|124:340,1,50,10|0,0:0|1:0,0:0:0:0:
145,362,124830,5,10,0:0:0:0:
228,306,125133,1,10,0:0:0:0:
319,345,125436,2,0,L|303:237,1,99.9999999999999,10|10,0:0|0:0,0:0:0:0:
337,209,125891,1,0,1:0:0:0:
337,209,126042,2,0,L|346:141,2,50,10|2|10,0:0|0:0|0:0,0:0:0:0:
402,286,126648,2,0,L|469:269,1,50,10|0,0:0|1:0,0:0:0:0:
494,298,126951,1,10,0:0:0:0:
497,198,127254,6,0,L|514:85,1,99.9999999999999,4|8,1:0|0:0,0:0:0:0:
441,28,127861,2,0,L|379:36,1,50,2|0,1:2|0:0,0:0:0:0:
351,64,128164,1,10,0:0:0:0:
253,43,128467,2,0,L|271:147,1,99.9999999999999,2|8,1:2|0:0,0:0:0:0:
211,222,129073,2,0,L|194:287,1,50,2|2,1:2|0:0,0:0:0:0:
178,316,129376,1,10,0:0:0:0:
86,274,129679,6,0,P|76:225|53:168,1,99.9999999999999,2|8,1:2|0:0,0:0:0:0:
88,83,130285,2,0,L|96:33,2,50,2|2|10,1:2|0:0|0:0,0:0:0:0:
185,105,130891,1,2,1:2:0:0:
256,35,131194,2,0,P|300:48|358:54,1,99.9999999999999,10|2,0:0|1:2,0:0:0:0:
406,47,131648,1,2,0:2:0:0:
406,47,131800,1,10,0:2:0:0:
462,130,132103,5,4,1:0:0:0:
423,222,132406,2,0,L|362:207,1,50,10|0,0:0|1:0,0:0:0:0:
332,183,132709,1,10,0:0:0:0:
246,234,133012,1,10,0:0:0:0:
153,195,133315,2,0,P|130:240|125:301,1,99.9999999999999,2|10,1:2|0:0,0:0:0:0:
93,383,133921,1,10,0:0:0:0:
17,317,134224,1,10,0:0:0:0:
40,219,134527,6,0,L|60:107,2,99.9999999999999,2|10|10,1:2|0:0|0:0,0:0:0:0:
124,271,135436,1,10,0:0:0:0:
201,207,135739,2,0,L|313:232,2,99.9999999999999,2|10|10,1:2|0:0|0:0,0:0:0:0:
172,111,136648,1,10,0:0:0:0:
242,39,136951,6,0,L|345:67,1,99.9999999999999,4|8,1:2|0:0,0:0:0:0:
431,27,137558,2,0,L|447:139,1,99.9999999999999,0|8,1:0|0:0,0:0:0:0:
407,218,138164,1,2,1:2:0:0:
478,287,138467,1,10,0:0:0:0:
425,372,138770,2,0,L|363:364,1,50,2|0,1:2|1:2,0:0:0:0:
337,333,139073,1,10,0:0:0:0:
248,380,139376,6,0,P|224:340|224:271,1,99.9999999999999,4|10,1:0|0:0,0:0:0:0:
188,249,139830,1,0,1:0:0:0:
224,159,140133,1,4,3:0:0:0:
224,159,140285,2,0,L|273:154,1,50,12|8,3:0|0:0,0:0:0:0:
317,130,140588,1,14,0:0:0:0:
504,294,141345,6,0,L|514:357,2,50,2|2|2,3:2|3:2|3:2,0:0:0:0:
479,255,141800,1,4,1:2:0:0:
503,168,142103,1,2,1:2:0:0:
452,93,142406,2,0,L|397:104,1,44.999998626709,2|2,1:2|0:2,0:0:0:0:
364,89,142709,1,2,1:2:0:0:
281,53,143012,2,0,L|268:-10,2,44.999998626709,2|2|2,1:2|0:2|1:2,0:0:0:0:
211,110,143618,1,2,1:2:0:0:
274,174,143921,1,2,1:2:0:0:
211,238,144224,6,0,P|224:287|228:338,1,89.999997253418,2|2,1:0|1:2,0:0:0:0:
148,368,144830,2,0,L|97:383,1,44.999998626709,2|0,1:2|3:0,0:0:0:0:
60,373,145133,1,2,1:2:0:0:
17,293,145436,2,0,L|38:191,1,89.999997253418,4|2,1:0|1:2,0:0:0:0:
42,160,145891,1,2,0:0:0:0:
108,98,146194,2,0,L|96:42,2,44.999998626709,0|8|8,1:0|0:0|0:0,0:0:0:0:
142,134,146648,6,0,P|167:135|191:126,1,50,6|8,1:2|0:0,0:0:0:0:
239,119,146951,1,2,1:2:0:0:
289,28,147254,2,0,P|317:27|345:37,1,50,2|8,1:2|0:0,0:0:0:0:
378,63,147558,1,2,1:2:0:0:
478,48,147861,2,0,L|470:-1,2,50,2|10|2,1:2|0:0|1:2,0:0:0:0:
466,99,148315,1,2,1:2:0:0:
466,99,148467,1,2,1:2:0:0:
507,190,148770,1,2,1:2:0:0:
443,267,149073,5,2,1:0:0:0:
356,217,149376,2,0,L|297:234,1,50,10|0,0:0|0:0,0:0:0:0:
269,263,149679,1,2,1:2:0:0:
180,216,149982,1,10,0:0:0:0:
105,282,150285,2,0,L|56:271,1,50,2|2,1:2|0:2,0:0:0:0:
23,233,150588,1,10,0:2:0:0:
55,138,150891,2,0,P|66:97|72:39,1,99.9999999999999,2|10,1:2|0:2,0:0:0:0:
99,0,151345,1,2,0:2:0:0:
99,0,151497,5,4,1:2:0:0:
182,54,151800,1,8,0:0:0:0:
168,153,152103,2,0,L|159:211,1,50,2|2,1:2|0:0,0:0:0:0:
189,243,152406,1,2,3:2:0:0:
247,323,152709,2,0,L|358:306,1,99.9999999999999,2|10,1:2|0:0,0:0:0:0:
399,321,153164,1,2,1:2:0:0:
399,321,153315,1,10,0:2:0:0:
455,238,153618,2,0,L|439:168,1,50,10|8,0:2|0:0,0:0:0:0:
468,145,153921,5,4,1:2:0:0:
289,235,154527,1,2,1:2:0:0:
359,47,155133,1,2,1:2:0:0:
171,117,155739,2,0,P|190:162|188:228,1,99.9999999999999,0|0,1:0|3:0,0:0:0:0:
187,266,156194,1,0,3:0:0:0:
187,266,156345,5,4,1:2:0:0:
90,240,156648,2,0,L|32:252,1,50,8|0,0:0|0:0,0:0:0:0:
8,288,156951,1,2,1:2:0:0:
69,366,157254,2,0,L|117:376,1,50,10|0,0:0|0:0,0:0:0:0:
160,348,157558,2,0,P|211:367|260:374,1,99.9999999999999,2|10,1:2|0:0,0:0:0:0:
298,346,158012,1,2,0:0:0:0:
298,346,158164,1,2,1:2:0:0:
391,382,158467,1,10,0:0:0:0:
463,313,158770,6,0,L|473:254,1,50,4|0,1:0|0:0,0:0:0:0:
453,217,159073,2,0,L|442:155,1,50,8|0,0:0|0:0,0:0:0:0:
471,125,159376,1,2,1:2:0:0:
417,40,159679,2,0,L|353:59,1,50,8|0,0:0|0:0,0:0:0:0:
327,82,159982,2,0,P|285:84|233:34,1,99.9999999999999,2|10,1:2|0:0,0:0:0:0:
207,21,160436,1,10,0:0:0:0:
207,21,160588,1,2,1:2:0:0:
162,110,160891,2,0,L|53:87,1,99.9999999999999,2|0,1:2|0:2,0:0:0:0:
