osu file format v14

[General]
AudioFilename: audio.mp3
AudioLeadIn: 0
PreviewTime: 29374
Countdown: 0
SampleSet: Soft
StackLeniency: 0.4
Mode: 0
LetterboxInBreaks: 0
WidescreenStoryboard: 1

[Editor]
Bookmarks: 62,5395,11061,18728,24062,29395,40061,45395,56061,77395,88062
DistanceSpacing: 1.6
BeatDivisor: 4
GridSize: 32
TimelineZoom: 1.4

[Metadata]
Title:Kizutsu kedo, Aishiteru. (TV Size)
TitleUnicode:傷つけど、愛してる。 (TV Size)
Artist:TUYU
ArtistUnicode:ツユ
Creator:Len
Version:L1gHT's Hard
Source:東京リベンジャーズ 聖夜決戦編
Tags:Tokyo Revengers: Christmas Showdown Arc seiya kessen hen 初見浩一 Hatsumi koichi It hurts, but I love you. anime animation ed ending japanese jpop j-pop pop jrock j-rock rock 礼衣 ぷす ミロ 双葉陽 rei pusu miro futaba haru azyun vocals female fast l1ght_u light_u -hitomi kxlman eringira kyouren gokugohan12468 kittyadventure
BeatmapID:3971477
BeatmapSetID:1922572

[Difficulty]
HPDrainRate:4.5
CircleSize:3.5
OverallDifficulty:7
ApproachRate:8
SliderMultiplier:1.4
SliderTickRate:1

[Events]
//Background and Video events
Video,-90,"vd.mp4"
0,0,"bg.jpg",0,0
//Break Periods
//Storyboard Layer 0 (Background)
//Storyboard Layer 1 (Fail)
//Storyboard Layer 2 (Pass)
//Storyboard Layer 3 (Foreground)
//Storyboard Layer 4 (Overlay)
//Storyboard Sound Samples

[TimingPoints]
62,333.333333333333,4,2,2,40,1,0
1395,-100,4,2,1,40,0,0
5395,-100,4,2,1,50,0,0
8477,-100,4,2,1,60,0,0
8561,-100,4,2,1,50,0,0
9144,-100,4,2,1,60,0,0
9228,-100,4,2,1,50,0,0
11061,-90.9090909090909,4,2,1,60,0,0
18728,-83.3333333333333,4,2,3,70,0,0
19061,-83.3333333333333,4,2,1,70,0,0
40061,-90.9090909090909,4,2,1,70,0,0
45395,-90.9090909090909,4,2,1,50,0,0
46395,-90.9090909090909,4,2,1,60,0,0
46561,-90.9090909090909,4,2,1,50,0,0
51728,-90.9090909090909,4,2,1,60,0,0
52061,-90.9090909090909,4,2,1,50,0,0
56061,-111.111111111111,4,2,1,60,0,0
77395,-125,4,2,1,50,0,0

[Colours]
Combo1 : 207,180,188
Combo2 : 255,176,138

[HitObjects]
40,53,62,5,4,1:2:0:0:
101,314,1395,1,2,1:2:0:0:
373,318,2728,1,2,1:2:0:0:
432,55,4061,1,2,1:2:0:0:
79,127,5395,6,0,P|139:141|228:201,1,140,4|2,1:2|1:2,0:0:0:0:
239,262,5895,1,2,0:0:0:0:
177,322,6061,2,0,P|113:364|39:384,1,140,2|2,1:2|1:2,0:0:0:0:
24,221,6728,2,0,P|30:204|-5:66,2,140,2|2|2,1:2|1:2|1:2,0:0:0:0:
84,299,7561,1,0,0:0:0:0:
84,299,7728,2,0,L|176:292,1,70,2|0,1:2|0:0,0:0:0:0:
242,309,8061,6,0,B|289:303|289:303|312:311|312:311|406:296,1,140,2|0,1:2|1:0,0:0:0:0:
464,244,8561,1,2,0:0:0:0:
464,244,8728,2,0,P|476:194|395:126,1,140,2|0,1:2|1:0,0:0:0:0:
330,80,9228,2,0,P|341:126|364:233,1,140,2|2,0:0|0:0,0:0:0:0:
301,308,9728,1,2,1:2:0:0:
301,308,9895,2,0,P|261:296|223:252,1,70,2|0,0:0|1:2,0:0:0:0:
235,259,10145,1,0,1:2:0:0:
236,240,10228,2,0,L|233:190,4,35,0|0|2|2|2,1:2|1:2|1:2|1:2|1:2,0:0:0:0:
114,60,11061,5,4,1:0:0:0:
114,60,11228,2,0,P|82:98|72:143,1,77.0000023498536,2|0,0:0|1:0,0:0:0:0:
42,216,11561,2,0,P|58:283|64:316,1,77.0000023498536,2|8,0:0|0:0,0:0:0:0:
127,366,11895,1,2,0:0:0:0:
127,366,12061,2,0,P|194:350|293:348,1,154.000004699707,0|8,1:0|0:0,0:0:0:0:
367,358,12561,1,2,3:2:0:0:
490,243,12895,5,2,0:0:0:0:
490,243,13061,2,0,P|474:192|474:144,1,77.0000023498536,10|2,0:0|0:0,0:0:0:0:
376,134,13395,1,2,0:0:0:0:
295,197,13561,5,2,0:0:0:0:
295,197,13727,2,0,P|311:248|311:296,1,77.0000023498536,12|0,0:0|0:0,0:0:0:0:
409,306,14061,1,2,1:2:0:0:
490,243,14228,5,2,0:0:0:0:
490,243,14394,2,0,P|474:192|474:144,1,77.0000023498536,10|2,0:0|0:2,0:0:0:0:
376,134,14728,1,2,1:2:0:0:
245,33,15061,2,0,P|191:24|87:54,2,154.000004699707,10|2|10,0:0|1:2|0:0,0:0:0:0:
85,137,16061,6,0,P|63:215|34:317,1,154.000004699707,2|0,1:2|1:2,0:0:0:0:
91,368,16561,1,0,0:0:0:0:
91,368,16728,2,0,B|187:374|137:297|256:308,1,154.000004699707,0|0,1:2|1:2,0:0:0:0:
323,339,17228,1,2,0:0:0:0:
323,339,17395,6,0,P|356:295|348:248,1,77.0000023498536,2|2,1:2|1:2,0:0:0:0:
306,197,17728,1,2,1:2:0:0:
306,197,17895,1,2,1:2:0:0:
362,122,18061,2,0,L|365:76,3,38.5000011749268,8|8|8|8,0:0|0:0|0:0|0:0,0:0:0:0:
326,54,18395,2,0,L|323:8,3,38.5000011749268,10|10|10|10,0:0|0:0|0:0|0:0,0:0:0:0:
364,35,18728,6,0,B|412:24|412:24|480:52|476:127,1,167.999994873047,4|8,1:0|0:0,0:0:0:0:
437,205,19228,1,2,1:2:0:0:
437,205,19395,2,0,P|426:247|437:307,1,83.9999974365235,10|0,0:0|1:0,0:0:0:0:
480,359,19728,1,10,0:0:0:0:
388,371,19895,2,0,P|339:360|286:360,1,83.9999974365235,0|2,1:0|1:2,0:0:0:0:
218,327,20228,2,0,P|169:338|116:338,1,83.9999974365235,2|8,0:0|0:0,0:0:0:0:
48,344,20561,5,2,1:2:0:0:
2,250,20728,2,0,P|-1:199|16:157,1,83.9999974365235,10|2,0:0|1:2,0:0:0:0:
69,87,21061,1,10,0:0:0:0:
69,87,21228,1,0,1:2:0:0:
6,1,21395,6,0,P|72:50|151:31,1,167.999994873047,4|10,1:0|0:0,0:0:0:0:
325,15,22061,2,0,P|350:56|338:113,1,83.9999974365235,10|0,0:0|1:0,0:0:0:0:
279,153,22395,1,10,0:0:0:0:
279,153,22561,1,0,1:0:0:0:
336,216,22728,2,0,P|225:224|195:149,1,167.999994873047,2|10,1:2|0:0,0:0:0:0:
131,117,23228,1,0,1:0:0:0:
131,117,23394,2,0,P|80:130|52:172,1,83.9999974365235,10|0,0:0|1:0,0:0:0:0:
14,232,23728,2,0,P|25:280|32:319,1,83.9999974365235,10|0,0:0|1:0,0:0:0:0:
192,358,24228,5,0,1:0:0:0:
192,358,24311,1,0,1:0:0:0:
192,358,24395,2,0,P|253:352|310:349,1,83.9999974365235,12|2,0:0|0:0,0:0:0:0:
175,217,24895,5,0,1:0:0:0:
175,217,24978,1,0,1:0:0:0:
175,217,25062,2,0,P|236:211|293:208,1,83.9999974365235,12|2,0:0|0:0,0:0:0:0:
158,76,25561,5,0,1:0:0:0:
158,76,25644,1,0,1:0:0:0:
158,76,25728,2,0,P|219:70|276:67,1,83.9999974365235,12|2,0:0|0:0,0:0:0:0:
424,53,26228,5,0,1:0:0:0:
424,53,26311,1,0,1:0:0:0:
424,53,26395,2,0,P|363:59|306:62,1,83.9999974365235,12|2,0:0|0:0,0:0:0:0:
441,194,26895,5,0,1:0:0:0:
441,194,26978,1,0,1:0:0:0:
441,194,27062,2,0,P|380:200|323:203,1,83.9999974365235,12|2,0:0|0:0,0:0:0:0:
458,335,27561,5,0,1:0:0:0:
458,335,27644,1,0,1:0:0:0:
458,335,27728,2,0,P|397:341|340:344,1,83.9999974365235,12|2,0:0|0:0,0:0:0:0:
312,192,28228,5,0,1:0:0:0:
312,192,28312,1,0,1:0:0:0:
312,192,28395,2,0,L|322:275,1,83.9999974365235,12|2,0:0|0:0,0:0:0:0:
298,95,28895,5,0,1:0:0:0:
298,95,28979,1,0,1:0:0:0:
298,95,29062,2,0,L|288:12,1,83.9999974365235,12|2,0:2|0:0,0:0:0:0:
312,192,29395,6,0,P|266:207|226:195,1,83.9999974365235,4|0,1:0|0:0,0:0:0:0:
165,131,29728,1,10,0:0:0:0:
165,131,29895,1,2,1:2:0:0:
66,157,30061,2,0,P|75:211|81:262,1,83.9999974365235,10|0,0:0|1:0,0:0:0:0:
172,283,30395,2,0,P|164:324|159:366,1,83.9999974365235,10|0,0:0|1:0,0:0:0:0:
64,373,30728,6,0,P|32:334|84:238,1,167.999994873047,2|10,1:2|0:0,0:0:0:0:
176,287,31228,1,0,1:0:0:0:
176,287,31395,2,0,P|216:278|261:277,1,83.9999974365235,10|0,0:0|1:0,0:0:0:0:
361,275,31728,1,10,0:0:0:0:
361,275,31895,1,0,1:0:0:0:
406,168,32061,2,0,P|394:117|405:-9,1,167.999994873047,2|10,1:2|0:0,0:0:0:0:
499,142,32728,6,0,P|446:146|417:159,1,83.9999974365235,10|0,0:0|1:0,0:0:0:0:
325,194,33061,2,0,P|272:190|243:177,1,83.9999974365235,10|0,0:0|1:0,0:0:0:0:
164,98,33395,2,0,B|110:102|110:102|92:93|92:93|45:101|-4:85,1,167.999994873047,2|10,1:2|0:0,0:0:0:0:
111,219,34061,2,0,P|126:260|125:306,1,83.9999974365235,10|0,0:0|1:0,0:0:0:0:
85,384,34395,1,10,0:0:0:0:
85,384,34561,1,0,1:0:0:0:
204,365,34728,6,0,B|234:326|284:320|284:320|326:338|362:315,1,167.999994873047,4|10,1:0|0:0,0:0:0:0:
429,251,35228,1,0,1:0:0:0:
429,251,35395,2,0,P|444:210|443:164,1,83.9999974365235,10|0,0:0|1:0,0:0:0:0:
403,86,35729,1,10,0:0:0:0:
403,86,35895,1,0,1:0:0:0:
305,29,36061,6,0,B|285:34|285:34|234:94|125:77,1,167.999994873047,2|10,1:2|0:0,0:0:0:0:
54,92,36561,1,0,1:0:0:0:
53,92,36728,2,0,P|52:50|72:14,1,83.9999974365235,10|0,0:0|1:0,0:0:0:0:
151,80,37061,2,0,L|147:179,1,83.9999974365235,10|0,0:0|1:0,0:0:0:0:
69,210,37395,6,0,B|125:187|185:214|185:214|242:191,1,167.999994873047,2|10,1:2|0:0,0:0:0:0:
301,122,37895,1,0,1:0:0:0:
301,122,38061,2,0,P|349:108|394:89,1,83.9999974365235,10|0,0:0|1:0,0:0:0:0:
433,170,38395,2,0,P|481:184|526:203,1,83.9999974365235,10|0,0:0|1:0,0:0:0:0:
502,296,38728,6,0,P|462:319|349:275,1,167.999994873047,2|10,1:2|0:0,0:0:0:0:
242,183,39395,2,0,P|194:173|165:193,1,83.9999974365235,10|0,0:0|1:0,0:0:0:0:
84,245,39728,2,0,P|101:297|106:338,1,83.9999974365235,10|0,0:0|1:0,0:0:0:0:
22,360,40061,6,0,P|15:305|99:244,1,154.000004699707,4|8,1:0|0:0,0:0:0:0:
171,195,40561,1,2,0:0:0:0:
171,195,40728,2,0,P|159:143|148:109,1,77.0000023498536,2|0,1:2|1:0,0:0:0:0:
235,74,41061,2,0,P|247:22|258:-12,1,77.0000023498536,8|2,0:0|0:0,0:0:0:0:
322,110,41395,6,0,P|338:164|360:275,1,154.000004699707,2|8,1:2|0:0,0:0:0:0:
215,325,42061,2,0,P|179:331|130:309,1,77.0000023498536,2|0,1:2|1:0,0:0:0:0:
83,244,42395,2,0,P|68:202|55:164,1,77.0000023498536,8|2,0:0|0:0,0:0:0:0:
30,81,42728,6,0,B|62:67|70:18|70:18|70:67|107:104,1,154.000004699707,2|8,1:2|0:0,0:0:0:0:
235,169,43395,1,2,1:2:0:0:
235,169,43561,1,0,1:0:0:0:
306,105,43728,2,0,P|352:119|390:123,1,77.0000023498536,8|2,0:0|0:0,0:0:0:0:
448,56,44061,6,0,P|421:102|453:205,1,154.000004699707,2|8,1:2|0:0,0:0:0:0:
510,342,44728,2,0,P|478:316|437:301,1,77.0000023498536,2|0,1:2|1:0,0:0:0:0:
346,320,45061,2,0,P|314:346|273:361,1,77.0000023498536,10|2,0:0|0:0,0:0:0:0:
267,362,45311,1,2,0:0:0:0:
253,362,45395,5,4,1:0:0:0:
165,235,45728,1,0,1:0:0:0:
88,101,46061,1,8,0:0:0:0:
224,18,46395,5,0,0:0:0:0:
224,18,46561,1,0,1:0:0:0:
332,137,46895,5,10,0:2:0:0:
330,147,46978,1,2,0:2:0:0:
329,158,47061,1,2,1:2:0:0:
345,253,47228,1,2,0:2:0:0:
363,348,47395,1,8,0:0:0:0:
474,228,47728,5,8,0:0:0:0:
456,133,47895,1,8,0:0:0:0:
440,38,48062,1,2,1:2:0:0:
329,158,48395,1,0,1:0:0:0:
218,278,48728,1,8,0:0:0:0:
80,193,49061,5,2,0:0:0:0:
80,193,49228,1,0,1:0:0:0:
39,50,49561,5,2,0:0:0:0:
39,50,49728,1,0,1:0:0:0:
197,75,50061,1,10,0:2:0:0:
355,100,50395,5,10,0:2:0:0:
268,144,50561,1,8,0:0:0:0:
252,238,50728,1,4,1:0:0:0:
482,358,51395,5,8,0:0:0:0:
394,227,51728,2,0,L|402:186,4,38.5000011749268,2|2|2|2|0,0:0|0:0|0:0|0:0|1:0,0:0:0:0:
309,357,52395,1,0,1:0:0:0:
152,351,52728,1,8,0:0:0:0:
252,238,53061,1,2,0:0:0:0:
144,122,53395,5,0,1:0:0:0:
143,133,54061,1,0,1:0:0:0:
142,144,54728,1,0,1:0:0:0:
141,155,55395,1,0,1:0:0:0:
152,249,55561,1,0,1:0:0:0:
164,342,55728,1,8,0:0:0:0:
243,149,56061,6,0,L|226:59,1,62.9999980773926,4|0,1:0|0:0,0:0:0:0:
328,128,56395,2,0,L|414:158,1,62.9999980773926,8|0,0:0|0:0,0:0:0:0:
303,212,56728,2,0,L|233:271,1,62.9999980773926,2|0,1:2|0:0,0:0:0:0:
316,317,57061,2,0,L|333:407,1,62.9999980773926,8|0,0:0|0:0,0:0:0:0:
231,338,57395,2,0,L|144:307,1,62.9999980773926,2|0,1:2|0:0,0:0:0:0:
254,252,57728,1,8,0:0:0:0:
387,148,58061,6,0,L|477:165,1,62.9999980773926,2|0,1:2|0:0,0:0:0:0:
408,63,58395,2,0,L|377:-23,1,62.9999980773926,8|0,0:0|0:0,0:0:0:0:
324,88,58728,1,2,1:2:0:0:
324,88,58895,2,0,L|264:157,1,62.9999980773926,2|8,0:0|0:0,0:0:0:0:
198,160,59228,2,0,L|246:298,1,125.999996154785,2|2,0:0|0:0,0:0:0:0:
205,365,59728,1,10,0:0:0:0:
205,365,59895,1,2,0:0:0:0:
48,376,60228,5,2,0:0:0:0:
48,376,60395,2,0,L|66:312,1,62.9999980773926,10|2,0:0|0:0,0:0:0:0:
81,220,60728,2,0,L|63:156,1,62.9999980773926,2|2,1:2|0:0,0:0:0:0:
88,60,61061,2,0,L|168:63,1,62.9999980773926,10|0,0:0|0:0,0:0:0:0:
270,66,61395,5,6,1:0:0:0:
368,200,61729,2,0,L|282:170,1,62.9999980773926,8|0,0:0|0:0,0:0:0:0:
225,142,62062,2,0,L|176:182,1,62.9999980773926,2|0,1:2|0:0,0:0:0:0:
270,66,62395,2,0,L|253:-24,1,62.9999980773926,8|0,0:0|0:0,0:0:0:0:
359,44,62729,2,0,L|446:75,1,62.9999980773926,2|0,1:2|0:0,0:0:0:0:
503,95,63062,1,8,0:0:0:0:
431,241,63395,6,0,L|361:216,1,62.9999980773926,2|0,1:2|0:0,0:0:0:0:
308,291,63728,2,0,L|238:316,1,62.9999980773926,8|0,0:0|0:0,0:0:0:0:
152,343,64061,1,2,1:2:0:0:
152,343,64228,1,2,0:0:0:0:
169,249,64395,2,0,L|152:180,1,62.9999980773926,10|2,0:0|0:0,0:0:0:0:
75,139,64728,2,0,L|126:89,1,62.9999980773926,2|2,1:2|0:0,0:0:0:0:
123,2,65061,1,10,0:0:0:0:
123,2,65228,6,0,L|253:41,1,125.999996154785,2|2,0:0|0:0,0:0:0:0:
337,68,65728,1,10,0:0:0:0:
337,68,65895,1,0,0:0:0:0:
432,49,66061,2,0,L|505:28,1,62.9999980773926,2|0,1:2|0:0,0:0:0:0:
406,129,66395,2,0,L|405:211,1,62.9999980773926,10|2,0:0|0:0,0:0:0:0:
405,292,66728,5,4,1:0:0:0:
243,235,67061,2,0,L|226:325,1,62.9999980773926,10|2,0:0|0:0,0:0:0:0:
328,256,67395,2,0,L|414:226,1,62.9999980773926,2|2,1:2|0:0,0:0:0:0:
303,172,67728,2,0,L|233:113,1,62.9999980773926,10|2,0:0|0:0,0:0:0:0:
316,67,68061,2,0,L|333:-23,1,62.9999980773926,2|2,1:2|0:0,0:0:0:0:
231,46,68395,2,0,L|144:77,1,62.9999980773926,10|2,0:0|0:0,0:0:0:0:
254,132,68728,1,2,1:2:0:0:
387,236,69061,6,0,L|477:219,1,62.9999980773926,10|2,0:0|0:0,0:0:0:0:
408,321,69395,2,0,L|386:380,1,62.9999980773926,2|2,1:2|0:0,0:0:0:0:
324,296,69728,2,0,L|282:248,1,62.9999980773926,10|2,0:0|0:0,0:0:0:0:
198,224,70061,1,2,1:2:0:0:
198,224,70228,2,0,L|222:155,1,62.9999980773926,2|10,0:0|0:0,0:0:0:0:
228,65,70561,1,2,0:0:0:0:
82,25,70895,5,2,0:0:0:0:
82,25,71062,2,0,L|100:89,1,62.9999980773926,10|0,0:0|0:0,0:0:0:0:
115,181,71395,2,0,L|97:245,1,62.9999980773926,2|0,1:2|0:0,0:0:0:0:
122,341,71728,2,0,L|202:338,1,62.9999980773926,10|0,0:0|0:0,0:0:0:0:
298,319,72061,5,4,1:0:0:0:
368,184,72395,2,0,L|282:214,1,62.9999980773926,10|2,0:0|0:0,0:0:0:0:
225,242,72728,2,0,L|176:202,1,62.9999980773926,2|2,1:2|0:0,0:0:0:0:
270,318,73061,2,0,L|253:408,1,62.9999980773926,10|2,0:0|0:0,0:0:0:0:
359,340,73395,2,0,L|446:309,1,62.9999980773926,2|2,1:2|0:0,0:0:0:0:
503,289,73728,1,10,0:0:0:0:
431,143,74061,6,0,L|361:168,1,62.9999980773926,2|2,1:2|0:0,0:0:0:0:
308,93,74394,2,0,L|238:68,1,62.9999980773926,10|2,0:0|0:0,0:0:0:0:
152,41,74727,1,2,1:2:0:0:
152,41,74894,1,2,0:0:0:0:
169,135,75061,2,0,L|152:204,1,62.9999980773926,10|2,0:0|0:0,0:0:0:0:
69,277,75394,2,0,L|120:327,1,62.9999980773926,2|2,1:2|0:0,0:0:0:0:
211,383,75728,2,0,L|294:357,1,62.9999980773926,10|2,0:0|0:0,0:0:0:0:
303,261,76061,5,2,1:2:0:0:
440,338,76395,2,0,L|513:359,1,62.9999980773926,10|0,0:0|0:0,0:0:0:0:
414,258,76729,2,0,L|413:176,1,62.9999980773926,2|0,1:2|0:0,0:0:0:0:
407,98,77062,1,10,0:0:0:0:
407,98,77228,1,0,0:0:0:0:
309,43,77395,6,0,P|272:54|141:79,1,168,4|2,1:0|0:0,0:0:0:0:
78,152,78061,2,0,P|115:163|246:188,1,168,8|0,0:0|1:0,0:0:0:0:
319,250,78728,1,2,1:2:0:0:
319,250,78895,1,8,0:0:0:0:
277,336,79061,2,0,P|231:343|205:329,1,56,8|0,0:0|1:0,0:0:0:0:
130,358,79395,1,8,0:0:0:0:
43,228,79728,5,8,0:0:0:0:
44,141,79895,1,8,0:0:0:0:
49,56,80061,2,0,P|94:64|169:66,1,112,2|0,1:2|1:0,0:0:0:0:
300,140,80728,2,0,P|359:137|417:127,1,112,8|2,0:0|1:2,0:0:0:0:
477,77,81228,1,10,0:0:0:0:
455,235,81561,5,8,0:0:0:0:
377,288,81728,2,0,P|339:271|303:258,1,56,0|0,1:0|1:0,0:0:0:0:
241,276,82061,2,0,P|204:285|114:298,1,112,10|10,0:0|0:0,0:0:0:0:
155,205,82561,1,8,0:0:0:0:
240,164,82728,6,0,P|292:173|477:184,1,224,4|8,1:0|0:0,0:0:0:0:
362,56,83728,1,2,0:0:0:0:
362,56,83895,2,0,P|314:65|239:84,1,112,2|0,1:2|0:0,0:0:0:0:
164,113,84395,2,0,P|117:96|92:87,1,56,0|2,1:0|0:0,0:0:0:0:
19,109,84728,1,8,0:0:0:0:
55,274,85061,5,8,0:0:0:0:
146,300,85228,1,8,0:0:0:0:
232,267,85395,1,2,1:2:0:0:
244,270,86061,1,0,1:0:0:0:
256,274,86728,1,0,1:0:0:0:
496,352,87395,5,0,1:0:0:0:
496,352,87561,2,0,P|479:314|458:167,1,168,0|2,1:0|3:2,0:0:0:0:
