osu file format v14

[General]
AudioFilename: audio.mp3
AudioLeadIn: 0
PreviewTime: 475
Countdown: 0
SampleSet: Soft
StackLeniency: 0.9
Mode: 0
LetterboxInBreaks: 0
WidescreenStoryboard: 1

[Editor]
DistanceSpacing: 0.8
BeatDivisor: 4
GridSize: 32
TimelineZoom: 2.5

[Metadata]
Title:Kako ni Torawarete Iru
TitleUnicode:過去に囚われている
Artist:TUYU
ArtistUnicode:ツユ
Creator:Keqing
Version:Seclusion
Source:
Tags:ima Trapped in the past tsuyu Akito ajisai- iljaaz mocaotic kowari fuju [_lost_] conner c_o_n_n_e_r Sarawatlism ぷす Pusu 礼衣 Reii おむたつ omutatsu japanese pop jpop j-pop
BeatmapID:2589321
BeatmapSetID:1245686

[Difficulty]
HPDrainRate:6
CircleSize:4.2
OverallDifficulty:8.6
ApproachRate:9.2
SliderMultiplier:1.74
SliderTickRate:1

[Events]
//Background and Video events
Video,-1472,"poggers.mp4"
0,0,"bg.jpg",0,0
//Break Periods
2,164098,167888
//Storyboard Layer 0 (Background)
//Storyboard Layer 1 (Fail)
//Storyboard Layer 2 (Pass)
//Storyboard Layer 3 (Foreground)
//Storyboard Layer 4 (Overlay)
//Storyboard Sound Samples

[TimingPoints]
-99,333.333333333333,4,2,4,60,1,0
567,-135.135135135135,4,2,4,60,0,1
734,-135.135135135135,4,2,4,60,0,0
1233,-119.047619047619,4,2,4,70,0,0
22566,-185.185185185185,4,2,4,60,0,0
23900,-119.047619047619,4,2,4,70,0,0
25900,333.333333333333,4,2,4,60,1,0
25900,-64.9350649350649,4,2,4,60,0,0
26233,-119.047619047619,4,2,4,60,0,0
28232,-64.9350649350649,4,2,4,60,0,0
28566,-57.4712643678161,4,2,4,60,0,0
28899,-119.047619047619,4,2,4,60,0,0
30899,-57.4712643678161,4,2,4,60,0,0
31232,-64.9350649350649,4,2,4,60,0,0
31566,-119.047619047619,4,2,4,60,0,0
33566,-64.9350649350649,4,2,4,60,0,0
33899,-57.4712643678161,4,2,4,60,0,0
34232,-119.047619047619,4,2,4,60,0,0
35233,-74.6268656716418,4,2,4,60,0,0
35899,-156.25,4,2,4,60,0,0
36565,-57.4712643678161,4,2,4,60,0,0
36899,-119.047619047619,4,2,4,60,0,0
38899,-64.9350649350649,4,2,4,60,0,0
39232,-57.4712643678161,4,2,4,60,0,0
39565,-119.047619047619,4,2,4,60,0,0
41566,-57.4712643678161,4,2,4,60,0,0
41899,-64.9350649350649,4,2,4,60,0,0
42233,-119.047619047619,4,2,4,60,0,0
44233,-57.4712643678161,4,2,4,60,0,0
44566,-51.5463917525773,4,2,4,60,0,0
44899,-119.047619047619,4,2,4,60,0,0
45899,-74.6268656716418,4,2,4,60,0,0
48566,-74.6268656716418,4,2,4,80,0,0
51233,-96.1538461538461,4,2,4,70,0,0
53899,-185.185185185185,4,2,4,50,0,0
54399,-135.135135135135,4,2,4,50,0,0
55233,-185.185185185185,4,2,4,50,0,0
55733,-135.135135135135,4,2,4,50,0,0
56566,-185.185185185185,4,2,4,50,0,0
57066,-135.135135135135,4,2,4,50,0,0
57899,-185.185185185185,4,2,4,50,0,0
58399,-135.135135135135,4,2,4,50,0,0
61899,-135.135135135135,4,2,4,60,0,0
64566,-80.6451612903225,4,2,4,80,0,0
75232,-106.382978723404,4,2,4,60,0,0
75899,-135.135135135135,4,2,4,60,0,0
77899,-106.382978723404,4,2,4,60,0,0
81815,-106.382978723404,4,2,4,5,0,0
81899,-106.382978723404,4,2,4,60,0,0
82566,-106.382978723404,4,2,4,70,0,1
82733,-106.382978723404,4,2,4,70,0,0
83232,-106.382978723404,4,2,4,70,0,0
104565,-185.185185185185,4,2,4,60,0,0
105733,-185.185185185185,4,2,4,70,0,0
105898,-119.047619047619,4,2,4,70,0,0
107899,333.333333333333,4,2,4,80,1,0
107899,-74.6268656716418,4,2,4,80,0,0
110565,-96.1538461538461,4,2,4,70,0,0
113231,-185.185185185185,4,2,4,50,0,0
113731,-135.135135135135,4,2,4,50,0,0
114565,-185.185185185185,4,2,4,50,0,0
115065,-135.135135135135,4,2,4,50,0,0
115898,-185.185185185185,4,2,4,50,0,0
116398,-135.135135135135,4,2,4,50,0,0
117231,-185.185185185185,4,2,4,50,0,0
117731,-135.135135135135,4,2,4,50,0,0
121065,-135.135135135135,4,2,4,60,0,0
123398,-135.135135135135,4,2,4,70,0,0
123898,-80.6451612903225,4,2,4,80,0,0
134565,-106.382978723404,4,2,4,60,0,0
135232,-135.135135135135,4,2,4,60,0,0
137232,-106.382978723404,4,2,4,60,0,0
141148,-106.382978723404,4,2,4,5,0,0
141232,-185.185185185184,4,2,4,50,0,0
147232,-135.135135135135,4,2,4,60,0,1
147398,-135.135135135135,4,2,4,60,0,0
147898,-106.382978723404,4,2,4,60,0,0
169232,-80.6451612903224,4,2,4,60,0,0
170398,-80.6451612903224,4,2,4,70,0,0
173232,-80.6451612903225,4,2,4,80,0,1
194565,-106.382978723404,4,2,4,60,0,0
194898,-135.135135135135,4,2,4,60,0,0
197232,-106.382978723404,4,2,4,60,0,0
201232,-185.185185185184,4,2,4,60,0,0
201898,-135.135135135135,4,2,4,70,0,1
202065,-135.135135135135,4,2,4,70,0,0
202565,-96.1538461538461,4,2,4,70,0,0
221228,370.37037037037,4,2,4,50,1,0
221228,-277.777777777778,4,2,4,50,0,0
222398,-87.719298245614,4,2,4,50,0,0
222616,400,4,2,4,50,1,0
222816,480,4,2,4,50,1,0
223416,638.297872340426,4,2,4,50,1,0
223628,545.454545454546,4,2,4,50,1,0
223991,521.739130434783,4,2,4,50,1,0
224164,631.578947368421,4,2,4,50,1,0

[Colours]
Combo1 : 193,148,201
Combo2 : 140,236,203
Combo3 : 153,177,208
Combo4 : 232,87,87

[HitObjects]
256,192,567,38,0,L|256:256,1,64.3800015717774,2|2,3:2|0:0,0:0:0:0:
465,48,1067,5,2,0:0:0:0:
490,118,1233,2,0,P|432:130|376:47,1,146.159995539551,6|10,3:2|0:0,0:0:0:0:
257,191,1733,2,0,P|292:179|333:172,1,73.0799977697755,2|2,3:2|0:0,0:0:0:0:
464,323,2066,1,0,3:2:0:0:
512,264,2233,2,0,P|500:226|492:185,1,73.0799977697755,10|0,0:0|0:0,0:0:0:0:
312,290,2567,6,0,P|274:301|228:323,1,73.0799977697755,2|2,3:2|0:0,0:0:0:0:
350,190,2899,1,10,0:0:0:0:
211,126,3066,1,0,3:2:0:0:
257,191,3233,21,2,0:0:0:0:
318,97,3400,2,0,P|310:62|307:15,1,73.0799977697755,2|8,3:2|0:0,0:0:0:0:
234,0,3733,1,0,0:0:0:0:
95,120,3900,6,0,P|101:87|105:45,1,73.0799977697755,2|2,3:2|0:0,0:0:0:0:
211,126,4234,1,8,0:0:0:0:
34,231,4400,2,0,P|90:211|152:261,1,146.159995539551,2|2,3:2|3:2,0:0:0:0:
259,336,4900,2,0,P|221:343|184:359,1,73.0799977697755,10|0,0:0|0:0,0:0:0:0:
314,236,5234,6,0,B|407:245|367:281|463:290,1,146.159995539551,2|10,3:2|0:0,0:0:0:0:
311,138,5734,1,0,3:2:0:0:
256,192,5900,21,2,0:0:0:0:
393,65,6067,2,0,P|393:102|403:149,1,73.0799977697755,2|8,3:2|0:0,0:0:0:0:
283,40,6400,1,2,0:0:0:0:
154,131,6567,6,0,P|99:140|55:55,1,146.159995539551,6|10,3:2|0:0,0:0:0:0:
260,201,7067,2,0,P|250:238|245:283,1,73.0799977697755,0|2,3:2|0:0,0:0:0:0:
108,354,7400,1,0,3:2:0:0:
28,242,7567,2,0,P|35:275|39:315,1,73.0799977697755,10|0,0:0|0:0,0:0:0:0:
192,141,7900,5,2,3:2:0:0:
119,109,8067,1,2,0:0:0:0:
245,272,8234,1,8,0:0:0:0:
170,294,8400,1,0,3:2:0:0:
256,192,8567,21,2,0:0:0:0:
303,334,8734,1,0,3:2:0:0:
97,216,8900,2,0,L|123:87,1,109.619996654663,8|0,0:0|0:0,0:0:0:0:
101,36,9234,6,0,B|144:27|171:51|171:51|196:95|243:86,1,146.159995539551,2|8,3:2|0:0,0:0:0:0:
351,17,9734,1,2,3:2:0:0:
416,53,9900,2,0,P|422:88|435:133,1,73.0799977697755,2|0,0:0|3:2,0:0:0:0:
242,16,10234,2,0,P|238:52|224:96,1,73.0799977697755,10|0,0:0|0:0,0:0:0:0:
365,282,10567,5,2,3:2:0:0:
341,212,10734,1,2,0:0:0:0:
220,337,10900,1,10,0:0:0:0:
291,362,11067,1,0,3:2:0:0:
256,192,11234,21,2,0:0:0:0:
202,250,11400,2,0,L|117:274,1,73.0799977697755,2|8,3:2|0:0,0:0:0:0:
23,132,11734,1,10,0:0:0:0:
23,132,11817,1,8,0:0:0:0:
23,132,11900,6,0,B|49:103|89:117|89:117|108:163|170:162,1,146.159995539551,6|8,3:2|0:0,0:0:0:0:
275,28,12400,2,0,P|236:22|193:9,1,73.0799977697755,0|2,3:2|0:0,0:0:0:0:
362,165,12734,1,2,3:2:0:0:
235,275,12900,2,0,P|269:264|315:259,1,73.0799977697755,10|2,0:0|0:0,0:0:0:0:
416,96,13233,6,0,P|468:99|509:184,1,146.159995539551,2|10,3:2|0:0,0:0:0:0:
359,39,13733,1,0,3:2:0:0:
256,192,13899,21,2,0:0:0:0:
206,132,14067,2,0,P|214:96|221:48,1,73.0799977697755,2|8,3:2|0:0,0:0:0:0:
332,159,14400,1,2,0:0:0:0:
218,271,14567,6,0,P|177:278|137:295,1,73.0799977697755,2|2,3:2|0:0,0:0:0:0:
42,197,14900,1,10,0:0:0:0:
143,299,15067,2,0,P|182:343|280:314,1,146.159995539551,2|2,3:2|3:2,0:2:0:0:
421,182,15567,1,10,0:0:0:0:
312,248,15734,1,2,0:0:0:0:
408,347,15900,6,0,P|420:311|420:264,1,73.0799977697755,2|0,3:2|0:0,0:0:0:0:
234,54,16234,2,0,P|223:90|221:141,1,73.0799977697755,10|0,0:0|3:2,0:0:0:0:
256,192,16567,21,2,0:0:0:0:
139,299,16734,2,0,P|103:309|70:322,1,73.0799977697755,2|8,3:2|0:0,0:0:0:0:
15,270,17067,1,2,0:0:0:0:
209,336,17234,6,0,B|261:346|261:346|281:370|281:370|346:380,1,146.159995539551,6|10,3:2|0:0,0:0:0:0:
206,254,17734,1,0,3:2:0:0:
349,139,17900,1,2,0:0:0:0:
280,162,18067,1,0,3:2:0:0:
402,291,18234,2,0,P|407:252|417:214,1,73.0799977697755,10|0,0:0|0:0,0:0:0:0:
248,66,18567,6,0,P|265:116|357:135,1,146.159995539551,2|8,3:2|0:0,0:0:0:0:
206,254,19067,2,0,B|129:277|129:277|97:251|115:218,1,146.159995539551,2|2,3:2|3:2,0:0:0:0:
295,348,19567,1,10,0:0:0:0:
223,373,19734,1,2,0:0:0:0:
334,264,19900,6,0,P|365:281|420:292,1,73.0799977697755,0|0,3:2|0:0,0:0:0:0:
280,162,20234,1,8,0:0:0:0:
444,30,20400,2,0,P|389:12|322:69,1,146.159995539551,0|0,3:2|3:2,0:0:0:0:
438,197,20900,1,8,0:0:0:0:
296,347,21150,21,8,0:0:0:0:
312,336,21234,2,0,L|326:250,1,73.0799977697755,2|0,3:2|0:0,0:0:0:0:
501,365,21567,2,0,L|490:285,1,73.0799977697755,10|2,0:0|3:2,0:0:0:0:
408,384,21900,1,0,0:0:0:0:
270,202,22067,5,2,3:2:0:0:
240,230,22150,1,2,3:2:0:0:
249,265,22234,1,8,0:0:0:0:
428,154,22400,1,8,0:0:0:0:
336,85,22567,6,0,B|322:43|278:35|278:35|400:57|327:138|442:157,1,281.880006881836,2|0,0:0|3:2,0:0:0:0:
253,270,23733,1,8,0:0:0:0:
253,270,23816,1,8,0:0:0:0:
253,270,23900,22,0,L|78:313,1,146.159995539551,4|2,3:2|3:2,0:0:0:0:
252,384,24400,2,0,L|198:368,1,36.5399988848877,2|8,0:0|0:0,0:0:0:0:
348,254,24567,1,0,3:2:0:0:
234,67,24734,1,8,0:0:0:0:
204,108,24817,1,8,0:0:0:0:
210,154,24900,1,8,0:0:0:0:
240,188,24984,1,8,0:0:0:0:
266,228,25067,1,8,0:0:0:0:
252,269,25150,1,8,0:0:0:0:
501,98,25900,38,0,B|509:53|476:23|476:23|499:46|490:86,1,133.979997342316,4|0,3:2|0:0,0:0:0:0:
364,110,26233,6,0,L|275:129,1,73.0799977697755,10|2,0:1|0:0,0:0:0:0:
384,188,26566,1,10,0:1:0:0:
254,271,26733,2,0,L|339:292,1,73.0799977697755,2|8,0:0|0:1,0:0:0:0:
230,198,27066,1,2,0:0:0:0:
332,296,27233,6,0,B|281:306|281:306|257:334|257:334|189:347,1,146.159995539551,8|10,0:1|0:1,0:0:0:0:
308,212,27733,1,2,0:0:0:0:
166,130,27899,2,0,L|153:41,1,73.0799977697755,8|2,0:1|0:0,0:0:0:0:
0,256,28232,22,0,B|40:190|118:218|118:218|86:249|89:290,1,200.969996013474,6|0,3:2|0:0,0:0:0:0:
165,280,28566,2,0,B|218:296|218:296|240:337|240:337|287:350,1,151.380001270432,4|0,3:2|0:0,0:0:0:0:
419,167,28899,6,0,P|347:158|308:223,2,146.159995539551,10|10|8,0:1|0:1|0:1,0:0:0:0:
487,135,29733,1,2,0:0:0:0:
357,33,29899,2,0,P|324:48|276:58,1,73.0799977697755,10|0,0:1|0:0,0:0:0:0:
175,171,30233,2,0,P|138:161|99:133,1,73.0799977697755,10|0,0:1|0:0,0:0:0:0:
79,73,30566,1,10,0:1:0:0:
311,296,30899,38,0,B|321:264|363:255|363:255|206:299,1,227.070001905647,6|0,3:2|0:0,0:0:0:0:
169,361,31233,2,0,P|109:362|68:295,1,133.979997342316,4|0,3:2|0:0,0:0:0:0:
193,132,31566,6,0,L|209:228,1,73.0799977697755,10|2,0:1|0:0,0:0:0:0:
147,254,31899,1,10,0:1:0:0:
303,368,32066,2,0,L|312:284,1,73.0799977697755,2|8,0:0|0:1,0:0:0:0:
446,199,32399,1,2,0:0:0:0:
497,251,32566,6,0,L|511:336,1,73.0799977697755,8|2,0:1|0:0,0:0:0:0:
351,188,32899,2,0,L|266:163,1,73.0799977697755,8|2,0:1|0:0,0:0:0:0:
433,83,33233,1,10,0:1:0:0:
276,174,33566,22,0,B|201:201|201:201|143:193|116:132|179:100,1,200.969996013474,6|0,3:2|0:0,0:0:0:0:
134,45,33899,2,0,B|175:42|205:3|205:3|201:44|230:85,1,151.380001270432,4|0,3:2|0:0,0:0:0:0:
159,210,34233,6,0,P|116:248|54:245,1,109.619996654663,10|0,0:1|0:0,0:0:0:0:
0,293,34566,6,0,P|47:279|109:359,1,146.159995539551,10|8,0:1|0:1,0:1:0:0:
21,172,35066,1,2,0:0:0:0:
108,355,35233,6,0,B|181:371|222:312|199:304|247:239|327:268,1,233.159988971009,4|2,3:2|0:0,0:0:0:0:
376,231,35733,1,2,0:0:0:0:
472,380,35899,2,0,B|430:368|430:368|415:346|415:346|361:330,1,111.36,2|2,0:0|0:0,0:0:0:0:
480,289,36399,1,2,0:0:0:0:
348,158,36566,6,0,B|318:174|281:188|281:188|297:225|310:278,1,151.380001270432,4|0,3:2|0:0,0:0:0:0:
456,121,36899,6,0,L|470:32,1,73.0799977697755,10|2,0:1|0:0,0:0:0:0:
317,0,37233,1,10,0:1:0:0:
379,57,37344,6,0,L|382:32,2,24.3599992565918,2|2|2,0:1|0:1|0:1,0:1:0:0:
304,90,37566,1,8,0:1:0:0:
304,90,37733,6,0,P|260:99|200:20,1,146.159995539551,2|2,0:0|0:0,0:0:0:0:
348,158,38233,1,10,0:1:0:0:
282,189,38399,1,2,0:0:0:0:
423,296,38566,2,0,L|510:318,1,73.0799977697755,10|0,0:1|0:0,0:0:0:0:
282,189,38899,6,0,B|270:150|270:150|340:190|340:190|310:300,1,200.969996013474,6|0,3:2|0:0,0:0:0:0:
259,314,39233,2,0,B|203:327|203:327|185:357|185:357|109:373,1,151.380001270432,4|0,3:2|0:0,0:0:0:0:
27,241,39566,6,0,L|117:266,1,73.0799977697755,10|0,0:1|0:0,0:0:0:0:
0,330,39899,1,8,0:1:0:0:
127,369,40066,5,2,0:0:0:0:
11,146,40287,5,2,0:0:0:0:
229,29,40566,21,10,0:1:0:0:
156,4,40733,1,2,0:0:0:0:
233,116,40899,2,0,L|214:178,2,48.7199985131836,10|2|2,0:1|0:0|0:0,0:0:0:0:
301,72,41233,2,0,L|388:54,1,73.0799977697755,10|2,0:1|0:0,0:0:0:0:
492,216,41566,38,0,B|438:238|372:203|370:137|370:137|376:173|406:189,1,227.070001905647,4|0,3:2|0:0,0:0:0:0:
331,229,41899,2,0,B|256:214|290:169|197:159,1,133.979997342316,4|2,3:2|0:0,0:0:0:0:
97,282,42233,5,10,0:1:0:0:
164,244,42399,1,2,0:0:0:0:
64,121,42566,1,10,0:1:0:0:
136,145,42733,1,2,0:0:0:0:
43,213,42899,6,0,L|19:220,1,18.2699994424439,10|0,0:1|0:0,0:0:0:0:
131,70,43066,1,2,0:0:0:0:
224,288,43233,6,0,L|248:295,1,18.2699994424439,10|0,0:1|0:0,0:0:0:0:
136,145,43398,1,2,0:0:0:0:
60,344,43566,21,10,0:1:0:0:
228,198,43733,2,0,B|281:188|303:224|295:225|325:266|378:245,1,146.159995539551,2|2,0:0|0:0,0:0:0:0:
222,59,44233,38,0,B|135:50|155:110|76:103|76:103|92:63|142:70,1,227.070001905647,6|0,3:2|0:0,0:0:0:0:
196,133,44566,2,0,L|162:307,1,168.780003991837,4|0,3:2|0:0,0:0:0:0:
362,158,44899,6,0,L|347:73,1,73.0799977697755,10|2,0:1|0:0,0:0:0:0:
451,243,45233,2,0,L|531:268,1,73.0799977697755,10|2,0:1|0:0,0:0:0:0:
340,310,45566,2,0,L|315:394,1,73.0799977697755,10|2,0:1|0:0,0:0:0:0:
370,242,45899,6,0,B|309:228|309:228|288:179|288:179|228:165,1,174.869991728257,4|0,3:2|0:0,0:0:0:0:
179,112,46233,1,2,0:0:0:0:
370,242,46566,5,2,3:2:0:0:
127,384,46733,1,8,0:0:0:0:
105,348,46816,1,8,0:0:0:0:
108,306,46899,1,8,0:0:0:0:
135,281,46983,1,8,0:0:0:0:
168,246,47066,1,8,0:0:0:0:
162,199,47149,1,8,0:0:0:0:
21,18,48566,22,0,L|35:91,1,58.2899972427522,6|0,3:2|0:0,0:0:0:0:
256,192,48733,1,10,0:0:0:0:
491,30,49066,6,0,L|477:103,1,58.2899972427522,6|0,3:2|0:0,0:0:0:0:
256,204,49233,1,10,0:0:0:0:
502,361,49566,6,0,L|437:339,1,58.2899972427522,6|0,3:2|0:0,0:0:0:0:
257,179,49733,1,8,0:0:0:0:
13,350,50066,22,0,L|78:328,1,58.2899972427522,6|0,3:2|0:0,0:0:0:0:
257,162,50233,1,8,0:0:0:0:
256,0,50566,6,0,L|256:64,1,58.2899972427522,6|0,3:2|0:0,0:0:0:0:
306,235,50733,1,8,0:0:0:0:
256,256,50816,1,8,0:0:0:0:
209,233,50899,1,8,0:0:0:0:
336,114,51066,1,8,0:0:0:0:
463,253,51233,6,0,P|453:296|446:350,1,90.4799994477539,4|0,3:2|0:0,0:0:0:0:
381,185,51566,2,0,P|423:172|471:151,1,90.4799994477539,0|2,3:2|0:0,0:0:0:0:
327,305,51899,22,0,P|254:316|210:225,1,180.959998895508,2|0,3:2|3:2,0:0:0:0:
98,129,52399,1,2,0:0:0:0:
220,45,52566,2,0,P|208:87|199:139,1,90.4799994477539,2|0,3:2|0:0,0:0:0:0:
0,283,52899,2,0,P|11:240|21:189,1,90.4799994477539,2|0,3:2|0:0,0:0:0:0:
199,133,53233,5,2,3:2:0:0:
54,37,53399,1,8,0:0:0:0:
173,216,53566,5,0,3:2:0:0:
349,117,53733,1,8,0:0:0:0:
436,181,53899,22,0,L|447:293,1,93.9600022939454,0|2,3:2|0:0,0:0:0:0:
451,158,54399,2,0,L|469:364,1,193.140004715332,2|2,3:2|0:0,0:0:0:0:
205,51,55233,6,0,L|194:163,1,93.9600022939454,2|2,3:2|0:0,0:0:0:0:
190,28,55733,2,0,L|168:229,1,193.140004715332,2|2,3:2|0:0,0:0:0:0:
114,328,56566,6,0,P|75:354|28:355,1,93.9600022939454,2|2,3:2|0:0,0:0:0:0:
193,297,57066,2,0,B|137:279|97:321|109:323|70:359|1:339,1,193.140004715332,2|2,3:2|0:0,0:0:0:0:
275,175,57899,22,0,P|314:201|361:202,1,93.9600022939454,2|0,3:2|0:0,0:0:0:0:
195,144,58399,2,0,B|251:126|291:168|279:170|318:206|387:186,1,193.140004715332,2|2,3:2|0:0,0:0:0:0:
428,136,59233,5,2,0:0:0:0:
433,126,59399,1,2,0:0:0:0:
435,110,59566,1,2,0:0:0:0:
427,97,59733,1,2,0:0:0:0:
370,46,59899,5,2,0:0:0:0:
357,48,60066,1,2,0:0:0:0:
344,52,60233,1,2,0:0:0:0:
330,58,60399,1,2,0:0:0:0:
296,121,60566,21,2,0:0:0:0:
270,116,60733,1,2,0:0:0:0:
245,111,60899,1,2,0:0:0:0:
218,105,61066,1,2,0:0:0:0:
173,43,61233,5,2,0:0:0:0:
140,38,61399,1,2,0:0:0:0:
109,54,61566,1,2,0:0:0:0:
94,89,61733,1,2,0:0:0:0:
98,121,61899,5,0,3:2:0:0:
284,25,62066,1,0,3:2:0:0:
271,241,62233,1,0,3:2:0:0:
218,124,62399,1,0,3:2:0:0:
167,318,62566,21,0,3:2:0:0:
200,354,62649,1,0,3:2:0:0:
245,365,62733,1,0,3:2:0:0:
289,351,62816,1,0,3:2:0:0:
317,320,62899,5,2,3:2:0:0:
354,212,63066,1,0,3:2:0:0:
450,260,63233,2,0,L|519:275,1,64.3800015717774,10|2,3:1|0:0,0:0:0:0:
354,212,63566,5,10,0:1:0:0:
315,112,63733,1,10,0:1:0:0:
354,212,64233,21,2,0:0:0:0:
168,287,64566,6,0,B|236:306|268:246|248:250|295:180|368:217,1,215.759991440186,6|8,3:2|0:0,0:0:0:0:
458,327,65066,2,0,P|388:347|334:259,1,161.819993580139,2|0,0:0|0:0,0:0:0:0:
353,211,65399,2,0,L|423:191,1,53.9399978600465,0|0,3:2|3:2,0:0:0:0:
512,161,65566,1,10,0:0:0:0:
378,18,65732,1,2,3:2:0:0:
390,22,65816,1,0,3:2:0:0:
404,25,65899,6,0,B|423:76|423:76|392:135,1,107.879995720093,2|0,3:2|3:2,0:0:0:0:
279,232,66232,1,10,0:0:0:0:
258,164,66399,1,0,3:2:0:0:
405,270,66566,1,2,3:2:0:0:
319,342,66732,1,0,3:2:0:0:
303,347,66816,1,0,3:2:0:0:
290,351,66899,1,10,0:0:0:0:
193,141,67066,21,8,0:0:0:0:
228,154,67149,1,8,0:0:0:0:
258,164,67232,6,0,B|181:186|181:186|150:240|150:240|72:261,1,215.759991440186,4|10,3:2|0:0,0:0:0:0:
296,79,67732,2,0,L|400:107,1,107.879995720093,2|2,0:0|0:0,0:0:0:0:
243,0,68066,1,0,3:2:0:0:
356,191,68232,1,10,0:0:0:0:
496,36,68399,2,0,L|439:49,1,53.9399978600465,0|0,3:2|3:2,0:0:0:0:
287,255,68566,6,0,L|413:291,1,107.879995720093,2|0,3:2|3:2,0:0:0:0:
193,141,68899,1,8,0:0:0:0:
296,79,69066,1,0,3:2:0:0:
182,247,69232,1,0,3:2:0:0:
145,268,69316,1,0,3:2:0:0:
100,263,69399,1,0,3:2:0:0:
66,233,69482,1,0,3:2:0:0:
49,196,69566,22,0,L|63:130,1,53.9399978600465,10|0,0:0|0:0,0:0:0:0:
244,325,69732,1,8,0:0:0:0:
244,325,69816,1,8,0:0:0:0:
244,325,69899,6,0,P|310:346|385:227,1,215.759991440186,4|10,3:2|0:0,0:0:0:0:
510,119,70399,1,0,3:2:0:0:
384,41,70566,5,10,0:0:0:0:
473,204,70732,1,0,3:2:0:0:
324,124,70899,21,10,0:0:0:0:
488,27,71066,1,0,3:2:0:0:
389,244,71232,5,10,0:0:0:0:
258,52,71399,1,0,3:2:0:0:
179,102,71566,5,10,0:0:0:0:
116,294,71732,1,0,3:2:0:0:
34,241,71899,21,10,0:0:0:0:
227,167,72065,1,0,3:2:0:0:
247,174,72149,1,0,3:2:0:0:
267,182,72232,1,10,0:0:0:0:
75,42,72399,1,8,0:0:0:0:
41,86,72482,1,8,0:0:0:0:
69,127,72565,6,0,B|178:103|150:205|272:181,1,215.759991440186,6|8,3:2|0:0,0:0:0:0:
421,318,73065,1,2,0:0:0:0:
310,374,73232,5,4,3:2:0:0:
425,212,73399,1,0,3:2:0:0:
309,384,73565,1,8,0:0:0:0:
179,102,73815,21,8,0:0:0:0:
168,123,73899,2,0,L|186:250,1,107.879995720093,14|0,0:0|3:2,0:0:0:0:
355,81,74232,1,10,0:0:0:0:
310,263,74399,1,0,3:2:0:0:
261,120,74565,5,10,0:0:0:0:
425,212,74732,1,2,3:2:0:0:
205,333,74899,6,0,L|275:319,1,53.9399978600465,8|0,0:0|0:0,0:0:0:0:
446,203,75065,2,0,L|508:190,1,53.9399978600465,8|0,0:0|0:0,0:0:0:0:
446,332,75232,22,0,B|388:317|388:317|362:275|362:275|288:258,1,163.559997504273,6|0,3:2|3:2,0:0:0:0:
282,194,75732,1,2,0:0:0:0:
427,55,75899,2,0,L|444:134,1,64.3800015717774,2|0,3:2|0:0,0:0:0:0:
302,31,76232,2,0,L|225:8,1,64.3800015717774,0|0,3:2|0:0,0:0:0:0:
77,175,76565,6,0,P|140:186|184:119,1,128.760003143555,2|0,3:2|3:2,0:0:0:0:
177,66,77065,1,2,0:0:0:0:
282,194,77232,2,0,L|267:271,1,64.3800015717774,2|0,3:2|0:0,0:0:0:0:
146,379,77565,1,0,3:2:0:0:
123,307,77732,5,2,0:0:0:0:
124,296,77815,1,2,0:0:0:0:
126,288,77899,22,0,B|216:277|188:353|303:341,1,163.559997504273,6|0,3:2|3:2,0:0:0:0:
146,210,78399,1,2,0:0:0:0:
290,109,78566,2,0,L|194:136,1,81.7799987521363,2|0,3:2|0:0,0:0:0:0:
361,245,78899,1,2,3:2:0:0:
384,171,79065,1,2,0:0:0:0:
269,257,79232,5,2,3:2:0:0:
427,343,79399,1,0,3:2:0:0:
302,184,79565,1,2,3:2:0:0:
126,288,79732,1,0,3:2:0:0:
361,245,79899,5,2,3:2:0:0:
393,206,79982,1,0,3:2:0:0:
391,158,80065,1,2,3:2:0:0:
353,117,80149,1,0,3:2:0:0:
337,120,80232,21,2,3:2:0:0:
301,87,80315,1,0,3:2:0:0:
299,39,80399,1,0,3:2:0:0:
335,11,80482,1,0,3:2:0:0:
401,58,80566,6,0,B|308:43|256:112|305:123|290:280|101:332|26:67|180:-35|305:123|256:112|353:207|435:176,1,613.349990641022,4|0,3:2|0:0,0:0:0:0:
448,164,81899,1,0,3:2:0:0:
256,192,82566,22,0,L|160:192,1,81.7799987521363,2|2,3:2|0:0,0:0:0:0:
68,381,83065,5,2,0:0:0:0:
0,262,83233,2,0,P|69:259|120:337,1,163.559997504273,6|10,3:2|0:0,0:0:0:0:
256,192,83733,2,0,P|288:185|341:174,1,81.7799987521363,2|2,3:2|0:0,0:0:0:0:
185,99,84065,1,2,3:2:0:0:
300,18,84233,2,0,P|291:53|282:100,1,81.7799987521363,10|0,0:0|0:0,0:0:0:0:
430,245,84565,5,2,3:2:0:0:
376,110,84732,1,2,0:0:0:0:
430,245,84899,2,0,P|422:282|417:333,1,81.7799987521363,10|0,0:0|3:2,0:0:0:0:
256,192,85232,21,2,0:0:0:0:
376,110,85399,2,0,P|410:105|455:93,1,81.7799987521363,2|8,3:2|0:0,0:0:0:0:
300,18,85732,1,2,0:0:0:0:
454,86,85899,6,0,P|396:75|352:160,1,163.559997504273,2|10,3:2|0:0,0:0:0:0:
223,277,86399,2,0,P|186:289|136:313,1,81.7799987521363,2|2,3:2|0:0,0:0:0:0:
43,209,86732,1,2,3:2:0:0:
165,117,86899,2,0,P|127:111|86:93,1,81.7799987521363,10|2,0:0|0:0,0:0:0:0:
224,277,87233,6,0,B|310:287|281:332|370:345,1,163.559997504273,2|10,3:2|0:0,0:0:0:0:
172,221,87732,1,0,3:2:0:0:
256,192,87898,21,2,0:0:0:0:
147,306,88065,1,2,3:2:0:0:
87,93,88232,1,8,0:0:0:0:
368,345,88566,6,0,P|426:358|472:279,1,163.559997504273,6|10,3:2|0:0,0:0:0:0:
372,181,89065,1,2,3:2:0:0:
432,128,89233,2,0,P|468:138|511:153,1,81.7799987521363,2|2,0:0|3:2,0:0:0:0:
348,265,89566,2,0,P|309:273|265:286,1,81.7799987521363,10|2,0:0|0:0,0:0:0:0:
185,78,89899,6,0,P|245:59|305:131,1,163.559997504273,2|10,3:2|0:0,0:0:0:0:
348,265,90399,1,0,3:2:0:0:
256,192,90565,21,2,0:0:0:0:
418,47,90733,2,0,P|422:85|432:128,1,81.7799987521363,2|8,3:2|0:0,0:0:0:0:
267,29,91065,1,2,0:0:0:0:
156,175,91233,6,0,P|100:182|55:97,1,163.559997504273,2|8,3:2|0:0,0:0:0:0:
217,267,91732,1,2,3:2:0:0:
98,328,91899,1,2,0:0:0:0:
138,262,92065,1,2,3:2:0:0:
240,351,92233,2,0,L|319:375,1,81.7799987521363,10|2,0:0|0:0,0:0:0:0:
457,215,92566,6,0,P|400:205|356:256,1,122.669998128204,2|0,3:2|0:0,0:0:0:0:
293,285,92899,1,8,0:0:0:0:
361,123,93065,1,0,3:2:0:0:
256,192,93232,21,2,0:0:0:0:
429,295,93399,1,2,3:2:0:0:
276,106,93565,1,8,0:0:0:0:
109,242,93732,1,10,0:0:0:0:
112,245,93815,1,8,0:0:0:0:
116,249,93899,6,0,P|111:284|97:335,1,81.7799987521363,4|2,3:2|0:0,0:0:0:0:
35,182,94232,1,10,0:0:0:0:
232,384,94399,2,0,P|255:339|196:253,1,163.559997504273,2|2,3:2|3:2,0:0:0:0:
60,107,94899,2,0,P|95:121|142:135,1,81.7799987521363,10|2,0:0|0:0,0:0:0:0:
37,205,95232,6,0,P|30:236|15:284,1,81.7799987521363,2|0,3:2|0:0,0:0:0:0:
197,52,95566,2,0,P|207:87|212:141,1,81.7799987521363,8|0,0:0|3:2,0:0:0:0:
256,192,95899,21,2,0:0:0:0:
368,42,96066,2,0,P|404:35|460:22,1,81.7799987521363,2|8,3:2|0:0,0:0:0:0:
501,72,96399,1,2,0:0:0:0:
376,191,96566,6,0,P|410:197|465:217,1,81.7799987521363,2|2,3:2|0:0,0:0:0:0:
321,110,96899,1,10,0:0:0:0:
447,25,97065,1,2,3:2:0:0:
370,7,97232,1,2,0:0:0:0:
445,126,97399,1,2,3:2:0:0:
359,209,97566,2,0,P|355:247|345:294,1,81.7799987521363,10|2,0:0|0:0,0:0:0:0:
491,379,97899,6,0,P|508:329|428:268,1,163.559997504273,2|10,3:2|0:0,0:0:0:0:
257,384,98399,1,0,3:2:0:0:
256,192,98565,21,2,0:0:0:0:
346,289,98732,2,0,P|355:326|361:391,1,81.7799987521363,2|8,3:2|0:0,0:0:0:0:
431,266,99065,1,2,0:0:0:0:
257,384,99232,6,0,L|176:360,1,81.7799987521363,6|2,3:2|0:0,0:0:0:0:
106,199,99565,1,8,0:0:0:0:
38,229,99732,2,0,P|29:267|14:315,1,81.7799987521363,0|2,3:2|0:0,0:0:0:0:
181,171,100065,1,0,3:2:0:0:
32,73,100232,2,0,P|36:114|49:162,1,81.7799987521363,8|0,0:0|0:0,0:0:0:0:
178,360,100565,6,0,P|226:369|283:274,1,163.559997504273,2|8,3:2|0:0,0:0:0:0:
431,135,101066,2,0,P|395:127|343:107,1,81.7799987521363,2|0,3:2|0:0,0:0:0:0:
494,245,101399,1,2,3:2:0:0:
378,298,101565,1,8,0:0:0:0:
401,227,101732,1,2,0:0:0:0:
401,227,101815,1,2,0:0:0:0:
401,227,101899,6,0,P|412:293|435:388,1,163.559997504273,0|8,3:2|0:0,0:0:0:0:
230,191,102399,2,0,P|226:228|215:275,1,81.7799987521363,0|0,3:2|0:0,0:0:0:0:
352,135,102732,1,0,3:2:0:0:
269,26,102899,2,0,P|230:19|187:6,1,81.7799987521363,8|0,0:0|0:0,0:0:0:0:
125,42,103149,1,8,0:0:0:0:
125,42,103232,22,0,P|156:111|229:94,1,163.559997504273,2|10,3:2|0:0,0:0:0:0:
350,0,103732,1,2,3:2:0:0:
406,47,103899,2,0,L|488:69,1,81.7799987521363,2|2,0:0|3:2,0:0:0:0:
508,136,104149,1,2,0:0:0:0:
512,140,104232,1,8,0:0:0:0:
356,260,104399,1,8,0:0:0:0:
478,369,104566,6,0,B|515:415|603:325|518:263|401:304|458:378|348:363,1,281.880006881836,2|2,0:0|3:2,0:0:0:0:
201,177,105732,1,8,0:0:0:0:
249,149,105815,1,8,0:0:0:0:
296,186,105899,6,0,L|274:326,1,109.619996654663,4|0,3:2|0:0,0:0:0:0:
275,327,106232,1,2,3:2:0:0:
400,193,106399,1,2,0:0:0:0:
403,196,106482,1,8,0:0:0:0:
407,200,106565,1,2,3:2:0:0:
275,357,106732,21,8,0:0:0:0:
232,375,106815,1,8,0:0:0:0:
190,356,106899,1,8,0:0:0:0:
162,321,106982,1,8,0:0:0:0:
120,299,107065,1,8,0:0:0:0:
77,316,107149,1,8,0:0:0:0:
509,40,107899,6,0,L|440:59,1,58.2899972427522,6|0,3:2|0:0,0:0:0:0:
256,192,108065,1,8,0:0:0:0:
499,344,108399,6,0,L|430:325,1,58.2899972427522,6|0,3:2|0:0,0:0:0:0:
246,192,108565,1,8,0:0:0:0:
0,376,108899,22,0,L|69:357,1,58.2899972427522,6|0,3:2|0:0,0:0:0:0:
266,191,109065,1,8,0:0:0:0:
2,22,109399,6,0,L|71:41,1,58.2899972427522,6|0,3:2|0:0,0:0:0:0:
276,191,109565,1,8,0:0:0:0:
448,192,109899,6,0,L|384:192,1,58.2899972427522,6|0,3:2|0:0,0:0:0:0:
206,145,110065,1,8,0:0:0:0:
177,190,110149,1,8,0:0:0:0:
206,241,110232,1,8,0:0:0:0:
340,105,110399,1,8,0:0:0:0:
247,0,110565,22,0,P|256:41|263:99,1,90.4799994477539,6|0,3:2|0:0,0:0:0:0:
472,266,110899,1,0,3:2:0:0:
448,192,111065,1,2,0:0:0:0:
289,325,111232,2,0,P|201:343|98:373,1,180.959998895508,2|0,3:2|3:2,0:0:0:0:
230,255,111732,1,2,0:0:0:0:
120,111,111899,6,0,P|94:148|108:202,1,90.4799994477539,2|0,3:2|0:0,0:0:0:0:
294,343,112232,2,0,P|336:355|388:373,1,90.4799994477539,2|0,3:2|0:0,0:0:0:0:
512,142,112565,5,2,3:2:0:0:
332,229,112732,1,8,0:0:0:0:
307,115,112899,21,0,3:2:0:0:
472,266,113065,1,8,0:0:0:0:
294,343,113232,6,0,L|189:363,1,93.9600022939454,2|2,3:2|0:0,0:0:0:0:
314,322,113732,2,0,L|113:360,1,193.140004715332,2|2,3:2|0:0,0:0:0:0:
327,136,114565,6,0,L|432:156,1,93.9600022939454,2|2,3:2|0:0,0:0:0:0:
307,115,115065,2,0,L|508:153,1,193.140004715332,2|2,3:2|0:0,0:0:0:0:
177,270,115898,22,0,P|157:230|164:176,1,93.9600022939454,2|2,3:2|0:0,0:0:0:0:
173,358,116398,2,0,B|199:308|164:259|150:265|120:217|164:154,1,193.140004715332,2|2,3:2|0:0,0:0:0:0:
401,88,117232,6,0,P|421:128|414:182,1,93.9600022939454,2|2,3:2|0:0,0:0:0:0:
405,0,117732,2,0,B|379:50|414:99|428:93|458:141|414:204,1,193.140004715332,2|2,3:2|0:0,0:0:0:0:
464,271,118565,5,2,0:0:0:0:
454,267,118732,1,2,0:0:0:0:
446,263,118898,1,2,0:0:0:0:
436,261,119065,1,2,0:0:0:0:
378,310,119232,21,2,0:0:0:0:
362,315,119398,1,2,0:0:0:0:
346,321,119565,1,2,0:0:0:0:
332,328,119732,1,2,0:0:0:0:
272,286,119898,5,2,0:0:0:0:
246,281,120065,1,2,0:0:0:0:
224,263,120232,1,2,0:0:0:0:
215,235,120398,1,2,0:0:0:0:
302,213,120565,5,2,0:0:0:0:
334,186,120732,1,2,0:0:0:0:
333,141,120898,1,2,0:0:0:0:
270,96,121065,21,0,3:2:0:0:
256,91,121148,1,0,3:2:0:0:
242,85,121232,5,0,3:2:0:0:
302,213,121398,1,0,3:2:0:0:
403,119,121565,5,0,3:2:0:0:
343,0,121732,1,0,3:2:0:0:
200,185,121898,21,0,3:2:0:0:
150,198,121982,1,0,3:2:0:0:
108,177,122065,1,0,3:2:0:0:
92,138,122148,1,0,3:2:0:0:
107,92,122232,1,0,3:2:0:0:
200,185,122398,5,0,3:2:0:0:
229,217,122482,1,0,3:2:0:0:
222,261,122565,6,0,L|204:332,1,64.3800015717774,10|2,0:1|0:0,0:0:0:0:
319,207,122898,1,10,0:1:0:0:
395,310,123065,1,10,0:1:0:0:
319,207,123232,21,0,3:2:0:0:
402,86,123398,1,8,0:2:0:0:
452,90,123482,1,8,0:2:0:0:
495,120,123565,1,10,0:2:0:0:
512,161,123648,1,8,0:2:0:0:
511,209,123732,1,8,0:2:0:0:
490,251,123815,1,8,0:2:0:0:
490,251,123898,6,0,B|372:231|414:354|258:323,1,215.759991440186,6|8,3:2|0:0,0:0:0:0:
195,121,124398,2,0,L|305:149,1,107.879995720093,2|0,0:0|0:0,0:0:0:0:
146,304,124732,1,0,3:2:0:0:
118,270,124815,1,0,3:2:0:0:
137,227,124898,5,8,0:2:0:0:
299,327,125065,2,0,L|286:389,1,53.9399978600465,0|0,3:2|3:2,0:0:0:0:
426,184,125232,22,0,L|408:73,1,107.879995720093,2|0,3:2|3:2,0:2:0:0:
241,232,125565,1,10,0:0:0:0:
297,52,125732,1,0,3:2:0:0:
407,171,125898,5,2,3:2:0:0:
196,55,126065,1,4,3:0:0:0:
149,52,126148,1,4,3:0:0:0:
114,89,126232,1,8,0:0:0:0:
107,133,126315,1,8,0:0:0:0:
71,162,126398,1,8,0:0:0:0:
27,152,126482,1,8,0:0:0:0:
28,75,126565,6,0,B|84:53|121:105|121:105|146:184|218:168,1,215.759991440186,4|10,3:2|0:0,0:0:0:0:
25,308,127065,1,2,0:0:0:0:
58,236,127232,1,2,0:0:0:0:
187,362,127398,2,0,L|128:379,1,53.9399978600465,2|0,3:2|3:2,0:0:0:0:
108,384,127565,1,10,0:0:0:0:
234,243,127732,1,0,3:2:0:0:
237,246,127815,1,0,3:2:0:0:
241,250,127898,21,2,3:2:0:0:
383,330,128065,1,0,3:2:0:0:
449,209,128232,5,10,0:0:0:0:
285,357,128398,1,0,3:2:0:0:
474,295,128565,5,2,3:2:0:0:
314,128,128732,1,0,3:2:0:0:
317,131,128815,1,0,3:2:0:0:
321,135,128898,2,0,L|337:64,1,53.9399978600465,8|0,0:0|0:0,0:0:0:0:
117,216,129065,1,8,0:0:0:0:
100,267,129148,1,8,0:0:0:0:
131,305,129232,22,0,B|198:290|198:290|232:234|232:234|326:212,1,215.759991440186,4|10,3:2|0:0,0:0:0:0:
144,90,129732,1,0,3:2:0:0:
290,296,129898,5,8,0:0:0:0:
334,80,130065,1,0,3:2:0:0:
211,274,130232,5,10,0:0:0:0:
456,197,130398,1,0,3:2:0:0:
224,191,130565,21,10,0:0:0:0:
441,373,130732,1,0,3:2:0:0:
228,195,130898,5,10,0:0:0:0:
474,83,131065,1,0,3:2:0:0:
290,296,131232,5,10,0:0:0:0:
106,123,131398,1,0,3:2:0:0:
94,90,131482,1,0,3:2:0:0:
113,57,131565,1,8,0:0:0:0:
116,255,131732,21,8,0:0:0:0:
74,282,131815,1,8,0:0:0:0:
26,265,131898,6,0,B|62:211|130:229|130:229|146:291|212:302,1,215.759991440186,6|8,3:2|0:0,0:0:0:0:
353,151,132398,1,2,0:0:0:0:
279,47,132565,6,0,B|235:70|186:88|186:88|209:137|229:200,1,215.759991440186,6|10,3:2|0:0,0:0:0:0:
431,382,133065,1,10,0:0:0:0:
450,353,133148,1,8,0:0:0:0:
430,317,133232,22,0,L|319:296,1,107.879995720093,6|0,3:2|0:0,0:0:0:0:
461,115,133565,1,8,0:0:0:0:
227,194,133732,1,0,3:2:0:0:
431,382,133898,1,10,0:0:0:0:
348,212,134065,5,8,0:0:0:0:
299,195,134148,1,8,0:0:0:0:
251,212,134232,1,8,0:0:0:0:
229,256,134315,1,8,0:0:0:0:
202,293,134398,1,8,0:0:0:0:
156,295,134482,1,8,0:0:0:0:
109,236,134565,6,0,L|133:142,1,81.7799987521363,6|0,3:2|0:0,0:0:0:0:
262,29,134898,1,0,3:2:0:0:
192,61,135065,1,2,0:0:0:0:
348,212,135232,2,0,P|383:222|433:238,1,64.3800015717774,2|0,3:2|0:0,0:0:0:0:
297,301,135565,1,0,3:2:0:0:
403,354,135732,1,2,0:0:0:0:
400,344,135815,1,2,0:0:0:0:
397,332,135898,22,0,P|357:326|299:385,1,128.760003143555,2|0,3:2|3:2,0:0:0:0:
154,248,136398,1,2,0:0:0:0:
209,203,136565,2,0,L|281:230,1,64.3800015717774,2|0,3:2|0:0,0:0:0:0:
141,359,136898,2,0,L|64:374,1,64.3800015717774,0|0,3:2|0:0,0:0:0:0:
24,322,137148,1,2,0:0:0:0:
24,322,137232,6,0,B|34:266|34:266|73:240|73:240|86:167,1,163.559997504273,4|0,3:2|3:2,0:0:0:0:
223,71,137732,1,2,0:0:0:0:
128,9,137898,2,0,L|138:98,1,81.7799987521363,2|0,3:2|0:0,0:0:0:0:
290,203,138232,1,2,3:2:0:0:
309,130,138398,1,2,0:0:0:0:
207,232,138565,5,2,3:2:0:0:
337,281,138732,1,0,3:2:0:0:
393,220,138898,21,2,3:2:0:0:
512,165,139065,1,0,3:2:0:0:
484,251,139232,5,0,3:2:0:0:
431,255,139315,1,0,3:2:0:0:
393,220,139398,1,0,3:2:0:0:
389,178,139482,1,0,3:2:0:0:
366,138,139565,1,0,3:2:0:0:
324,110,139648,1,0,3:2:0:0:
272,112,139732,1,0,3:2:0:0:
241,144,139815,1,0,3:2:0:0:
244,164,139898,6,0,B|314:176|364:121|323:114|369:-53|596:-60|621:100|546:257|379:231|353:64|395:63|338:13|252:33,1,613.349990641022,4|0,3:2|0:0,0:2:0:0:
254,42,141232,22,0,L|263:95,1,46.9800011469727,2|2,0:0|0:0,0:0:0:0:
111,234,141565,1,2,0:0:0:0:
114,217,141732,1,2,0:0:0:0:
256,346,141898,6,0,L|207:360,1,46.9800011469727,2|2,0:0|0:0,0:0:0:0:
342,239,142232,1,2,0:0:0:0:
358,244,142398,1,2,0:0:0:0:
213,155,142565,6,0,L|225:221,1,46.9800011469727,2|2,0:0|0:0,0:0:0:0:
352,357,142898,1,2,0:0:0:0:
336,361,143065,1,2,0:0:0:0:
439,226,143232,22,0,L|499:243,1,46.9800011469727,2|2,0:0|0:0,0:0:0:0:
439,226,143732,5,2,0:0:0:0:
411,154,143898,2,0,B|357:117|269:147|251:222|298:225|242:317|149:293,1,328.860008028809,2|0,0:0|3:2,0:0:0:0:
141,279,145148,1,0,3:2:0:0:
150,264,145232,6,0,L|201:283,1,46.9800011469727,6|2,3:2|0:2,0:2:0:0:
273,364,145565,2,0,L|318:383,1,46.9800011469727,2|2,0:0|0:0,0:0:0:0:
418,291,145898,2,0,L|465:308,1,46.9800011469727,2|2,0:0|0:0,0:0:0:0:
512,384,146565,21,2,0:0:0:0:
256,192,147232,38,0,L|256:128,1,64.3800015717774,2|2,0:0|0:0,0:0:0:0:
462,306,147732,5,2,0:0:0:0:
365,253,147898,2,0,L|379:340,1,81.7799987521363,6|10,3:2|0:1,0:0:0:0:
512,156,148232,2,0,L|500:243,1,81.7799987521363,2|10,3:2|0:1,0:0:0:0:
350,119,148565,2,0,P|392:109|445:90,1,81.7799987521363,2|10,3:2|0:1,0:0:0:0:
298,316,148898,2,0,P|336:322|382:335,1,81.7799987521363,2|8,3:2|0:1,0:0:0:0:
236,113,149232,6,0,P|169:112|131:202,1,163.559997504273,2|2,3:2|3:2,0:0:0:0:
94,259,149732,1,8,0:1:0:0:
256,192,149898,21,2,3:2:0:0:
146,83,150065,2,0,P|104:73|59:58,1,81.7799987521363,10|0,0:1|3:2,0:0:0:0:
128,189,150398,5,10,0:1:0:0:
290,57,150565,2,0,P|330:49|378:35,1,81.7799987521363,2|10,3:2|0:1,0:0:0:0:
507,160,150898,5,2,3:2:0:0:
457,98,151065,2,0,P|404:119|401:231,1,163.559997504273,8|8,0:1|0:1,0:0:0:0:
318,374,151565,2,0,P|358:360|410:351,1,81.7799987521363,2|8,3:2|0:1,0:0:0:0:
251,274,151898,6,0,P|211:264|161:248,1,81.7799987521363,2|8,3:2|0:1,0:0:0:0:
311,127,152232,2,0,P|349:117|390:103,1,81.7799987521363,2|8,3:2|0:1,0:0:0:0:
256,192,152565,5,2,3:2:0:0:
151,95,152732,2,0,P|162:56|172:11,1,81.7799987521363,10|0,0:1|3:2,0:0:0:0:
242,74,153065,1,10,0:1:0:0:
106,186,153232,6,0,P|65:193|22:207,1,81.7799987521363,2|8,3:2|0:1,0:0:0:0:
175,384,153565,2,0,P|228:319|193:243,1,163.559997504273,2|2,3:2|3:2,0:0:0:0:
339,150,154065,1,10,0:1:0:0:
402,195,154232,2,0,P|393:233|388:283,1,81.7799987521363,2|10,3:2|0:1,0:0:0:0:
219,117,154565,2,0,P|178:106|143:89,1,81.7799987521363,2|10,3:2|0:1,0:0:0:0:
316,0,154898,2,0,P|337:32|330:81,1,81.7799987521363,2|8,3:2|0:1,0:2:0:0:
256,192,155232,37,2,3:2:0:0:
388,275,155398,2,0,P|424:285|474:304,1,81.7799987521363,10|0,0:1|3:2,0:0:0:0:
345,384,155732,1,10,0:1:0:0:
488,284,155898,6,0,P|516:225|447:162,1,163.559997504273,2|0,3:2|3:2,0:0:0:0:
292,290,156398,1,10,0:1:0:0:
254,223,156565,2,0,P|211:214|163:196,1,81.7799987521363,2|8,3:2|0:1,0:0:0:0:
32,357,156898,2,0,P|72:347|118:330,1,81.7799987521363,2|8,3:2|0:1,0:0:0:0:
81,136,157232,6,0,P|67:174|64:223,1,81.7799987521363,2|8,3:2|0:1,0:0:0:0:
203,371,157565,2,0,P|204:326|190:285,1,81.7799987521363,2|8,3:2|0:1,0:0:0:0:
256,192,157898,21,2,3:2:0:0:
109,307,158064,1,8,0:1:0:0:
112,295,158148,1,8,0:1:0:0:
115,282,158231,1,0,3:2:0:0:
203,371,158398,1,10,0:1:0:0:
353,263,158565,6,0,P|389:253|446:243,1,81.7799987521363,6|10,3:2|0:1,0:0:0:0:
204,75,158898,2,0,P|263:67|339:141,1,163.559997504273,2|0,3:2|3:2,0:0:0:0:
193,291,159398,1,8,0:1:0:0:
138,235,159565,2,0,P|149:196|162:145,1,81.7799987521363,2|10,3:2|0:1,0:0:0:0:
306,274,159898,6,0,P|344:287|386:305,1,81.7799987521363,2|8,3:2|0:1,0:0:0:0:
336,131,160232,2,0,P|373:126|425:108,1,81.7799987521363,2|8,3:2|0:1,0:0:0:0:
256,192,160565,21,2,3:2:0:0:
145,75,160732,2,0,P|153:112|159:157,1,81.7799987521363,10|0,0:1|3:2,0:0:0:0:
272,47,161065,1,10,0:1:0:0:
382,303,161232,5,2,3:2:0:0:
312,276,161398,1,10,0:1:0:0:
426,172,161565,1,2,3:2:0:0:
444,242,161732,1,10,0:1:0:0:
336,131,161898,2,0,P|344:92|355:36,1,81.7799987521363,2|8,3:2|0:1,0:0:0:0:
172,226,162232,2,0,P|132:234|83:250,1,81.7799987521363,2|10,3:2|0:1,0:0:0:0:
297,350,162565,6,0,P|317:315|310:272,1,81.7799987521363,2|8,3:2|0:1,0:0:0:0:
222,111,162898,2,0,P|184:99|136:79,1,81.7799987521363,2|8,3:2|0:1,0:0:0:0:
256,192,163232,21,2,3:2:0:0:
352,50,163398,1,8,0:1:0:0:
222,111,163565,1,8,3:1:0:0:
392,227,163732,1,8,0:1:0:0:
426,188,163815,1,8,0:1:0:0:
406,143,163898,1,2,3:2:0:0:
436,93,169232,6,0,B|393:45|335:63|335:63|306:122|243:113,1,215.759991440186,6|2,3:2|0:0,0:0:0:0:
259,39,169732,1,2,0:0:0:0:
376,174,169898,1,2,0:0:0:0:
204,266,170065,1,2,0:0:0:0:
228,192,170232,5,0,3:2:0:0:
405,287,170398,1,8,0:0:0:0:
416,338,170482,1,8,0:0:0:0:
427,381,170565,5,4,3:2:0:0:
490,208,170732,1,0,3:2:0:0:
316,293,170898,1,0,3:2:0:0:
509,341,171065,2,0,L|497:285,1,53.9399978600465,0|0,3:2|3:2,0:0:0:0:
360,105,171232,2,0,L|350:161,1,53.9399978600465,0|0,3:2|3:2,0:0:0:0:
177,368,171398,21,8,0:0:0:0:
139,328,171482,1,8,0:0:0:0:
157,275,171565,1,8,0:0:0:0:
199,243,171648,1,8,0:0:0:0:
228,192,171732,1,8,0:0:0:0:
194,143,171815,1,8,0:0:0:0:
194,143,172898,5,2,0:0:0:0:
282,193,173232,6,0,B|304:169|341:167|341:167|165:138,1,215.759991440186,6|8,3:2|0:0,0:0:0:0:
335,343,173732,2,0,B|360:293|360:293|333:235,1,107.879995720093,2|0,3:2|0:0,0:0:0:0:
134,338,174065,1,0,3:2:0:0:
138,353,174148,1,0,3:2:0:0:
142,370,174232,1,10,0:0:0:0:
227,257,174398,1,0,3:2:0:0:
234,264,174482,1,0,3:2:0:0:
234,264,174565,22,0,P|182:250|116:226,1,107.879995720093,2|0,3:2|3:2,0:0:0:0:
244,352,174898,1,10,0:0:0:0:
193,142,175065,1,0,3:2:0:0:
135,236,175232,5,2,3:2:0:0:
307,101,175398,2,0,L|374:117,1,53.9399978600465,0|0,3:2|3:2,0:0:0:0:
454,237,175565,1,10,0:0:0:0:
272,11,175732,5,10,0:0:0:0:
272,11,175815,1,8,0:0:0:0:
272,11,175898,22,0,B|213:-4|172:41|172:41|146:109|72:94,1,215.759991440186,4|10,3:2|0:0,0:0:0:0:
234,264,176398,2,0,L|344:296,1,107.879995720093,2|2,3:2|0:0,0:0:0:0:
188,358,176732,1,2,3:2:0:0:
308,196,176898,1,10,0:0:0:0:
406,346,177065,1,0,3:2:0:0:
409,349,177148,1,0,3:2:0:0:
413,353,177232,5,2,3:2:0:0:
234,264,177398,1,0,3:2:0:0:
410,118,177565,2,0,L|381:238,1,107.879995720093,10|0,0:0|0:0,0:0:0:0:
188,358,177898,1,0,3:2:0:0:
70,176,178065,1,0,3:2:0:0:
106,171,178148,1,0,3:2:0:0:
139,196,178232,1,8,0:0:0:0:
346,357,178398,5,8,0:0:0:0:
301,367,178482,1,8,0:0:0:0:
262,334,178565,22,0,L|289:118,1,215.759991440186,4|10,3:2|0:0,0:0:0:0:
429,313,179065,1,0,3:2:0:0:
244,191,179232,5,10,0:0:0:0:
463,52,179398,1,0,3:2:0:0:
322,225,179565,5,10,0:0:0:0:
237,0,179732,1,0,3:2:0:0:
366,153,179898,21,10,0:0:0:0:
114,216,180065,1,0,3:2:0:0:
237,0,180232,5,10,0:0:0:0:
322,225,180398,1,0,3:2:0:0:
131,77,180565,5,10,0:0:0:0:
370,25,180732,2,0,L|358:87,1,53.9399978600465,0|0,3:2|3:2,0:0:0:0:
305,310,180898,21,10,0:0:0:0:
235,150,181065,1,8,0:0:0:0:
235,150,181148,1,8,0:0:0:0:
235,150,181232,6,0,B|289:125|332:170|332:170|351:241|413:240,1,215.759991440186,6|8,3:2|0:0,0:0:0:0:
200,346,181732,1,2,0:0:0:0:
404,239,181898,6,0,L|428:123,1,107.879995720093,6|0,3:2|3:2,0:0:0:0:
223,6,182232,2,0,B|149:37|149:37|122:91|180:110,1,161.819993580139,8|8,0:0|0:0,0:0:0:0:
235,150,182565,21,6,3:2:0:0:
64,298,182732,1,0,3:2:0:0:
171,109,182898,5,10,0:0:0:0:
298,350,183065,1,0,3:2:0:0:
132,183,183232,5,10,0:0:0:0:
403,43,183398,1,8,0:0:0:0:
359,16,183482,1,8,0:0:0:0:
314,50,183565,2,0,L|292:125,1,53.9399978600465,10|0,0:0|0:0,0:0:0:0:
113,363,183732,21,8,0:0:0:0:
166,379,183814,1,8,0:0:0:0:
207,347,183898,6,0,L|190:214,1,107.879995720093,6|0,3:2|0:0,0:0:0:0:
50,98,184232,1,8,0:0:0:0:
193,239,184398,6,0,B|270:258|270:258|296:310|296:310|376:326,1,215.759991440186,0|0,3:2|3:2,0:0:0:0:
512,199,184898,1,10,0:0:0:0:
396,155,185065,1,0,3:2:0:0:
399,158,185148,1,0,3:2:0:0:
403,162,185232,21,2,3:2:0:0:
494,319,185398,1,0,3:2:0:0:
431,384,185565,5,8,0:0:0:0:
512,199,185732,1,0,3:2:0:0:
372,325,185898,6,0,L|256:300,1,107.879995720093,2|0,3:2|3:2,0:0:0:0:
197,286,186148,1,0,3:2:0:0:
176,281,186232,1,8,0:0:0:0:
20,122,186398,1,8,0:0:0:0:
64,110,186482,1,8,0:0:0:0:
109,102,186565,22,0,L|66:318,1,215.759991440186,4|10,3:2|0:0,0:0:0:0:
240,137,187065,1,2,3:2:0:0:
184,81,187232,1,2,0:0:0:0:
226,223,187398,1,2,3:2:0:0:
277,227,187482,1,0,3:2:0:0:
311,183,187565,1,10,0:0:0:0:
148,353,187732,1,2,3:2:0:0:
95,358,187815,1,0,3:2:0:0:
66,313,187898,6,0,L|89:200,1,107.879995720093,2|0,3:2|3:2,0:0:0:0:
248,371,188232,1,10,0:0:0:0:
184,81,188398,1,2,3:2:0:0:
0,256,188565,1,0,3:2:0:0:
178,233,188732,1,0,3:2:0:0:
197,204,188815,1,0,3:2:0:0:
183,167,188898,1,8,0:0:0:0:
138,13,189065,5,8,0:0:0:0:
98,57,189148,1,8,0:0:0:0:
114,118,189232,22,0,B|228:98|185:215|340:193,1,215.759991440186,4|10,3:2|0:0,0:0:0:0:
465,362,189732,1,0,3:2:0:0:
367,142,189898,5,10,0:0:0:0:
205,313,190065,1,0,3:2:0:0:
406,219,190232,5,10,0:0:0:0:
184,81,190398,1,0,3:2:0:0:
331,311,190565,21,10,0:0:0:0:
427,80,190732,1,0,3:2:0:0:
196,194,190898,5,10,0:0:0:0:
439,348,191065,1,0,3:2:0:0:
290,122,191232,5,10,0:0:0:0:
124,331,191398,1,0,3:2:0:0:
127,343,191482,1,0,3:2:0:0:
131,356,191565,1,8,0:0:0:0:
19,244,191732,1,8,0:0:0:0:
6,186,191815,1,8,0:0:0:0:
62,160,191898,22,0,B|173:144|133:254|287:237,1,215.759991440186,4|8,3:2|0:0,0:0:0:0:
427,80,192398,1,2,0:0:0:0:
371,28,192565,2,0,P|316:19|253:2,1,107.879995720093,6|0,3:2|0:0,0:0:0:0:
443,162,192898,2,0,P|489:227|463:302,1,161.819993580139,10|8,0:0|0:0,0:0:0:0:
444,370,193232,5,4,3:2:0:0:
287,151,193398,1,0,3:2:0:0:
283,326,193565,5,10,0:0:0:0:
443,162,193732,1,0,3:2:0:0:
358,376,193898,21,10,0:0:0:0:
287,151,194065,1,8,0:0:0:0:
231,123,194148,1,8,0:0:0:0:
180,142,194232,1,8,0:0:0:0:
156,192,194315,1,8,0:0:0:0:
124,241,194398,1,8,0:0:0:0:
65,239,194482,1,8,0:0:0:0:
14,172,194565,6,0,L|34:76,1,81.7799987521363,6|0,3:2|0:0,0:0:0:0:
233,236,194898,2,0,L|244:318,1,64.3800015717774,0|2,3:2|0:0,0:0:0:0:
376,198,195232,2,0,P|411:155|383:91,1,128.760003143555,2|0,3:2|3:2,0:0:0:0:
334,34,195732,1,2,0:0:0:0:
449,152,195898,6,0,L|526:132,1,64.3800015717774,2|0,3:2|0:0,0:0:0:0:
377,276,196232,2,0,L|313:260,1,64.3800015717774,0|2,3:2|0:0,0:0:0:0:
466,379,196565,2,0,L|482:236,1,128.760003143555,2|0,3:2|3:2,0:0:0:0:
296,172,197065,1,2,0:0:0:0:
299,175,197148,1,2,0:0:0:0:
303,179,197232,22,0,L|318:286,1,81.7799987521363,6|0,3:2|0:0,0:0:0:0:
449,152,197565,1,0,3:2:0:0:
383,114,197732,1,2,0:0:0:0:
224,243,197898,6,0,B|161:257|161:257|134:289|134:289|71:304,1,163.559997504273,2|2,3:2|3:2,0:0:0:0:
239,383,198398,1,2,0:0:0:0:
133,227,198565,5,2,3:2:0:0:
33,374,198732,1,0,3:2:0:0:
258,310,198898,21,2,3:2:0:0:
73,165,199065,1,2,3:2:0:0:
168,314,199232,5,0,3:2:0:0:
212,326,199315,1,0,3:2:0:0:
258,310,199398,1,2,3:2:0:0:
282,269,199482,1,0,3:2:0:0:
305,224,199565,1,2,3:2:0:0:
356,206,199648,1,0,3:2:0:0:
402,221,199732,1,0,3:2:0:0:
424,261,199815,1,0,3:2:0:0:
425,277,199898,6,0,B|433:318|389:362|291:372|237:258|270:149|388:114|413:195|519:159|552:28|465:-82|303:-7|399:76,1,613.349990641022,4|0,3:2|0:0,0:0:0:0:
395,72,201232,22,0,L|406:126,1,46.9800011469727,2|2,0:0|0:0,0:0:0:0:
425,277,201565,2,0,L|414:322,1,46.9800011469727,2|2,0:0|0:0,0:0:0:0:
256,192,201898,38,0,L|320:192,1,64.3800015717774,2|2,3:2|0:0,0:0:0:0:
122,40,202398,5,2,0:0:0:0:
91,111,202565,2,0,P|169:124|227:49,1,180.959998895508,6|10,3:2|0:0,0:0:0:0:
421,210,203065,2,0,P|379:196|322:183,1,90.4799994477539,0|2,3:2|0:0,0:0:0:0:
175,332,203398,1,2,3:2:0:0:
70,198,203565,2,0,P|82:152|94:93,1,90.4799994477539,10|2,0:0|0:0,0:0:0:0:
253,280,203898,6,0,P|295:292|340:309,1,90.4799994477539,2|0,3:2|0:0,0:0:0:0:
178,88,204232,2,0,P|130:97|73:116,1,90.4799994477539,10|0,0:0|3:2,0:0:0:0:
256,192,204565,21,2,0:0:0:0:
356,59,204732,2,0,P|363:102|380:152,1,90.4799994477539,2|8,3:2|0:0,0:0:0:0:
264,54,205065,1,2,0:0:0:0:
54,250,205232,6,0,P|26:201|92:109,1,180.959998895508,2|10,3:2|0:0,0:0:0:0:
253,280,205732,1,2,3:2:0:0:
189,326,205898,2,0,P|177:277|176:228,1,90.4799994477539,2|2,0:0|3:2,0:0:0:0:
356,59,206232,2,0,P|366:101|371:158,1,90.4799994477539,10|0,0:0|0:0,0:0:0:0:
490,309,206565,6,0,P|451:290|393:276,1,90.4799994477539,2|2,3:2|0:0,0:0:0:0:
442,31,206898,2,0,P|398:47|341:61,1,90.4799994477539,10|0,0:0|3:2,0:0:0:0:
256,192,207232,21,2,0:0:0:0:
324,149,207398,2,0,B|417:136|394:210|495:203,1,180.959998895508,2|2,3:2|0:0,0:0:0:0:
313,381,207898,6,0,P|290:341|306:288,1,90.4799994477539,6|0,3:2|0:0,0:0:0:0:
161,168,208232,1,10,0:0:0:0:
321,56,208398,2,0,P|277:73|219:86,1,90.4799994477539,2|2,3:2|0:0,0:0:0:0:
349,163,208732,1,2,3:2:0:0:
162,287,208898,2,0,P|155:238|143:187,1,90.4799994477539,10|2,0:0|0:0,0:0:0:0:
297,299,209232,6,0,P|340:308|395:328,1,90.4799994477539,2|0,3:2|0:0,0:0:0:0:
235,83,209565,1,10,0:0:0:0:
349,44,209732,1,0,3:2:0:0:
256,192,209898,21,2,0:0:0:0:
141,56,210065,2,0,P|94:41|45:23,1,90.4799994477539,2|8,3:2|0:0,0:0:0:0:
160,127,210398,1,2,0:0:0:0:
47,325,210565,6,0,P|29:290|110:186,1,180.959998895508,2|8,3:2|0:0,0:0:0:0:
266,354,211065,2,0,P|224:365|179:384,1,90.4799994477539,2|2,3:2|0:0,0:0:0:0:
338,218,211398,1,2,3:2:0:0:
427,332,211565,2,0,P|469:350|518:363,1,90.4799994477539,10|0,0:0|0:0,0:0:0:0:
405,95,211898,6,0,P|353:118|364:206,1,135.719999171631,2|0,3:2|0:0,0:0:0:0:
338,218,212232,2,0,P|377:232|433:258,1,90.4799994477539,8|0,0:0|3:2,0:0:0:0:
256,192,212565,21,2,0:0:0:0:
405,95,212732,1,0,3:2:0:0:
267,21,212898,5,8,0:0:0:0:
421,252,213065,1,8,0:0:0:0:
442,220,213148,1,8,0:0:0:0:
420,193,213232,6,0,B|324:187|367:282|238:269,1,180.959998895508,6|10,3:2|0:0,0:0:0:0:
137,84,213732,2,0,P|178:102|245:115,1,90.4799994477539,0|2,3:2|0:0,0:0:0:0:
65,223,214065,1,0,3:2:0:0:
214,340,214232,2,0,P|169:348|111:366,1,90.4799994477539,10|2,0:0|0:0,0:0:0:0:
344,246,214565,6,0,P|371:283|357:345,1,90.4799994477539,2|0,3:2|0:0,0:0:0:0:
222,112,214898,2,0,P|268:98|328:76,1,90.4799994477539,10|0,0:2|3:2,3:2:0:0:
256,192,215232,5,2,0:0:0:0:
377,25,215398,1,0,3:2:0:0:
448,57,215565,2,0,P|455:100|467:155,1,90.4799994477539,8|2,0:0|0:0,0:0:0:0:
274,13,215898,6,0,P|196:2|146:92,1,180.959998895508,2|10,3:2|0:0,0:0:0:0:
51,210,216398,1,2,3:2:0:0:
222,112,216565,1,2,0:0:0:0:
70,21,216732,1,0,3:2:0:0:
174,204,216898,2,0,L|65:234,1,90.4799994477539,10|2,0:0|0:0,0:0:0:0:
12,311,217232,6,0,B|74:326|74:326|98:367|98:367|187:385,1,180.959998895508,2|10,3:2|0:0,0:0:0:0:
86,228,217732,1,0,3:2:0:0:
256,192,217898,21,2,0:0:0:0:
189,286,218065,2,0,P|167:246|177:198,1,90.4799994477539,0|8,3:2|0:0,0:0:0:0:
271,73,218398,1,0,0:0:0:0:
377,173,218565,6,0,P|422:182|471:200,1,90.4799994477539,6|2,3:2|0:0,0:0:0:0:
371,93,218898,1,10,0:0:0:0:
508,255,219065,2,0,P|459:311|351:273,1,180.959998895508,2|2,3:2|3:2,0:0:0:0:
473,108,219565,2,0,P|481:62|498:12,1,90.4799994477539,8|0,0:0|0:0,0:0:0:0:
300,134,219898,6,0,P|254:151|202:166,1,90.4799994477539,2|0,3:2|0:0,0:0:0:0:
69,317,220232,2,0,B|163:305|140:371|240:359,1,180.959998895508,10|0,0:0|0:0,0:0:0:0:
104,225,220732,1,0,3:2:0:0:
214,162,220898,5,8,0:0:0:0:
76,376,221065,1,8,0:0:0:0:
51,345,221148,1,8,0:0:0:0:
69,317,221228,22,0,B|175:297|140:371|251:353,1,187.920004587891,6|2,0:0|0:0,0:0:0:0:
265,345,222400,6,0,L|219:329,1,33.0599995964356,2|2,0:0|0:0,0:0:0:0:
332,250,222616,5,2,0:0:0:0:
238,177,222816,21,2,0:0:0:0:
302,118,223056,5,2,0:0:0:0:
288,105,223136,5,2,0:0:0:0:
298,89,223216,22,0,L|303:125,1,29,2|2,0:0|0:0,0:0:0:0:
393,56,223416,5,2,0:0:0:0:
337,3,223628,5,2,0:0:0:0:
433,150,223900,22,0,L|479:161,1,29,2|2,0:0|0:0,0:0:0:0:
366,248,224164,5,2,0:0:0:0:
462,304,224400,5,2,0:0:0:0:
430,314,224479,1,2,0:0:0:0:
439,321,224558,1,2,0:0:0:0:
512,384,224795,21,2,0:0:0:0:
