osu file format v14

[General]
AudioFilename: audio.ogg
AudioLeadIn: 0
PreviewTime: 128297
Countdown: 0
SampleSet: Normal
StackLeniency: 0.7
Mode: 1
LetterboxInBreaks: 0
WidescreenStoryboard: 0

[Editor]
Bookmarks: 21806,22147
DistanceSpacing: 1
BeatDivisor: 4
GridSize: 32
TimelineZoom: 1.4

[Metadata]
Title:Itsuka Otona ni Nareru to Ii ne.
TitleUnicode:いつかオトナになれるといいね。
Artist:TUYU
ArtistUnicode:ツユ
Creator:arcpotato
Version:Obsessive!
Source:
Tags:hivie mtntwarz gaston_2199 female vocals japanese pop jpop j-pop rock jrock j-rock rei pusu miro 礼衣 ぷす ミロ futaba haru 双葉陽 sukoyaka tsukasa すこやかツカサ azyun itsuoto tsuyu would be nice if you grow up one day i hope you can be an adult someday
BeatmapID:3626831
BeatmapSetID:1771645

[Difficulty]
HPDrainRate:6
CircleSize:2
OverallDifficulty:6
ApproachRate:10
SliderMultiplier:1.4
SliderTickRate:1

[Events]
//Background and Video events
Video,244,"itsuoto.mp4"
0,0,"allgirls.jpg",0,0
//Break Periods
//Storyboard Layer 0 (Background)
//Storyboard Layer 1 (Fail)
//Storyboard Layer 2 (Pass)
//Storyboard Layer 3 (Foreground)
//Storyboard Layer 4 (Overlay)
//Storyboard Sound Samples

[TimingPoints]
670,340.909090909091,4,1,0,80,1,0
840,-125,4,1,0,80,0,0
1351,-100,4,1,0,90,0,0
2033,-125,4,1,0,80,0,0
2714,-100,4,1,0,90,0,0
3397,-125,4,1,0,80,0,0
4078,-100,4,1,0,90,0,0
4757,-125,4,1,0,80,0,0
4928,-122.441651705566,4,1,0,80,0,0
5013,-121.208530805687,4,1,0,80,0,0
5098,-120,4,1,0,80,0,0
5269,-117.640294388224,4,1,0,80,0,0
5439,-115.384615384615,4,1,0,80,0,0
5524,-114.288906267456,4,1,0,80,0,0
5610,-113.201283611818,4,1,0,80,0,0
5695,-112.146459109844,4,1,0,80,0,0
5780,-111.111111111111,4,1,0,80,0,0
6124,-95.2380952380952,4,1,0,100,0,1
21806,-76.9230769230769,4,1,0,100,0,1
22488,-95.2380952380952,4,1,0,100,0,1
27343,-96.3957597173145,4,1,0,100,0,1
27428,-97.5679542203147,4,1,0,100,0,1
27513,-98.7690079652426,4,1,0,100,0,1
27598,-100,4,1,0,100,0,1
27684,-101.277101277101,4,1,0,100,0,1
27769,-102.571815310573,4,1,0,100,0,1
27854,-103.900060938452,4,1,0,100,0,1
27942,-105.263157894737,4,1,0,100,0,0
28198,-105.263157894737,4,1,0,80,0,0
32289,-105.263157894737,4,1,0,70,0,0
33397,-90.9090909090909,4,1,0,90,0,0
33482,-100,4,1,0,90,0,0
44434,-117.647058823529,4,1,0,70,0,0
48394,-100,4,1,0,90,0,0
48564,-100.62753783684,4,1,0,90,0,0
48735,-101.266763252721,4,1,0,90,0,0
48905,-101.910351788852,4,1,0,90,0,0
49076,-102.566032056588,4,1,0,90,0,0
49246,-103.226295062102,4,1,0,90,0,0
49417,-103.899073827038,4,1,0,90,0,0
49587,-104.576667817547,4,1,0,90,0,0
49757,-105.263157894737,4,1,0,70,0,0
49931,-117.647058823529,4,1,0,70,0,0
53851,-100,4,1,0,90,0,0
55382,-101.905117669032,4,1,0,70,0,0
55468,-102.896801448401,4,1,0,70,0,0
55553,-103.896103896104,4,1,0,70,0,0
55723,-105.954091738843,4,1,0,70,0,0
55894,-108.108108108108,4,1,0,70,0,0
56064,-110.33813298819,4,1,0,70,0,0
56235,-112.676056338028,4,1,0,70,0,0
56579,-95.2380952380952,4,1,0,100,0,1
72260,-80,4,1,0,100,0,1
72772,-95.2380952380952,4,1,0,100,0,1
77712,-95.2380952380952,4,1,0,100,0,1
77797,-96.3821368004522,4,1,0,100,0,1
77882,-97.5539979974253,4,1,0,100,0,1
77968,-98.7690079652426,4,1,0,100,0,1
78053,-100,4,1,0,100,0,1
78138,-101.262063845583,4,1,0,100,0,1
78223,-102.556390977444,4,1,0,100,0,1
78309,-103.900060938452,4,1,0,100,0,1
78397,-105.263157894737,4,1,0,100,0,0
78567,-105.263157894737,4,1,0,80,0,0
82743,-105.263157894737,4,1,0,70,0,0
83851,-90.9090909090909,4,1,0,90,0,0
83937,-100,4,1,0,90,0,0
88795,-90.9090909090909,4,1,0,100,0,0
89221,-100,4,1,0,90,0,0
94973,-125,4,1,0,70,0,0
98848,-117.647058823529,4,1,0,90,0,0
98934,-116.352469504393,4,1,0,90,0,0
99019,-115.100628665457,4,1,0,90,0,0
99104,-113.875438303557,4,1,0,90,0,0
99189,-112.676056338028,4,1,0,90,0,0
99274,-111.501675794981,4,1,0,90,0,0
99360,-110.33813298819,4,1,0,90,0,0
99530,-108.108108108108,4,1,0,90,0,0
99615,-107.026560477069,4,1,0,90,0,0
99701,-105.954091738843,4,1,0,90,0,0
99786,-104.915006537959,4,1,0,90,0,0
99871,-103.896103896104,4,1,0,90,0,0
99956,-102.896801448401,4,1,0,90,0,0
100042,-101.905117669032,4,1,0,90,0,0
100212,-100,4,1,0,90,0,0
100385,-117.647058823529,4,1,0,70,0,0
104306,-105.263157894737,4,1,0,90,0,0
105667,-105.263157894737,4,1,0,40,0,0
105780,-107.133497562765,4,1,0,40,0,0
105894,-109.08896835139,4,1,0,40,0,0
106007,-111.099032503533,4,1,0,40,0,0
106093,-112.679162072767,4,1,0,40,0,0
106178,-114.285714285714,4,1,0,40,0,0
106263,-115.938740782757,4,1,0,40,0,0
106348,-117.640287769784,4,1,0,40,0,0
106434,-119.413448618333,4,1,0,40,0,0
106519,-121.219309690428,4,1,0,40,0,0
106604,-123.080628650569,4,1,0,40,0,0
106689,-125,4,1,0,40,0,0
107033,-100,4,1,0,100,0,0
107204,-125,4,1,0,80,0,0
107714,-100,4,1,0,90,0,0
108397,-125,4,1,0,80,0,0
109078,-100,4,1,0,90,0,0
109760,-125,4,1,0,80,0,0
110441,-100,4,1,0,90,0,0
111124,-125,4,1,0,80,0,0
111805,-100,4,1,0,90,0,0
112488,-83.3333333333333,4,1,0,100,0,0
112829,-111.111111111111,4,1,0,80,0,0
113170,-90.9090909090909,4,1,0,90,0,0
113681,-111.111111111111,4,1,0,80,0,0
114533,-90.9090909090909,4,1,0,90,0,0
115044,-111.111111111111,4,1,0,80,0,0
115897,-90.9090909090909,4,1,0,90,0,0
116576,-111.111111111111,4,1,0,80,0,0
116661,-110.003518236191,4,1,0,80,0,0
116746,-108.917789131444,4,1,0,80,0,0
116831,-107.853282741175,4,1,0,80,0,0
116917,-106.797221905955,4,1,0,80,0,0
117088,-104.757650212196,4,1,0,80,0,0
117258,-102.805786935555,4,1,0,80,0,0
117343,-101.856879139972,4,1,0,80,0,0
117429,-100.914470145239,4,1,0,80,0,0
117514,-100,4,1,0,80,0,0
117942,-95.2380952380952,4,1,0,100,0,1
127488,-95.2380952380952,4,1,0,70,0,0
127655,-97.5557384675947,4,1,0,70,0,0
127740,-98.7573814440459,4,1,0,70,0,0
127826,-100.003668513152,4,1,0,70,0,0
127996,-102.562173144212,4,1,0,70,0,0
128167,-105.271287893416,4,1,0,70,0,0
128337,-108.110251834226,4,1,0,70,0,0
128422,-109.587939698492,4,1,0,70,0,0
128507,-111.106582433259,4,1,0,70,0,0
128851,-95.2380952380952,4,1,0,100,0,1
144533,-80,4,1,0,100,0,1
145045,-95.2380952380952,4,1,0,100,0,1
150070,-96.3821368004522,4,1,0,100,0,1
150155,-97.5539979974253,4,1,0,100,0,1
150240,-98.7547060527078,4,1,0,100,0,1
150326,-100,4,1,0,100,0,1
150411,-101.262063845583,4,1,0,100,0,1
150496,-102.556390977444,4,1,0,100,0,1
150581,-103.884234577304,4,1,0,100,0,1
150670,-105.263157894737,4,1,0,100,0,0
151010,-117.647058823529,4,1,0,70,0,0
153397,-105.263157894737,4,1,0,80,0,0
153908,-117.647058823529,4,1,0,70,0,0
156124,-105.263157894737,4,1,0,80,0,0
160556,-105.263157894737,4,1,0,70,0,0
161579,-90.9090909090909,4,1,0,70,0,0
161749,-100,4,1,0,70,0,0

[HitObjects]
256,192,670,5,4,0:0:0:0:
224,192,1010,1,8,0:0:0:0:
256,192,1096,1,8,0:0:0:0:
224,192,1181,1,8,0:0:0:0:
224,192,1351,1,4,0:0:0:0:
224,160,1692,1,12,0:0:0:0:
224,160,2033,1,0,0:0:0:0:
228,159,2118,1,0,0:0:0:0:
259,155,2204,1,0,0:0:0:0:
224,160,2374,1,8,0:0:0:0:
239,143,2459,1,8,0:0:0:0:
256,128,2545,1,8,0:0:0:0:
224,160,2715,1,4,0:0:0:0:
224,160,3056,1,12,0:0:0:0:
256,192,3397,1,0,0:0:0:0:
192,192,3482,1,0,0:0:0:0:
128,192,3567,1,0,0:0:0:0:
256,192,3738,1,8,0:0:0:0:
256,160,3823,1,8,0:0:0:0:
288,192,3908,1,8,0:0:0:0:
288,192,4079,1,4,0:0:0:0:
288,192,4420,1,12,0:0:0:0:
288,192,4760,1,0,0:0:0:0:
229,164,4931,1,8,0:0:0:0:
229,164,5016,1,0,0:0:0:0:
384,224,5101,1,8,0:0:0:0:
384,224,5272,1,0,0:0:0:0:
384,224,5442,1,8,0:0:0:0:
384,224,5527,1,8,0:0:0:0:
320,192,5613,1,0,0:0:0:0:
320,192,5698,1,0,0:0:0:0:
320,192,5783,1,0,0:0:0:0:
288,192,6124,1,12,0:0:0:0:
288,192,6465,1,0,0:0:0:0:
288,192,6550,1,0,0:0:0:0:
288,192,6635,1,8,0:0:0:0:
288,192,6806,1,8,0:0:0:0:
288,192,6976,1,0,0:0:0:0:
256,192,7147,1,0,0:0:0:0:
256,192,7317,1,8,0:0:0:0:
288,192,7402,1,8,0:0:0:0:
256,192,7488,1,0,0:0:0:0:
256,160,7658,1,0,0:0:0:0:
256,160,7829,1,8,0:0:0:0:
256,160,7999,1,0,0:0:0:0:
256,192,8084,1,0,0:0:0:0:
288,160,8170,1,8,0:0:0:0:
288,160,8510,1,8,0:0:0:0:
288,160,8681,1,0,0:0:0:0:
288,160,8851,1,8,0:0:0:0:
288,128,8937,1,8,0:0:0:0:
288,128,9022,1,0,0:0:0:0:
256,128,9107,1,0,0:0:0:0:
256,128,9192,1,8,0:0:0:0:
256,160,9363,1,0,0:0:0:0:
256,192,9533,1,8,0:0:0:0:
256,192,9704,1,8,0:0:0:0:
256,192,9789,1,8,0:0:0:0:
256,192,9874,1,0,0:0:0:0:
256,192,10045,1,0,0:0:0:0:
256,192,10130,1,8,0:0:0:0:
256,192,10215,1,0,0:0:0:0:
256,160,10385,1,8,0:0:0:0:
256,160,10471,1,8,0:0:0:0:
256,160,10556,1,8,0:0:0:0:
256,128,10726,1,0,0:0:0:0:
256,128,10812,1,0,0:0:0:0:
256,128,10897,1,8,0:0:0:0:
224,192,10982,1,8,0:0:0:0:
256,160,11067,1,0,0:0:0:0:
256,160,11238,1,8,0:0:0:0:
224,160,11408,1,0,0:0:0:0:
256,160,11579,1,8,0:0:0:0:
256,192,11920,1,0,0:0:0:0:
256,192,12090,1,8,0:0:0:0:
256,192,12175,1,0,0:0:0:0:
256,192,12260,1,8,0:0:0:0:
256,192,12346,1,0,0:0:0:0:
256,192,12431,1,8,0:0:0:0:
256,192,12601,1,0,0:0:0:0:
256,192,12772,1,0,0:0:0:0:
256,192,12942,1,8,0:0:0:0:
256,128,13027,1,8,0:0:0:0:
256,192,13113,1,0,0:0:0:0:
256,192,13283,1,8,0:0:0:0:
256,192,13454,1,8,0:0:0:0:
256,192,13624,1,0,0:0:0:0:
224,192,13965,1,0,0:0:0:0:
256,160,14135,1,0,0:0:0:0:
224,160,14306,1,8,0:0:0:0:
224,160,14391,1,8,0:0:0:0:
224,160,14476,1,0,0:0:0:0:
224,160,14647,1,8,0:0:0:0:
224,160,14817,1,8,0:0:0:0:
224,160,14988,1,0,0:0:0:0:
288,192,15158,1,0,0:0:0:0:
256,160,15329,1,8,0:0:0:0:
192,128,15414,1,0,0:0:0:0:
224,160,15499,1,8,0:0:0:0:
268,178,15584,1,8,0:0:0:0:
256,160,15670,1,0,0:0:0:0:
224,160,15840,1,8,0:0:0:0:
224,160,16010,1,0,0:0:0:0:
224,128,16096,1,0,0:0:0:0:
224,160,16181,1,0,0:0:0:0:
224,160,16351,1,8,0:0:0:0:
224,160,16522,1,8,0:0:0:0:
224,192,16607,1,8,0:0:0:0:
224,128,16692,1,0,0:0:0:0:
224,192,16777,1,0,0:0:0:0:
224,128,16863,1,0,0:0:0:0:
224,192,16948,1,0,0:0:0:0:
224,128,17033,1,12,0:0:0:0:
256,192,17374,1,0,0:0:0:0:
256,192,17459,1,0,0:0:0:0:
288,192,17545,1,8,0:0:0:0:
256,192,17630,1,0,0:0:0:0:
256,192,17715,1,8,0:0:0:0:
288,192,17800,1,8,0:0:0:0:
256,192,17885,1,0,0:0:0:0:
256,192,18056,1,8,0:0:0:0:
256,192,18397,1,8,0:0:0:0:
256,192,18567,1,0,0:0:0:0:
256,192,18652,1,8,0:0:0:0:
256,192,18738,1,0,0:0:0:0:
256,160,18908,1,8,0:0:0:0:
256,160,18993,1,8,0:0:0:0:
256,160,19079,1,0,0:0:0:0:
256,160,19249,1,8,0:0:0:0:
256,160,19420,1,0,0:0:0:0:
288,192,19760,1,0,0:0:0:0:
244,185,19846,1,0,0:0:0:0:
261,202,19931,1,0,0:0:0:0:
288,192,20101,1,8,0:0:0:0:
320,160,20272,1,8,0:0:0:0:
320,160,20442,1,0,0:0:0:0:
320,160,20527,1,8,0:0:0:0:
320,160,20613,1,0,0:0:0:0:
320,160,20783,1,8,0:0:0:0:
320,160,20868,1,0,0:0:0:0:
320,160,20954,1,8,0:0:0:0:
288,160,21124,1,0,0:0:0:0:
256,192,21295,1,0,0:0:0:0:
256,192,21465,1,8,0:0:0:0:
256,192,21635,1,0,0:0:0:0:
224,160,21806,1,12,0:0:0:0:
256,192,22147,1,12,0:0:0:0:
224,224,22488,1,0,0:0:0:0:
224,224,22658,1,8,0:0:0:0:
256,224,22743,1,0,0:0:0:0:
256,224,22829,1,8,0:0:0:0:
256,192,22999,1,0,0:0:0:0:
224,160,23170,1,0,0:0:0:0:
224,160,23255,1,0,0:0:0:0:
224,160,23340,1,8,0:0:0:0:
224,192,23425,1,0,0:0:0:0:
224,192,23510,1,8,0:0:0:0:
192,224,23851,1,0,0:0:0:0:
192,224,24022,1,8,0:0:0:0:
192,224,24107,1,8,0:0:0:0:
192,224,24192,1,0,0:0:0:0:
224,192,24363,1,0,0:0:0:0:
224,192,24448,1,8,0:0:0:0:
224,192,24533,1,0,0:0:0:0:
256,192,24618,1,0,0:0:0:0:
256,192,24704,1,8,0:0:0:0:
224,192,24789,1,0,0:0:0:0:
256,160,24874,1,8,0:0:0:0:
224,192,25215,1,0,0:0:0:0:
224,160,25385,1,0,0:0:0:0:
224,192,25556,1,8,0:0:0:0:
224,192,25641,1,0,0:0:0:0:
224,192,25726,1,8,0:0:0:0:
224,192,25897,1,0,0:0:0:0:
224,192,26067,1,8,0:0:0:0:
224,192,26152,1,8,0:0:0:0:
224,192,26238,1,0,0:0:0:0:
256,160,26323,1,0,0:0:0:0:
224,192,26408,1,0,0:0:0:0:
224,192,26579,1,8,0:0:0:0:
224,192,26749,1,8,0:0:0:0:
224,192,26920,1,0,0:0:0:0:
224,192,27090,1,0,0:0:0:0:
192,192,27260,1,8,0:0:0:0:
192,192,27346,1,8,0:0:0:0:
192,192,27431,1,0,0:0:0:0:
192,192,27516,1,8,0:0:0:0:
192,192,27601,1,0,0:0:0:0:
192,192,27687,1,0,0:0:0:0:
192,192,27772,1,8,0:0:0:0:
224,128,27857,1,8,0:0:0:0:
192,192,27942,1,4,0:0:0:0:
192,192,28454,1,0,0:0:0:0:
192,192,28624,1,8,0:0:0:0:
192,160,28795,1,0,0:0:0:0:
192,160,28880,1,8,0:0:0:0:
192,160,29050,1,8,0:0:0:0:
192,160,29135,1,0,0:0:0:0:
192,160,29306,1,0,0:0:0:0:
192,192,29476,1,8,0:0:0:0:
192,160,29562,1,0,0:0:0:0:
224,128,29732,1,0,0:0:0:0:
192,160,29817,1,8,0:0:0:0:
192,160,29988,1,0,0:0:0:0:
160,192,30158,1,8,0:0:0:0:
192,160,30243,1,8,0:0:0:0:
160,192,30414,1,0,0:0:0:0:
192,160,30499,1,0,0:0:0:0:
192,160,30670,1,8,0:0:0:0:
192,160,30840,1,8,0:0:0:0:
224,192,31010,1,0,0:0:0:0:
192,160,31181,1,0,0:0:0:0:
224,160,31351,1,8,0:0:0:0:
192,160,31437,1,8,0:0:0:0:
256,160,31522,1,0,0:0:0:0:
256,160,31607,1,0,0:0:0:0:
256,128,31692,1,8,0:0:0:0:
256,128,31777,1,8,0:0:0:0:
256,128,31863,1,8,0:0:0:0:
256,128,31948,1,8,0:0:0:0:
224,160,32033,1,0,0:0:0:0:
224,160,32374,1,0,0:0:0:0:
224,128,32715,1,0,0:0:0:0:
224,160,32885,1,8,0:0:0:0:
224,160,33056,1,8,0:0:0:0:
224,192,33397,1,4,0:0:0:0:
256,128,33567,1,8,0:0:0:0:
224,224,33738,1,0,0:0:0:0:
192,160,33908,1,8,0:0:0:0:
192,160,33993,1,8,0:0:0:0:
192,160,34079,1,0,0:0:0:0:
192,160,34164,1,0,0:0:0:0:
224,160,34249,1,8,0:0:0:0:
256,192,34590,1,0,0:0:0:0:
280,174,34675,1,8,0:0:0:0:
281,174,34760,1,0,0:0:0:0:
256,192,34931,1,8,0:0:0:0:
224,160,35101,1,0,0:0:0:0:
224,160,35272,1,8,0:0:0:0:
192,160,35442,1,8,0:0:0:0:
256,128,35527,1,8,0:0:0:0:
192,160,35613,1,0,0:0:0:0:
256,160,35698,1,0,0:0:0:0:
192,160,35783,1,0,0:0:0:0:
192,160,35954,1,8,0:0:0:0:
192,160,36124,1,0,0:0:0:0:
192,128,36209,1,0,0:0:0:0:
192,160,36295,1,8,0:0:0:0:
192,160,36465,1,0,0:0:0:0:
192,160,36635,1,8,0:0:0:0:
288,160,36721,1,8,0:0:0:0:
192,160,36806,1,0,0:0:0:0:
224,128,36891,1,8,0:0:0:0:
192,160,36976,1,0,0:0:0:0:
224,128,37317,1,0,0:0:0:0:
224,160,37402,1,0,0:0:0:0:
224,128,37488,1,8,0:0:0:0:
160,160,37658,1,0,0:0:0:0:
160,160,37829,1,8,0:0:0:0:
192,128,37914,1,0,0:0:0:0:
160,160,37999,1,8,0:0:0:0:
224,128,38084,1,8,0:0:0:0:
224,128,38170,1,0,0:0:0:0:
224,128,38340,1,0,0:0:0:0:
224,160,38425,1,0,0:0:0:0:
224,128,38510,1,8,0:0:0:0:
224,128,38681,1,0,0:0:0:0:
256,128,38851,1,8,0:0:0:0:
256,192,39022,1,0,0:0:0:0:
256,128,39107,1,8,0:0:0:0:
256,192,39192,1,8,0:0:0:0:
224,160,39363,1,0,0:0:0:0:
224,160,39533,1,8,0:0:0:0:
224,160,39618,1,0,0:0:0:0:
224,160,39704,1,8,0:0:0:0:
224,96,40045,1,0,0:0:0:0:
200,190,40130,1,0,0:0:0:0:
200,190,40215,1,0,0:0:0:0:
224,96,40385,1,8,0:0:0:0:
224,96,40556,1,0,0:0:0:0:
224,96,40726,1,8,0:0:0:0:
256,64,40812,1,8,0:0:0:0:
224,96,40897,1,8,0:0:0:0:
224,96,41067,1,0,0:0:0:0:
224,96,41238,1,8,0:0:0:0:
224,96,41408,1,8,0:0:0:0:
256,96,41493,1,8,0:0:0:0:
224,96,41579,1,0,0:0:0:0:
256,96,41664,1,0,0:0:0:0:
224,160,41749,1,0,0:0:0:0:
224,160,41920,1,8,0:0:0:0:
224,160,42090,1,0,0:0:0:0:
224,128,42175,1,0,0:0:0:0:
224,128,42260,1,8,0:0:0:0:
224,128,42431,1,0,0:0:0:0:
192,192,42601,1,8,0:0:0:0:
192,160,42772,1,0,0:0:0:0:
192,192,42942,1,8,0:0:0:0:
192,160,43113,1,0,0:0:0:0:
224,128,43283,1,8,0:0:0:0:
224,128,43454,1,8,0:0:0:0:
224,128,43624,1,0,0:0:0:0:
224,160,43709,1,0,0:0:0:0:
192,128,43795,1,8,0:0:0:0:
224,96,43965,1,0,0:0:0:0:
256,192,44050,1,8,0:0:0:0:
256,96,44135,1,0,0:0:0:0:
224,96,44306,1,12,0:0:0:0:
224,128,44533,1,0,0:0:0:0:
224,128,44647,1,0,0:0:0:0:
256,96,44988,1,0,0:0:0:0:
224,96,45101,1,0,0:0:0:0:
224,64,45215,1,8,0:0:0:0:
224,64,45329,1,0,0:0:0:0:
288,96,45670,1,8,0:0:0:0:
224,128,45783,1,0,0:0:0:0:
224,192,45897,1,8,0:0:0:0:
256,192,46010,1,8,0:0:0:0:
256,192,46124,1,0,0:0:0:0:
256,192,46238,1,8,0:0:0:0:
256,192,46351,1,0,0:0:0:0:
288,160,46465,1,0,0:0:0:0:
256,192,46579,1,8,0:0:0:0:
256,192,46692,1,0,0:0:0:0:
224,160,46920,1,8,0:0:0:0:
224,160,47033,1,0,0:0:0:0:
256,160,47147,1,8,0:0:0:0:
224,192,47260,1,8,0:0:0:0:
224,96,47374,1,0,0:0:0:0:
224,128,47715,1,0,0:0:0:0:
224,128,47829,1,8,0:0:0:0:
256,128,47942,1,8,0:0:0:0:
192,160,48056,1,0,0:0:0:0:
224,192,48397,1,12,0:0:0:0:
256,192,48567,1,0,0:0:0:0:
224,192,48738,1,0,0:0:0:0:
224,192,48908,1,8,0:0:0:0:
224,192,49079,1,0,0:0:0:0:
224,192,49249,1,0,0:0:0:0:
224,192,49420,1,8,0:0:0:0:
224,192,49590,1,8,0:0:0:0:
256,160,49760,1,4,0:0:0:0:
192,160,49988,1,8,0:0:0:0:
192,160,50101,1,0,0:0:0:0:
256,128,50442,1,8,0:0:0:0:
256,128,50556,1,0,0:0:0:0:
256,128,50670,1,0,0:0:0:0:
256,128,50783,1,8,0:0:0:0:
256,128,51124,1,0,0:0:0:0:
192,128,51238,1,8,0:0:0:0:
192,128,51351,1,0,0:0:0:0:
224,128,51465,1,0,0:0:0:0:
224,192,51579,1,8,0:0:0:0:
224,192,51692,1,8,0:0:0:0:
224,192,51806,1,0,0:0:0:0:
224,192,51920,1,0,0:0:0:0:
224,192,52033,1,0,0:0:0:0:
256,128,52147,1,8,0:0:0:0:
288,128,52488,1,0,0:0:0:0:
288,128,52601,1,0,0:0:0:0:
288,128,52715,1,8,0:0:0:0:
288,128,52829,1,0,0:0:0:0:
256,192,53170,1,8,0:0:0:0:
256,192,53283,1,0,0:0:0:0:
288,160,53397,1,8,0:0:0:0:
288,160,53510,1,0,0:0:0:0:
288,160,53851,1,12,0:0:0:0:
288,192,54022,1,0,0:0:0:0:
288,192,54192,1,8,0:0:0:0:
288,192,54363,1,8,0:0:0:0:
288,192,54533,1,0,0:0:0:0:
288,192,54704,1,0,0:0:0:0:
288,192,54874,1,8,0:0:0:0:
320,192,54959,1,8,0:0:0:0:
320,192,55045,1,0,0:0:0:0:
352,192,55130,1,0,0:0:0:0:
256,192,55215,1,8,0:0:0:0:
320,192,55385,1,0,0:0:0:0:
320,224,55471,1,0,0:0:0:0:
256,192,55556,1,8,0:0:0:0:
256,192,55726,1,0,0:0:0:0:
288,128,55897,1,8,0:0:0:0:
160,192,56067,1,8,0:0:0:0:
256,160,56238,1,0,0:0:0:0:
288,192,56579,1,12,0:0:0:0:
288,192,56920,1,8,0:0:0:0:
288,192,57005,1,8,0:0:0:0:
288,192,57090,1,0,0:0:0:0:
288,192,57260,1,8,0:0:0:0:
288,192,57431,1,0,0:0:0:0:
256,192,57601,1,8,0:0:0:0:
256,192,57772,1,0,0:0:0:0:
288,192,57857,1,0,0:0:0:0:
256,192,57942,1,8,0:0:0:0:
256,160,58027,1,8,0:0:0:0:
256,160,58113,1,0,0:0:0:0:
256,160,58283,1,8,0:0:0:0:
256,160,58454,1,0,0:0:0:0:
256,192,58539,1,0,0:0:0:0:
288,160,58624,1,8,0:0:0:0:
288,160,58965,1,0,0:0:0:0:
288,160,59135,1,0,0:0:0:0:
288,160,59306,1,8,0:0:0:0:
288,128,59391,1,0,0:0:0:0:
288,128,59476,1,8,0:0:0:0:
256,128,59562,1,8,0:0:0:0:
256,128,59647,1,0,0:0:0:0:
256,160,59817,1,8,0:0:0:0:
256,192,59988,1,0,0:0:0:0:
256,192,60158,1,8,0:0:0:0:
288,160,60243,1,0,0:0:0:0:
256,192,60329,1,8,0:0:0:0:
256,192,60499,1,8,0:0:0:0:
256,192,60584,1,8,0:0:0:0:
256,192,60670,1,0,0:0:0:0:
256,160,60840,1,0,0:0:0:0:
256,160,60925,1,0,0:0:0:0:
256,160,61010,1,8,0:0:0:0:
256,128,61181,1,0,0:0:0:0:
256,128,61266,1,0,0:0:0:0:
256,128,61351,1,8,0:0:0:0:
224,192,61437,1,0,0:0:0:0:
256,160,61522,1,0,0:0:0:0:
256,160,61692,1,8,0:0:0:0:
224,160,61863,1,0,0:0:0:0:
256,160,62033,1,8,0:0:0:0:
256,192,62374,1,0,0:0:0:0:
256,192,62545,1,8,0:0:0:0:
256,192,62630,1,8,0:0:0:0:
256,192,62715,1,0,0:0:0:0:
256,192,62800,1,0,0:0:0:0:
256,192,62885,1,8,0:0:0:0:
256,192,63056,1,0,0:0:0:0:
256,192,63226,1,8,0:0:0:0:
256,192,63397,1,0,0:0:0:0:
256,128,63482,1,0,0:0:0:0:
256,192,63567,1,8,0:0:0:0:
256,192,63738,1,0,0:0:0:0:
256,192,63908,1,8,0:0:0:0:
256,192,64079,1,0,0:0:0:0:
224,192,64420,1,8,0:0:0:0:
256,160,64590,1,0,0:0:0:0:
224,160,64760,1,8,0:0:0:0:
224,160,64846,1,0,0:0:0:0:
224,160,64931,1,0,0:0:0:0:
288,128,65016,1,0,0:0:0:0:
224,160,65101,1,8,0:0:0:0:
224,160,65272,1,8,0:0:0:0:
224,160,65442,1,0,0:0:0:0:
256,160,65783,1,8,0:0:0:0:
192,128,65868,1,8,0:0:0:0:
224,160,65954,1,0,0:0:0:0:
256,128,66039,1,8,0:0:0:0:
256,160,66124,1,0,0:0:0:0:
224,160,66295,1,8,0:0:0:0:
224,160,66465,1,0,0:0:0:0:
224,128,66550,1,0,0:0:0:0:
224,160,66635,1,8,0:0:0:0:
224,160,66806,1,0,0:0:0:0:
224,160,66976,1,8,0:0:0:0:
224,192,67062,1,8,0:0:0:0:
224,128,67147,1,0,0:0:0:0:
224,192,67232,1,0,0:0:0:0:
224,128,67317,1,8,0:0:0:0:
224,192,67402,1,0,0:0:0:0:
224,128,67488,1,12,0:0:0:0:
256,192,67829,1,8,0:0:0:0:
256,192,67914,1,0,0:0:0:0:
288,192,67999,1,8,0:0:0:0:
256,192,68084,1,8,0:0:0:0:
256,192,68170,1,0,0:0:0:0:
224,192,68255,1,0,0:0:0:0:
256,192,68340,1,8,0:0:0:0:
256,192,68510,1,0,0:0:0:0:
256,192,68851,1,0,0:0:0:0:
256,192,69022,1,8,0:0:0:0:
256,192,69107,1,0,0:0:0:0:
256,192,69192,1,8,0:0:0:0:
256,160,69363,1,8,0:0:0:0:
256,160,69448,1,8,0:0:0:0:
256,160,69533,1,0,0:0:0:0:
256,160,69704,1,8,0:0:0:0:
256,160,69874,1,0,0:0:0:0:
288,192,70215,1,8,0:0:0:0:
224,160,70300,1,8,0:0:0:0:
224,160,70385,1,0,0:0:0:0:
288,192,70556,1,0,0:0:0:0:
320,160,70726,1,8,0:0:0:0:
320,160,70897,1,0,0:0:0:0:
320,160,70982,1,0,0:0:0:0:
320,160,71067,1,0,0:0:0:0:
320,160,71238,1,8,0:0:0:0:
320,160,71323,1,8,0:0:0:0:
320,160,71408,1,8,0:0:0:0:
288,192,71579,1,0,0:0:0:0:
256,192,71749,1,0,0:0:0:0:
256,192,71920,1,8,0:0:0:0:
256,192,72090,1,0,0:0:0:0:
224,160,72260,1,12,0:0:0:0:
256,192,72601,1,12,0:0:0:0:
224,224,72942,1,0,0:0:0:0:
224,224,73113,1,8,0:0:0:0:
256,224,73198,1,8,0:0:0:0:
256,224,73283,1,8,0:0:0:0:
256,192,73454,1,0,0:0:0:0:
224,160,73624,1,8,0:0:0:0:
224,160,73709,1,0,0:0:0:0:
224,160,73795,1,8,0:0:0:0:
224,160,73880,1,0,0:0:0:0:
224,192,73965,1,8,0:0:0:0:
192,224,74306,1,0,0:0:0:0:
192,224,74476,1,8,0:0:0:0:
192,224,74562,1,8,0:0:0:0:
192,224,74647,1,8,0:0:0:0:
224,192,74817,1,0,0:0:0:0:
224,192,74902,1,0,0:0:0:0:
224,192,74988,1,8,0:0:0:0:
256,192,75073,1,0,0:0:0:0:
256,192,75158,1,8,0:0:0:0:
256,160,75243,1,0,0:0:0:0:
256,160,75329,1,8,0:0:0:0:
224,192,75670,1,0,0:0:0:0:
224,160,75840,1,0,0:0:0:0:
224,192,76010,1,8,0:0:0:0:
224,192,76096,1,8,0:0:0:0:
224,192,76181,1,8,0:0:0:0:
224,192,76351,1,0,0:0:0:0:
224,192,76522,1,8,0:0:0:0:
224,192,76607,1,8,0:0:0:0:
224,192,76692,1,0,0:0:0:0:
256,160,76777,1,8,0:0:0:0:
224,192,76863,1,0,0:0:0:0:
224,192,77033,1,8,0:0:0:0:
224,192,77204,1,8,0:0:0:0:
224,192,77374,1,0,0:0:0:0:
224,192,77545,1,0,0:0:0:0:
192,192,77715,1,8,0:0:0:0:
192,192,77800,1,0,0:0:0:0:
192,192,77885,1,8,0:0:0:0:
192,192,77971,1,8,0:0:0:0:
192,192,78056,1,0,0:0:0:0:
192,192,78141,1,0,0:0:0:0:
192,192,78226,1,8,0:0:0:0:
256,192,78312,1,8,0:0:0:0:
192,192,78397,1,4,0:0:0:0:
256,192,78908,1,8,0:0:0:0:
256,192,79079,1,0,0:0:0:0:
160,288,79249,1,8,0:0:0:0:
256,192,79334,1,0,0:0:0:0:
224,224,79505,1,8,0:0:0:0:
256,192,79590,1,0,0:0:0:0:
256,192,79760,1,8,0:0:0:0:
256,192,79931,1,0,0:0:0:0:
256,192,80016,1,8,0:0:0:0:
256,192,80187,1,0,0:0:0:0:
256,192,80272,1,8,0:0:0:0:
256,192,80442,1,0,0:0:0:0:
224,192,80613,1,8,0:0:0:0:
256,192,80698,1,0,0:0:0:0:
224,192,80868,1,0,0:0:0:0:
256,192,80954,1,8,0:0:0:0:
256,192,81124,1,8,0:0:0:0:
224,192,81295,1,0,0:0:0:0:
224,192,81465,1,8,0:0:0:0:
224,192,81635,1,0,0:0:0:0:
256,192,81806,1,8,0:0:0:0:
224,128,81891,1,8,0:0:0:0:
224,192,81976,1,0,0:0:0:0:
224,192,82062,1,0,0:0:0:0:
224,192,82147,1,8,0:0:0:0:
224,192,82232,1,0,0:0:0:0:
224,192,82317,1,8,0:0:0:0:
224,128,82402,1,8,0:0:0:0:
224,128,82488,1,0,0:0:0:0:
224,128,82829,1,0,0:0:0:0:
224,128,83170,1,0,0:0:0:0:
256,160,83340,1,8,0:0:0:0:
256,160,83510,1,8,0:0:0:0:
224,192,83851,1,4,0:0:0:0:
256,128,84022,1,8,0:0:0:0:
224,224,84192,1,0,0:0:0:0:
192,160,84363,1,8,0:0:0:0:
192,160,84448,1,8,0:0:0:0:
192,160,84533,1,0,0:0:0:0:
192,160,84618,1,0,0:0:0:0:
224,160,84704,1,8,0:0:0:0:
256,192,85045,1,0,0:0:0:0:
256,192,85130,1,0,0:0:0:0:
256,192,85215,1,8,0:0:0:0:
256,192,85385,1,8,0:0:0:0:
224,160,85556,1,0,0:0:0:0:
224,160,85726,1,0,0:0:0:0:
192,160,85897,1,8,0:0:0:0:
256,128,85982,1,0,0:0:0:0:
192,160,86067,1,8,0:0:0:0:
256,160,86152,1,8,0:0:0:0:
192,160,86238,1,0,0:0:0:0:
192,160,86408,1,8,0:0:0:0:
192,160,86579,1,0,0:0:0:0:
192,128,86664,1,8,0:0:0:0:
192,160,86749,1,0,0:0:0:0:
192,160,86920,1,8,0:0:0:0:
192,160,87090,1,0,0:0:0:0:
288,160,87175,1,0,0:0:0:0:
192,160,87260,1,8,0:0:0:0:
224,128,87346,1,0,0:0:0:0:
192,160,87431,1,8,0:0:0:0:
224,128,87772,1,0,0:0:0:0:
224,160,87857,1,0,0:0:0:0:
224,128,87942,1,0,0:0:0:0:
160,160,88113,1,8,0:0:0:0:
160,160,88283,1,0,0:0:0:0:
192,128,88368,1,8,0:0:0:0:
160,160,88454,1,8,0:0:0:0:
224,128,88539,1,8,0:0:0:0:
224,128,88624,1,0,0:0:0:0:
224,128,88795,1,12,0:0:0:0:
224,128,88965,1,12,0:0:0:0:
224,128,89135,1,12,0:0:0:0:
256,128,89306,1,0,0:0:0:0:
256,192,89476,1,0,0:0:0:0:
256,128,89562,1,0,0:0:0:0:
256,192,89647,1,8,0:0:0:0:
224,160,89817,1,0,0:0:0:0:
224,160,89988,1,8,0:0:0:0:
224,160,90073,1,8,0:0:0:0:
224,160,90158,1,0,0:0:0:0:
224,96,90499,1,8,0:0:0:0:
256,192,90584,1,0,0:0:0:0:
256,160,90670,1,8,0:0:0:0:
288,128,90755,1,8,0:0:0:0:
224,96,90840,1,0,0:0:0:0:
224,96,91010,1,0,0:0:0:0:
224,96,91181,1,8,0:0:0:0:
256,64,91266,1,8,0:0:0:0:
224,96,91351,1,8,0:0:0:0:
224,96,91522,1,0,0:0:0:0:
224,96,91692,1,8,0:0:0:0:
224,96,91863,1,0,0:0:0:0:
256,96,91948,1,0,0:0:0:0:
224,96,92033,1,8,0:0:0:0:
256,96,92118,1,0,0:0:0:0:
224,160,92204,1,0,0:0:0:0:
224,160,92374,1,8,0:0:0:0:
224,160,92545,1,0,0:0:0:0:
224,128,92630,1,0,0:0:0:0:
224,128,92715,1,8,0:0:0:0:
224,128,92885,1,0,0:0:0:0:
224,192,93056,1,8,0:0:0:0:
192,160,93226,1,0,0:0:0:0:
256,192,93312,1,0,0:0:0:0:
288,160,93397,1,8,0:0:0:0:
192,160,93567,1,0,0:0:0:0:
224,128,93738,1,8,0:0:0:0:
224,128,93908,1,8,0:0:0:0:
224,128,94079,1,8,0:0:0:0:
224,160,94164,1,8,0:0:0:0:
224,160,94249,1,0,0:0:0:0:
224,96,94420,1,8,0:0:0:0:
192,160,94505,1,0,0:0:0:0:
192,160,94590,1,8,0:0:0:0:
224,224,94760,1,4,0:0:0:0:
224,224,94988,1,8,0:0:0:0:
224,224,95101,1,0,0:0:0:0:
256,224,95442,1,0,0:0:0:0:
256,224,95556,1,0,0:0:0:0:
256,224,95670,1,8,0:0:0:0:
256,224,95783,1,0,0:0:0:0:
224,192,96124,1,0,0:0:0:0:
224,224,96238,1,8,0:0:0:0:
224,224,96351,1,8,0:0:0:0:
224,224,96465,1,0,0:0:0:0:
224,224,96579,1,8,0:0:0:0:
224,224,96692,1,8,0:0:0:0:
224,224,96806,1,0,0:0:0:0:
256,224,96920,1,0,0:0:0:0:
224,224,97033,1,8,0:0:0:0:
224,224,97147,1,0,0:0:0:0:
192,192,97488,1,0,0:0:0:0:
192,192,97715,1,8,0:0:0:0:
192,192,97829,1,0,0:0:0:0:
192,192,98170,1,8,0:0:0:0:
192,192,98397,1,0,0:0:0:0:
192,192,98510,1,8,0:0:0:0:
224,192,98851,1,0,0:0:0:0:
224,192,98937,1,0,0:0:0:0:
256,192,99022,1,8,0:0:0:0:
256,192,99107,1,0,0:0:0:0:
256,192,99192,1,8,0:0:0:0:
224,192,99277,1,8,0:0:0:0:
224,192,99363,1,0,0:0:0:0:
224,192,99533,1,8,0:0:0:0:
224,192,99618,1,8,0:0:0:0:
224,192,99704,1,0,0:0:0:0:
256,160,99789,1,8,0:0:0:0:
256,192,99874,1,0,0:0:0:0:
256,160,99959,1,0,0:0:0:0:
256,160,100045,1,8,0:0:0:0:
384,192,100215,1,4,0:0:0:0:
320,160,100442,1,8,0:0:0:0:
320,160,100556,1,0,0:0:0:0:
160,160,100897,1,0,0:0:0:0:
256,160,101010,1,8,0:0:0:0:
160,160,101238,1,0,0:0:0:0:
160,160,101579,1,0,0:0:0:0:
224,192,101692,1,8,0:0:0:0:
224,192,101806,1,0,0:0:0:0:
160,160,101920,1,0,0:0:0:0:
224,160,102033,1,8,0:0:0:0:
224,160,102147,1,8,0:0:0:0:
160,160,102260,1,0,0:0:0:0:
256,160,102374,1,8,0:0:0:0:
256,160,102488,1,0,0:0:0:0:
160,160,102601,1,8,0:0:0:0:
224,224,102942,1,0,0:0:0:0:
224,224,103170,1,8,0:0:0:0:
224,224,103283,1,0,0:0:0:0:
256,192,103510,1,0,0:0:0:0:
224,192,103624,1,8,0:0:0:0:
224,192,103738,1,0,0:0:0:0:
256,192,103851,1,0,0:0:0:0:
256,192,103965,1,8,0:0:0:0:
256,192,104079,1,0,0:0:0:0:
256,192,104192,1,8,0:0:0:0:
256,192,104306,1,4,0:0:0:0:
224,160,104647,1,8,0:0:0:0:
224,160,104817,1,0,0:0:0:0:
224,160,104902,1,0,0:0:0:0:
256,192,104988,1,8,0:0:0:0:
256,192,105158,1,0,0:0:0:0:
288,160,105329,1,8,0:0:0:0:
224,128,105414,1,0,0:0:0:0:
224,160,105499,1,8,0:0:0:0:
224,160,105670,1,8,0:0:0:0:
160,192,105783,1,0,0:0:0:0:
160,192,105897,1,0,0:0:0:0:
160,192,106010,1,8,0:0:0:0:
192,192,106181,1,0,0:0:0:0:
160,192,106266,1,0,0:0:0:0:
160,192,106351,1,8,0:0:0:0:
192,160,106437,1,8,0:0:0:0:
192,160,106522,1,0,0:0:0:0:
192,160,106607,1,0,0:0:0:0:
192,160,106692,1,8,0:0:0:0:
256,192,107033,1,12,0:0:0:0:
224,192,107374,1,8,0:0:0:0:
224,160,107459,1,0,0:0:0:0:
224,192,107545,1,8,0:0:0:0:
224,192,107715,1,4,0:0:0:0:
224,160,108056,1,12,0:0:0:0:
224,160,108397,1,0,0:0:0:0:
224,160,108482,1,8,0:0:0:0:
224,160,108567,1,0,0:0:0:0:
224,160,108738,1,8,0:0:0:0:
224,160,108823,1,0,0:0:0:0:
224,160,108908,1,8,0:0:0:0:
224,160,109079,1,4,0:0:0:0:
224,160,109420,1,12,0:0:0:0:
256,192,109760,1,0,0:0:0:0:
224,128,109846,1,8,0:0:0:0:
224,128,109931,1,0,0:0:0:0:
256,192,110101,1,8,0:0:0:0:
224,128,110187,1,0,0:0:0:0:
288,192,110272,1,8,0:0:0:0:
288,192,110442,1,4,0:0:0:0:
288,192,110783,1,12,0:0:0:0:
288,192,111124,1,0,0:0:0:0:
224,128,111209,1,8,0:0:0:0:
288,128,111295,1,0,0:0:0:0:
384,224,111465,1,8,0:0:0:0:
320,128,111550,1,0,0:0:0:0:
384,224,111635,1,8,0:0:0:0:
384,224,111806,1,4,0:0:0:0:
279,150,112147,1,12,0:0:0:0:
288,192,112488,1,12,0:0:0:0:
224,192,112829,1,8,0:0:0:0:
288,128,112914,1,0,0:0:0:0:
224,192,112999,1,8,0:0:0:0:
224,192,113170,1,4,0:0:0:0:
224,160,113510,1,12,0:0:0:0:
224,160,113851,1,0,0:0:0:0:
224,160,113937,1,8,0:0:0:0:
256,192,114022,1,0,0:0:0:0:
224,160,114192,1,8,0:0:0:0:
160,160,114277,1,0,0:0:0:0:
256,128,114363,1,8,0:0:0:0:
224,160,114533,1,4,0:0:0:0:
224,160,114874,1,12,0:0:0:0:
256,192,115215,1,0,0:0:0:0:
224,128,115300,1,8,0:0:0:0:
256,192,115385,1,0,0:0:0:0:
256,192,115556,1,8,0:0:0:0:
256,128,115641,1,0,0:0:0:0:
288,192,115726,1,8,0:0:0:0:
288,192,115897,1,4,0:0:0:0:
288,192,116238,1,12,0:0:0:0:
288,192,116579,1,0,0:0:0:0:
256,160,116664,1,0,0:0:0:0:
256,192,116749,1,8,0:0:0:0:
256,160,116834,1,8,0:0:0:0:
384,224,116920,1,0,0:0:0:0:
384,224,117090,1,0,0:0:0:0:
384,224,117260,1,8,0:0:0:0:
384,224,117346,1,8,0:0:0:0:
320,192,117431,1,8,0:0:0:0:
320,192,117516,1,8,0:0:0:0:
320,192,117601,1,0,0:0:0:0:
288,192,117942,1,12,0:0:0:0:
320,224,118113,1,0,0:0:0:0:
256,192,118198,1,0,0:0:0:0:
288,192,118283,1,8,0:0:0:0:
288,192,118454,1,0,0:0:0:0:
288,192,118624,1,8,0:0:0:0:
288,224,118709,1,0,0:0:0:0:
288,224,118795,1,8,0:0:0:0:
288,192,118880,1,0,0:0:0:0:
288,192,118965,1,8,0:0:0:0:
192,160,119050,1,8,0:0:0:0:
288,192,119135,1,0,0:0:0:0:
288,192,119306,1,0,0:0:0:0:
256,192,119476,1,8,0:0:0:0:
256,192,119562,1,0,0:0:0:0:
256,192,119647,1,8,0:0:0:0:
256,192,119732,1,8,0:0:0:0:
256,192,119817,1,0,0:0:0:0:
224,192,119902,1,0,0:0:0:0:
256,160,119988,1,8,0:0:0:0:
256,160,120158,1,0,0:0:0:0:
256,160,120329,1,8,0:0:0:0:
256,160,120414,1,0,0:0:0:0:
256,160,120499,1,8,0:0:0:0:
256,160,120584,1,8,0:0:0:0:
256,160,120670,1,0,0:0:0:0:
256,160,120840,1,8,0:0:0:0:
256,160,121010,1,0,0:0:0:0:
224,128,121096,1,0,0:0:0:0:
256,160,121181,1,8,0:0:0:0:
320,192,121266,1,0,0:0:0:0:
256,160,121351,1,8,0:0:0:0:
256,160,121522,1,0,0:0:0:0:
256,160,121692,1,8,0:0:0:0:
256,160,121777,1,8,0:0:0:0:
256,160,121863,1,0,0:0:0:0:
256,160,121948,1,0,0:0:0:0:
288,128,122033,1,8,0:0:0:0:
256,160,122204,1,0,0:0:0:0:
256,160,122374,1,8,0:0:0:0:
256,160,122715,1,8,0:0:0:0:
256,160,122885,1,0,0:0:0:0:
256,160,122971,1,0,0:0:0:0:
256,160,123056,1,8,0:0:0:0:
256,160,123226,1,0,0:0:0:0:
256,160,123397,1,12,0:0:0:0:
288,192,123738,1,0,0:0:0:0:
288,192,123823,1,0,0:0:0:0:
288,192,123908,1,8,0:0:0:0:
288,192,123993,1,8,0:0:0:0:
288,192,124079,1,0,0:0:0:0:
288,192,124249,1,8,0:0:0:0:
288,192,124334,1,0,0:0:0:0:
256,160,124420,1,8,0:0:0:0:
256,160,124505,1,8,0:0:0:0:
256,160,124590,1,0,0:0:0:0:
256,160,124675,1,0,0:0:0:0:
256,160,124760,1,8,0:0:0:0:
91,168,124846,1,0,0:0:0:0:
256,160,124931,1,0,0:0:0:0:
256,160,125016,1,0,0:0:0:0:
224,128,125101,1,8,0:0:0:0:
288,192,125187,1,8,0:0:0:0:
224,128,125272,1,0,0:0:0:0:
288,192,125357,1,0,0:0:0:0:
288,192,125442,1,8,0:0:0:0:
288,192,125527,1,0,0:0:0:0:
288,192,125613,1,8,0:0:0:0:
288,160,125698,1,0,0:0:0:0:
256,192,125783,1,8,0:0:0:0:
256,192,125868,1,8,0:0:0:0:
256,192,125954,1,0,0:0:0:0:
256,224,126124,1,12,0:0:0:0:
224,192,126295,1,0,0:0:0:0:
224,192,126380,1,0,0:0:0:0:
256,192,126465,1,8,0:0:0:0:
256,192,126550,1,8,0:0:0:0:
256,192,126635,1,0,0:0:0:0:
256,192,126721,1,8,0:0:0:0:
256,160,126806,1,0,0:0:0:0:
256,160,126891,1,0,0:0:0:0:
256,160,126976,1,8,0:0:0:0:
256,160,127062,1,0,0:0:0:0:
224,192,127147,1,8,0:0:0:0:
224,192,127232,1,8,0:0:0:0:
224,160,127317,1,0,0:0:0:0:
224,160,127402,1,8,0:0:0:0:
224,160,127488,1,0,0:0:0:0:
224,160,127658,1,8,0:0:0:0:
224,160,127743,1,8,0:0:0:0:
224,160,127829,1,0,0:0:0:0:
224,160,127999,1,8,0:0:0:0:
224,160,128170,1,0,0:0:0:0:
247,173,128340,1,0,0:0:0:0:
247,173,128510,1,8,0:0:0:0:
256,192,128851,1,12,0:0:0:0:
288,192,129192,1,8,0:0:0:0:
288,192,129277,1,8,0:0:0:0:
288,192,129363,1,0,0:0:0:0:
288,160,129448,1,0,0:0:0:0:
288,192,129533,1,8,0:0:0:0:
288,192,129704,1,0,0:0:0:0:
256,192,129874,1,8,0:0:0:0:
256,160,129959,1,0,0:0:0:0:
256,192,130045,1,0,0:0:0:0:
288,192,130130,1,0,0:0:0:0:
256,192,130215,1,8,0:0:0:0:
256,160,130300,1,8,0:0:0:0:
256,160,130385,1,0,0:0:0:0:
256,160,130556,1,8,0:0:0:0:
256,160,130726,1,0,0:0:0:0:
256,192,130812,1,0,0:0:0:0:
288,160,130897,1,8,0:0:0:0:
288,160,131238,1,0,0:0:0:0:
288,160,131408,1,0,0:0:0:0:
288,160,131579,1,8,0:0:0:0:
288,128,131664,1,0,0:0:0:0:
288,128,131749,1,8,0:0:0:0:
256,128,131834,1,8,0:0:0:0:
256,128,131920,1,0,0:0:0:0:
256,192,132005,1,0,0:0:0:0:
256,160,132090,1,8,0:0:0:0:
256,192,132260,1,0,0:0:0:0:
256,192,132431,1,8,0:0:0:0:
246,163,132516,1,8,0:0:0:0:
256,192,132601,1,0,0:0:0:0:
256,192,132772,1,8,0:0:0:0:
256,192,132857,1,0,0:0:0:0:
256,192,132942,1,8,0:0:0:0:
256,160,133113,1,0,0:0:0:0:
256,160,133198,1,0,0:0:0:0:
256,160,133283,1,0,0:0:0:0:
256,128,133454,1,8,0:0:0:0:
256,128,133539,1,8,0:0:0:0:
256,128,133624,1,0,0:0:0:0:
224,192,133709,1,8,0:0:0:0:
256,160,133795,1,0,0:0:0:0:
256,160,133965,1,8,0:0:0:0:
224,160,134135,1,0,0:0:0:0:
256,160,134306,1,8,0:0:0:0:
256,192,134647,1,0,0:0:0:0:
256,192,134817,1,8,0:0:0:0:
256,192,134902,1,8,0:0:0:0:
256,192,134988,1,0,0:0:0:0:
256,192,135073,1,0,0:0:0:0:
256,192,135158,1,8,0:0:0:0:
256,192,135329,1,0,0:0:0:0:
256,192,135499,1,8,0:0:0:0:
256,192,135670,1,0,0:0:0:0:
256,128,135755,1,0,0:0:0:0:
256,192,135840,1,8,0:0:0:0:
256,160,135925,1,8,0:0:0:0:
256,192,136010,1,0,0:0:0:0:
256,192,136181,1,8,0:0:0:0:
256,192,136351,1,0,0:0:0:0:
224,192,136692,1,8,0:0:0:0:
256,160,136777,1,8,0:0:0:0:
256,160,136863,1,0,0:0:0:0:
224,160,137033,1,8,0:0:0:0:
224,160,137118,1,0,0:0:0:0:
224,160,137204,1,0,0:0:0:0:
288,128,137289,1,0,0:0:0:0:
224,160,137374,1,8,0:0:0:0:
224,160,137545,1,8,0:0:0:0:
224,160,137715,1,0,0:0:0:0:
256,160,138056,1,8,0:0:0:0:
192,128,138141,1,8,0:0:0:0:
224,160,138226,1,0,0:0:0:0:
256,128,138312,1,0,0:0:0:0:
256,160,138397,1,0,0:0:0:0:
224,160,138567,1,8,0:0:0:0:
224,160,138738,1,0,0:0:0:0:
224,128,138823,1,0,0:0:0:0:
224,160,138908,1,8,0:0:0:0:
224,160,139079,1,0,0:0:0:0:
224,160,139249,1,8,0:0:0:0:
224,192,139334,1,0,0:0:0:0:
224,128,139420,1,8,0:0:0:0:
224,192,139505,1,8,0:0:0:0:
224,128,139590,1,0,0:0:0:0:
224,192,139675,1,0,0:0:0:0:
224,128,139760,1,12,0:0:0:0:
256,192,140101,1,8,0:0:0:0:
256,192,140187,1,0,0:0:0:0:
288,192,140272,1,8,0:0:0:0:
256,192,140357,1,8,0:0:0:0:
256,192,140442,1,0,0:0:0:0:
192,128,140527,1,8,0:0:0:0:
256,192,140613,1,0,0:0:0:0:
256,192,140783,1,8,0:0:0:0:
256,192,141124,1,0,0:0:0:0:
96,160,141209,1,0,0:0:0:0:
256,192,141295,1,8,0:0:0:0:
256,192,141380,1,0,0:0:0:0:
256,192,141465,1,8,0:0:0:0:
256,160,141550,1,0,0:0:0:0:
256,160,141635,1,8,0:0:0:0:
256,160,141721,1,8,0:0:0:0:
256,160,141806,1,0,0:0:0:0:
256,160,141976,1,8,0:0:0:0:
256,160,142147,1,0,0:0:0:0:
288,192,142488,1,8,0:0:0:0:
320,192,142573,1,0,0:0:0:0:
256,192,142658,1,8,0:0:0:0:
288,192,142829,1,0,0:0:0:0:
320,160,142999,1,8,0:0:0:0:
320,160,143170,1,0,0:0:0:0:
320,160,143255,1,0,0:0:0:0:
320,160,143340,1,0,0:0:0:0:
320,160,143510,1,8,0:0:0:0:
320,160,143596,1,8,0:0:0:0:
320,160,143681,1,8,0:0:0:0:
288,192,143851,1,0,0:0:0:0:
256,192,144022,1,0,0:0:0:0:
256,192,144192,1,8,0:0:0:0:
256,192,144363,1,0,0:0:0:0:
224,160,144533,1,12,0:0:0:0:
256,192,144874,1,12,0:0:0:0:
224,224,145215,1,0,0:0:0:0:
224,160,145300,1,0,0:0:0:0:
224,224,145385,1,8,0:0:0:0:
256,224,145471,1,0,0:0:0:0:
256,224,145556,1,8,0:0:0:0:
256,192,145641,1,8,0:0:0:0:
256,192,145726,1,0,0:0:0:0:
224,192,145812,1,0,0:0:0:0:
224,160,145897,1,8,0:0:0:0:
224,160,145982,1,0,0:0:0:0:
224,160,146067,1,8,0:0:0:0:
224,192,146152,1,0,0:0:0:0:
224,192,146238,1,8,0:0:0:0:
192,224,146579,1,0,0:0:0:0:
224,160,146664,1,0,0:0:0:0:
192,224,146749,1,8,0:0:0:0:
192,224,146834,1,8,0:0:0:0:
192,224,146920,1,0,0:0:0:0:
224,192,147090,1,8,0:0:0:0:
224,192,147175,1,0,0:0:0:0:
224,192,147260,1,0,0:0:0:0:
256,192,147346,1,0,0:0:0:0:
256,192,147431,1,8,0:0:0:0:
224,160,147516,1,0,0:0:0:0:
256,160,147601,1,8,0:0:0:0:
224,192,147942,1,0,0:0:0:0:
224,160,148113,1,0,0:0:0:0:
224,192,148283,1,8,0:0:0:0:
224,192,148368,1,8,0:0:0:0:
224,192,148454,1,8,0:0:0:0:
224,192,148624,1,0,0:0:0:0:
224,192,148795,1,8,0:0:0:0:
224,192,148880,1,8,0:0:0:0:
224,192,148965,1,0,0:0:0:0:
256,160,149050,1,8,0:0:0:0:
224,192,149135,1,0,0:0:0:0:
224,192,149306,1,8,0:0:0:0:
224,192,149476,1,8,0:0:0:0:
224,192,149647,1,0,0:0:0:0:
224,192,149817,1,0,0:0:0:0:
192,192,149988,1,8,0:0:0:0:
192,192,150073,1,8,0:0:0:0:
192,192,150158,1,8,0:0:0:0:
192,192,150243,1,8,0:0:0:0:
192,192,150329,1,0,0:0:0:0:
192,192,150414,1,0,0:0:0:0:
192,192,150499,1,8,0:0:0:0:
192,192,150584,1,8,0:0:0:0:
192,192,150670,1,4,0:0:0:0:
224,192,151181,1,0,0:0:0:0:
224,192,151351,1,8,0:0:0:0:
224,192,151607,1,8,0:0:0:0:
224,192,151863,1,8,0:0:0:0:
224,192,152033,1,0,0:0:0:0:
224,192,152289,1,0,0:0:0:0:
256,192,152545,1,0,0:0:0:0:
256,192,152715,1,8,0:0:0:0:
256,192,152971,1,8,0:0:0:0:
256,192,153226,1,8,0:0:0:0:
256,192,153397,1,4,0:0:0:0:
256,192,153908,1,0,0:0:0:0:
224,160,154079,1,8,0:0:0:0:
224,160,154334,1,0,0:0:0:0:
224,160,154590,1,8,0:0:0:0:
224,160,154760,1,0,0:0:0:0:
256,192,155016,1,8,0:0:0:0:
288,160,155272,1,0,0:0:0:0:
288,160,155442,1,8,0:0:0:0:
288,160,155698,1,0,0:0:0:0:
256,192,155783,1,8,0:0:0:0:
288,160,155954,1,8,0:0:0:0:
288,160,156124,1,4,0:0:0:0:
256,128,156635,1,8,0:0:0:0:
288,128,156806,1,0,0:0:0:0:
256,192,156976,1,8,0:0:0:0:
288,128,157062,1,0,0:0:0:0:
256,160,157232,1,8,0:0:0:0:
256,192,157317,1,8,0:0:0:0:
256,192,157488,1,0,0:0:0:0:
256,160,157658,1,8,0:0:0:0:
256,192,157743,1,0,0:0:0:0:
256,160,157914,1,0,0:0:0:0:
256,192,157999,1,8,0:0:0:0:
256,160,158170,1,0,0:0:0:0:
256,160,158340,1,8,0:0:0:0:
256,160,158425,1,8,0:0:0:0:
256,160,158596,1,0,0:0:0:0:
256,192,158681,1,0,0:0:0:0:
256,192,158851,1,8,0:0:0:0:
256,160,159022,1,0,0:0:0:0:
256,160,159192,1,8,0:0:0:0:
256,160,159363,1,0,0:0:0:0:
256,192,159533,1,8,0:0:0:0:
256,160,159618,1,0,0:0:0:0:
256,160,159704,1,8,0:0:0:0:
256,160,159789,1,8,0:0:0:0:
256,160,159874,1,0,0:0:0:0:
256,160,159959,1,8,0:0:0:0:
256,160,160045,1,8,0:0:0:0:
256,160,160130,1,8,0:0:0:0:
288,192,160215,1,0,0:0:0:0:
288,192,160556,1,0,0:0:0:0:
288,192,160897,1,0,0:0:0:0:
192,160,161067,1,8,0:0:0:0:
192,160,161238,1,8,0:0:0:0:
224,192,161579,1,4,0:0:0:0:
256,128,161749,1,8,0:0:0:0:
224,224,161920,1,0,0:0:0:0:
192,160,162090,1,8,0:0:0:0:
192,160,162175,1,0,0:0:0:0:
192,160,162260,1,0,0:0:0:0:
224,160,162431,1,8,0:0:0:0:
256,192,162772,1,0,0:0:0:0:
256,192,162857,1,0,0:0:0:0:
224,192,162942,1,8,0:0:0:0:
256,192,163113,1,0,0:0:0:0:
224,160,163283,1,8,0:0:0:0:
224,160,163454,1,0,0:0:0:0:
192,160,163624,1,8,0:0:0:0:
256,128,163709,1,8,0:0:0:0:
192,160,163795,1,0,0:0:0:0:
96,160,163880,1,0,0:0:0:0:
192,160,163965,1,8,0:0:0:0:
192,160,164135,1,0,0:0:0:0:
192,160,164306,1,8,0:0:0:0:
192,128,164391,1,8,0:0:0:0:
192,160,164476,1,0,0:0:0:0:
192,160,164647,1,8,0:0:0:0:
192,160,164817,1,0,0:0:0:0:
288,160,164902,1,0,0:0:0:0:
192,160,164988,1,8,0:0:0:0:
224,128,165073,1,8,0:0:0:0:
192,160,165158,1,0,0:0:0:0:
224,128,165499,1,0,0:0:0:0:
224,160,165584,1,0,0:0:0:0:
224,128,165670,1,0,0:0:0:0:
160,160,165840,1,8,0:0:0:0:
160,160,166010,1,0,0:0:0:0:
192,128,166096,1,8,0:0:0:0:
160,160,166181,1,8,0:0:0:0:
224,128,166351,1,0,0:0:0:0:
224,128,166522,1,8,0:0:0:0:
224,160,166607,1,0,0:0:0:0:
224,128,166692,1,8,0:0:0:0:
224,128,166863,1,0,0:0:0:0:
256,128,167033,1,12,0:0:0:0:
256,192,167204,1,0,0:0:0:0:
256,128,167289,1,0,0:0:0:0:
256,192,167374,1,8,0:0:0:0:
224,160,167545,1,0,0:0:0:0:
224,160,167715,1,8,0:0:0:0:
224,160,167800,1,8,0:0:0:0:
224,160,167885,1,0,0:0:0:0:
224,96,168226,1,8,0:0:0:0:
224,128,168312,1,8,0:0:0:0:
224,160,168397,1,8,0:0:0:0:
224,96,168567,1,0,0:0:0:0:
224,96,168738,1,0,0:0:0:0:
224,64,168823,1,0,0:0:0:0:
224,96,168908,1,8,0:0:0:0:
256,64,168993,1,0,0:0:0:0:
224,96,169079,1,8,0:0:0:0:
224,96,169249,1,0,0:0:0:0:
224,96,169420,1,8,0:0:0:0:
224,96,169590,1,0,0:0:0:0:
224,96,169760,1,8,0:0:0:0:
256,96,169846,1,8,0:0:0:0:
224,160,169931,1,0,0:0:0:0:
224,160,170101,1,8,0:0:0:0:
224,160,170272,1,0,0:0:0:0:
224,128,170357,1,0,0:0:0:0:
224,128,170442,1,8,0:0:0:0:
256,160,170527,1,8,0:0:0:0:
224,128,170613,1,0,0:0:0:0:
160,160,170698,1,0,0:0:0:0:
224,128,170783,1,8,0:0:0:0:
192,160,170954,1,0,0:0:0:0:
288,160,171124,1,8,0:0:0:0:
192,160,171209,1,8,0:0:0:0:
192,160,171295,1,0,0:0:0:0:
224,128,171465,1,8,0:0:0:0:
192,160,171635,1,0,0:0:0:0:
224,128,171806,1,8,0:0:0:0:
224,160,171976,1,0,0:0:0:0:
192,160,172062,1,0,0:0:0:0:
224,96,172147,1,8,0:0:0:0:
288,160,172317,1,8,0:0:0:0:
