osu file format v14

[General]
AudioFilename: audio.ogg
AudioLeadIn: 0
PreviewTime: 128297
Countdown: 0
SampleSet: Normal
StackLeniency: 0.7
Mode: 1
LetterboxInBreaks: 0
WidescreenStoryboard: 1

[Editor]
Bookmarks: 670,6124,11579,17033,21806,22147,27942,33397,44306,56579,62033,67488,72942,83851,94760,107033,117942,128851,134306,139760,145215,150670,156124,161579
DistanceSpacing: 1
BeatDivisor: 4
GridSize: 32
TimelineZoom: 2.1

[Metadata]
Title:Itsuka Otona ni Nareru to Ii ne.
TitleUnicode:いつかオトナになれるといいね。
Artist:TUYU
ArtistUnicode:ツユ
Creator:arcpotato
Version:Hivie's Oni
Source:
Tags:hivie mtntwarz gaston_2199 female vocals japanese pop jpop j-pop rock jrock j-rock rei pusu miro 礼衣 ぷす ミロ futaba haru 双葉陽 sukoyaka tsukasa すこやかツカサ azyun itsuoto tsuyu would be nice if you grow up one day i hope you can be an adult someday
BeatmapID:3686132
BeatmapSetID:1771645

[Difficulty]
HPDrainRate:5.5
CircleSize:10
OverallDifficulty:5.5
ApproachRate:10
SliderMultiplier:1.4
SliderTickRate:1

[Events]
//Background and Video events
Video,244,"itsuoto.mp4"
0,0,"pinkgirl.jpg",0,0
//Break Periods
//Storyboard Layer 0 (Background)
//Storyboard Layer 1 (Fail)
//Storyboard Layer 2 (Pass)
//Storyboard Layer 3 (Foreground)
//Storyboard Layer 4 (Overlay)
//Storyboard Sound Samples

[TimingPoints]
670,340.909090909091,4,1,0,90,1,0
670,-100,4,1,0,90,0,0
4928,-98.1542114921023,4,1,0,90,0,0
5013,-97.2618368511124,4,1,0,90,0,0
5098,-96.3855421686747,4,1,0,90,0,0
5269,-94.6696279844531,4,1,0,90,0,0
5439,-93.0232558139535,4,1,0,90,0,0
5524,-92.221358304317,4,1,0,90,0,0
5610,-91.4239753342941,4,1,0,90,0,0
5695,-90.6492988635609,4,1,0,90,0,0
5780,-89.8876404494382,4,1,0,80,0,0
5951,-88.3934936167455,4,1,0,80,0,0
6039,-88.3934936167455,4,1,0,100,0,0
6124,-86.9565217391304,4,1,0,100,0,1
6295,-95.2380952380952,4,1,0,100,0,1
21806,-80,4,1,0,100,0,1
22488,-95.2380952380952,4,1,0,100,0,1
27942,-95.2380952380952,4,1,0,100,0,0
28113,-100,4,1,0,80,0,0
32369,-108.348498693002,4,1,0,70,0,0
32710,-117.162405627265,4,1,0,70,0,0
32880,-121.451161363119,4,1,0,70,0,0
33051,-125,4,1,0,70,0,0
33397,-100,4,1,0,90,0,0
44476,-111.111111111111,4,1,0,70,0,0
48397,-100,4,1,0,90,0,0
49931,-111.111111111111,4,1,0,70,0,0
53851,-100,4,1,0,90,0,0
55210,-100,4,1,0,70,0,0
55385,-104.166666666667,4,1,0,70,0,0
55471,-106.382978723404,4,1,0,70,0,0
55551,-108.348498693002,4,1,0,70,0,0
55721,-112.719596752289,4,1,0,70,0,0
55892,-117.162405627265,4,1,0,70,0,0
56233,-125,4,1,0,70,0,0
56408,-125,4,1,0,100,0,0
56579,-95.2380952380952,4,1,0,100,0,1
72246,-80,4,1,0,100,0,1
72928,-95.2380952380952,4,1,0,100,0,1
78397,-95.2380952380952,4,1,0,100,0,0
78557,-100,4,1,0,80,0,0
82813,-108.348498693002,4,1,0,70,0,0
83154,-117.162405627265,4,1,0,70,0,0
83324,-121.451161363119,4,1,0,70,0,0
83495,-125,4,1,0,70,0,0
83851,-100,4,1,0,90,0,0
94927,-111.111111111111,4,1,0,70,0,0
98848,-100,4,1,0,90,0,0
100382,-111.111111111111,4,1,0,70,0,0
104302,-100,4,1,0,90,0,0
105670,-50,4,1,0,90,0,0
105778,-100,4,1,0,40,0,0
106948,-99.9999999999999,4,1,0,90,0,0
107033,-100,4,1,0,90,0,0
116746,-98.1634857760173,4,1,0,90,0,0
116831,-97.2702943800178,4,1,0,90,0,0
116917,-96.3829862461549,4,1,0,90,0,0
117002,-95.5217604597379,4,1,0,90,0,0
117087,-94.6757892543327,4,1,0,90,0,0
117257,-93.0280176091185,4,1,0,90,0,0
117343,-92.2160955312743,4,1,0,90,0,0
117428,-91.4274215186477,4,1,0,90,0,0
117513,-90.6521233081707,4,1,0,90,0,0
117598,-89.8898634834795,4,1,0,90,0,0
117769,-88.3945653231298,4,1,0,90,0,0
117942,-86.9565217391304,4,1,0,100,0,1
118113,-95.2380952380952,4,1,0,100,0,1
127488,-95.2380952380952,4,1,0,70,0,0
127655,-97.5563192058037,4,1,0,70,0,0
127740,-98.7582741460115,4,1,0,70,0,0
127826,-100.00489260727,4,1,0,70,0,0
127996,-102.564102564103,4,1,0,70,0,0
128167,-105.274000824063,4,1,0,70,0,0
128337,-108.11382629853,4,1,0,70,0,0
128507,-111.111111111111,4,1,0,70,0,0
128851,-95.2380952380952,4,1,0,100,0,1
144523,-80,4,1,0,100,0,1
145205,-95.2380952380952,4,1,0,100,0,1
150670,-95.2380952380952,4,1,0,100,0,0
151005,-111.111111111111,4,1,0,70,0,0
153392,-100,4,1,0,80,0,0
153823,-111.111111111111,4,1,0,70,0,0
156039,-100,4,1,0,80,0,0
160550,-108.348498693002,4,1,0,70,0,0
160891,-117.162405627265,4,1,0,70,0,0
161061,-121.451161363119,4,1,0,70,0,0
161232,-125,4,1,0,70,0,0
161579,-100,4,1,0,80,0,0

[HitObjects]
320,512,670,5,4,0:0:0:0:
320,512,925,1,0,0:0:0:0:
320,512,1010,1,8,0:0:0:0:
320,512,1181,1,0,0:0:0:0:
320,512,1351,1,8,0:0:0:0:
320,512,1522,1,0,0:0:0:0:
320,512,1692,1,8,0:0:0:0:
320,512,2033,1,0,0:0:0:0:
320,512,2289,1,0,0:0:0:0:
320,512,2374,1,8,0:0:0:0:
320,512,2545,1,0,0:0:0:0:
320,512,2715,1,8,0:0:0:0:
292,512,2885,1,0,0:0:0:0:
292,512,3056,1,8,0:0:0:0:
292,512,3397,1,0,0:0:0:0:
292,512,3652,1,0,0:0:0:0:
292,512,3738,1,8,0:0:0:0:
292,512,3908,1,0,0:0:0:0:
292,512,4079,1,8,0:0:0:0:
292,512,4249,1,0,0:0:0:0:
292,512,4420,1,8,0:0:0:0:
292,512,4760,1,0,0:0:0:0:
292,512,4931,1,0,0:0:0:0:
292,512,5016,1,0,0:0:0:0:
292,512,5101,1,8,0:0:0:0:
292,512,5272,1,0,0:0:0:0:
292,512,5442,1,8,0:0:0:0:
292,512,5527,1,8,0:0:0:0:
292,512,5613,1,0,0:0:0:0:
292,512,5698,1,0,0:0:0:0:
292,512,5783,1,8,0:0:0:0:
292,512,5954,1,0,0:0:0:0:
292,512,6124,1,12,0:0:0:0:
292,512,6465,1,8,0:0:0:0:
292,512,6635,1,0,0:0:0:0:
292,512,6806,1,8,0:0:0:0:
292,512,6976,1,0,0:0:0:0:
292,512,7062,1,0,0:0:0:0:
292,512,7147,1,8,0:0:0:0:
292,512,7317,1,0,0:0:0:0:
292,512,7488,1,8,0:0:0:0:
263,512,7573,1,0,0:0:0:0:
292,512,7658,1,8,0:0:0:0:
263,512,7743,1,8,0:0:0:0:
292,512,7829,1,0,0:0:0:0:
292,512,7999,1,8,0:0:0:0:
292,512,8170,1,0,0:0:0:0:
292,512,8510,1,8,0:0:0:0:
292,512,8681,1,8,0:0:0:0:
292,512,8851,1,0,0:0:0:0:
188,512,9107,1,0,0:0:0:0:
292,512,9192,1,8,0:0:0:0:
292,512,9363,1,0,0:0:0:0:
292,512,9533,1,8,0:0:0:0:
218,512,9704,1,8,0:0:0:0:
260,512,9789,1,0,0:0:0:0:
265,512,9874,1,8,0:0:0:0:
265,512,10045,1,8,0:0:0:0:
292,512,10130,1,8,0:0:0:0:
292,512,10215,1,0,0:0:0:0:
265,512,10385,1,0,0:0:0:0:
265,512,10471,1,0,0:0:0:0:
265,512,10556,1,8,0:0:0:0:
265,512,10726,1,0,0:0:0:0:
265,512,10897,1,8,0:0:0:0:
265,512,11067,1,0,0:0:0:0:
265,512,11152,1,0,0:0:0:0:
265,512,11238,1,8,0:0:0:0:
265,512,11579,1,8,0:0:0:0:
265,512,11920,1,8,0:0:0:0:
265,512,12090,1,0,0:0:0:0:
265,512,12260,1,8,0:0:0:0:
265,512,12431,1,0,0:0:0:0:
280,512,12601,1,8,0:0:0:0:
265,512,12687,1,0,0:0:0:0:
265,512,12772,1,8,0:0:0:0:
265,512,12942,1,0,0:0:0:0:
265,512,13113,1,8,0:0:0:0:
265,512,13283,1,8,0:0:0:0:
265,512,13454,1,0,0:0:0:0:
280,512,13624,1,8,0:0:0:0:
265,512,13709,1,0,0:0:0:0:
265,512,13795,1,0,0:0:0:0:
265,512,13965,1,8,0:0:0:0:
265,512,14050,1,8,0:0:0:0:
265,512,14135,1,0,0:0:0:0:
265,512,14221,1,0,0:0:0:0:
265,512,14306,1,8,0:0:0:0:
265,512,14647,1,8,0:0:0:0:
265,512,14817,1,0,0:0:0:0:
265,512,14902,1,0,0:0:0:0:
265,512,14988,1,8,0:0:0:0:
265,512,15073,1,8,0:0:0:0:
265,512,15158,1,0,0:0:0:0:
265,512,15329,1,8,0:0:0:0:
265,512,15499,1,0,0:0:0:0:
265,512,15584,1,8,0:0:0:0:
265,512,15670,1,0,0:0:0:0:
265,512,15840,1,0,0:0:0:0:
265,512,16010,1,8,0:0:0:0:
265,512,16181,1,8,0:0:0:0:
265,512,16266,1,8,0:0:0:0:
265,512,16351,1,0,0:0:0:0:
265,512,16522,1,8,0:0:0:0:
265,512,16607,1,0,0:0:0:0:
265,512,16692,1,8,0:0:0:0:
265,512,16863,1,8,0:0:0:0:
265,512,17033,1,4,0:0:0:0:
265,512,17374,1,8,0:0:0:0:
265,512,17459,1,8,0:0:0:0:
265,512,17545,1,0,0:0:0:0:
265,512,17630,1,8,0:0:0:0:
237,512,17715,1,0,0:0:0:0:
265,512,17885,1,8,0:0:0:0:
265,512,18056,1,8,0:0:0:0:
265,512,18397,1,8,0:0:0:0:
324,512,18567,1,0,0:0:0:0:
277,512,18652,1,0,0:0:0:0:
277,512,18738,1,8,0:0:0:0:
277,512,18908,1,0,0:0:0:0:
277,512,19079,1,8,0:0:0:0:
277,512,19164,1,8,0:0:0:0:
277,512,19249,1,0,0:0:0:0:
277,512,19334,1,0,0:0:0:0:
277,512,19420,1,8,0:0:0:0:
277,512,19590,1,0,0:0:0:0:
277,512,19760,1,8,0:0:0:0:
277,512,20016,1,0,0:0:0:0:
277,512,20101,1,8,0:0:0:0:
277,512,20272,1,8,0:0:0:0:
277,512,20442,1,0,0:0:0:0:
318,512,20613,1,8,0:0:0:0:
293,512,20698,1,8,0:0:0:0:
284,512,20783,1,0,0:0:0:0:
293,512,20954,1,8,0:0:0:0:
293,512,21124,1,0,0:0:0:0:
277,512,21295,1,8,0:0:0:0:
277,512,21380,1,0,0:0:0:0:
277,512,21465,1,8,0:0:0:0:
284,512,21635,1,0,0:0:0:0:
284,512,21806,1,12,0:0:0:0:
293,512,22147,1,12,0:0:0:0:
277,512,22488,1,0,0:0:0:0:
284,512,22658,1,0,0:0:0:0:
284,512,22743,1,0,0:0:0:0:
284,512,22829,1,8,0:0:0:0:
293,512,22999,1,0,0:0:0:0:
293,512,23170,1,8,0:0:0:0:
293,512,23255,1,0,0:0:0:0:
293,512,23340,1,8,0:0:0:0:
277,512,23510,1,8,0:0:0:0:
293,512,23851,1,0,0:0:0:0:
293,512,24022,1,0,0:0:0:0:
293,512,24192,1,8,0:0:0:0:
293,512,24363,1,0,0:0:0:0:
284,512,24448,1,8,0:0:0:0:
284,512,24533,1,0,0:0:0:0:
284,512,24618,1,0,0:0:0:0:
293,512,24704,1,8,0:0:0:0:
293,512,24874,1,8,0:0:0:0:
293,512,25215,1,0,0:0:0:0:
229,512,25385,1,0,0:0:0:0:
284,512,25556,1,8,0:0:0:0:
293,512,25726,1,0,0:0:0:0:
293,512,25812,1,0,0:0:0:0:
293,512,25897,1,8,0:0:0:0:
293,512,26067,1,0,0:0:0:0:
293,512,26238,1,8,0:0:0:0:
284,512,26323,1,8,0:0:0:0:
284,512,26408,1,8,0:0:0:0:
284,512,26579,1,0,0:0:0:0:
293,512,26749,1,0,0:0:0:0:
293,512,26920,1,8,0:0:0:0:
293,512,27090,1,0,0:0:0:0:
293,512,27260,1,8,0:0:0:0:
284,512,27346,1,8,0:0:0:0:
284,512,27431,1,0,0:0:0:0:
284,512,27516,1,0,0:0:0:0:
284,512,27601,1,8,0:0:0:0:
293,512,27687,1,8,0:0:0:0:
293,512,27772,1,0,0:0:0:0:
293,512,27942,1,12,0:0:0:0:
284,512,28283,1,8,0:0:0:0:
284,512,28454,1,8,0:0:0:0:
284,512,28624,1,0,0:0:0:0:
284,512,28795,1,8,0:0:0:0:
284,512,28880,1,8,0:0:0:0:
283,512,29050,1,0,0:0:0:0:
284,512,29135,1,0,0:0:0:0:
293,512,29306,1,8,0:0:0:0:
293,512,29476,1,0,0:0:0:0:
284,512,29562,1,8,0:0:0:0:
316,512,29732,1,0,0:0:0:0:
284,512,29817,1,0,0:0:0:0:
283,512,29988,1,8,0:0:0:0:
284,512,30158,1,0,0:0:0:0:
284,512,30243,1,8,0:0:0:0:
287,512,30414,1,0,0:0:0:0:
287,512,30499,1,8,0:0:0:0:
284,512,30670,1,0,0:0:0:0:
283,512,31010,1,8,0:0:0:0:
284,512,31181,1,0,0:0:0:0:
284,512,31351,1,8,0:0:0:0:
284,512,31522,1,0,0:0:0:0:
284,512,31607,1,0,0:0:0:0:
284,512,31692,1,8,0:0:0:0:
284,512,31777,1,0,0:0:0:0:
284,512,31863,1,8,0:0:0:0:
284,512,32033,1,0,0:0:0:0:
284,512,32374,1,0,0:0:0:0:
284,512,32715,1,0,0:0:0:0:
284,512,32885,1,8,0:0:0:0:
284,512,33056,1,8,0:0:0:0:
284,512,33397,1,4,0:0:0:0:
284,512,33738,1,8,0:0:0:0:
284,512,33908,1,0,0:0:0:0:
284,512,34079,1,8,0:0:0:0:
284,512,34164,1,0,0:0:0:0:
284,512,34249,1,8,0:0:0:0:
284,512,34420,1,0,0:0:0:0:
284,512,34590,1,8,0:0:0:0:
284,512,34931,1,8,0:0:0:0:
230,512,35101,1,0,0:0:0:0:
284,512,35187,1,0,0:0:0:0:
275,512,35272,1,8,0:0:0:0:
284,512,35442,1,0,0:0:0:0:
284,512,35613,1,8,0:0:0:0:
284,512,35783,1,8,0:0:0:0:
284,512,35868,1,0,0:0:0:0:
284,512,35954,1,8,0:0:0:0:
284,512,36124,1,0,0:0:0:0:
275,512,36295,1,8,0:0:0:0:
284,512,36465,1,8,0:0:0:0:
284,512,36635,1,0,0:0:0:0:
284,512,36721,1,0,0:0:0:0:
284,512,36806,1,8,0:0:0:0:
284,512,36976,1,8,0:0:0:0:
284,512,37147,1,0,0:0:0:0:
275,512,37317,1,8,0:0:0:0:
284,512,37658,1,8,0:0:0:0:
284,512,37829,1,0,0:0:0:0:
284,512,37914,1,0,0:0:0:0:
284,512,37999,1,8,0:0:0:0:
275,512,38170,1,0,0:0:0:0:
275,512,38340,1,8,0:0:0:0:
284,512,38510,1,0,0:0:0:0:
284,512,38681,1,8,0:0:0:0:
284,512,38766,1,8,0:0:0:0:
284,512,38851,1,0,0:0:0:0:
284,512,39022,1,0,0:0:0:0:
267,512,39107,1,0,0:0:0:0:
275,512,39192,1,8,0:0:0:0:
275,512,39363,1,0,0:0:0:0:
267,512,39533,1,8,0:0:0:0:
267,512,39704,1,8,0:0:0:0:
284,512,39874,1,0,0:0:0:0:
275,512,40045,1,8,0:0:0:0:
275,512,40385,1,0,0:0:0:0:
267,512,40556,1,8,0:0:0:0:
267,512,40726,1,0,0:0:0:0:
284,512,40897,1,8,0:0:0:0:
284,512,41067,1,8,0:0:0:0:
267,512,41152,1,8,0:0:0:0:
275,512,41238,1,0,0:0:0:0:
275,512,41408,1,8,0:0:0:0:
267,512,41579,1,0,0:0:0:0:
267,512,41749,1,8,0:0:0:0:
250,512,41834,1,0,0:0:0:0:
284,512,41920,1,8,0:0:0:0:
284,512,42090,1,0,0:0:0:0:
275,512,42260,1,8,0:0:0:0:
275,512,42431,1,8,0:0:0:0:
284,512,42601,1,0,0:0:0:0:
267,512,42772,1,8,0:0:0:0:
284,512,43113,1,0,0:0:0:0:
275,512,43283,1,8,0:0:0:0:
275,512,43454,1,8,0:0:0:0:
267,512,43624,1,0,0:0:0:0:
267,512,43709,1,0,0:0:0:0:
267,512,43795,1,8,0:0:0:0:
284,512,43965,1,8,0:0:0:0:
284,512,44050,1,8,0:0:0:0:
284,512,44135,1,8,0:0:0:0:
275,512,44306,1,4,0:0:0:0:
267,512,44647,1,8,0:0:0:0:
284,512,44988,1,8,0:0:0:0:
275,512,45215,1,0,0:0:0:0:
275,512,45329,1,8,0:0:0:0:
267,512,45670,1,0,0:0:0:0:
284,512,45897,1,0,0:0:0:0:
284,512,46010,1,8,0:0:0:0:
275,512,46238,1,0,0:0:0:0:
275,512,46351,1,8,0:0:0:0:
253,512,46465,1,0,0:0:0:0:
267,512,46579,1,0,0:0:0:0:
256,512,46692,1,8,0:0:0:0:
284,512,47033,1,8,0:0:0:0:
221,512,47260,1,0,0:0:0:0:
221,512,47374,1,8,0:0:0:0:
221,512,47715,1,8,0:0:0:0:
221,512,47942,1,0,0:0:0:0:
221,512,48056,1,8,0:0:0:0:
221,512,48397,1,12,0:0:0:0:
221,512,48567,1,0,0:0:0:0:
221,512,48738,1,8,0:0:0:0:
184,512,48908,1,0,0:0:0:0:
184,512,49079,1,8,0:0:0:0:
184,512,49249,1,8,0:0:0:0:
184,512,49334,1,0,0:0:0:0:
184,512,49420,1,8,0:0:0:0:
184,512,49590,1,8,0:0:0:0:
184,512,49760,1,4,0:0:0:0:
184,512,49988,1,0,0:0:0:0:
184,512,50101,1,8,0:0:0:0:
184,512,50442,1,0,0:0:0:0:
184,512,50670,1,8,0:0:0:0:
184,512,50783,1,0,0:0:0:0:
184,512,51124,1,8,0:0:0:0:
184,512,51351,1,0,0:0:0:0:
184,512,51465,1,8,0:0:0:0:
184,512,51692,1,0,0:0:0:0:
184,512,51806,1,8,0:0:0:0:
184,512,51920,1,0,0:0:0:0:
184,512,52033,1,0,0:0:0:0:
184,512,52147,1,8,0:0:0:0:
184,512,52488,1,8,0:0:0:0:
184,512,52715,1,0,0:0:0:0:
184,512,52829,1,8,0:0:0:0:
184,512,53170,1,8,0:0:0:0:
184,512,53397,1,0,0:0:0:0:
184,512,53510,1,8,0:0:0:0:
184,512,53851,1,12,0:0:0:0:
184,512,54192,1,0,0:0:0:0:
177,512,54363,1,8,0:0:0:0:
149,512,54533,1,0,0:0:0:0:
149,512,54704,1,8,0:0:0:0:
149,512,54789,1,8,0:0:0:0:
149,512,54874,1,8,0:0:0:0:
149,512,54959,1,8,0:0:0:0:
149,512,55045,1,8,0:0:0:0:
149,512,55215,1,0,0:0:0:0:
149,512,55385,1,8,0:0:0:0:
149,512,55471,1,8,0:0:0:0:
149,512,55556,1,8,0:0:0:0:
149,512,55726,1,0,0:0:0:0:
149,512,55897,1,8,0:0:0:0:
149,512,56238,1,0,0:0:0:0:
292,512,56579,1,12,0:0:0:0:
292,512,56920,1,8,0:0:0:0:
292,512,57090,1,0,0:0:0:0:
292,512,57260,1,8,0:0:0:0:
292,512,57431,1,0,0:0:0:0:
292,512,57516,1,0,0:0:0:0:
292,512,57601,1,8,0:0:0:0:
292,512,57772,1,0,0:0:0:0:
292,512,57942,1,8,0:0:0:0:
263,512,58027,1,0,0:0:0:0:
292,512,58113,1,8,0:0:0:0:
263,512,58198,1,8,0:0:0:0:
292,512,58283,1,0,0:0:0:0:
292,512,58454,1,8,0:0:0:0:
292,512,58624,1,0,0:0:0:0:
292,512,58965,1,8,0:0:0:0:
292,512,59135,1,8,0:0:0:0:
292,512,59306,1,0,0:0:0:0:
188,512,59562,1,0,0:0:0:0:
292,512,59647,1,8,0:0:0:0:
292,512,59817,1,0,0:0:0:0:
292,512,59988,1,8,0:0:0:0:
218,512,60158,1,8,0:0:0:0:
260,512,60243,1,0,0:0:0:0:
265,512,60329,1,8,0:0:0:0:
265,512,60499,1,8,0:0:0:0:
292,512,60584,1,8,0:0:0:0:
292,512,60670,1,0,0:0:0:0:
265,512,60840,1,0,0:0:0:0:
265,512,60925,1,8,0:0:0:0:
265,512,61010,1,0,0:0:0:0:
265,512,61181,1,0,0:0:0:0:
265,512,61351,1,8,0:0:0:0:
265,512,61522,1,0,0:0:0:0:
265,512,61607,1,0,0:0:0:0:
265,512,61692,1,8,0:0:0:0:
265,512,62033,1,8,0:0:0:0:
265,512,62374,1,0,0:0:0:0:
265,512,62545,1,0,0:0:0:0:
265,512,62715,1,8,0:0:0:0:
265,512,62885,1,0,0:0:0:0:
280,512,63056,1,8,0:0:0:0:
265,512,63141,1,0,0:0:0:0:
265,512,63226,1,8,0:0:0:0:
329,512,63312,1,8,0:0:0:0:
265,512,63397,1,0,0:0:0:0:
265,512,63567,1,8,0:0:0:0:
265,512,63738,1,8,0:0:0:0:
265,512,63908,1,0,0:0:0:0:
280,512,64079,1,8,0:0:0:0:
265,512,64164,1,0,0:0:0:0:
265,512,64249,1,0,0:0:0:0:
265,512,64420,1,8,0:0:0:0:
265,512,64505,1,8,0:0:0:0:
265,512,64590,1,0,0:0:0:0:
265,512,64675,1,0,0:0:0:0:
265,512,64760,1,8,0:0:0:0:
265,512,65101,1,8,0:0:0:0:
265,512,65272,1,0,0:0:0:0:
265,512,65357,1,0,0:0:0:0:
265,512,65442,1,8,0:0:0:0:
265,512,65527,1,8,0:0:0:0:
265,512,65613,1,0,0:0:0:0:
265,512,65783,1,8,0:0:0:0:
265,512,65954,1,0,0:0:0:0:
265,512,66039,1,8,0:0:0:0:
265,512,66124,1,0,0:0:0:0:
265,512,66295,1,0,0:0:0:0:
265,512,66465,1,8,0:0:0:0:
265,512,66635,1,8,0:0:0:0:
265,512,66721,1,8,0:0:0:0:
265,512,66806,1,0,0:0:0:0:
265,512,66976,1,8,0:0:0:0:
265,512,67062,1,0,0:0:0:0:
265,512,67147,1,8,0:0:0:0:
265,512,67317,1,8,0:0:0:0:
265,512,67488,1,4,0:0:0:0:
265,512,67829,1,8,0:0:0:0:
329,512,67914,1,8,0:0:0:0:
265,512,67999,1,0,0:0:0:0:
265,512,68084,1,8,0:0:0:0:
237,512,68170,1,0,0:0:0:0:
265,512,68340,1,8,0:0:0:0:
265,512,68510,1,8,0:0:0:0:
265,512,68851,1,8,0:0:0:0:
324,512,69022,1,0,0:0:0:0:
277,512,69107,1,0,0:0:0:0:
277,512,69192,1,8,0:0:0:0:
277,512,69363,1,0,0:0:0:0:
277,512,69533,1,8,0:0:0:0:
277,512,69618,1,8,0:0:0:0:
277,512,69704,1,0,0:0:0:0:
277,512,69789,1,0,0:0:0:0:
277,512,69874,1,8,0:0:0:0:
277,512,70045,1,0,0:0:0:0:
277,512,70215,1,8,0:0:0:0:
277,512,70471,1,0,0:0:0:0:
277,512,70556,1,8,0:0:0:0:
277,512,70726,1,8,0:0:0:0:
277,512,70897,1,0,0:0:0:0:
329,512,70982,1,0,0:0:0:0:
318,512,71067,1,8,0:0:0:0:
293,512,71152,1,8,0:0:0:0:
284,512,71238,1,0,0:0:0:0:
293,512,71408,1,8,0:0:0:0:
293,512,71579,1,0,0:0:0:0:
277,512,71749,1,8,0:0:0:0:
277,512,71834,1,0,0:0:0:0:
277,512,71920,1,8,0:0:0:0:
284,512,72090,1,0,0:0:0:0:
284,512,72260,1,12,0:0:0:0:
293,512,72601,1,12,0:0:0:0:
277,512,72942,1,0,0:0:0:0:
284,512,73113,1,0,0:0:0:0:
284,512,73198,1,0,0:0:0:0:
284,512,73283,1,8,0:0:0:0:
293,512,73454,1,0,0:0:0:0:
293,512,73624,1,8,0:0:0:0:
293,512,73709,1,0,0:0:0:0:
293,512,73795,1,8,0:0:0:0:
277,512,73965,1,8,0:0:0:0:
293,512,74306,1,0,0:0:0:0:
293,512,74476,1,0,0:0:0:0:
293,512,74647,1,8,0:0:0:0:
293,512,74817,1,0,0:0:0:0:
284,512,74902,1,8,0:0:0:0:
284,512,74988,1,0,0:0:0:0:
284,512,75073,1,0,0:0:0:0:
293,512,75158,1,8,0:0:0:0:
293,512,75329,1,8,0:0:0:0:
293,512,75670,1,0,0:0:0:0:
229,512,75840,1,0,0:0:0:0:
284,512,76010,1,8,0:0:0:0:
293,512,76181,1,0,0:0:0:0:
293,512,76266,1,0,0:0:0:0:
293,512,76351,1,8,0:0:0:0:
293,512,76522,1,0,0:0:0:0:
293,512,76692,1,8,0:0:0:0:
284,512,76777,1,8,0:0:0:0:
284,512,76863,1,8,0:0:0:0:
284,512,77033,1,0,0:0:0:0:
293,512,77204,1,0,0:0:0:0:
293,512,77374,1,8,0:0:0:0:
293,512,77545,1,0,0:0:0:0:
293,512,77715,1,8,0:0:0:0:
284,512,77800,1,8,0:0:0:0:
284,512,77885,1,0,0:0:0:0:
284,512,77971,1,0,0:0:0:0:
284,512,78056,1,8,0:0:0:0:
293,512,78141,1,8,0:0:0:0:
293,512,78226,1,0,0:0:0:0:
293,512,78397,1,12,0:0:0:0:
284,512,78738,1,8,0:0:0:0:
284,512,78908,1,8,0:0:0:0:
284,512,79079,1,0,0:0:0:0:
284,512,79249,1,8,0:0:0:0:
284,512,79334,1,8,0:0:0:0:
283,512,79505,1,0,0:0:0:0:
284,512,79590,1,0,0:0:0:0:
293,512,79760,1,8,0:0:0:0:
293,512,79931,1,0,0:0:0:0:
284,512,80016,1,8,0:0:0:0:
316,512,80187,1,0,0:0:0:0:
284,512,80272,1,0,0:0:0:0:
283,512,80442,1,8,0:0:0:0:
284,512,80613,1,0,0:0:0:0:
284,512,80698,1,8,0:0:0:0:
287,512,80868,1,0,0:0:0:0:
287,512,80954,1,8,0:0:0:0:
284,512,81124,1,0,0:0:0:0:
283,512,81465,1,8,0:0:0:0:
284,512,81635,1,0,0:0:0:0:
284,512,81806,1,8,0:0:0:0:
284,512,81976,1,0,0:0:0:0:
284,512,82062,1,0,0:0:0:0:
284,512,82147,1,8,0:0:0:0:
284,512,82232,1,0,0:0:0:0:
284,512,82317,1,8,0:0:0:0:
284,512,82488,1,0,0:0:0:0:
284,512,82829,1,0,0:0:0:0:
284,512,83170,1,0,0:0:0:0:
284,512,83340,1,8,0:0:0:0:
284,512,83510,1,8,0:0:0:0:
284,512,83851,1,4,0:0:0:0:
284,512,84192,1,8,0:0:0:0:
284,512,84363,1,0,0:0:0:0:
284,512,84533,1,8,0:0:0:0:
284,512,84618,1,0,0:0:0:0:
284,512,84704,1,8,0:0:0:0:
284,512,84874,1,0,0:0:0:0:
284,512,85045,1,8,0:0:0:0:
284,512,85385,1,8,0:0:0:0:
230,512,85556,1,0,0:0:0:0:
284,512,85641,1,0,0:0:0:0:
275,512,85726,1,8,0:0:0:0:
284,512,85897,1,0,0:0:0:0:
284,512,86067,1,8,0:0:0:0:
284,512,86238,1,8,0:0:0:0:
284,512,86323,1,0,0:0:0:0:
284,512,86408,1,8,0:0:0:0:
287,512,86493,1,8,0:0:0:0:
284,512,86579,1,0,0:0:0:0:
275,512,86749,1,8,0:0:0:0:
284,512,86920,1,8,0:0:0:0:
284,512,87090,1,0,0:0:0:0:
284,512,87175,1,0,0:0:0:0:
284,512,87260,1,8,0:0:0:0:
284,512,87431,1,8,0:0:0:0:
284,512,87601,1,0,0:0:0:0:
275,512,87772,1,8,0:0:0:0:
284,512,88113,1,8,0:0:0:0:
284,512,88283,1,0,0:0:0:0:
284,512,88368,1,0,0:0:0:0:
284,512,88454,1,8,0:0:0:0:
275,512,88624,1,0,0:0:0:0:
275,512,88795,1,8,0:0:0:0:
287,512,88880,1,0,0:0:0:0:
287,512,88965,1,8,0:0:0:0:
284,512,89135,1,8,0:0:0:0:
284,512,89306,1,0,0:0:0:0:
284,512,89476,1,0,0:0:0:0:
267,512,89562,1,0,0:0:0:0:
275,512,89647,1,8,0:0:0:0:
275,512,89817,1,0,0:0:0:0:
267,512,89988,1,8,0:0:0:0:
267,512,90158,1,8,0:0:0:0:
284,512,90329,1,0,0:0:0:0:
275,512,90499,1,8,0:0:0:0:
275,512,90840,1,0,0:0:0:0:
267,512,91010,1,8,0:0:0:0:
267,512,91181,1,0,0:0:0:0:
284,512,91351,1,8,0:0:0:0:
284,512,91522,1,8,0:0:0:0:
267,512,91607,1,8,0:0:0:0:
275,512,91692,1,0,0:0:0:0:
275,512,91863,1,8,0:0:0:0:
267,512,92033,1,0,0:0:0:0:
267,512,92204,1,8,0:0:0:0:
250,512,92289,1,0,0:0:0:0:
284,512,92374,1,8,0:0:0:0:
284,512,92545,1,0,0:0:0:0:
287,512,92630,1,0,0:0:0:0:
275,512,92715,1,8,0:0:0:0:
275,512,92885,1,8,0:0:0:0:
284,512,93056,1,0,0:0:0:0:
267,512,93226,1,8,0:0:0:0:
284,512,93567,1,0,0:0:0:0:
275,512,93738,1,8,0:0:0:0:
275,512,93908,1,8,0:0:0:0:
267,512,94079,1,0,0:0:0:0:
267,512,94164,1,0,0:0:0:0:
267,512,94249,1,8,0:0:0:0:
284,512,94420,1,8,0:0:0:0:
284,512,94505,1,8,0:0:0:0:
284,512,94590,1,8,0:0:0:0:
275,512,94760,1,4,0:0:0:0:
267,512,95101,1,8,0:0:0:0:
284,512,95442,1,8,0:0:0:0:
275,512,95670,1,0,0:0:0:0:
275,512,95783,1,8,0:0:0:0:
267,512,96124,1,0,0:0:0:0:
284,512,96351,1,0,0:0:0:0:
284,512,96465,1,8,0:0:0:0:
275,512,96692,1,0,0:0:0:0:
275,512,96806,1,8,0:0:0:0:
253,512,96920,1,0,0:0:0:0:
267,512,97033,1,0,0:0:0:0:
256,512,97147,1,8,0:0:0:0:
284,512,97488,1,8,0:0:0:0:
221,512,97715,1,0,0:0:0:0:
221,512,97829,1,8,0:0:0:0:
221,512,98170,1,8,0:0:0:0:
221,512,98397,1,0,0:0:0:0:
221,512,98510,1,8,0:0:0:0:
221,512,98851,1,12,0:0:0:0:
221,512,99022,1,0,0:0:0:0:
221,512,99192,1,8,0:0:0:0:
184,512,99363,1,0,0:0:0:0:
184,512,99533,1,8,0:0:0:0:
184,512,99704,1,8,0:0:0:0:
184,512,99789,1,0,0:0:0:0:
184,512,99874,1,8,0:0:0:0:
184,512,100045,1,8,0:0:0:0:
184,512,100215,1,4,0:0:0:0:
184,512,100442,1,0,0:0:0:0:
184,512,100556,1,8,0:0:0:0:
184,512,100897,1,0,0:0:0:0:
184,512,101124,1,8,0:0:0:0:
184,512,101238,1,0,0:0:0:0:
184,512,101579,1,8,0:0:0:0:
184,512,101806,1,0,0:0:0:0:
184,512,101920,1,8,0:0:0:0:
184,512,102147,1,0,0:0:0:0:
184,512,102260,1,8,0:0:0:0:
184,512,102374,1,0,0:0:0:0:
184,512,102488,1,0,0:0:0:0:
184,512,102601,1,8,0:0:0:0:
184,512,102942,1,8,0:0:0:0:
184,512,103170,1,0,0:0:0:0:
184,512,103283,1,8,0:0:0:0:
184,512,103624,1,8,0:0:0:0:
184,512,103851,1,0,0:0:0:0:
184,512,103965,1,8,0:0:0:0:
184,512,104306,1,12,0:0:0:0:
184,512,104647,1,0,0:0:0:0:
177,512,104817,1,8,0:0:0:0:
149,512,104988,1,0,0:0:0:0:
149,512,105158,1,8,0:0:0:0:
149,512,105243,1,8,0:0:0:0:
149,512,105329,1,8,0:0:0:0:
149,512,105414,1,8,0:0:0:0:
149,512,105499,1,8,0:0:0:0:
149,512,105584,1,8,0:0:0:0:
320,512,107033,1,4,0:0:0:0:
320,512,107289,1,0,0:0:0:0:
320,512,107374,1,8,0:0:0:0:
320,512,107545,1,0,0:0:0:0:
320,512,107715,1,8,0:0:0:0:
320,512,107885,1,0,0:0:0:0:
320,512,108056,1,8,0:0:0:0:
320,512,108397,1,0,0:0:0:0:
320,512,108567,1,0,0:0:0:0:
320,512,108652,1,0,0:0:0:0:
320,512,108738,1,8,0:0:0:0:
320,512,108908,1,0,0:0:0:0:
320,512,109079,1,8,0:0:0:0:
292,512,109249,1,0,0:0:0:0:
292,512,109420,1,8,0:0:0:0:
292,512,109760,1,0,0:0:0:0:
292,512,110016,1,0,0:0:0:0:
292,512,110101,1,8,0:0:0:0:
292,512,110272,1,0,0:0:0:0:
292,512,110442,1,8,0:0:0:0:
292,512,110613,1,0,0:0:0:0:
292,512,110783,1,8,0:0:0:0:
292,512,111124,1,0,0:0:0:0:
292,512,111295,1,0,0:0:0:0:
292,512,111380,1,0,0:0:0:0:
292,512,111465,1,8,0:0:0:0:
292,512,111635,1,0,0:0:0:0:
292,512,111806,1,8,0:0:0:0:
292,512,111976,1,0,0:0:0:0:
292,512,112147,1,8,0:0:0:0:
320,512,112488,1,4,0:0:0:0:
320,512,112743,1,0,0:0:0:0:
320,512,112829,1,8,0:0:0:0:
320,512,112999,1,0,0:0:0:0:
320,512,113170,1,8,0:0:0:0:
320,512,113340,1,0,0:0:0:0:
320,512,113510,1,8,0:0:0:0:
320,512,113851,1,0,0:0:0:0:
320,512,114022,1,0,0:0:0:0:
320,512,114107,1,0,0:0:0:0:
320,512,114192,1,8,0:0:0:0:
320,512,114363,1,0,0:0:0:0:
320,512,114533,1,8,0:0:0:0:
292,512,114704,1,0,0:0:0:0:
292,512,114874,1,8,0:0:0:0:
292,512,115215,1,0,0:0:0:0:
292,512,115471,1,0,0:0:0:0:
292,512,115556,1,8,0:0:0:0:
292,512,115726,1,0,0:0:0:0:
292,512,115897,1,8,0:0:0:0:
292,512,116067,1,0,0:0:0:0:
292,512,116238,1,8,0:0:0:0:
292,512,116579,1,0,0:0:0:0:
292,512,116749,1,0,0:0:0:0:
292,512,116834,1,0,0:0:0:0:
292,512,116920,1,8,0:0:0:0:
292,512,117005,1,8,0:0:0:0:
292,512,117090,1,0,0:0:0:0:
292,512,117260,1,8,0:0:0:0:
292,512,117346,1,0,0:0:0:0:
292,512,117431,1,8,0:0:0:0:
292,512,117516,1,8,0:0:0:0:
292,512,117601,1,0,0:0:0:0:
292,512,117772,1,0,0:0:0:0:
292,512,117942,1,12,0:0:0:0:
292,512,118283,1,8,0:0:0:0:
292,512,118454,1,8,0:0:0:0:
292,512,118539,1,8,0:0:0:0:
292,512,118624,1,0,0:0:0:0:
292,512,118795,1,8,0:0:0:0:
292,512,118880,1,0,0:0:0:0:
292,512,118965,1,8,0:0:0:0:
292,512,119050,1,0,0:0:0:0:
292,512,119135,1,8,0:0:0:0:
292,512,119306,1,0,0:0:0:0:
292,512,119476,1,8,0:0:0:0:
292,512,119562,1,8,0:0:0:0:
292,512,119647,1,0,0:0:0:0:
292,512,119732,1,8,0:0:0:0:
292,512,119817,1,0,0:0:0:0:
292,512,119988,1,8,0:0:0:0:
292,512,120158,1,0,0:0:0:0:
292,512,120329,1,8,0:0:0:0:
292,512,120414,1,0,0:0:0:0:
292,512,120499,1,8,0:0:0:0:
266,512,120840,1,0,0:0:0:0:
266,512,121010,1,8,0:0:0:0:
266,512,121096,1,0,0:0:0:0:
266,512,121181,1,8,0:0:0:0:
266,512,121266,1,8,0:0:0:0:
266,512,121351,1,0,0:0:0:0:
266,512,121522,1,8,0:0:0:0:
266,512,121692,1,0,0:0:0:0:
266,512,121777,1,0,0:0:0:0:
266,512,121863,1,8,0:0:0:0:
266,512,121948,1,8,0:0:0:0:
266,512,122033,1,0,0:0:0:0:
266,512,122204,1,0,0:0:0:0:
266,512,122374,1,8,0:0:0:0:
266,512,122715,1,8,0:0:0:0:
266,512,122885,1,0,0:0:0:0:
266,512,122971,1,8,0:0:0:0:
266,512,123056,1,0,0:0:0:0:
266,512,123226,1,8,0:0:0:0:
260,512,123397,1,4,0:0:0:0:
260,512,123738,1,8,0:0:0:0:
260,512,123823,1,8,0:0:0:0:
260,512,123908,1,0,0:0:0:0:
260,512,123993,1,0,0:0:0:0:
260,512,124079,1,8,0:0:0:0:
260,512,124249,1,0,0:0:0:0:
260,512,124420,1,8,0:0:0:0:
260,512,124505,1,8,0:0:0:0:
260,512,124590,1,0,0:0:0:0:
260,512,124760,1,8,0:0:0:0:
260,512,124931,1,0,0:0:0:0:
260,512,125016,1,0,0:0:0:0:
260,512,125101,1,8,0:0:0:0:
260,512,125187,1,0,0:0:0:0:
260,512,125272,1,8,0:0:0:0:
260,512,125442,1,0,0:0:0:0:
260,512,125613,1,8,0:0:0:0:
260,512,125698,1,0,0:0:0:0:
260,512,125783,1,8,0:0:0:0:
260,512,125868,1,8,0:0:0:0:
260,512,125954,1,0,0:0:0:0:
260,512,126124,1,12,0:0:0:0:
260,512,126465,1,8,0:0:0:0:
260,512,126635,1,0,0:0:0:0:
260,512,126721,1,0,0:0:0:0:
260,512,126806,1,8,0:0:0:0:
260,512,126891,1,8,0:0:0:0:
260,512,126976,1,0,0:0:0:0:
260,512,127147,1,8,0:0:0:0:
260,512,127232,1,0,0:0:0:0:
260,512,127317,1,8,0:0:0:0:
260,512,127402,1,8,0:0:0:0:
260,512,127488,1,0,0:0:0:0:
260,512,127658,1,8,0:0:0:0:
260,512,127743,1,8,0:0:0:0:
260,512,127829,1,8,0:0:0:0:
260,512,127999,1,0,0:0:0:0:
260,512,128170,1,8,0:0:0:0:
260,512,128340,1,0,0:0:0:0:
260,512,128510,1,8,0:0:0:0:
292,512,128851,1,12,0:0:0:0:
292,512,129192,1,8,0:0:0:0:
292,512,129363,1,0,0:0:0:0:
292,512,129533,1,8,0:0:0:0:
292,512,129704,1,0,0:0:0:0:
292,512,129789,1,0,0:0:0:0:
292,512,129874,1,8,0:0:0:0:
292,512,130045,1,0,0:0:0:0:
292,512,130215,1,8,0:0:0:0:
263,512,130300,1,0,0:0:0:0:
292,512,130385,1,8,0:0:0:0:
263,512,130471,1,8,0:0:0:0:
292,512,130556,1,0,0:0:0:0:
292,512,130726,1,8,0:0:0:0:
292,512,130897,1,0,0:0:0:0:
292,512,131238,1,8,0:0:0:0:
292,512,131408,1,8,0:0:0:0:
287,512,131493,1,8,0:0:0:0:
292,512,131579,1,0,0:0:0:0:
188,512,131834,1,0,0:0:0:0:
292,512,131920,1,8,0:0:0:0:
292,512,132090,1,0,0:0:0:0:
292,512,132260,1,8,0:0:0:0:
218,512,132431,1,8,0:0:0:0:
260,512,132516,1,0,0:0:0:0:
265,512,132601,1,8,0:0:0:0:
265,512,132772,1,8,0:0:0:0:
292,512,132857,1,8,0:0:0:0:
292,512,132942,1,0,0:0:0:0:
265,512,133113,1,0,0:0:0:0:
265,512,133198,1,8,0:0:0:0:
265,512,133283,1,0,0:0:0:0:
265,512,133454,1,0,0:0:0:0:
265,512,133624,1,8,0:0:0:0:
287,512,133709,1,8,0:0:0:0:
265,512,133795,1,0,0:0:0:0:
265,512,133880,1,0,0:0:0:0:
265,512,133965,1,8,0:0:0:0:
265,512,134306,1,0,0:0:0:0:
265,512,134647,1,8,0:0:0:0:
265,512,134817,1,0,0:0:0:0:
265,512,134902,1,0,0:0:0:0:
265,512,134988,1,8,0:0:0:0:
265,512,135158,1,0,0:0:0:0:
280,512,135329,1,8,0:0:0:0:
265,512,135414,1,0,0:0:0:0:
265,512,135499,1,8,0:0:0:0:
329,512,135584,1,8,0:0:0:0:
265,512,135670,1,0,0:0:0:0:
265,512,135840,1,8,0:0:0:0:
265,512,136010,1,8,0:0:0:0:
265,512,136181,1,0,0:0:0:0:
280,512,136351,1,8,0:0:0:0:
265,512,136437,1,0,0:0:0:0:
265,512,136522,1,0,0:0:0:0:
265,512,136692,1,8,0:0:0:0:
265,512,136777,1,8,0:0:0:0:
265,512,136863,1,0,0:0:0:0:
265,512,136948,1,0,0:0:0:0:
265,512,137033,1,8,0:0:0:0:
265,512,137374,1,8,0:0:0:0:
265,512,137545,1,0,0:0:0:0:
265,512,137630,1,0,0:0:0:0:
265,512,137715,1,8,0:0:0:0:
265,512,137800,1,8,0:0:0:0:
265,512,137885,1,0,0:0:0:0:
265,512,138056,1,8,0:0:0:0:
265,512,138226,1,0,0:0:0:0:
265,512,138312,1,8,0:0:0:0:
265,512,138397,1,0,0:0:0:0:
265,512,138567,1,0,0:0:0:0:
265,512,138738,1,8,0:0:0:0:
265,512,138908,1,8,0:0:0:0:
265,512,138993,1,8,0:0:0:0:
265,512,139079,1,0,0:0:0:0:
265,512,139249,1,8,0:0:0:0:
265,512,139334,1,0,0:0:0:0:
265,512,139420,1,8,0:0:0:0:
265,512,139590,1,8,0:0:0:0:
265,512,139760,1,4,0:0:0:0:
265,512,140101,1,8,0:0:0:0:
329,512,140187,1,8,0:0:0:0:
265,512,140272,1,0,0:0:0:0:
265,512,140357,1,8,0:0:0:0:
237,512,140442,1,0,0:0:0:0:
265,512,140613,1,8,0:0:0:0:
265,512,140783,1,8,0:0:0:0:
265,512,141124,1,8,0:0:0:0:
324,512,141295,1,0,0:0:0:0:
277,512,141380,1,0,0:0:0:0:
277,512,141465,1,8,0:0:0:0:
277,512,141635,1,0,0:0:0:0:
277,512,141721,1,0,0:0:0:0:
277,512,141806,1,8,0:0:0:0:
277,512,141891,1,8,0:0:0:0:
277,512,141976,1,0,0:0:0:0:
277,512,142147,1,8,0:0:0:0:
277,512,142488,1,8,0:0:0:0:
277,512,142658,1,0,0:0:0:0:
273,512,142743,1,0,0:0:0:0:
277,512,142829,1,8,0:0:0:0:
277,512,142999,1,0,0:0:0:0:
277,512,143170,1,8,0:0:0:0:
329,512,143255,1,8,0:0:0:0:
318,512,143340,1,0,0:0:0:0:
293,512,143425,1,0,0:0:0:0:
284,512,143510,1,8,0:0:0:0:
293,512,143681,1,8,0:0:0:0:
293,512,143851,1,0,0:0:0:0:
277,512,144022,1,8,0:0:0:0:
277,512,144107,1,0,0:0:0:0:
277,512,144192,1,8,0:0:0:0:
284,512,144363,1,0,0:0:0:0:
284,512,144533,1,12,0:0:0:0:
293,512,144874,1,12,0:0:0:0:
277,512,145215,1,0,0:0:0:0:
287,512,145300,1,0,0:0:0:0:
284,512,145385,1,0,0:0:0:0:
284,512,145471,1,0,0:0:0:0:
284,512,145556,1,8,0:0:0:0:
293,512,145726,1,0,0:0:0:0:
293,512,145897,1,8,0:0:0:0:
293,512,145982,1,0,0:0:0:0:
293,512,146067,1,8,0:0:0:0:
277,512,146238,1,8,0:0:0:0:
293,512,146579,1,0,0:0:0:0:
293,512,146664,1,8,0:0:0:0:
287,512,146834,1,0,0:0:0:0:
293,512,146920,1,0,0:0:0:0:
293,512,147090,1,8,0:0:0:0:
284,512,147175,1,0,0:0:0:0:
284,512,147260,1,8,0:0:0:0:
293,512,147431,1,0,0:0:0:0:
293,512,147601,1,8,0:0:0:0:
293,512,147942,1,0,0:0:0:0:
229,512,148113,1,0,0:0:0:0:
284,512,148283,1,8,0:0:0:0:
293,512,148454,1,0,0:0:0:0:
293,512,148539,1,0,0:0:0:0:
293,512,148624,1,8,0:0:0:0:
293,512,148795,1,0,0:0:0:0:
293,512,148965,1,8,0:0:0:0:
284,512,149050,1,8,0:0:0:0:
284,512,149135,1,8,0:0:0:0:
284,512,149306,1,0,0:0:0:0:
293,512,149476,1,0,0:0:0:0:
293,512,149647,1,8,0:0:0:0:
293,512,149817,1,0,0:0:0:0:
293,512,149988,1,8,0:0:0:0:
284,512,150073,1,8,0:0:0:0:
284,512,150158,1,0,0:0:0:0:
284,512,150243,1,0,0:0:0:0:
284,512,150329,1,8,0:0:0:0:
293,512,150414,1,8,0:0:0:0:
293,512,150499,1,0,0:0:0:0:
293,512,150670,1,12,0:0:0:0:
284,512,151181,1,0,0:0:0:0:
284,512,151351,1,8,0:0:0:0:
284,512,151607,1,0,0:0:0:0:
284,512,151863,1,8,0:0:0:0:
293,512,152033,1,0,0:0:0:0:
293,512,152289,1,8,0:0:0:0:
284,512,152545,1,0,0:0:0:0:
283,512,152715,1,0,0:0:0:0:
284,512,152971,1,8,0:0:0:0:
284,512,153226,1,8,0:0:0:0:
284,512,153397,1,4,0:0:0:0:
284,512,153908,1,8,0:0:0:0:
284,512,154079,1,8,0:0:0:0:
284,512,154334,1,0,0:0:0:0:
284,512,154590,1,8,0:0:0:0:
284,512,154760,1,0,0:0:0:0:
284,512,155016,1,8,0:0:0:0:
284,512,155272,1,8,0:0:0:0:
284,512,155442,1,0,0:0:0:0:
284,512,155698,1,0,0:0:0:0:
284,512,155783,1,8,0:0:0:0:
236,512,155954,1,8,0:0:0:0:
284,512,156124,1,4,0:0:0:0:
284,512,156465,1,8,0:0:0:0:
284,512,156635,1,8,0:0:0:0:
284,512,156806,1,0,0:0:0:0:
284,512,156976,1,8,0:0:0:0:
284,512,157062,1,8,0:0:0:0:
283,512,157232,1,0,0:0:0:0:
284,512,157317,1,0,0:0:0:0:
293,512,157488,1,8,0:0:0:0:
293,512,157658,1,0,0:0:0:0:
293,512,157743,1,8,0:0:0:0:
284,512,157914,1,0,0:0:0:0:
284,512,157999,1,0,0:0:0:0:
283,512,158170,1,8,0:0:0:0:
284,512,158340,1,0,0:0:0:0:
284,512,158425,1,8,0:0:0:0:
284,512,158596,1,0,0:0:0:0:
284,512,158681,1,8,0:0:0:0:
284,512,158851,1,0,0:0:0:0:
283,512,159192,1,8,0:0:0:0:
284,512,159363,1,0,0:0:0:0:
284,512,159533,1,8,0:0:0:0:
284,512,159704,1,0,0:0:0:0:
284,512,159789,1,0,0:0:0:0:
284,512,159874,1,8,0:0:0:0:
284,512,159959,1,0,0:0:0:0:
284,512,160045,1,8,0:0:0:0:
284,512,160215,1,0,0:0:0:0:
284,512,160556,1,0,0:0:0:0:
284,512,160897,1,0,0:0:0:0:
284,512,161067,1,8,0:0:0:0:
284,512,161238,1,8,0:0:0:0:
284,512,161579,1,4,0:0:0:0:
284,512,161920,1,8,0:0:0:0:
284,512,162090,1,0,0:0:0:0:
284,512,162175,1,0,0:0:0:0:
284,512,162260,1,8,0:0:0:0:
284,512,162346,1,0,0:0:0:0:
284,512,162431,1,8,0:0:0:0:
284,512,162601,1,0,0:0:0:0:
284,512,162772,1,8,0:0:0:0:
284,512,163113,1,8,0:0:0:0:
230,512,163283,1,0,0:0:0:0:
284,512,163368,1,0,0:0:0:0:
275,512,163454,1,8,0:0:0:0:
284,512,163624,1,0,0:0:0:0:
284,512,163795,1,8,0:0:0:0:
284,512,163880,1,0,0:0:0:0:
284,512,163965,1,8,0:0:0:0:
287,512,164050,1,8,0:0:0:0:
284,512,164135,1,0,0:0:0:0:
284,512,164306,1,8,0:0:0:0:
275,512,164476,1,0,0:0:0:0:
284,512,164647,1,8,0:0:0:0:
284,512,164817,1,0,0:0:0:0:
284,512,164902,1,0,0:0:0:0:
284,512,164988,1,8,0:0:0:0:
284,512,165158,1,8,0:0:0:0:
284,512,165329,1,0,0:0:0:0:
275,512,165499,1,8,0:0:0:0:
284,512,165840,1,8,0:0:0:0:
284,512,166010,1,0,0:0:0:0:
284,512,166096,1,0,0:0:0:0:
284,512,166181,1,8,0:0:0:0:
275,512,166351,1,0,0:0:0:0:
275,512,166522,1,8,0:0:0:0:
287,512,166607,1,0,0:0:0:0:
287,512,166692,1,8,0:0:0:0:
284,512,166863,1,8,0:0:0:0:
284,512,167033,1,0,0:0:0:0:
284,512,167204,1,0,0:0:0:0:
267,512,167289,1,0,0:0:0:0:
275,512,167374,1,8,0:0:0:0:
300,512,167459,1,8,0:0:0:0:
275,512,167545,1,0,0:0:0:0:
267,512,167715,1,8,0:0:0:0:
267,512,167885,1,8,0:0:0:0:
284,512,168056,1,0,0:0:0:0:
275,512,168226,1,8,0:0:0:0:
275,512,168567,1,0,0:0:0:0:
267,512,168738,1,8,0:0:0:0:
267,512,168908,1,0,0:0:0:0:
284,512,169079,1,8,0:0:0:0:
284,512,169249,1,8,0:0:0:0:
267,512,169334,1,8,0:0:0:0:
275,512,169420,1,0,0:0:0:0:
300,512,169505,1,0,0:0:0:0:
275,512,169590,1,8,0:0:0:0:
267,512,169760,1,0,0:0:0:0:
267,512,169931,1,8,0:0:0:0:
250,512,170016,1,0,0:0:0:0:
284,512,170101,1,8,0:0:0:0:
284,512,170272,1,0,0:0:0:0:
287,512,170357,1,0,0:0:0:0:
275,512,170442,1,8,0:0:0:0:
275,512,170613,1,8,0:0:0:0:
284,512,170783,1,0,0:0:0:0:
267,512,170954,1,8,0:0:0:0:
287,512,171039,1,8,0:0:0:0:
329,512,171124,1,0,0:0:0:0:
284,512,171295,1,0,0:0:0:0:
275,512,171465,1,8,0:0:0:0:
275,512,171635,1,8,0:0:0:0:
267,512,171806,1,0,0:0:0:0:
267,512,171976,1,8,0:0:0:0:
284,512,172062,1,8,0:0:0:0:
284,512,172147,1,8,0:0:0:0:
284,512,172317,1,8,0:0:0:0:
