osu file format v14

[General]
AudioFilename: audio.ogg
AudioLeadIn: 0
PreviewTime: 128297
Countdown: 0
SampleSet: Normal
StackLeniency: 0.7
Mode: 1
LetterboxInBreaks: 0
WidescreenStoryboard: 1

[Editor]
Bookmarks: 670,6124,11579,17033,21806,22147,27942,33397,44306,56579,62033,67488,72942,83851,94760,107033,117942,123397,128851,134306,139760,145215,150670,156124,161579
DistanceSpacing: 1
BeatDivisor: 3
GridSize: 32
TimelineZoom: 2.299999

[Metadata]
Title:Itsuka Otona ni Nareru to Ii ne.
TitleUnicode:いつかオトナになれるといいね。
Artist:TUYU
ArtistUnicode:ツユ
Creator:arcpotato
Version:2199's Intolerant!
Source:
Tags:hivie mtntwarz gaston_2199 female vocals japanese pop jpop j-pop rock jrock j-rock rei pusu miro 礼衣 ぷす ミロ futaba haru 双葉陽 sukoyaka tsukasa すこやかツカサ azyun itsuoto tsuyu would be nice if you grow up one day i hope you can be an adult someday
BeatmapID:3629655
BeatmapSetID:1771645

[Difficulty]
HPDrainRate:6
CircleSize:2
OverallDifficulty:6.5
ApproachRate:10
SliderMultiplier:1.4
SliderTickRate:1

[Events]
//Background and Video events
0,0,"tongueyellowgirl.jpg",0,0
Video,244,"itsuoto.mp4"
//Break Periods
//Storyboard Layer 0 (Background)
//Storyboard Layer 1 (Fail)
//Storyboard Layer 2 (Pass)
//Storyboard Layer 3 (Foreground)
//Storyboard Layer 4 (Overlay)
//Storyboard Sound Samples

[TimingPoints]
670,340.909090909091,4,1,0,80,1,0
837,-103.002719292905,4,1,0,80,0,0
922,-104.498363254935,4,1,0,80,0,0
1007,-105.976632755666,4,1,0,80,0,0
1178,-108.824221348627,4,1,0,80,0,0
1348,-90.9090909090908,4,1,0,90,0,0
2026,-100,4,1,0,80,0,0
2193,-103.002719292905,4,1,0,80,0,0
2278,-104.498363254935,4,1,0,80,0,0
2363,-105.976632755666,4,1,0,80,0,0
2534,-108.824221348627,4,1,0,80,0,0
2702,-83.3333333333333,4,1,0,90,0,0
3392,-100,4,1,0,80,0,0
3559,-103.002719292905,4,1,0,80,0,0
3644,-104.498363254935,4,1,0,80,0,0
3729,-105.976632755666,4,1,0,80,0,0
3900,-108.824221348627,4,1,0,80,0,0
4066,-83.3333333333333,4,1,0,90,0,0
4755,-111.111111111111,4,1,0,80,0,0
4843,-110.08285806521,4,1,0,80,0,0
4926,-109.085092770313,4,1,0,80,0,0
5011,-108.105252034239,4,1,0,80,0,0
5096,-107.142857142857,4,1,0,80,0,0
5182,-106.186423084908,4,1,0,80,0,0
5267,-105.257742566108,4,1,0,80,0,0
5352,-104.345165238678,4,1,0,80,0,0
5437,-103.448275862069,4,1,0,80,0,0
5522,-102.566673350712,4,1,0,80,0,0
5608,-101.68986083499,4,1,0,80,0,0
5693,-100.837851158206,4,1,0,80,0,0
5778,-100,4,1,0,80,0,0
6124,-90.9090909090909,4,1,0,100,0,1
21806,-66.6666666666667,4,1,0,100,0,1
22488,-90.9090909090909,4,1,0,100,0,1
27942,-90.9090909090909,4,1,0,100,0,0
28113,-100,4,1,0,80,0,0
32369,-108.348498693002,4,1,0,70,0,0
32540,-112.745552195082,4,1,0,70,0,0
32625,-114.955878621998,4,1,0,70,0,0
32710,-117.162405627265,4,1,0,70,0,0
32880,-121.451161363119,4,1,0,70,0,0
33051,-125,4,1,0,70,0,0
33397,-100,4,1,0,90,0,0
44476,-117.647058823529,4,1,0,70,0,0
48397,-100,4,1,0,90,0,0
49931,-117.647058823529,4,1,0,70,0,0
53851,-100,4,1,0,90,0,0
55210,-100,4,1,0,70,0,0
55380,-104.07864875635,4,1,0,70,0,0
55466,-106.206973792211,4,1,0,70,0,0
55551,-108.348498693002,4,1,0,70,0,0
55721,-112.719596752289,4,1,0,70,0,0
55892,-117.162405627265,4,1,0,70,0,0
55977,-119.340661794009,4,1,0,70,0,0
56062,-121.451161363119,4,1,0,70,0,0
56233,-125,4,1,0,70,0,0
56579,-90.9090909090909,4,1,0,100,0,1
72246,-66.6666666666667,4,1,0,100,0,1
72928,-90.9090909090909,4,1,0,100,0,1
78397,-90.9090909090909,4,1,0,100,0,0
78557,-100,4,1,0,80,0,0
82813,-108.348498693002,4,1,0,70,0,0
82984,-112.745552195082,4,1,0,70,0,0
83069,-114.955878621998,4,1,0,70,0,0
83154,-117.162405627265,4,1,0,70,0,0
83324,-121.451161363119,4,1,0,70,0,0
83495,-125,4,1,0,70,0,0
83851,-100,4,1,0,90,0,0
94927,-117.647058823529,4,1,0,70,0,0
98848,-100,4,1,0,90,0,0
100382,-117.647058823529,4,1,0,70,0,0
104302,-100,4,1,0,90,0,0
105660,-100,4,1,0,40,0,0
105780,-102.007015257541,4,1,0,40,0,0
105894,-104.061931990489,4,1,0,40,0,0
106007,-106.121167335177,4,1,0,40,0,0
106178,-109.254835970832,4,1,0,40,0,0
106263,-110.805069268191,4,1,0,40,0,0
106348,-112.336299423915,4,1,0,40,0,0
106434,-113.849448442655,4,1,0,40,0,0
106519,-115.283122920606,4,1,0,40,0,0
106689,-117.647058823529,4,1,0,40,0,0
107022,-100,4,1,0,80,0,0
107189,-103.002719292905,4,1,0,80,0,0
107274,-104.498363254935,4,1,0,80,0,0
107359,-105.976632755666,4,1,0,80,0,0
107530,-108.824221348627,4,1,0,80,0,0
107708,-83.3333333333333,4,1,0,90,0,0
108391,-100,4,1,0,80,0,0
108558,-103.002719292905,4,1,0,80,0,0
108643,-104.498363254935,4,1,0,80,0,0
108728,-105.976632755666,4,1,0,80,0,0
108899,-108.824221348627,4,1,0,80,0,0
109066,-83.3333333333333,4,1,0,90,0,0
109752,-100,4,1,0,80,0,0
109919,-103.002719292905,4,1,0,80,0,0
110004,-104.498363254935,4,1,0,80,0,0
110089,-105.976632755666,4,1,0,80,0,0
110260,-108.824221348627,4,1,0,80,0,0
110437,-83.3333333333333,4,1,0,90,0,0
111114,-100,4,1,0,80,0,0
111281,-103.002719292905,4,1,0,80,0,0
111366,-104.498363254935,4,1,0,80,0,0
111451,-105.976632755666,4,1,0,80,0,0
111622,-108.824221348627,4,1,0,80,0,0
111799,-83.3333333333333,4,1,0,90,0,0
112479,-100,4,1,0,80,0,0
112646,-103.002719292905,4,1,0,80,0,0
112731,-104.498363254935,4,1,0,80,0,0
112816,-105.976632755666,4,1,0,80,0,0
112987,-108.824221348627,4,1,0,80,0,0
113165,-83.3333333333333,4,1,0,90,0,0
113839,-100,4,1,0,80,0,0
114006,-103.002719292905,4,1,0,80,0,0
114091,-104.498363254935,4,1,0,80,0,0
114176,-105.976632755666,4,1,0,80,0,0
114347,-108.824221348627,4,1,0,80,0,0
114516,-83.3333333333333,4,1,0,90,0,0
115208,-100,4,1,0,80,0,0
115375,-103.002719292905,4,1,0,80,0,0
115460,-104.498363254935,4,1,0,80,0,0
115545,-105.976632755666,4,1,0,80,0,0
115716,-108.824221348627,4,1,0,80,0,0
115880,-83.3333333333333,4,1,0,90,0,0
116576,-111.111111111111,4,1,0,90,0,0
116661,-109.592345420921,4,1,0,90,0,0
116746,-108.114539541525,4,1,0,90,0,0
116831,-106.676058542694,4,1,0,90,0,0
116917,-105.259093366283,4,1,0,90,0,0
117002,-103.895113956856,4,1,0,90,0,0
117087,-102.566032056588,4,1,0,90,0,0
117172,-101.270525299056,4,1,0,90,0,0
117257,-100.007337295473,4,1,0,90,0,0
117343,-98.7609593507717,4,1,0,90,0,0
117428,-97.559229833226,4,1,0,90,0,0
117513,-96.3863941729722,4,1,0,90,0,0
117598,-95.2414226818531,4,1,0,90,0,0
117684,-94.1103362563005,4,1,0,90,0,0
117769,-93.0184945062444,4,1,0,90,0,0
117942,-90.9090909090909,4,1,0,100,0,1
127488,-90.9090909090909,4,1,0,70,0,0
127653,-94.7257799672479,4,1,0,70,0,0
127738,-96.7139112167023,4,1,0,70,0,0
127824,-98.7793487481626,4,1,0,70,0,0
127994,-103.017596822733,4,1,0,70,0,0
128165,-107.472841763243,4,1,0,70,0,0
128250,-109.747951578166,4,1,0,70,0,0
128335,-112.053115946158,4,1,0,70,0,0
128505,-116.70117290056,4,1,0,70,0,0
128676,-121.25982532981,4,1,0,70,0,0
128851,-90.9090909090909,4,1,0,100,0,1
144523,-66.6666666666667,4,1,0,100,0,1
145205,-90.9090909090909,4,1,0,100,0,1
150670,-90.9090909090909,4,1,0,100,0,0
151005,-111.111111111111,4,1,0,70,0,0
153392,-100,4,1,0,80,0,0
153823,-111.111111111111,4,1,0,70,0,0
156039,-100,4,1,0,80,0,0
160550,-108.348498693002,4,1,0,70,0,0
160721,-112.745552195082,4,1,0,70,0,0
160806,-114.955878621998,4,1,0,70,0,0
160891,-117.162405627265,4,1,0,70,0,0
161061,-121.451161363119,4,1,0,70,0,0
161232,-125,4,1,0,70,0,0
161579,-90.9090909090909,4,1,0,90,0,0

[HitObjects]
237,190,670,5,4,0:0:0:0:
237,190,840,1,0,0:0:0:0:
237,190,925,1,0,0:0:0:0:
237,190,1010,1,8,0:0:0:0:
237,190,1181,1,0,0:0:0:0:
237,190,1351,1,12,0:0:0:0:
237,190,1522,1,0,0:0:0:0:
237,190,1692,1,12,0:0:0:0:
237,190,2033,1,0,0:0:0:0:
237,190,2204,1,0,0:0:0:0:
237,190,2289,1,0,0:0:0:0:
237,190,2374,1,8,0:0:0:0:
237,190,2545,1,0,0:0:0:0:
237,190,2715,1,12,0:0:0:0:
233,161,2885,1,0,0:0:0:0:
233,161,3056,1,12,0:0:0:0:
233,161,3397,1,0,0:0:0:0:
233,161,3567,1,0,0:0:0:0:
233,161,3652,1,0,0:0:0:0:
233,161,3738,1,8,0:0:0:0:
233,161,3908,1,0,0:0:0:0:
233,161,4079,1,12,0:0:0:0:
233,161,4249,1,0,0:0:0:0:
233,161,4420,1,12,0:0:0:0:
233,161,4760,1,8,0:0:0:0:
237,131,4846,1,8,0:0:0:0:
233,161,4931,1,0,0:0:0:0:
233,161,5016,1,0,0:0:0:0:
233,161,5101,1,8,0:0:0:0:
233,161,5187,1,0,0:0:0:0:
233,161,5272,1,8,0:0:0:0:
233,161,5357,1,8,0:0:0:0:
233,161,5442,1,0,0:0:0:0:
233,161,5527,1,8,0:0:0:0:
233,161,5613,1,0,0:0:0:0:
233,161,5698,1,0,0:0:0:0:
233,161,5783,1,8,0:0:0:0:
233,161,5954,1,0,0:0:0:0:
233,161,6124,1,12,0:0:0:0:
207,64,6380,1,0,0:0:0:0:
233,161,6465,1,8,0:0:0:0:
233,161,6635,1,8,0:0:0:0:
233,161,6721,1,8,0:0:0:0:
233,161,6806,1,0,0:0:0:0:
233,161,6976,1,0,0:0:0:0:
233,161,7062,1,0,0:0:0:0:
233,161,7147,1,8,0:0:0:0:
233,161,7317,1,0,0:0:0:0:
233,161,7488,1,8,0:0:0:0:
226,133,7573,1,0,0:0:0:0:
233,161,7658,1,8,0:0:0:0:
226,133,7743,1,8,0:0:0:0:
233,161,7829,1,0,0:0:0:0:
233,161,7999,1,8,0:0:0:0:
233,161,8170,1,0,0:0:0:0:
233,161,8340,1,0,0:0:0:0:
233,161,8425,1,0,0:0:0:0:
233,161,8510,1,8,0:0:0:0:
226,128,8596,1,0,0:0:0:0:
233,161,8681,1,8,0:0:0:0:
233,161,8851,1,0,0:0:0:0:
223,51,9107,1,0,0:0:0:0:
233,161,9192,1,8,0:0:0:0:
233,161,9363,1,0,0:0:0:0:
244,121,9448,1,0,0:0:0:0:
233,161,9533,1,8,0:0:0:0:
179,105,9704,1,0,0:0:0:0:
214,141,9874,1,8,0:0:0:0:
214,141,10045,1,8,0:0:0:0:
233,161,10130,1,8,0:0:0:0:
233,161,10215,1,0,0:0:0:0:
214,141,10385,1,8,0:0:0:0:
214,141,10471,1,0,0:0:0:0:
214,141,10556,1,8,0:0:0:0:
214,141,10726,1,0,0:0:0:0:
214,141,10897,1,8,0:0:0:0:
214,141,10982,1,0,0:0:0:0:
214,141,11067,1,8,0:0:0:0:
214,141,11152,1,0,0:0:0:0:
214,141,11238,1,8,0:0:0:0:
214,141,11408,1,0,0:0:0:0:
214,141,11579,1,8,0:0:0:0:
235,51,11834,1,0,0:0:0:0:
214,141,11920,1,8,0:0:0:0:
214,141,12090,1,0,0:0:0:0:
214,141,12175,1,0,0:0:0:0:
214,141,12260,1,8,0:0:0:0:
214,141,12431,1,0,0:0:0:0:
233,148,12601,1,8,0:0:0:0:
214,141,12687,1,0,0:0:0:0:
214,141,12772,1,8,0:0:0:0:
214,141,12942,1,0,0:0:0:0:
214,141,13113,1,0,0:0:0:0:
220,114,13198,1,0,0:0:0:0:
214,141,13283,1,8,0:0:0:0:
214,141,13454,1,0,0:0:0:0:
233,148,13624,1,8,0:0:0:0:
214,141,13709,1,0,0:0:0:0:
214,141,13795,1,0,0:0:0:0:
214,141,13965,1,8,0:0:0:0:
214,141,14050,1,8,0:0:0:0:
214,141,14135,1,0,0:0:0:0:
214,141,14221,1,0,0:0:0:0:
214,141,14306,1,8,0:0:0:0:
214,141,14476,1,0,0:0:0:0:
214,141,14647,1,8,0:0:0:0:
214,141,14732,1,0,0:0:0:0:
214,141,14817,1,0,0:0:0:0:
214,141,14902,1,0,0:0:0:0:
214,141,14988,1,8,0:0:0:0:
214,141,15073,1,8,0:0:0:0:
214,141,15158,1,0,0:0:0:0:
214,141,15329,1,8,0:0:0:0:
214,141,15499,1,0,0:0:0:0:
214,141,15584,1,8,0:0:0:0:
214,141,15670,1,0,0:0:0:0:
214,141,15840,1,0,0:0:0:0:
214,141,16010,1,8,0:0:0:0:
214,141,16181,1,8,0:0:0:0:
214,141,16266,1,8,0:0:0:0:
214,141,16351,1,0,0:0:0:0:
214,141,16522,1,8,0:0:0:0:
214,141,16607,5,0,0:0:0:0:
214,141,16692,1,8,0:0:0:0:
214,141,16777,1,0,0:0:0:0:
214,141,16863,1,8,0:0:0:0:
214,141,16948,1,8,0:0:0:0:
214,141,17033,1,4,0:0:0:0:
275,234,17289,1,0,0:0:0:0:
214,141,17374,1,8,0:0:0:0:
214,141,17459,1,8,0:0:0:0:
214,141,17545,1,0,0:0:0:0:
214,141,17630,1,8,0:0:0:0:
219,107,17715,1,0,0:0:0:0:
214,141,17885,1,8,0:0:0:0:
214,141,18056,1,8,0:0:0:0:
214,141,18226,1,0,0:0:0:0:
211,127,18312,1,8,0:0:0:0:
214,141,18397,1,0,0:0:0:0:
269,180,18567,1,8,0:0:0:0:
224,149,18652,1,0,0:0:0:0:
224,149,18738,1,8,0:0:0:0:
224,149,18908,1,0,0:0:0:0:
230,191,18993,1,0,0:0:0:0:
224,149,19079,1,8,0:0:0:0:
224,149,19164,1,8,0:0:0:0:
224,149,19249,1,0,0:0:0:0:
224,149,19334,1,0,0:0:0:0:
224,149,19420,1,8,0:0:0:0:
224,149,19590,1,0,0:0:0:0:
224,149,19760,1,8,0:0:0:0:
224,149,19931,1,0,0:0:0:0:
224,149,20016,1,0,0:0:0:0:
224,149,20101,1,8,0:0:0:0:
213,172,20187,1,0,0:0:0:0:
224,149,20272,1,8,0:0:0:0:
225,120,20357,1,8,0:0:0:0:
224,149,20442,1,0,0:0:0:0:
196,207,20613,1,8,0:0:0:0:
213,172,20698,1,8,0:0:0:0:
219,159,20783,1,0,0:0:0:0:
213,172,20954,1,8,0:0:0:0:
213,172,21124,1,0,0:0:0:0:
224,149,21295,1,8,0:0:0:0:
224,149,21380,1,0,0:0:0:0:
224,149,21465,1,8,0:0:0:0:
219,159,21635,1,0,0:0:0:0:
219,159,21806,1,12,0:0:0:0:
213,172,22147,1,12,0:0:0:0:
224,149,22488,1,0,0:0:0:0:
219,159,22658,1,0,0:0:0:0:
219,159,22743,1,0,0:0:0:0:
219,159,22829,1,8,0:0:0:0:
213,172,22999,1,0,0:0:0:0:
213,172,23170,1,8,0:0:0:0:
213,172,23255,1,0,0:0:0:0:
213,172,23340,1,8,0:0:0:0:
224,149,23425,1,0,0:0:0:0:
224,149,23510,1,8,0:0:0:0:
219,159,23681,1,0,0:0:0:0:
213,172,23851,1,8,0:0:0:0:
213,172,23937,1,8,0:0:0:0:
213,172,24022,1,0,0:0:0:0:
213,172,24192,1,8,0:0:0:0:
213,172,24363,1,0,0:0:0:0:
219,159,24448,1,8,0:0:0:0:
219,159,24533,1,0,0:0:0:0:
219,159,24618,1,0,0:0:0:0:
213,172,24704,1,8,0:0:0:0:
213,172,24789,1,0,0:0:0:0:
213,172,24874,1,8,0:0:0:0:
213,172,25045,1,8,0:0:0:0:
213,172,25215,1,0,0:0:0:0:
195,110,25385,1,0,0:0:0:0:
182,76,25471,1,0,0:0:0:0:
219,159,25556,1,8,0:0:0:0:
219,159,25641,1,8,0:0:0:0:
213,172,25726,1,0,0:0:0:0:
213,172,25812,1,0,0:0:0:0:
213,172,25897,1,8,0:0:0:0:
213,172,26067,1,0,0:0:0:0:
213,172,26238,1,8,0:0:0:0:
219,159,26323,1,8,0:0:0:0:
219,159,26408,1,8,0:0:0:0:
219,159,26579,1,0,0:0:0:0:
213,172,26749,1,0,0:0:0:0:
213,172,26834,1,0,0:0:0:0:
213,172,26920,1,8,0:0:0:0:
213,172,27090,1,0,0:0:0:0:
213,172,27260,1,8,0:0:0:0:
219,159,27346,1,8,0:0:0:0:
219,159,27431,1,0,0:0:0:0:
219,159,27516,1,0,0:0:0:0:
219,159,27601,1,8,0:0:0:0:
213,172,27687,1,0,0:0:0:0:
213,172,27772,1,8,0:0:0:0:
213,172,27942,5,4,0:0:0:0:
219,159,28283,5,0,0:0:0:0:
219,159,28454,1,8,0:0:0:0:
219,159,28624,1,0,0:0:0:0:
219,159,28795,1,0,0:0:0:0:
219,159,28880,1,8,0:0:0:0:
221,157,28965,1,0,0:0:0:0:
219,159,29135,1,8,0:0:0:0:
213,172,29306,1,0,0:0:0:0:
213,172,29476,1,0,0:0:0:0:
213,172,29562,1,0,0:0:0:0:
219,159,29647,1,8,0:0:0:0:
219,159,29817,1,0,0:0:0:0:
221,157,29988,1,8,0:0:0:0:
219,159,30073,1,8,0:0:0:0:
219,159,30158,1,0,0:0:0:0:
219,159,30243,1,8,0:0:0:0:
219,159,30329,1,0,0:0:0:0:
219,159,30499,1,8,0:0:0:0:
219,159,30670,1,0,0:0:0:0:
219,159,30840,1,0,0:0:0:0:
219,159,30925,1,0,0:0:0:0:
221,157,31010,1,8,0:0:0:0:
219,159,31181,1,0,0:0:0:0:
219,159,31351,1,8,0:0:0:0:
219,159,31522,1,0,0:0:0:0:
219,159,31607,1,0,0:0:0:0:
219,159,31692,1,8,0:0:0:0:
219,159,31777,1,0,0:0:0:0:
219,159,31863,1,8,0:0:0:0:
221,157,31948,1,8,0:0:0:0:
219,159,32033,1,0,0:0:0:0:
219,159,32374,1,0,0:0:0:0:
219,159,32545,1,8,0:0:0:0:
219,159,32630,1,8,0:0:0:0:
219,159,32715,1,0,0:0:0:0:
219,159,32885,1,8,0:0:0:0:
219,159,33056,1,8,0:0:0:0:
219,159,33397,1,4,0:0:0:0:
219,159,33567,1,0,0:0:0:0:
219,159,33738,1,8,0:0:0:0:
219,159,33908,1,0,0:0:0:0:
219,159,34079,1,8,0:0:0:0:
219,159,34164,1,0,0:0:0:0:
219,159,34249,1,0,0:0:0:0:
219,159,34420,1,8,0:0:0:0:
219,159,34590,1,8,0:0:0:0:
219,159,34675,1,8,0:0:0:0:
219,159,34760,1,0,0:0:0:0:
224,137,34846,1,0,0:0:0:0:
219,159,34931,1,8,0:0:0:0:
165,125,35101,1,0,0:0:0:0:
219,159,35187,1,0,0:0:0:0:
210,154,35272,1,8,0:0:0:0:
219,159,35442,1,0,0:0:0:0:
219,159,35613,1,8,0:0:0:0:
219,159,35783,1,8,0:0:0:0:
219,159,35868,1,0,0:0:0:0:
219,159,35954,1,8,0:0:0:0:
219,159,36124,1,0,0:0:0:0:
210,154,36295,1,8,0:0:0:0:
219,159,36465,1,8,0:0:0:0:
219,159,36635,1,0,0:0:0:0:
219,159,36721,1,0,0:0:0:0:
219,159,36806,1,8,0:0:0:0:
219,159,36976,1,8,0:0:0:0:
210,154,37317,1,8,0:0:0:0:
219,159,37402,1,8,0:0:0:0:
219,159,37488,1,0,0:0:0:0:
219,159,37658,1,8,0:0:0:0:
219,159,37829,1,0,0:0:0:0:
219,159,37914,1,0,0:0:0:0:
219,159,37999,1,8,0:0:0:0:
207,146,38084,1,8,0:0:0:0:
210,154,38170,1,0,0:0:0:0:
210,154,38340,1,8,0:0:0:0:
219,159,38510,1,0,0:0:0:0:
219,159,38681,1,8,0:0:0:0:
219,159,38766,1,8,0:0:0:0:
219,159,38851,1,0,0:0:0:0:
219,159,39022,1,0,0:0:0:0:
207,146,39107,1,0,0:0:0:0:
210,154,39192,1,8,0:0:0:0:
210,154,39363,1,0,0:0:0:0:
207,146,39533,1,8,0:0:0:0:
219,159,39618,1,0,0:0:0:0:
207,146,39704,1,0,0:0:0:0:
219,159,39874,1,8,0:0:0:0:
219,159,40045,1,8,0:0:0:0:
207,146,40130,1,8,0:0:0:0:
210,154,40215,1,0,0:0:0:0:
210,154,40385,1,0,0:0:0:0:
207,146,40471,1,0,0:0:0:0:
207,146,40556,1,8,0:0:0:0:
207,146,40726,1,0,0:0:0:0:
219,159,40897,1,8,0:0:0:0:
219,159,41067,1,0,0:0:0:0:
207,146,41152,1,0,0:0:0:0:
210,154,41238,1,8,0:0:0:0:
204,132,41323,1,0,0:0:0:0:
210,154,41408,1,8,0:0:0:0:
207,146,41579,1,0,0:0:0:0:
207,146,41749,1,8,0:0:0:0:
223,120,41834,1,0,0:0:0:0:
219,159,41920,1,8,0:0:0:0:
219,159,42090,1,0,0:0:0:0:
210,154,42175,1,0,0:0:0:0:
210,154,42260,1,8,0:0:0:0:
210,154,42431,1,8,0:0:0:0:
207,146,42772,1,8,0:0:0:0:
219,159,42857,1,8,0:0:0:0:
219,159,42942,1,0,0:0:0:0:
219,159,43113,1,8,0:0:0:0:
210,154,43283,1,0,0:0:0:0:
210,154,43454,1,8,0:0:0:0:
208,127,43539,1,8,0:0:0:0:
207,146,43624,1,0,0:0:0:0:
207,146,43709,1,0,0:0:0:0:
207,146,43795,1,8,0:0:0:0:
219,159,43965,1,8,0:0:0:0:
219,159,44050,1,8,0:0:0:0:
219,159,44135,1,8,0:0:0:0:
210,154,44221,1,8,0:0:0:0:
210,154,44306,1,4,0:0:0:0:
235,86,44533,1,0,0:0:0:0:
207,146,44647,1,8,0:0:0:0:
219,159,44988,1,8,0:0:0:0:
219,159,45101,1,0,0:0:0:0:
210,154,45215,1,0,0:0:0:0:
210,154,45329,1,8,0:0:0:0:
207,146,45670,1,0,0:0:0:0:
219,159,45897,1,0,0:0:0:0:
219,159,46010,1,8,0:0:0:0:
219,159,46124,1,8,0:0:0:0:
210,154,46238,1,0,0:0:0:0:
210,154,46351,1,8,0:0:0:0:
197,135,46465,1,0,0:0:0:0:
207,146,46579,1,0,0:0:0:0:
200,137,46692,1,8,0:0:0:0:
219,159,46920,1,0,0:0:0:0:
219,159,47033,1,8,0:0:0:0:
197,141,47147,1,0,0:0:0:0:
166,114,47260,1,8,0:0:0:0:
166,114,47374,1,0,0:0:0:0:
166,114,47715,1,8,0:0:0:0:
166,114,47829,1,0,0:0:0:0:
166,114,47942,1,8,0:0:0:0:
166,114,48056,1,0,0:0:0:0:
166,114,48397,1,12,0:0:0:0:
166,114,48567,1,0,0:0:0:0:
167,73,48652,1,0,0:0:0:0:
166,114,48738,1,8,0:0:0:0:
167,73,48908,1,0,0:0:0:0:
167,73,49079,1,8,0:0:0:0:
167,73,49249,1,8,0:0:0:0:
167,73,49334,1,0,0:0:0:0:
167,73,49420,1,8,0:0:0:0:
167,73,49505,1,0,0:0:0:0:
167,73,49590,1,8,0:0:0:0:
167,73,49760,1,4,0:0:0:0:
167,73,49988,1,0,0:0:0:0:
167,73,50101,1,8,0:0:0:0:
167,73,50442,1,8,0:0:0:0:
167,73,50670,1,0,0:0:0:0:
167,73,50783,1,8,0:0:0:0:
167,73,51124,1,8,0:0:0:0:
167,73,51238,1,0,0:0:0:0:
167,73,51351,1,0,0:0:0:0:
167,73,51465,1,8,0:0:0:0:
167,73,51579,1,8,0:0:0:0:
167,73,51692,1,0,0:0:0:0:
167,73,51806,1,8,0:0:0:0:
167,73,51920,1,0,0:0:0:0:
167,73,52033,1,0,0:0:0:0:
167,73,52147,1,8,0:0:0:0:
167,73,52488,1,8,0:0:0:0:
167,73,52715,1,0,0:0:0:0:
167,73,52829,1,8,0:0:0:0:
167,73,53170,1,8,0:0:0:0:
167,73,53283,1,8,0:0:0:0:
167,73,53397,1,0,0:0:0:0:
167,73,53510,1,8,0:0:0:0:
167,73,53851,1,12,0:0:0:0:
167,73,54022,1,8,0:0:0:0:
197,51,54107,1,8,0:0:0:0:
167,73,54192,1,0,0:0:0:0:
197,51,54363,1,8,0:0:0:0:
136,49,54533,1,0,0:0:0:0:
136,49,54704,1,8,0:0:0:0:
136,49,54789,1,8,0:0:0:0:
136,49,54874,1,8,0:0:0:0:
136,49,54959,1,8,0:0:0:0:
136,49,55045,1,8,0:0:0:0:
136,49,55130,1,8,0:0:0:0:
136,49,55215,1,0,0:0:0:0:
136,49,55385,1,8,0:0:0:0:
136,49,55471,1,8,0:0:0:0:
136,49,55556,1,8,0:0:0:0:
136,49,55726,1,0,0:0:0:0:
136,49,55897,1,8,0:0:0:0:
136,49,55982,1,8,0:0:0:0:
136,49,56067,1,8,0:0:0:0:
136,49,56238,1,0,0:0:0:0:
233,161,56579,5,12,0:0:0:0:
207,64,56834,1,0,0:0:0:0:
233,161,56920,1,8,0:0:0:0:
233,161,57090,1,8,0:0:0:0:
233,161,57175,1,8,0:0:0:0:
233,161,57260,1,0,0:0:0:0:
233,161,57431,1,0,0:0:0:0:
233,161,57516,1,0,0:0:0:0:
233,161,57601,1,8,0:0:0:0:
233,161,57772,1,0,0:0:0:0:
233,161,57942,1,8,0:0:0:0:
226,133,58027,1,0,0:0:0:0:
233,161,58113,1,8,0:0:0:0:
226,133,58198,1,8,0:0:0:0:
233,161,58283,1,0,0:0:0:0:
233,161,58454,1,8,0:0:0:0:
233,161,58624,1,0,0:0:0:0:
233,161,58795,1,0,0:0:0:0:
233,161,58880,1,0,0:0:0:0:
233,161,58965,1,8,0:0:0:0:
226,128,59050,1,0,0:0:0:0:
233,161,59135,1,8,0:0:0:0:
233,161,59306,1,0,0:0:0:0:
223,51,59562,1,0,0:0:0:0:
233,161,59647,1,8,0:0:0:0:
233,161,59817,1,0,0:0:0:0:
244,121,59902,1,0,0:0:0:0:
233,161,59988,1,8,0:0:0:0:
179,105,60158,1,8,0:0:0:0:
208,101,60243,1,0,0:0:0:0:
214,141,60329,1,8,0:0:0:0:
214,141,60499,1,8,0:0:0:0:
233,161,60584,1,8,0:0:0:0:
233,161,60670,1,0,0:0:0:0:
214,141,60840,1,0,0:0:0:0:
214,141,60925,1,0,0:0:0:0:
214,141,61010,1,8,0:0:0:0:
214,141,61181,1,0,0:0:0:0:
214,141,61351,1,8,0:0:0:0:
214,141,61437,1,0,0:0:0:0:
214,141,61522,1,8,0:0:0:0:
214,141,61607,1,0,0:0:0:0:
214,141,61692,1,8,0:0:0:0:
214,141,61863,1,0,0:0:0:0:
214,141,62033,1,8,0:0:0:0:
235,51,62289,1,0,0:0:0:0:
214,141,62374,1,8,0:0:0:0:
214,141,62545,1,0,0:0:0:0:
214,141,62630,1,0,0:0:0:0:
214,141,62715,1,8,0:0:0:0:
214,141,62885,1,0,0:0:0:0:
233,148,63056,1,8,0:0:0:0:
214,141,63141,1,0,0:0:0:0:
214,141,63226,1,8,0:0:0:0:
214,141,63397,1,0,0:0:0:0:
214,141,63567,1,0,0:0:0:0:
220,114,63652,1,0,0:0:0:0:
214,141,63738,1,8,0:0:0:0:
214,141,63908,1,0,0:0:0:0:
233,148,64079,1,8,0:0:0:0:
214,141,64164,1,0,0:0:0:0:
214,141,64249,1,0,0:0:0:0:
214,141,64420,1,8,0:0:0:0:
214,141,64505,1,0,0:0:0:0:
214,141,64590,1,0,0:0:0:0:
214,141,64675,1,0,0:0:0:0:
214,141,64760,1,8,0:0:0:0:
214,141,64931,1,0,0:0:0:0:
214,141,65101,1,8,0:0:0:0:
214,141,65187,1,8,0:0:0:0:
214,141,65272,1,0,0:0:0:0:
214,141,65357,1,0,0:0:0:0:
214,141,65442,1,8,0:0:0:0:
214,141,65527,1,0,0:0:0:0:
214,141,65613,1,0,0:0:0:0:
214,141,65783,1,8,0:0:0:0:
214,141,65954,1,0,0:0:0:0:
214,141,66039,1,8,0:0:0:0:
214,141,66124,1,0,0:0:0:0:
214,141,66295,1,0,0:0:0:0:
214,141,66465,1,8,0:0:0:0:
214,141,66635,1,8,0:0:0:0:
214,141,66721,1,8,0:0:0:0:
214,141,66806,1,0,0:0:0:0:
214,141,66976,1,8,0:0:0:0:
214,141,67062,5,0,0:0:0:0:
214,141,67147,1,8,0:0:0:0:
214,141,67232,1,0,0:0:0:0:
214,141,67317,1,8,0:0:0:0:
214,141,67402,1,8,0:0:0:0:
214,141,67488,1,4,0:0:0:0:
214,141,67743,1,0,0:0:0:0:
214,141,67829,1,8,0:0:0:0:
214,141,67914,1,8,0:0:0:0:
214,141,67999,1,0,0:0:0:0:
214,141,68084,1,8,0:0:0:0:
219,107,68170,1,0,0:0:0:0:
214,141,68340,1,8,0:0:0:0:
214,141,68510,1,8,0:0:0:0:
214,141,68681,1,0,0:0:0:0:
211,127,68766,1,8,0:0:0:0:
214,141,68851,1,0,0:0:0:0:
269,180,69022,1,0,0:0:0:0:
224,149,69107,1,0,0:0:0:0:
224,149,69192,1,8,0:0:0:0:
224,149,69363,1,8,0:0:0:0:
224,149,69448,1,0,0:0:0:0:
224,149,69533,1,8,0:0:0:0:
224,149,69618,1,8,0:0:0:0:
224,149,69704,1,0,0:0:0:0:
224,149,69789,1,0,0:0:0:0:
224,149,69874,1,8,0:0:0:0:
224,149,70045,1,0,0:0:0:0:
224,149,70215,1,8,0:0:0:0:
224,149,70385,1,0,0:0:0:0:
224,149,70471,1,0,0:0:0:0:
224,149,70556,1,8,0:0:0:0:
213,172,70641,1,0,0:0:0:0:
224,149,70726,1,8,0:0:0:0:
224,149,70897,1,0,0:0:0:0:
213,172,70982,1,8,0:0:0:0:
196,207,71067,1,0,0:0:0:0:
219,159,71238,1,8,0:0:0:0:
213,172,71408,1,0,0:0:0:0:
211,131,71493,1,8,0:0:0:0:
213,172,71579,1,0,0:0:0:0:
224,149,71664,1,0,0:0:0:0:
224,149,71749,1,8,0:0:0:0:
224,149,71834,1,0,0:0:0:0:
224,149,71920,1,8,0:0:0:0:
219,159,72090,1,0,0:0:0:0:
219,159,72260,1,12,0:0:0:0:
213,172,72601,1,12,0:0:0:0:
224,149,72942,1,0,0:0:0:0:
219,159,73113,1,8,0:0:0:0:
219,159,73198,1,0,0:0:0:0:
219,159,73283,1,8,0:0:0:0:
213,172,73454,1,0,0:0:0:0:
213,172,73624,1,8,0:0:0:0:
213,172,73709,1,0,0:0:0:0:
213,172,73795,1,8,0:0:0:0:
224,149,73880,1,0,0:0:0:0:
224,149,73965,1,8,0:0:0:0:
219,159,74135,1,0,0:0:0:0:
213,172,74306,1,8,0:0:0:0:
213,172,74391,1,8,0:0:0:0:
213,172,74476,1,0,0:0:0:0:
213,172,74647,1,8,0:0:0:0:
213,172,74817,1,0,0:0:0:0:
219,159,74902,1,8,0:0:0:0:
219,159,74988,1,0,0:0:0:0:
219,159,75073,1,0,0:0:0:0:
213,172,75158,1,8,0:0:0:0:
213,172,75243,1,0,0:0:0:0:
213,172,75329,1,8,0:0:0:0:
213,172,75499,1,8,0:0:0:0:
213,172,75670,1,0,0:0:0:0:
195,110,75840,1,0,0:0:0:0:
182,76,75925,1,0,0:0:0:0:
219,159,76010,1,8,0:0:0:0:
219,159,76096,1,8,0:0:0:0:
213,172,76181,1,0,0:0:0:0:
213,172,76266,1,0,0:0:0:0:
213,172,76351,1,8,0:0:0:0:
213,172,76522,1,0,0:0:0:0:
213,172,76692,1,8,0:0:0:0:
219,159,76777,1,8,0:0:0:0:
219,159,76863,1,8,0:0:0:0:
219,159,77033,1,0,0:0:0:0:
213,172,77204,1,0,0:0:0:0:
213,172,77289,1,0,0:0:0:0:
213,172,77374,1,8,0:0:0:0:
213,172,77545,1,0,0:0:0:0:
213,172,77715,1,8,0:0:0:0:
219,159,77800,1,8,0:0:0:0:
219,159,77885,1,0,0:0:0:0:
219,159,77971,1,0,0:0:0:0:
219,159,78056,1,8,0:0:0:0:
213,172,78141,1,0,0:0:0:0:
213,172,78226,1,8,0:0:0:0:
213,172,78397,5,4,0:0:0:0:
213,172,78738,1,0,0:0:0:0:
219,159,78908,1,8,0:0:0:0:
219,159,79079,1,0,0:0:0:0:
219,159,79249,1,0,0:0:0:0:
219,159,79334,1,8,0:0:0:0:
221,157,79420,1,0,0:0:0:0:
219,159,79590,1,8,0:0:0:0:
213,172,79760,1,0,0:0:0:0:
213,172,79931,1,0,0:0:0:0:
213,172,80016,1,0,0:0:0:0:
219,159,80101,1,8,0:0:0:0:
219,159,80272,1,0,0:0:0:0:
221,157,80442,1,8,0:0:0:0:
219,159,80527,1,8,0:0:0:0:
219,159,80613,1,0,0:0:0:0:
219,159,80698,1,8,0:0:0:0:
219,159,80783,1,0,0:0:0:0:
219,159,80954,1,8,0:0:0:0:
219,159,81124,1,0,0:0:0:0:
219,159,81295,1,0,0:0:0:0:
219,159,81380,1,0,0:0:0:0:
221,157,81465,1,8,0:0:0:0:
219,159,81635,1,0,0:0:0:0:
219,159,81806,1,8,0:0:0:0:
219,159,81976,1,0,0:0:0:0:
219,159,82062,1,0,0:0:0:0:
219,159,82147,1,8,0:0:0:0:
219,159,82232,1,0,0:0:0:0:
219,159,82317,1,8,0:0:0:0:
221,157,82402,1,8,0:0:0:0:
219,159,82488,1,0,0:0:0:0:
219,159,82829,1,0,0:0:0:0:
219,159,82999,1,8,0:0:0:0:
219,159,83084,1,8,0:0:0:0:
219,159,83170,1,0,0:0:0:0:
219,159,83340,1,8,0:0:0:0:
219,159,83510,1,8,0:0:0:0:
110,50,83851,1,4,0:0:0:0:
110,50,84022,1,0,0:0:0:0:
110,50,84192,1,8,0:0:0:0:
110,50,84363,1,0,0:0:0:0:
110,50,84533,1,8,0:0:0:0:
110,50,84618,1,0,0:0:0:0:
110,50,84704,1,0,0:0:0:0:
110,50,84874,1,8,0:0:0:0:
110,50,85045,1,8,0:0:0:0:
110,50,85130,1,8,0:0:0:0:
110,50,85215,1,0,0:0:0:0:
115,28,85300,1,0,0:0:0:0:
110,50,85385,1,8,0:0:0:0:
56,16,85556,1,0,0:0:0:0:
110,50,85641,1,0,0:0:0:0:
101,45,85726,1,8,0:0:0:0:
110,50,85897,1,0,0:0:0:0:
110,50,86067,1,8,0:0:0:0:
110,50,86238,1,8,0:0:0:0:
110,50,86323,1,0,0:0:0:0:
110,50,86408,1,8,0:0:0:0:
110,50,86579,1,0,0:0:0:0:
101,45,86749,1,8,0:0:0:0:
110,50,86920,1,8,0:0:0:0:
110,50,87090,1,0,0:0:0:0:
110,50,87175,1,0,0:0:0:0:
110,50,87260,1,8,0:0:0:0:
110,50,87431,1,8,0:0:0:0:
101,45,87772,1,8,0:0:0:0:
110,50,87857,1,8,0:0:0:0:
110,50,87942,1,0,0:0:0:0:
110,50,88113,1,8,0:0:0:0:
110,50,88283,1,0,0:0:0:0:
110,50,88368,1,0,0:0:0:0:
110,50,88454,1,8,0:0:0:0:
98,37,88539,1,8,0:0:0:0:
101,45,88624,1,0,0:0:0:0:
101,45,88795,1,8,0:0:0:0:
123,55,88880,1,0,0:0:0:0:
110,50,88965,1,8,0:0:0:0:
145,66,89050,1,0,0:0:0:0:
110,50,89135,1,8,0:0:0:0:
110,50,89221,1,8,0:0:0:0:
110,50,89306,1,0,0:0:0:0:
110,50,89476,1,0,0:0:0:0:
98,37,89562,1,0,0:0:0:0:
101,45,89647,1,8,0:0:0:0:
101,45,89817,1,0,0:0:0:0:
98,37,89988,1,8,0:0:0:0:
110,50,90073,1,0,0:0:0:0:
98,37,90158,1,0,0:0:0:0:
110,50,90329,1,8,0:0:0:0:
110,50,90499,1,8,0:0:0:0:
98,37,90584,1,8,0:0:0:0:
101,45,90670,1,0,0:0:0:0:
101,45,90840,1,0,0:0:0:0:
98,37,90925,1,0,0:0:0:0:
98,37,91010,1,8,0:0:0:0:
98,37,91181,1,0,0:0:0:0:
110,50,91351,1,8,0:0:0:0:
110,50,91522,1,0,0:0:0:0:
98,37,91607,1,0,0:0:0:0:
101,45,91692,1,8,0:0:0:0:
110,50,91777,1,0,0:0:0:0:
101,45,91863,1,8,0:0:0:0:
98,37,92033,1,0,0:0:0:0:
98,37,92204,1,8,0:0:0:0:
124,49,92289,1,0,0:0:0:0:
110,50,92374,1,8,0:0:0:0:
110,50,92545,1,0,0:0:0:0:
101,45,92630,1,0,0:0:0:0:
101,45,92715,1,8,0:0:0:0:
101,45,92885,1,8,0:0:0:0:
98,37,93226,1,8,0:0:0:0:
110,50,93312,1,8,0:0:0:0:
110,50,93397,1,0,0:0:0:0:
110,50,93567,1,8,0:0:0:0:
101,45,93738,1,0,0:0:0:0:
101,45,93908,1,8,0:0:0:0:
116,41,93993,1,8,0:0:0:0:
98,37,94079,1,0,0:0:0:0:
98,37,94164,1,0,0:0:0:0:
98,37,94249,1,8,0:0:0:0:
110,50,94420,1,8,0:0:0:0:
110,50,94505,1,8,0:0:0:0:
110,50,94590,1,8,0:0:0:0:
101,45,94675,1,8,0:0:0:0:
122,56,94760,1,4,0:0:0:0:
198,75,94988,1,0,0:0:0:0:
170,135,95101,1,8,0:0:0:0:
182,148,95442,1,8,0:0:0:0:
182,148,95556,1,0,0:0:0:0:
173,143,95670,1,8,0:0:0:0:
173,143,95783,1,8,0:0:0:0:
170,135,96124,1,8,0:0:0:0:
182,148,96238,1,0,0:0:0:0:
182,148,96351,1,0,0:0:0:0:
182,148,96465,1,8,0:0:0:0:
182,148,96579,1,0,0:0:0:0:
173,143,96692,1,8,0:0:0:0:
173,143,96806,1,8,0:0:0:0:
160,124,96920,1,0,0:0:0:0:
170,135,97033,1,8,0:0:0:0:
163,126,97147,1,8,0:0:0:0:
182,148,97488,1,0,0:0:0:0:
129,103,97715,1,0,0:0:0:0:
129,103,97829,1,8,0:0:0:0:
129,103,98170,1,0,0:0:0:0:
129,103,98397,1,0,0:0:0:0:
129,103,98510,1,8,0:0:0:0:
129,103,98851,1,12,0:0:0:0:
129,103,99022,1,0,0:0:0:0:
130,62,99107,1,0,0:0:0:0:
129,103,99192,1,8,0:0:0:0:
146,105,99277,1,8,0:0:0:0:
130,62,99363,1,0,0:0:0:0:
130,62,99533,1,8,0:0:0:0:
130,62,99704,1,8,0:0:0:0:
130,62,99789,1,0,0:0:0:0:
130,62,99874,1,8,0:0:0:0:
130,62,99959,1,0,0:0:0:0:
130,62,100045,1,8,0:0:0:0:
130,62,100215,1,4,0:0:0:0:
130,62,100442,1,0,0:0:0:0:
130,62,100556,1,8,0:0:0:0:
130,62,100897,1,8,0:0:0:0:
163,73,101010,1,0,0:0:0:0:
130,62,101124,1,0,0:0:0:0:
130,62,101238,1,8,0:0:0:0:
130,62,101579,1,8,0:0:0:0:
130,62,101692,1,8,0:0:0:0:
130,62,101806,1,0,0:0:0:0:
130,62,101920,1,8,0:0:0:0:
130,62,102033,1,0,0:0:0:0:
130,62,102147,1,0,0:0:0:0:
130,62,102260,1,8,0:0:0:0:
130,62,102374,1,8,0:0:0:0:
130,62,102488,1,0,0:0:0:0:
130,62,102601,1,8,0:0:0:0:
130,62,102942,1,8,0:0:0:0:
130,62,103170,1,0,0:0:0:0:
130,62,103283,1,8,0:0:0:0:
204,64,103510,1,0,0:0:0:0:
130,62,103624,1,8,0:0:0:0:
130,62,103738,1,8,0:0:0:0:
130,62,103851,1,0,0:0:0:0:
130,62,103965,1,8,0:0:0:0:
156,54,104079,1,0,0:0:0:0:
192,43,104192,1,0,0:0:0:0:
130,62,104306,1,12,0:0:0:0:
130,62,104476,1,8,0:0:0:0:
160,40,104562,1,8,0:0:0:0:
130,62,104647,1,0,0:0:0:0:
192,43,104732,1,0,0:0:0:0:
160,40,104817,1,8,0:0:0:0:
99,38,104988,1,0,0:0:0:0:
99,38,105158,1,8,0:0:0:0:
99,38,105243,1,8,0:0:0:0:
99,38,105329,1,8,0:0:0:0:
99,38,105414,1,8,0:0:0:0:
99,38,105499,1,8,0:0:0:0:
99,38,105584,1,8,0:0:0:0:
111,49,105670,1,0,0:0:0:0:
140,75,105783,1,8,0:0:0:0:
178,109,105897,1,8,0:0:0:0:
210,137,106010,1,0,0:0:0:0:
261,164,106181,1,8,0:0:0:0:
261,164,106266,1,0,0:0:0:0:
261,164,106351,1,8,0:0:0:0:
261,164,106437,1,8,0:0:0:0:
261,164,106522,1,0,0:0:0:0:
261,164,106692,1,8,0:0:0:0:
237,190,107033,5,4,0:0:0:0:
237,190,107204,1,0,0:0:0:0:
237,190,107289,1,0,0:0:0:0:
237,190,107374,1,8,0:0:0:0:
237,190,107545,1,0,0:0:0:0:
237,190,107715,1,12,0:0:0:0:
237,190,107885,1,0,0:0:0:0:
237,190,108056,1,12,0:0:0:0:
237,190,108397,1,0,0:0:0:0:
237,190,108567,1,0,0:0:0:0:
237,190,108652,1,0,0:0:0:0:
237,190,108738,1,8,0:0:0:0:
237,190,108908,1,0,0:0:0:0:
237,190,109079,1,12,0:0:0:0:
233,161,109249,1,0,0:0:0:0:
233,161,109420,1,12,0:0:0:0:
233,161,109760,1,0,0:0:0:0:
233,161,109931,1,0,0:0:0:0:
233,161,110016,1,0,0:0:0:0:
233,161,110101,1,8,0:0:0:0:
233,161,110272,1,0,0:0:0:0:
233,161,110442,1,12,0:0:0:0:
233,161,110613,1,0,0:0:0:0:
233,161,110783,1,12,0:0:0:0:
233,161,111124,1,0,0:0:0:0:
233,161,111295,1,0,0:0:0:0:
233,161,111380,1,0,0:0:0:0:
233,161,111465,1,8,0:0:0:0:
233,161,111635,1,0,0:0:0:0:
233,161,111806,1,12,0:0:0:0:
233,161,111976,1,0,0:0:0:0:
233,161,112147,1,12,0:0:0:0:
237,190,112488,5,4,0:0:0:0:
237,190,112658,1,0,0:0:0:0:
237,190,112743,1,0,0:0:0:0:
237,190,112829,1,8,0:0:0:0:
237,190,112999,1,0,0:0:0:0:
237,190,113170,1,12,0:0:0:0:
237,190,113340,1,0,0:0:0:0:
237,190,113510,1,12,0:0:0:0:
237,190,113851,1,0,0:0:0:0:
237,190,114022,1,0,0:0:0:0:
237,190,114107,1,0,0:0:0:0:
237,190,114192,1,8,0:0:0:0:
237,190,114363,1,0,0:0:0:0:
237,190,114533,1,12,0:0:0:0:
233,161,114704,1,0,0:0:0:0:
233,161,114874,1,12,0:0:0:0:
233,161,115215,1,0,0:0:0:0:
233,161,115385,1,0,0:0:0:0:
233,161,115471,1,0,0:0:0:0:
233,161,115556,1,8,0:0:0:0:
233,161,115726,1,0,0:0:0:0:
233,161,115897,1,12,0:0:0:0:
233,161,116067,1,0,0:0:0:0:
233,161,116238,1,12,0:0:0:0:
233,161,116579,1,8,0:0:0:0:
233,161,116664,1,8,0:0:0:0:
233,161,116749,1,0,0:0:0:0:
233,161,116834,1,0,0:0:0:0:
233,161,116920,1,8,0:0:0:0:
233,161,117005,1,0,0:0:0:0:
233,161,117090,1,0,0:0:0:0:
233,161,117175,1,0,0:0:0:0:
233,161,117260,1,8,0:0:0:0:
233,161,117346,1,0,0:0:0:0:
233,161,117431,1,8,0:0:0:0:
233,161,117516,1,8,0:0:0:0:
233,161,117601,1,0,0:0:0:0:
244,124,117687,1,8,0:0:0:0:
233,161,117772,1,0,0:0:0:0:
233,161,117942,1,12,0:0:0:0:
233,161,118113,1,0,0:0:0:0:
233,161,118198,1,0,0:0:0:0:
233,161,118283,1,8,0:0:0:0:
233,161,118454,1,8,0:0:0:0:
233,161,118539,1,8,0:0:0:0:
233,161,118624,1,0,0:0:0:0:
233,161,118709,1,0,0:0:0:0:
233,161,118795,1,8,0:0:0:0:
233,161,118880,1,0,0:0:0:0:
233,161,118965,1,8,0:0:0:0:
233,161,119050,1,0,0:0:0:0:
233,161,119135,1,8,0:0:0:0:
233,161,119306,1,0,0:0:0:0:
233,161,119476,1,8,0:0:0:0:
233,161,119562,1,0,0:0:0:0:
233,161,119647,1,8,0:0:0:0:
233,161,119732,1,8,0:0:0:0:
233,161,119817,1,0,0:0:0:0:
233,161,119902,1,8,0:0:0:0:
233,161,119988,1,0,0:0:0:0:
233,161,120073,1,0,0:0:0:0:
233,161,120158,1,8,0:0:0:0:
233,161,120329,1,8,0:0:0:0:
233,161,120414,1,8,0:0:0:0:
233,161,120499,1,0,0:0:0:0:
233,161,120584,1,8,0:0:0:0:
203,147,120670,1,0,0:0:0:0:
203,147,120840,1,8,0:0:0:0:
203,147,121010,1,8,0:0:0:0:
203,147,121096,1,0,0:0:0:0:
203,147,121181,1,8,0:0:0:0:
203,147,121266,1,8,0:0:0:0:
203,147,121351,1,0,0:0:0:0:
233,161,121437,1,0,0:0:0:0:
203,147,121522,1,8,0:0:0:0:
203,147,121692,1,8,0:0:0:0:
203,147,121777,1,0,0:0:0:0:
203,147,121863,1,8,0:0:0:0:
203,147,121948,1,8,0:0:0:0:
203,147,122033,1,8,0:0:0:0:
203,147,122204,1,0,0:0:0:0:
203,147,122289,1,0,0:0:0:0:
203,147,122374,1,8,0:0:0:0:
203,147,122545,1,0,0:0:0:0:
203,147,122715,1,8,0:0:0:0:
203,147,122800,1,0,0:0:0:0:
203,147,122885,1,8,0:0:0:0:
203,147,122971,1,8,0:0:0:0:
203,147,123056,1,0,0:0:0:0:
190,146,123141,1,0,0:0:0:0:
203,147,123226,1,8,0:0:0:0:
190,146,123397,1,4,0:0:0:0:
190,146,123738,1,8,0:0:0:0:
190,146,123823,1,8,0:0:0:0:
190,146,123908,1,0,0:0:0:0:
190,146,123993,1,8,0:0:0:0:
190,146,124079,1,0,0:0:0:0:
190,146,124164,1,0,0:0:0:0:
190,146,124249,1,8,0:0:0:0:
190,146,124334,1,0,0:0:0:0:
190,146,124420,1,8,0:0:0:0:
190,146,124505,1,8,0:0:0:0:
190,146,124590,1,0,0:0:0:0:
190,146,124675,1,8,0:0:0:0:
190,146,124760,1,8,0:0:0:0:
190,146,124846,1,8,0:0:0:0:
190,146,124931,1,0,0:0:0:0:
190,146,125016,1,0,0:0:0:0:
190,146,125101,1,8,0:0:0:0:
190,146,125187,1,0,0:0:0:0:
190,146,125272,1,8,0:0:0:0:
190,146,125357,1,8,0:0:0:0:
190,146,125442,1,0,0:0:0:0:
190,146,125527,1,8,0:0:0:0:
190,146,125613,1,0,0:0:0:0:
190,146,125698,1,0,0:0:0:0:
190,146,125783,1,8,0:0:0:0:
190,146,125868,1,0,0:0:0:0:
190,146,125954,1,0,0:0:0:0:
190,146,126039,1,0,0:0:0:0:
190,146,126124,1,8,0:0:0:0:
215,0,126209,1,8,0:0:0:0:
190,146,126295,1,0,0:0:0:0:
190,146,126380,1,0,0:0:0:0:
190,146,126465,1,8,0:0:0:0:
190,146,126550,1,0,0:0:0:0:
190,146,126635,1,8,0:0:0:0:
190,146,126721,1,0,0:0:0:0:
190,146,126806,1,8,0:0:0:0:
190,146,126891,1,8,0:0:0:0:
190,146,126976,1,0,0:0:0:0:
190,146,127062,1,0,0:0:0:0:
190,146,127147,1,8,0:0:0:0:
190,146,127232,1,0,0:0:0:0:
190,146,127317,1,8,0:0:0:0:
190,146,127402,1,8,0:0:0:0:
190,146,127488,1,0,0:0:0:0:
190,146,127658,1,8,0:0:0:0:
190,146,127743,1,8,0:0:0:0:
190,146,127829,1,8,0:0:0:0:
190,146,127999,1,0,0:0:0:0:
190,146,128170,1,8,0:0:0:0:
190,146,128255,1,8,0:0:0:0:
190,146,128340,1,0,0:0:0:0:
190,146,128510,1,8,0:0:0:0:
200,85,128681,1,0,0:0:0:0:
233,161,128851,5,12,0:0:0:0:
233,161,129107,1,0,0:0:0:0:
233,161,129192,1,8,0:0:0:0:
233,161,129277,1,8,0:0:0:0:
233,161,129363,1,0,0:0:0:0:
233,161,129448,1,8,0:0:0:0:
233,161,129533,1,0,0:0:0:0:
233,161,129704,1,0,0:0:0:0:
225,136,129789,1,0,0:0:0:0:
233,161,129874,1,8,0:0:0:0:
233,161,130045,1,0,0:0:0:0:
233,161,130215,1,8,0:0:0:0:
233,139,130300,1,0,0:0:0:0:
233,161,130385,1,8,0:0:0:0:
225,136,130471,1,8,0:0:0:0:
233,161,130556,1,0,0:0:0:0:
233,161,130726,1,8,0:0:0:0:
233,161,130897,1,0,0:0:0:0:
233,161,131067,1,0,0:0:0:0:
233,161,131152,1,0,0:0:0:0:
233,161,131238,1,8,0:0:0:0:
233,161,131323,1,0,0:0:0:0:
233,161,131408,1,8,0:0:0:0:
233,161,131493,1,8,0:0:0:0:
233,161,131579,1,0,0:0:0:0:
233,161,131749,1,0,0:0:0:0:
233,161,131834,1,0,0:0:0:0:
233,161,131920,1,8,0:0:0:0:
233,161,132090,1,8,0:0:0:0:
244,121,132175,1,0,0:0:0:0:
233,161,132260,1,8,0:0:0:0:
179,105,132431,1,0,0:0:0:0:
214,141,132601,1,8,0:0:0:0:
214,141,132772,1,8,0:0:0:0:
233,161,132857,1,8,0:0:0:0:
233,161,132942,1,0,0:0:0:0:
214,141,133113,1,8,0:0:0:0:
214,141,133198,1,0,0:0:0:0:
214,141,133283,1,8,0:0:0:0:
214,141,133454,1,0,0:0:0:0:
214,141,133539,1,0,0:0:0:0:
214,141,133624,1,8,0:0:0:0:
214,141,133709,1,0,0:0:0:0:
214,141,133795,1,8,0:0:0:0:
214,141,133880,1,0,0:0:0:0:
214,141,133965,1,8,0:0:0:0:
214,141,134135,1,0,0:0:0:0:
214,141,134306,1,8,0:0:0:0:
214,141,134562,1,0,0:0:0:0:
214,141,134647,1,8,0:0:0:0:
216,98,134732,1,8,0:0:0:0:
214,141,134817,1,0,0:0:0:0:
214,141,134902,1,0,0:0:0:0:
214,141,134988,1,8,0:0:0:0:
214,141,135158,1,0,0:0:0:0:
233,148,135329,1,8,0:0:0:0:
214,141,135414,1,0,0:0:0:0:
214,141,135499,1,8,0:0:0:0:
221,89,135584,1,8,0:0:0:0:
214,141,135670,1,0,0:0:0:0:
214,141,135840,1,0,0:0:0:0:
220,114,135925,1,0,0:0:0:0:
214,141,136010,1,8,0:0:0:0:
214,141,136181,1,0,0:0:0:0:
233,148,136351,1,8,0:0:0:0:
214,141,136437,1,0,0:0:0:0:
214,141,136522,1,0,0:0:0:0:
214,141,136692,1,8,0:0:0:0:
214,141,136777,1,8,0:0:0:0:
214,141,136863,1,0,0:0:0:0:
214,141,136948,1,0,0:0:0:0:
214,141,137033,1,8,0:0:0:0:
214,141,137204,1,0,0:0:0:0:
214,141,137289,1,0,0:0:0:0:
214,141,137374,1,8,0:0:0:0:
214,141,137459,1,0,0:0:0:0:
214,141,137545,1,0,0:0:0:0:
214,141,137630,1,0,0:0:0:0:
214,141,137715,1,8,0:0:0:0:
214,141,137800,1,8,0:0:0:0:
214,141,137885,1,0,0:0:0:0:
214,141,138056,1,8,0:0:0:0:
214,141,138226,1,0,0:0:0:0:
214,141,138312,1,8,0:0:0:0:
214,141,138397,1,0,0:0:0:0:
214,141,138567,1,0,0:0:0:0:
214,141,138652,1,0,0:0:0:0:
214,141,138738,1,8,0:0:0:0:
214,141,138908,1,8,0:0:0:0:
214,141,138993,1,8,0:0:0:0:
214,141,139079,1,0,0:0:0:0:
214,141,139249,1,8,0:0:0:0:
214,141,139334,5,0,0:0:0:0:
214,141,139420,1,8,0:0:0:0:
214,141,139505,1,0,0:0:0:0:
214,141,139590,1,8,0:0:0:0:
214,141,139675,1,8,0:0:0:0:
214,141,139760,1,4,0:0:0:0:
214,141,140016,1,0,0:0:0:0:
214,141,140101,1,8,0:0:0:0:
214,141,140187,1,8,0:0:0:0:
214,141,140272,1,0,0:0:0:0:
214,141,140357,1,8,0:0:0:0:
219,107,140442,1,0,0:0:0:0:
214,141,140527,1,0,0:0:0:0:
214,141,140613,1,8,0:0:0:0:
214,141,140783,1,8,0:0:0:0:
214,141,140954,1,0,0:0:0:0:
211,127,141039,1,8,0:0:0:0:
214,141,141124,1,0,0:0:0:0:
211,127,141209,1,8,0:0:0:0:
269,180,141295,1,0,0:0:0:0:
224,149,141380,1,0,0:0:0:0:
224,149,141465,1,8,0:0:0:0:
224,149,141635,1,8,0:0:0:0:
224,149,141721,1,0,0:0:0:0:
224,149,141806,1,8,0:0:0:0:
224,149,141891,1,8,0:0:0:0:
224,149,141976,1,0,0:0:0:0:
224,149,142062,1,0,0:0:0:0:
224,149,142147,1,8,0:0:0:0:
224,149,142317,1,0,0:0:0:0:
224,149,142488,1,8,0:0:0:0:
224,149,142573,1,8,0:0:0:0:
224,149,142658,1,0,0:0:0:0:
224,149,142743,1,0,0:0:0:0:
224,149,142829,1,8,0:0:0:0:
213,172,142914,1,0,0:0:0:0:
224,149,142999,1,8,0:0:0:0:
224,149,143170,1,0,0:0:0:0:
224,149,143255,1,8,0:0:0:0:
196,207,143340,1,0,0:0:0:0:
219,159,143510,1,8,0:0:0:0:
211,97,143681,1,0,0:0:0:0:
211,97,143766,1,8,0:0:0:0:
213,172,143851,1,0,0:0:0:0:
213,149,143937,1,0,0:0:0:0:
224,149,144022,1,8,0:0:0:0:
219,159,144107,1,0,0:0:0:0:
224,149,144192,1,8,0:0:0:0:
229,116,144277,1,8,0:0:0:0:
219,159,144363,1,0,0:0:0:0:
219,159,144533,1,12,0:0:0:0:
213,172,144874,1,12,0:0:0:0:
224,149,145215,1,0,0:0:0:0:
219,159,145300,1,8,0:0:0:0:
219,159,145385,1,0,0:0:0:0:
219,159,145471,1,0,0:0:0:0:
219,159,145556,1,8,0:0:0:0:
224,149,145641,1,8,0:0:0:0:
213,172,145726,1,0,0:0:0:0:
224,149,145812,1,0,0:0:0:0:
213,172,145897,1,8,0:0:0:0:
213,172,145982,1,0,0:0:0:0:
213,172,146067,1,8,0:0:0:0:
224,149,146152,1,0,0:0:0:0:
224,149,146238,1,8,0:0:0:0:
219,159,146408,1,0,0:0:0:0:
213,172,146579,1,8,0:0:0:0:
213,172,146664,1,8,0:0:0:0:
213,172,146749,1,0,0:0:0:0:
224,149,146834,1,8,0:0:0:0:
213,172,146920,1,8,0:0:0:0:
208,136,147005,1,8,0:0:0:0:
213,172,147090,1,0,0:0:0:0:
219,159,147175,1,8,0:0:0:0:
219,159,147260,1,0,0:0:0:0:
219,159,147346,1,0,0:0:0:0:
213,172,147431,1,8,0:0:0:0:
213,172,147516,1,0,0:0:0:0:
213,172,147601,1,8,0:0:0:0:
213,172,147772,1,8,0:0:0:0:
213,172,147942,1,0,0:0:0:0:
195,110,148113,1,0,0:0:0:0:
182,76,148198,1,0,0:0:0:0:
219,159,148283,1,8,0:0:0:0:
219,159,148368,1,8,0:0:0:0:
213,172,148454,1,0,0:0:0:0:
213,172,148539,1,0,0:0:0:0:
213,172,148624,1,8,0:0:0:0:
213,172,148795,1,0,0:0:0:0:
213,172,148965,1,8,0:0:0:0:
219,159,149050,1,8,0:0:0:0:
219,159,149135,1,8,0:0:0:0:
239,118,149221,1,8,0:0:0:0:
219,159,149306,1,0,0:0:0:0:
213,172,149476,1,0,0:0:0:0:
213,172,149562,1,0,0:0:0:0:
213,172,149647,1,8,0:0:0:0:
213,172,149817,1,0,0:0:0:0:
213,172,149988,1,8,0:0:0:0:
219,159,150073,1,8,0:0:0:0:
219,159,150158,1,0,0:0:0:0:
219,159,150243,1,0,0:0:0:0:
219,159,150329,1,8,0:0:0:0:
213,172,150414,1,0,0:0:0:0:
213,172,150499,1,8,0:0:0:0:
213,172,150670,1,4,0:0:0:0:
219,159,151181,1,0,0:0:0:0:
219,159,151351,1,8,0:0:0:0:
219,159,151607,1,0,0:0:0:0:
219,159,151863,1,8,0:0:0:0:
213,172,152033,1,0,0:0:0:0:
213,172,152289,1,8,0:0:0:0:
219,159,152545,1,0,0:0:0:0:
221,157,152715,1,0,0:0:0:0:
219,159,152971,1,8,0:0:0:0:
219,159,153226,1,8,0:0:0:0:
219,159,153397,1,4,0:0:0:0:
219,159,153908,1,8,0:0:0:0:
219,159,154079,1,8,0:0:0:0:
219,159,154334,1,0,0:0:0:0:
219,159,154590,1,8,0:0:0:0:
219,159,154760,1,0,0:0:0:0:
219,159,155016,1,8,0:0:0:0:
219,159,155272,1,8,0:0:0:0:
219,159,155442,1,0,0:0:0:0:
219,159,155698,1,0,0:0:0:0:
219,159,155783,1,8,0:0:0:0:
191,119,155954,1,8,0:0:0:0:
219,159,156124,1,4,0:0:0:0:
219,159,156465,1,0,0:0:0:0:
219,159,156635,1,8,0:0:0:0:
219,159,156806,1,0,0:0:0:0:
219,159,156976,1,0,0:0:0:0:
219,159,157062,1,8,0:0:0:0:
221,157,157147,1,0,0:0:0:0:
219,159,157317,1,8,0:0:0:0:
213,172,157488,1,0,0:0:0:0:
213,172,157658,1,0,0:0:0:0:
213,172,157743,1,0,0:0:0:0:
219,159,157829,1,8,0:0:0:0:
219,159,157999,1,0,0:0:0:0:
221,157,158170,1,8,0:0:0:0:
219,159,158255,1,8,0:0:0:0:
219,159,158340,1,0,0:0:0:0:
219,159,158425,1,8,0:0:0:0:
219,159,158510,1,0,0:0:0:0:
219,159,158681,1,8,0:0:0:0:
219,159,158851,1,0,0:0:0:0:
219,159,159022,1,0,0:0:0:0:
219,159,159107,1,0,0:0:0:0:
221,157,159192,1,8,0:0:0:0:
219,159,159363,1,0,0:0:0:0:
219,159,159533,1,8,0:0:0:0:
219,159,159704,1,0,0:0:0:0:
219,159,159789,1,0,0:0:0:0:
219,159,159874,1,8,0:0:0:0:
219,159,159959,1,0,0:0:0:0:
219,159,160045,1,8,0:0:0:0:
221,157,160130,1,8,0:0:0:0:
219,159,160215,1,0,0:0:0:0:
219,159,160556,1,0,0:0:0:0:
219,159,160726,1,8,0:0:0:0:
219,159,160812,1,8,0:0:0:0:
219,159,160897,1,0,0:0:0:0:
219,159,161067,1,8,0:0:0:0:
219,159,161238,1,8,0:0:0:0:
219,159,161579,1,4,0:0:0:0:
219,159,161749,1,0,0:0:0:0:
219,159,161920,1,8,0:0:0:0:
216,148,162090,1,0,0:0:0:0:
208,127,162175,1,0,0:0:0:0:
219,159,162260,1,8,0:0:0:0:
219,159,162346,1,0,0:0:0:0:
219,159,162431,1,0,0:0:0:0:
219,159,162601,1,8,0:0:0:0:
219,159,162772,1,8,0:0:0:0:
219,159,162857,1,8,0:0:0:0:
219,159,162942,1,0,0:0:0:0:
224,137,163027,1,0,0:0:0:0:
219,159,163113,1,8,0:0:0:0:
165,125,163283,1,8,0:0:0:0:
219,159,163368,1,0,0:0:0:0:
210,154,163454,1,8,0:0:0:0:
219,159,163624,1,0,0:0:0:0:
219,159,163795,1,8,0:0:0:0:
224,137,163880,1,0,0:0:0:0:
219,159,163965,1,8,0:0:0:0:
219,159,164050,1,0,0:0:0:0:
219,159,164135,1,8,0:0:0:0:
222,130,164221,1,8,0:0:0:0:
219,159,164306,1,0,0:0:0:0:
210,154,164476,1,8,0:0:0:0:
219,159,164647,1,8,0:0:0:0:
219,159,164817,1,0,0:0:0:0:
219,159,164902,1,0,0:0:0:0:
219,159,164988,1,8,0:0:0:0:
219,159,165158,1,0,0:0:0:0:
219,159,165329,1,8,0:0:0:0:
210,154,165499,1,8,0:0:0:0:
219,159,165584,1,8,0:0:0:0:
219,159,165670,1,0,0:0:0:0:
219,159,165840,1,8,0:0:0:0:
219,129,165925,1,0,0:0:0:0:
219,159,166010,1,0,0:0:0:0:
219,159,166096,1,0,0:0:0:0:
219,159,166181,1,8,0:0:0:0:
207,146,166266,1,8,0:0:0:0:
210,154,166351,1,0,0:0:0:0:
210,154,166522,1,8,0:0:0:0:
219,159,166607,1,8,0:0:0:0:
219,159,166692,1,8,0:0:0:0:
219,159,166863,1,8,0:0:0:0:
219,159,167033,1,4,0:0:0:0:
219,159,167204,1,0,0:0:0:0:
207,146,167289,1,0,0:0:0:0:
210,154,167374,1,8,0:0:0:0:
210,154,167545,1,0,0:0:0:0:
207,146,167715,1,8,0:0:0:0:
219,159,167800,1,0,0:0:0:0:
207,146,167885,1,0,0:0:0:0:
223,127,167971,1,0,0:0:0:0:
219,159,168056,1,8,0:0:0:0:
219,159,168226,1,8,0:0:0:0:
207,146,168312,1,8,0:0:0:0:
210,154,168397,1,0,0:0:0:0:
210,154,168567,1,0,0:0:0:0:
207,146,168652,1,0,0:0:0:0:
207,146,168738,1,8,0:0:0:0:
207,146,168908,1,0,0:0:0:0:
219,159,169079,1,8,0:0:0:0:
219,159,169249,1,0,0:0:0:0:
207,146,169334,1,0,0:0:0:0:
210,154,169420,1,8,0:0:0:0:
216,136,169505,1,0,0:0:0:0:
210,154,169590,1,8,0:0:0:0:
203,121,169675,1,8,0:0:0:0:
207,146,169760,1,0,0:0:0:0:
207,146,169931,1,8,0:0:0:0:
223,113,170016,1,0,0:0:0:0:
219,159,170101,1,8,0:0:0:0:
219,159,170272,1,0,0:0:0:0:
210,154,170357,1,0,0:0:0:0:
210,154,170442,1,8,0:0:0:0:
210,154,170613,1,0,0:0:0:0:
223,113,170783,1,8,0:0:0:0:
207,146,170954,1,8,0:0:0:0:
219,159,171039,1,8,0:0:0:0:
219,159,171124,1,8,0:0:0:0:
219,159,171295,1,0,0:0:0:0:
223,113,171380,1,0,0:0:0:0:
210,154,171465,1,8,0:0:0:0:
210,154,171635,1,8,0:0:0:0:
209,129,171721,1,8,0:0:0:0:
207,146,171806,1,0,0:0:0:0:
207,146,171976,1,8,0:0:0:0:
223,113,172062,1,0,0:0:0:0:
219,159,172147,1,8,0:0:0:0:
219,159,172317,1,8,0:0:0:0:
