osu file format v14

[General]
AudioFilename: audio.mp3
AudioLeadIn: 0
PreviewTime: 56039
Countdown: 0
SampleSet: Soft
StackLeniency: 0.7
Mode: 0
LetterboxInBreaks: 0
WidescreenStoryboard: 1

[Editor]
Bookmarks: 40954
DistanceSpacing: 1.3
BeatDivisor: 4
GridSize: 4
TimelineZoom: 1.3

[Metadata]
Title:Itsuka Otona ni Nareru to Ii ne.
TitleUnicode:いつかオトナになれるといいね。
Artist:TUYU
ArtistUnicode:ツユ
Creator:Len
Version:pnky's Hard
Source:
Tags:pop jpop j-pop rock jrock j-rock japanese AzyuN すこやかツカサ 礼衣 ぷす ミロ I Hope You Can Be an Adult Someday iine pnky Lanzhu Erisu fast yf_bmp LeeGod Abelia moly Narcissu Athanasia-
BeatmapID:3630309
BeatmapSetID:1773106

[Difficulty]
HPDrainRate:5
CircleSize:4.2
OverallDifficulty:7
ApproachRate:8
SliderMultiplier:1.4
SliderTickRate:1

[Events]
//Background and Video events
0,0,"1920.jpg",0,0
Video,345,"1280.mp4"
//Break Periods
//Storyboard Layer 0 (Background)
//Storyboard Layer 1 (Fail)
//Storyboard Layer 2 (Pass)
//Storyboard Layer 3 (Foreground)
//Storyboard Layer 4 (Overlay)
//Storyboard Sound Samples

[TimingPoints]
727,340.909090909091,4,2,1,75,1,0
727,-111.111111111111,4,2,1,75,0,0
6181,-90.9090909090909,4,2,1,90,0,1
27999,-100,4,2,1,75,0,0
33454,-111.111111111111,4,2,1,70,0,0
44363,-111.111111111111,4,2,1,60,0,0
48454,-99.9999999999999,4,2,1,75,0,0
49817,-111.111111111111,4,2,1,60,0,0
53908,-99.9999999999999,4,2,1,75,0,0
55272,-111.111111111111,4,2,1,50,0,0
56636,-90.9090909090909,4,2,1,90,0,1
78454,-100,4,2,1,75,0,0
83908,-111.111111111111,4,2,1,70,0,0
94817,-111.111111111111,4,2,1,60,0,0
98908,-100,4,2,1,75,0,0
100271,-100,4,2,1,60,0,0
100272,-111.111111111111,4,2,1,60,0,0
104362,-111.111111111111,4,2,1,75,0,0
104363,-100,4,2,1,75,0,0
105726,-100,4,2,1,50,0,0
105727,-100,4,2,1,50,0,0
107090,-111.111111111111,4,2,1,75,0,0
117999,-90.9090909090909,4,2,1,85,0,0
127545,-111.111111111111,4,2,1,50,0,0
128397,-111.111111111111,4,2,1,70,0,0
128908,-90.9090909090909,4,2,1,90,0,1
150727,-100,4,2,1,65,0,0
161636,-111.111111111111,4,2,1,70,0,0

[Colours]
Combo1 : 255,223,128
Combo2 : 172,172,215
Combo3 : 255,157,157

[HitObjects]
31,384,727,6,0,B|27:324|27:324|30:319|30:319|26:258,1,125.999996154785,6|10,3:2|0:1,0:0:0:0:
51,190,1238,1,2,0:0:0:0:
51,190,1409,2,0,B|54:130|54:130|51:125|51:125|55:65,1,125.999996154785,2|10,3:2|0:1,0:0:0:0:
193,0,2090,6,0,B|189:60|189:60|192:65|192:65|188:124,1,125.999996154785,2|10,3:2|0:1,0:0:0:0:
163,194,2602,1,2,0:0:0:0:
163,194,2772,2,0,B|166:253|166:253|163:258|163:258|167:318,1,125.999996154785,2|10,3:2|0:1,0:0:0:0:
305,383,3454,6,0,B|301:323|301:323|304:318|304:318|300:257,1,125.999996154785,2|10,3:2|0:1,0:0:0:0:
325,189,3965,1,2,0:0:0:0:
325,189,4136,2,0,B|328:129|328:129|325:124|325:124|329:64,1,125.999996154785,2|10,3:2|0:1,0:0:0:0:
467,0,4818,6,0,B|465:30|465:30|466:32|466:32|464:63,1,62.9999980773926,2|0,3:2|3:2,0:0:0:0:
436,139,5159,2,0,B|437:169|437:169|436:171|436:171|438:202,1,62.9999980773926,2|2,3:2|3:2,0:0:0:0:
482,281,5499,1,2,3:2:0:0:
482,281,5585,1,0,3:2:0:0:
482,281,5670,2,0,L|478:325,1,31.4999990386963,2|0,3:2|3:2,0:0:0:0:
477,353,5840,1,2,3:2:0:0:
293,378,6181,6,0,B|251:368|239:323|239:323|268:292|260:244,1,154.000004699707,6|10,0:0|0:0,0:0:0:0:
205,182,6693,1,0,0:0:0:0:
128,231,6863,1,2,3:2:0:0:
128,231,7034,1,2,0:0:0:0:
39,204,7204,2,0,B|43:170|43:170|41:163|41:163|45:124,1,77.0000023498536,10|2,0:0|0:0,0:0:0:0:
21,30,7545,6,0,P|62:26|99:42,1,77.0000023498536,2|2,3:2|0:0,0:0:0:0:
175,93,7886,1,10,0:0:0:0:
175,93,8056,1,2,0:0:0:0:
258,53,8227,1,2,3:2:0:0:
436,99,8568,6,0,P|395:95|358:111,1,77.0000023498536,10|2,0:0|0:0,0:0:0:0:
292,168,8909,2,0,B|300:240|300:240|304:245|304:245|313:323,1,154.000004699707,2|10,3:2|0:0,0:0:0:0:
242,381,9420,1,2,0:0:0:0:
172,319,9590,2,0,B|176:282|176:282|178:277|178:277|182:243,1,77.0000023498536,2|2,3:2|0:0,0:0:0:0:
123,170,9931,1,10,0:0:0:0:
28,211,10102,1,2,0:0:0:0:
31,229,10187,1,2,0:0:0:0:
34,247,10272,6,0,B|38:283|38:283|40:287|40:287|43:324,1,77.0000023498536,2|2,3:2|0:0,0:0:0:0:
33,371,10528,1,2,0:0:0:0:
33,371,10613,1,10,0:0:0:0:
124,378,10784,1,2,0:0:0:0:
190,313,10954,1,2,3:2:0:0:
190,313,11124,1,10,0:0:0:0:
267,363,11295,2,0,L|347:354,1,77.0000023498536,10|0,0:0|0:0,0:0:0:0:
442,371,11636,5,2,3:2:0:0:
368,201,11977,2,0,B|372:164|372:164|374:159|374:159|378:125,1,77.0000023498536,8|0,0:0|0:0,0:0:0:0:
307,65,12318,2,0,P|258:59|224:83,1,77.0000023498536,2|2,3:2|0:0,0:0:0:0:
195,156,12659,1,10,0:0:0:0:
195,156,12829,1,2,0:0:0:0:
97,136,12999,6,0,B|101:173|101:173|103:178|103:178|107:212,1,77.0000023498536,2|2,3:2|0:0,0:0:0:0:
192,248,13340,2,0,P|236:242|263:219,1,77.0000023498536,10|2,0:0|0:0,0:0:0:0:
278,131,13681,1,2,3:2:0:0:
462,129,14022,2,0,B|482:160|482:160|468:239,1,115.50000352478,10|0,0:0|0:0,0:0:0:0:
434,274,14363,6,0,B|398:271|398:271|369:305,1,77.0000023498536,2|0,3:2|0:0,0:0:0:0:
316,376,14704,2,0,B|244:368|244:368|239:364|239:364|161:355,2,154.000004699707,10|2|8,0:0|3:2|0:0,0:0:0:0:
371,302,15556,1,2,0:0:0:0:
303,227,15727,6,0,B|299:192|299:192|297:189|297:189|292:144,1,77.0000023498536,0|2,3:2|0:0,0:0:0:0:
358,86,16067,1,10,0:0:0:0:
358,86,16238,1,2,0:0:0:0:
312,5,16408,1,2,3:2:0:0:
235,52,16579,1,10,0:0:0:0:
235,52,16664,1,2,0:0:0:0:
235,52,16749,1,10,0:0:0:0:
150,13,16920,2,0,L|106:26,1,38.5000011749268,2|0,0:0|0:0,0:0:0:0:
79,61,17090,6,0,B|60:93|60:93|74:141|74:141|78:145|78:145|97:205,1,154.000004699707,6|10,0:0|0:0,0:0:0:0:
135,236,17516,1,2,0:0:0:0:
135,236,17602,2,0,L|126:293,1,38.5000011749268,2|2,0:0|0:0,0:0:0:0:
97,307,17772,2,0,B|62:301|62:301|58:298|58:298|22:292,2,77.0000023498536,0|2|10,3:2|0:0|0:0,0:0:0:0:
285,375,18454,6,0,B|319:369|319:369|323:366|323:366|359:360,1,77.0000023498536,2|2,3:2|0:0,0:0:0:0:
397,332,18709,1,2,0:0:0:0:
397,332,18795,2,0,B|398:293|398:293|377:262,1,77.0000023498536,10|2,0:0|0:0,0:0:0:0:
348,232,19050,1,2,0:0:0:0:
348,232,19136,2,0,B|352:197|352:197|354:194|354:194|359:149,2,77.0000023498536,2|2|10,3:2|0:0|0:0,0:0:0:0:
260,263,19647,1,0,0:0:0:0:
195,186,19817,5,2,3:2:0:0:
62,57,20158,2,0,P|104:30|144:33,1,77.0000023498536,10|2,0:0|0:0,0:0:0:0:
205,83,20499,2,0,P|235:106|272:110,1,77.0000023498536,2|2,3:2|0:0,0:0:0:0:
347,56,20840,1,10,0:0:0:0:
432,108,21011,6,0,B|427:180|427:180|424:185|424:185|419:263,1,154.000004699707,2|2,0:0|0:0,0:0:0:0:
502,301,21522,2,0,B|505:341|505:341|507:345|507:345|509:386,1,77.0000023498536,10|2,0:0|0:0,0:0:0:0:
419,350,21863,1,2,3:2:0:0:
336,309,22033,1,8,0:0:0:0:
254,353,22204,1,8,0:0:0:0:
55,380,22545,6,0,B|58:345|58:345|60:341|60:341|63:303,1,77.0000023498536,2|2,3:2|0:0,0:0:0:0:
98,273,22800,1,2,0:0:0:0:
98,273,22886,2,0,B|128:247|128:247|172:249,1,77.0000023498536,10|2,0:0|0:0,0:0:0:0:
201,219,23141,1,0,0:0:0:0:
201,219,23227,2,0,B|204:184|204:184|206:180|206:180|209:142,2,77.0000023498536,2|2|10,3:2|0:0|0:0,0:0:0:0:
271,31,23908,6,0,P|229:37|199:66,1,77.0000023498536,2|2,3:2|0:0,0:0:0:0:
164,82,24164,1,0,0:0:0:0:
164,82,24249,2,0,B|128:80|128:80|122:77|122:77|71:73,1,77.0000023498536,10|2,0:0|0:0,0:0:0:0:
51,101,24505,1,2,0:0:0:0:
51,101,24590,2,0,P|35:140|45:180,2,77.0000023498536,2|2|10,3:2|0:0|0:0,0:0:0:0:
156,253,25272,5,0,3:2:0:0:
308,356,25613,2,0,P|313:318|298:283,1,77.0000023498536,10|0,0:0|0:0,0:0:0:0:
244,207,25954,2,0,P|238:169|253:134,1,77.0000023498536,2|0,3:2|0:0,0:0:0:0:
321,71,26295,2,0,P|326:33|311:-1,1,77.0000023498536,10|0,0:0|0:0,0:0:0:0:
227,54,26636,5,2,3:2:0:0:
142,17,26806,1,0,3:2:0:0:
64,65,26977,1,8,0:0:0:0:
64,65,27147,1,0,3:2:0:0:
104,147,27317,2,0,L|100:189,3,38.5000011749268,0|0|8|0,3:2|3:0|0:0|3:0,0:0:0:0:
74,223,27658,2,0,L|78:263,1,38.5000011749268,8|0,0:0|3:0,0:0:0:0:
109,300,27829,1,0,3:2:0:0:
109,319,27914,1,0,3:2:0:0:
109,338,27999,6,0,B|158:362|158:362|197:346|197:346|200:343|200:343|242:326,1,140,6|8,3:2|0:1,0:0:0:0:
313,363,28511,1,2,0:0:0:0:
384,317,28681,2,0,B|432:321|432:321|437:324|437:324|490:329,2,105,2|2|2,3:2|0:0|0:0,0:0:0:0:
334,249,29363,2,0,B|286:253|286:253|281:256|281:256|228:261,2,105,2|2|2,3:2|0:0|0:0,0:0:0:0:
391,187,30045,2,0,B|439:191|439:191|444:194|444:194|497:199,2,105,2|2|2,3:2|0:0|0:0,0:0:0:0:
328,130,30727,6,0,P|317:80|388:38,2,140,2|8|2,3:2|0:1|3:2,0:0:0:0:
261,180,31579,1,0,3:2:0:0:
261,180,31664,1,0,3:2:0:0:
261,180,31749,2,0,L|212:174,3,35,8|0|0|0,0:1|3:2|3:2|3:2,0:0:0:0:
185,186,32090,5,2,3:2:0:0:
43,95,32431,1,0,3:2:0:0:
35,263,32772,2,0,B|72:269|72:269|105:256,2,70,0|8|8,3:2|0:1|0:1,0:0:0:0:
199,267,33454,6,0,L|179:349,1,62.9999980773926,6|2,3:2|0:0,0:0:0:0:
243,376,33795,2,0,L|324:353,1,62.9999980773926,10|2,0:1|0:0,0:0:0:0:
316,287,34136,1,2,3:2:0:0:
316,287,34306,2,0,L|282:149,2,125.999996154785,0|2|2,0:0|0:0|0:0,0:0:0:0:
386,259,35158,2,0,L|369:189,1,62.9999980773926,10|2,0:1|0:0,0:0:0:0:
351,124,35499,2,0,L|368:54,1,62.9999980773926,2|2,3:2|0:0,0:0:0:0:
439,44,35840,1,10,0:1:0:0:
491,98,36011,1,2,0:0:0:0:
447,166,36181,6,0,B|434:232|489:229|474:308,1,125.999996154785,2|10,3:2|0:1,0:0:0:0:
424,340,36692,2,0,P|394:342|361:325,1,62.9999980773926,2|2,0:0|3:2,0:0:0:0:
307,278,37033,1,2,0:0:0:0:
183,366,37374,6,0,B|119:362|135:320|72:315,1,125.999996154785,2|10,0:0|0:3,0:0:0:0:
23,262,37886,1,10,0:1:0:0:
23,262,38056,1,10,0:3:0:0:
21,186,38227,2,0,L|29:112,1,62.9999980773926,2|10,3:2|0:3,0:0:0:0:
88,78,38567,2,0,L|80:4,1,62.9999980773926,10|10,0:1|0:1,0:0:0:0:
151,124,38908,6,0,P|182:123|210:109,1,62.9999980773926,2|2,3:2|0:0,0:0:0:0:
257,50,39249,2,0,P|288:51|316:65,1,62.9999980773926,10|2,0:1|0:0,0:0:0:0:
386,92,39590,1,2,3:2:0:0:
386,92,39761,1,2,0:0:0:0:
290,209,40102,6,0,P|355:195|421:192,1,125.999996154785,2|2,0:0|0:0,0:0:0:0:
477,149,40613,2,0,P|492:118|483:78,1,62.9999980773926,10|2,0:1|0:0,0:0:0:0:
443,29,40954,1,2,3:2:0:0:
390,82,41124,1,2,0:0:0:0:
321,49,41295,2,0,P|290:43|258:40,1,62.9999980773926,10|2,0:1|0:0,0:0:0:0:
182,8,41636,6,0,P|123:14|50:27,1,125.999996154785,2|10,3:2|0:1,0:0:0:0:
14,87,42147,2,0,P|44:103|87:96,1,62.9999980773926,2|2,0:0|3:2,0:0:0:0:
129,151,42488,2,0,B|163:142|182:113|182:113|218:102|254:125,2,125.999996154785,2|2|10,0:0|0:0|0:3,0:0:0:0:
89,215,43340,2,0,P|109:251|116:280,1,62.9999980773926,10|10,0:1|0:3,0:0:0:0:
78,341,43681,1,10,0:1:0:0:
78,341,43766,1,0,3:2:0:0:
78,341,43852,1,8,0:3:0:0:
142,381,44022,2,0,L|181:371,3,31.4999990386963,10|8|8|8,0:1|0:3|0:3|0:3,0:0:0:0:
201,348,44363,6,0,B|262:355|262:355|265:358|265:358|339:367,1,125.999996154785,6|2,0:0|3:2,0:0:0:0:
459,295,45045,2,0,B|398:288|398:288|395:285|395:285|321:276,1,125.999996154785,2|2,3:2|3:2,0:0:0:0:
226,172,45727,2,0,B|287:179|287:179|290:182|290:182|364:191,2,125.999996154785,2|2|2,3:2|3:2|3:2,0:0:0:0:
135,127,46749,1,2,3:2:0:0:
29,235,47090,6,0,B|36:174|36:174|39:169|39:169|46:98,1,125.999996154785,2|2,3:2|3:2,0:0:0:0:
150,2,47772,2,0,B|143:59|143:59|140:65|140:65|134:127,1,125.999996154785,2|2,3:2|3:2,0:0:0:0:
208,277,48454,6,0,B|215:213|215:213|219:208|219:208|227:139,1,140,6|10,0:0|0:0,0:0:0:0:
297,93,48965,1,2,0:0:0:0:
359,149,49136,1,2,3:0:0:0:
359,149,49306,1,10,0:2:0:0:
423,202,49477,2,0,B|457:205|457:205|460:207|460:207|494:210,1,70,10|2,0:0|0:0,0:0:0:0:
494,291,49817,6,0,P|437:317|420:384,1,125.999996154785,6|2,0:0|3:2,0:0:0:0:
352,231,50499,2,0,P|296:206|276:148,1,125.999996154785,2|2,3:2|3:2,0:0:0:0:
200,279,51181,2,0,P|143:305|126:372,2,125.999996154785,2|2|2,3:2|3:2|3:2,0:0:0:0:
289,325,52204,1,2,3:2:0:0:
386,209,52545,6,0,B|380:149|380:149|376:145|376:145|369:73,1,125.999996154785,2|2,3:2|3:2,0:0:0:0:
235,15,53227,2,0,B|240:74|240:74|244:78|244:78|250:138,1,125.999996154785,2|2,3:2|3:2,0:0:0:0:
148,272,53908,6,0,B|141:207|141:207|137:203|137:203|129:125,1,140,6|2,0:0|3:0,0:0:0:0:
59,88,54420,1,10,0:3:0:0:
121,31,54590,2,0,P|154:30|195:58,1,70,2|10,3:0|0:3,0:0:0:0:
228,66,54846,1,0,0:0:0:0:
228,66,54931,2,0,P|251:59|274:56,2,35,10|8|8,0:3|0:3|0:3,0:0:0:0:
228,66,56636,6,0,B|221:96|196:114|196:114|204:157|204:157|207:161|207:161|220:221,1,154.000004699707,6|10,0:0|0:0,0:0:0:0:
189,294,57147,1,0,0:0:0:0:
279,276,57317,1,2,3:2:0:0:
279,276,57488,1,2,0:0:0:0:
351,332,57658,2,0,B|385:328|385:328|392:330|392:330|431:326,1,77.0000023498536,10|2,0:0|0:0,0:0:0:0:
506,264,57999,6,0,P|494:221|461:204,1,77.0000023498536,2|2,3:2|0:0,0:0:0:0:
398,151,58340,1,10,0:0:0:0:
398,151,58511,1,2,0:0:0:0:
435,66,58681,1,2,3:2:0:0:
262,131,59022,2,0,P|224:132|190:105,1,77.0000023498536,10|2,0:0|0:0,0:0:0:0:
178,10,59363,6,0,B|106:18|106:18|101:22|101:22|23:31,1,154.000004699707,2|10,3:2|0:0,0:0:0:0:
2,120,59874,1,2,0:0:0:0:
86,158,60045,2,0,B|82:193|82:193|84:200|84:200|80:234,1,77.0000023498536,2|2,3:2|0:0,0:0:0:0:
162,277,60386,1,10,0:0:0:0:
242,228,60556,1,2,0:0:0:0:
242,228,60641,1,2,0:0:0:0:
242,228,60727,6,0,B|275:231|275:231|282:229|282:229|321:233,1,77.0000023498536,2|2,3:2|0:0,0:0:0:0:
363,256,60982,1,2,0:0:0:0:
363,256,61067,1,10,0:0:0:0:
441,207,61238,1,2,0:0:0:0:
448,118,61408,1,2,3:2:0:0:
448,118,61579,1,10,0:0:0:0:
377,58,61749,2,0,B|343:62|343:62|336:60|336:60|297:64,1,77.0000023498536,10|0,0:0|0:0,0:0:0:0:
246,145,62090,5,2,3:2:0:0:
163,310,62431,2,0,B|127:306|127:306|120:308|120:308|86:304,1,77.0000023498536,8|0,0:0|0:0,0:0:0:0:
31,230,62772,2,0,P|48:189|80:171,1,77.0000023498536,2|2,3:2|0:0,0:0:0:0:
165,192,63113,1,10,0:0:0:0:
165,192,63283,1,2,0:0:0:0:
241,143,63454,6,0,B|237:107|237:107|239:100|239:100|235:66,1,77.0000023498536,2|2,3:2|0:0,0:0:0:0:
314,19,63795,2,0,P|351:12|385:28,1,77.0000023498536,10|2,0:0|0:0,0:0:0:0:
444,99,64136,1,2,3:2:0:0:
298,210,64477,2,0,B|334:227|334:227|413:205,1,115.50000352478,10|0,0:0|0:0,0:0:0:0:
445,238,64817,6,0,P|443:280|418:307,1,77.0000023498536,2|0,3:2|0:0,0:0:0:0:
345,358,65158,2,0,B|417:350|417:350|422:346|422:346|500:337,2,154.000004699707,10|2|8,0:0|3:2|0:0,0:0:0:0:
261,315,66011,1,2,0:0:0:0:
180,374,66181,6,0,B|144:370|144:370|137:372|137:372|103:368,1,77.0000023498536,0|2,3:2|0:0,0:0:0:0:
60,285,66522,1,10,0:0:0:0:
60,285,66692,1,2,0:0:0:0:
115,211,66863,1,2,3:2:0:0:
75,138,67033,1,10,0:0:0:0:
75,138,67119,1,2,0:0:0:0:
75,138,67204,1,10,0:0:0:0:
131,65,67374,2,0,L|137:19,1,38.5000011749268,2|0,0:0|0:0,0:0:0:0:
184,14,67545,6,0,B|217:-2|217:-2|264:15|264:15|267:20|267:20|325:44,1,154.000004699707,6|10,0:0|0:0,0:0:0:0:
370,65,67971,1,2,0:0:0:0:
370,65,68056,2,0,L|412:58,1,38.5000011749268,2|2,0:0|0:0,0:0:0:0:
436,22,68227,2,0,B|471:28|471:28|475:31|475:31|511:37,2,77.0000023498536,0|2|10,3:2|0:0|0:0,0:0:0:0:
295,142,68908,6,0,B|289:182|289:182|308:213,1,77.0000023498536,2|2,3:2|0:0,0:0:0:0:
353,238,69164,1,2,0:0:0:0:
353,238,69249,2,0,B|388:232|388:232|392:229|392:229|428:223,1,77.0000023498536,10|2,0:0|0:0,0:0:0:0:
475,242,69505,1,2,0:0:0:0:
475,242,69590,2,0,B|494:273|494:273|488:313,2,77.0000023498536,2|2|10,3:2|0:0|0:0,0:0:0:0:
507,154,70102,1,0,0:0:0:0:
432,86,70272,5,2,3:2:0:0:
259,152,70613,2,0,B|224:146|224:146|220:143|220:143|184:137,1,77.0000023498536,10|2,0:0|0:0,0:0:0:0:
106,86,70954,2,0,P|64:98|43:130,1,77.0000023498536,2|2,3:2|0:0,0:0:0:0:
1,205,71295,1,10,0:0:0:0:
55,288,71465,6,0,B|127:280|127:280|132:276|132:276|210:267,1,154.000004699707,2|2,0:0|0:0,0:0:0:0:
287,220,71977,2,0,P|327:234|349:267,1,77.0000023498536,10|2,0:0|0:0,0:0:0:0:
406,330,72317,1,2,3:2:0:0:
481,276,72488,1,8,0:0:0:0:
455,187,72658,1,8,0:0:0:0:
331,49,72999,6,0,B|295:55|295:55|291:58|291:58|256:64,1,77.0000023498536,2|2,3:2|0:0,0:0:0:0:
216,48,73255,1,2,0:0:0:0:
216,48,73340,2,0,P|170:37|153:14,1,77.0000023498536,10|2,0:0|0:0,0:0:0:0:
115,39,73596,1,0,0:0:0:0:
115,39,73681,2,0,B|79:45|79:45|75:48|75:48|40:54,2,77.0000023498536,2|2|10,3:2|0:0|0:0,0:0:0:0:
0,191,74363,6,0,B|36:185|36:185|40:182|40:182|75:176,1,77.0000023498536,2|2,3:2|0:0,0:0:0:0:
115,192,74619,1,0,0:0:0:0:
115,192,74704,2,0,P|161:203|178:226,1,77.0000023498536,10|2,0:0|0:0,0:0:0:0:
216,201,74960,1,2,0:0:0:0:
216,201,75045,2,0,B|252:195|252:195|256:192|256:192|291:186,2,77.0000023498536,2|2|10,3:2|0:0|0:0,0:0:0:0:
331,49,75727,5,0,3:2:0:0:
486,147,76067,2,0,B|480:183|480:183|477:187|477:187|471:222,1,77.0000023498536,10|0,0:0|0:0,0:0:0:0:
385,256,76408,2,0,B|391:292|391:292|394:296|394:296|400:331,1,77.0000023498536,2|0,3:2|0:0,0:0:0:0:
318,375,76749,2,0,P|280:363|260:328,1,77.0000023498536,10|0,0:0|0:0,0:0:0:0:
191,260,77090,5,2,3:2:0:0:
208,168,77261,1,0,3:2:0:0:
225,76,77431,1,8,0:0:0:0:
225,76,77602,1,2,3:2:0:0:
307,117,77772,2,0,L|361:127,3,38.5000011749268,2|0|8|0,3:2|3:0|0:0|3:0,0:0:0:0:
382,97,78113,2,0,L|436:107,1,38.5000011749268,8|0,0:0|3:0,0:0:0:0:
452,141,78283,1,2,3:2:0:0:
470,145,78369,1,0,3:2:0:0:
486,149,78454,6,0,B|493:191|493:191|493:198|493:198|502:246|502:246|468:290,1,140,6|8,3:2|0:1,0:0:0:0:
366,282,78965,1,2,0:0:0:0:
319,352,79136,2,0,B|341:368|341:368|372:365|372:365|376:362|376:362|418:357,2,105,2|2|2,3:2|0:0|0:0,0:0:0:0:
251,302,79817,2,0,B|203:306|203:306|198:309|198:309|145:314,2,105,2|2|2,3:2|0:0|0:0,0:0:0:0:
287,225,80499,2,0,B|335:221|335:221|340:218|340:218|393:213,2,105,2|2|2,3:2|0:0|0:0,0:0:0:0:
225,167,81181,6,0,P|233:106|306:80,2,140,2|8|2,3:2|0:1|3:2,0:0:0:0:
157,216,82033,1,0,3:2:0:0:
157,216,82119,1,0,3:2:0:0:
157,216,82204,2,0,L|114:210,3,35,8|0|0|0,0:1|3:2|3:2|3:2,0:0:0:0:
76,204,82545,5,2,3:2:0:0:
243,190,82886,1,0,3:2:0:0:
410,176,83227,2,0,L|481:185,2,70,0|8|8,3:2|0:1|0:1,0:0:0:0:
321,313,83908,6,0,L|243:299,1,62.9999980773926,6|2,3:2|0:0,0:0:0:0:
191,267,84249,2,0,L|128:278,1,62.9999980773926,10|2,0:1|0:0,0:0:0:0:
60,258,84590,1,2,3:2:0:0:
60,258,84761,2,0,L|69:385,2,125.999996154785,2|2|2,0:0|0:0|0:0,0:0:0:0:
90,188,85613,2,0,L|97:112,1,62.9999980773926,10|2,0:1|0:0,0:0:0:0:
35,79,85954,2,0,P|62:52|92:48,1,62.9999980773926,2|2,3:2|0:0,0:0:0:0:
149,7,86295,1,10,0:1:0:0:
210,50,86465,1,2,0:0:0:0:
277,96,86636,6,0,B|310:71|310:71|411:82,1,125.999996154785,2|10,3:2|0:1,0:0:0:0:
442,138,87147,2,0,B|443:174|443:174|425:205,1,62.9999980773926,2|2,0:0|3:2,0:0:0:0:
365,237,87488,1,2,0:0:0:0:
288,367,87829,6,0,B|352:363|336:321|399:316,1,125.999996154785,2|10,0:0|0:3,0:0:0:0:
467,350,88340,2,0,P|495:335|508:293,1,62.9999980773926,10|10,0:1|0:3,0:0:0:0:
492,233,88681,1,2,3:2:0:0:
437,179,88852,2,0,L|447:103,2,62.9999980773926,10|10|10,0:3|0:1|0:1,0:0:0:0:
359,210,89363,6,0,P|324:207|292:174,1,62.9999980773926,2|2,3:2|0:0,0:0:0:0:
239,148,89704,2,0,P|204:151|172:184,1,62.9999980773926,10|2,0:1|0:0,0:0:0:0:
135,227,90045,1,2,3:2:0:0:
135,227,90215,1,2,0:0:0:0:
10,140,90556,6,0,P|61:81|126:88,1,125.999996154785,2|2,0:0|0:0,0:0:0:0:
170,42,91067,2,0,P|196:54|249:50,1,62.9999980773926,10|2,0:1|0:0,0:0:0:0:
294,97,91408,1,2,3:2:0:0:
348,43,91579,1,2,0:0:0:0:
419,65,91749,2,0,P|414:99|411:134,1,62.9999980773926,10|2,0:1|0:0,0:0:0:0:
352,185,92090,6,0,P|358:259|368:324,1,125.999996154785,2|10,3:2|0:1,0:0:0:0:
304,356,92602,2,0,P|269:358|238:335,1,62.9999980773926,2|2,0:0|3:2,0:0:0:0:
190,293,92942,2,0,B|111:299|111:299|98:330|70:351,2,125.999996154785,2|2|10,0:0|0:0|0:3,0:0:0:0:
225,225,93795,2,0,L|210:149,1,62.9999980773926,10|10,0:1|0:3,0:0:0:0:
253,102,94136,1,10,0:1:0:0:
253,102,94221,1,0,3:2:0:0:
253,102,94306,1,8,0:3:0:0:
324,128,94477,2,0,L|363:123,3,31.4999990386963,10|8|8|8,0:1|0:3|0:3|0:3,0:0:0:0:
389,140,94817,6,0,B|382:201|382:201|379:204|379:204|370:278,1,125.999996154785,6|2,0:0|3:2,0:0:0:0:
255,360,95499,2,0,B|262:300|262:300|265:297|265:297|272:236,1,125.999996154785,2|2,3:2|3:2,0:0:0:0:
192,107,96181,2,0,B|185:168|185:168|182:171|182:171|173:245,2,125.999996154785,2|2|2,3:2|3:2|3:2,0:0:0:0:
136,22,97204,1,2,3:2:0:0:
12,109,97545,6,0,P|34:163|100:174,1,125.999996154785,2|2,3:2|3:2,0:0:0:0:
158,313,98227,2,0,P|215:320|258:269,1,125.999996154785,2|2,3:2|3:2,0:0:0:0:
391,374,98908,2,0,P|426:327|400:254,1,140,6|8,0:0|0:0,0:0:0:0:
340,198,99420,1,2,0:0:0:0:
399,139,99590,1,2,3:0:0:0:
399,139,99761,1,10,0:2:0:0:
455,77,99931,2,0,B|455:43|455:43|432:13,1,70,8|2,0:0|0:0,0:0:0:0:
355,42,100272,6,0,B|295:45|295:45|290:42|290:42|227:47,1,125.999996154785,6|2,0:0|3:2,0:0:0:0:
113,143,100954,2,0,B|172:146|172:146|177:143|177:143|237:147,1,125.999996154785,2|2,3:2|3:2,0:0:0:0:
359,237,101636,2,0,B|299:240|299:240|294:237|294:237|234:241,2,125.999996154785,2|2|2,3:2|3:2|3:2,0:0:0:0:
441,307,102658,1,2,3:2:0:0:
499,167,102999,6,0,P|476:101|411:88,1,125.999996154785,2|2,3:2|3:2,0:0:0:0:
282,40,103681,2,0,P|305:106|370:119,1,125.999996154785,2|2,3:2|3:2,0:0:0:0:
388,286,104363,6,0,P|365:220|291:206,1,140,6|2,0:0|3:0,0:0:0:0:
230,246,104874,1,10,0:3:0:0:
158,200,105045,1,2,3:0:0:0:
158,200,105215,1,10,0:3:0:0:
88,151,105386,2,0,P|54:161|28:199,1,70,10|8,0:3|0:3,0:0:0:0:
0,378,107090,6,0,B|60:382|60:382|65:379|65:379|126:383,1,125.999996154785,6|10,3:2|0:1,0:0:0:0:
194,358,107602,1,2,0:0:0:0:
194,358,107771,2,0,B|254:355|254:355|259:358|259:358|319:354,1,125.999996154785,2|10,3:2|0:1,0:0:0:0:
423,243,108454,6,0,B|363:247|363:247|358:244|358:244|299:248,1,125.999996154785,2|10,3:2|0:1,0:0:0:0:
229,273,108964,1,2,0:0:0:0:
229,273,109135,2,0,B|170:270|170:270|165:273|165:273|105:269,1,125.999996154785,2|10,3:2|0:1,0:0:0:0:
0,158,109817,6,0,B|60:162|60:162|65:159|65:159|126:163,1,125.999996154785,2|10,3:2|0:1,0:0:0:0:
194,138,110328,1,2,0:0:0:0:
194,138,110498,2,0,B|254:135|254:135|259:138|259:138|319:134,1,125.999996154785,2|10,3:2|0:1,0:0:0:0:
423,23,111181,6,0,B|363:27|363:27|358:24|358:24|299:28,1,125.999996154785,2|10,3:2|0:1,0:0:0:0:
229,53,111691,1,0,0:0:0:0:
229,53,111863,2,0,B|170:50|170:50|165:53|165:53|105:49,1,125.999996154785,2|10,3:2|0:1,0:0:0:0:
37,19,112374,5,10,0:1:0:0:
37,19,112459,1,10,0:1:0:0:
37,19,112545,2,0,B|33:79|33:79|36:84|36:84|32:145,1,125.999996154785,6|10,3:2|0:1,0:0:0:0:
57,220,113056,1,2,0:0:0:0:
57,220,113226,2,0,B|60:280|60:280|57:285|57:285|61:345,1,125.999996154785,2|10,3:2|0:1,0:0:0:0:
207,382,113908,6,0,B|203:322|203:322|206:317|206:317|202:258,1,125.999996154785,2|10,3:2|0:1,0:0:0:0:
177,188,114420,1,2,0:0:0:0:
177,188,114589,2,0,B|180:129|180:129|177:124|177:124|181:64,1,125.999996154785,2|10,3:2|0:1,0:0:0:0:
319,0,115272,6,0,B|315:60|315:60|318:65|318:65|314:126,1,125.999996154785,2|10,3:2|0:1,0:0:0:0:
339,201,115783,1,2,0:0:0:0:
339,201,115954,2,0,B|342:261|342:261|339:266|339:266|343:326,1,125.999996154785,2|10,3:2|0:1,0:0:0:0:
480,383,116635,6,0,B|478:353|478:353|479:351|479:351|477:320,1,62.9999980773926,2|0,3:2|3:2,0:0:0:0:
449,244,116976,2,0,B|450:214|450:214|449:212|449:212|451:181,1,62.9999980773926,2|0,3:2|3:2,0:0:0:0:
495,102,117317,1,2,3:2:0:0:
495,102,117402,1,0,3:2:0:0:
495,102,117488,2,0,L|491:58,1,31.4999990386963,2|0,3:2|3:2,0:0:0:0:
470,39,117658,2,0,L|474:-5,3,31.4999990386963,0|0|0|0,3:1|3:0|3:1|3:0,0:0:0:0:
426,3,117999,6,0,P|381:7|333:104,1,154.000004699707,6|10,3:2|0:0,0:0:0:0:
276,159,118511,1,2,0:0:0:0:
197,127,118681,2,0,B|202:91|202:91|205:86|205:86|211:39,1,77.0000023498536,0|2,3:2|0:0,0:0:0:0:
132,15,119022,2,0,B|93:17|93:17|59:48,1,77.0000023498536,10|2,0:0|0:0,0:0:0:0:
6,114,119363,6,0,B|14:186|14:186|18:191|18:191|27:269,1,154.000004699707,0|10,3:2|0:0,0:0:0:0:
2,347,119874,1,2,0:0:0:0:
79,381,120045,2,0,B|119:376|119:376|122:374|122:374|165:369,1,77.0000023498536,2|2,3:2|0:0,0:0:0:0:
226,311,120386,1,10,0:0:0:0:
226,311,120556,6,0,B|298:319|298:319|303:323|303:323|381:332,1,154.000004699707,2|2,0:0|0:0,0:0:0:0:
448,271,121067,1,10,0:0:0:0:
448,271,121238,2,0,P|455:200|376:169,1,154.000004699707,2|2,0:0|0:0,0:0:0:0:
319,112,121749,1,10,0:0:0:0:
319,112,121920,6,0,B|278:147|278:147|236:138|236:138|228:134|228:134|174:121,1,154.000004699707,2|2,0:0|0:0,0:0:0:0:
107,66,122431,2,0,B|67:71|67:71|64:73|64:73|21:78,1,77.0000023498536,10|0,0:0|0:0,0:0:0:0:
2,165,122772,1,2,3:2:0:0:
87,220,122942,1,10,0:0:0:0:
87,220,123028,1,10,0:0:0:0:
87,220,123113,2,0,B|82:260|82:260|80:263|80:263|75:306,1,77.0000023498536,10|2,0:0|0:0,0:0:0:0:
37,380,123454,5,6,3:2:0:0:
192,305,123795,2,0,P|231:299|271:328,1,77.0000023498536,10|2,0:0|0:0,0:0:0:0:
340,281,124136,2,0,P|356:242|287:162,1,154.000004699707,2|10,3:2|0:0,0:0:0:0:
210,180,124647,1,2,0:0:0:0:
155,105,124817,6,0,B|178:76|178:76|228:72|228:72|233:75|233:75|296:72,1,154.000004699707,2|10,3:2|0:0,0:0:0:0:
371,34,125329,1,2,0:0:0:0:
444,76,125499,2,0,B|439:116|439:116|437:119|437:119|432:162,1,77.0000023498536,0|2,3:2|0:0,0:0:0:0:
500,203,125840,1,10,0:0:0:0:
381,344,126181,6,0,L|225:326,1,154.000004699707,6|10,3:2|0:0,0:0:0:0:
140,356,126692,1,2,0:0:0:0:
65,309,126863,1,10,0:0:0:0:
65,309,127033,1,2,0:0:0:0:
58,216,127204,2,0,B|63:176|63:176|65:173|65:173|70:130,1,77.0000023498536,10|2,0:0|3:0,0:0:0:0:
81,65,127545,5,2,3:0:0:0:
81,65,128908,6,0,B|111:58|129:33|129:33|172:41|172:41|176:44|176:44|236:57,1,154.000004699707,6|10,0:0|0:0,0:0:0:0:
309,27,129420,1,0,0:0:0:0:
387,84,129590,1,2,3:2:0:0:
387,84,129761,1,2,0:0:0:0:
339,162,129931,2,0,B|303:158|303:158|297:154|297:154|264:151,1,77.0000023498536,10|2,0:0|0:0,0:0:0:0:
184,213,130272,6,0,P|196:252|231:273,1,77.0000023498536,2|2,3:2|0:0,0:0:0:0:
317,301,130613,1,10,0:0:0:0:
317,301,130783,1,2,0:0:0:0:
407,322,130954,1,2,3:2:0:0:
231,380,131295,2,0,B|195:376|195:376|189:372|189:372|156:369,1,77.0000023498536,10|2,0:0|0:0,0:0:0:0:
55,375,131636,6,0,P|16:333|41:241,1,154.000004699707,2|10,3:2|0:0,0:0:0:0:
127,229,132147,1,2,0:0:0:0:
175,148,132317,2,0,B|171:112|171:112|167:106|167:106|164:73,1,77.0000023498536,2|2,3:2|0:0,0:0:0:0:
236,14,132658,1,10,0:0:0:0:
329,49,132829,1,2,0:0:0:0:
326,68,132914,1,2,0:0:0:0:
324,87,132999,6,0,B|321:120|321:120|317:126|317:126|313:162,1,77.0000023498536,2|2,3:2|0:0,0:0:0:0:
350,198,133255,1,2,0:0:0:0:
350,198,133340,1,10,0:0:0:0:
294,272,133511,1,2,0:0:0:0:
363,339,133681,1,2,3:2:0:0:
363,339,133852,1,10,0:0:0:0:
442,293,134022,2,0,B|438:257|438:257|434:251|434:251|431:218,1,77.0000023498536,10|0,0:0|0:0,0:0:0:0:
481,130,134363,5,2,3:2:0:0:
337,13,134704,2,0,P|292:17|264:55,1,77.0000023498536,8|2,0:0|0:0,0:0:0:0:
206,105,135045,2,0,B|170:101|170:101|164:97|164:97|131:94,1,77.0000023498536,2|2,3:2|0:0,0:0:0:0:
57,149,135386,1,10,0:0:0:0:
57,149,135556,1,2,0:0:0:0:
99,239,135727,6,0,B|135:235|135:235|141:231|141:231|174:228,1,77.0000023498536,2|2,3:2|0:0,0:0:0:0:
263,250,136067,2,0,P|297:223|305:181,1,77.0000023498536,10|2,0:0|0:0,0:0:0:0:
338,105,136408,1,2,3:2:0:0:
501,191,136749,2,0,B|516:217|516:217|485:311,1,115.50000352478,10|0,0:0|0:0,0:0:0:0:
445,313,137090,6,0,B|411:295|411:295|366:299,1,77.0000023498536,2|0,3:2|0:0,0:0:0:0:
301,358,137431,2,0,B|229:350|229:350|224:346|224:346|146:337,2,154.000004699707,10|2|8,0:0|3:2|0:0,0:0:0:0:
372,298,138283,1,2,0:0:0:0:
294,234,138454,6,0,P|288:206|310:159,1,77.0000023498536,0|2,3:2|0:0,0:0:0:0:
375,101,138795,1,10,0:0:0:0:
375,101,138965,1,2,0:0:0:0:
313,31,139136,1,2,3:2:0:0:
236,77,139306,1,10,0:0:0:0:
236,77,139391,1,2,0:0:0:0:
236,77,139477,1,10,0:0:0:0:
158,26,139647,2,0,L|111:18,1,38.5000011749268,2|0,0:0|0:0,0:0:0:0:
72,33,139817,6,0,B|80:105|80:105|84:110|84:110|93:188,1,154.000004699707,6|10,0:0|0:0,0:0:0:0:
125,224,140244,1,2,0:0:0:0:
125,224,140329,2,0,L|118:268,1,38.5000011749268,2|2,0:0|0:0,0:0:0:0:
87,296,140499,2,0,B|54:316|54:316|1:306,2,77.0000023498536,0|2|10,3:2|0:0|0:0,0:0:0:0:
230,178,141181,6,0,B|265:182|265:182|268:184|268:184|313:189,1,77.0000023498536,2|2,3:2|0:0,0:0:0:0:
347,218,141437,1,2,0:0:0:0:
347,218,141522,2,0,B|384:213|384:213|387:211|387:211|422:207,1,77.0000023498536,10|2,0:0|0:0,0:0:0:0:
460,179,141778,1,0,0:0:0:0:
460,179,141863,2,0,P|466:136|446:100,2,77.0000023498536,2|2|10,3:2|0:0|0:0,0:0:0:0:
500,262,142374,1,0,0:0:0:0:
425,328,142545,6,0,B|387:323|387:323|384:321|384:321|349:317,1,77.0000023498536,2|2,3:2|0:0,0:0:0:0:
269,270,142886,2,0,P|226:287|211:327,1,77.0000023498536,10|2,0:0|0:0,0:0:0:0:
129,354,143227,2,0,P|80:343|65:323,1,77.0000023498536,2|0,3:2|0:0,0:0:0:0:
18,240,143567,1,10,0:0:0:0:
18,240,143738,6,0,B|38:209|38:209|88:201|88:201|93:203|93:203|156:195,1,154.000004699707,2|2,0:0|0:0,0:0:0:0:
213,124,144249,2,0,P|207:79|173:50,1,77.0000023498536,10|2,0:0|0:0,0:0:0:0:
106,9,144590,1,2,3:2:0:0:
31,64,144761,1,8,0:0:0:0:
112,107,144931,1,8,0:0:0:0:
260,213,145272,6,0,B|298:208|298:208|301:206|301:206|336:202,1,77.0000023498536,2|2,3:2|0:0,0:0:0:0:
384,216,145528,1,2,0:0:0:0:
384,216,145613,2,0,P|412:190|418:139,1,77.0000023498536,10|2,0:0|0:0,0:0:0:0:
454,121,145869,1,2,0:0:0:0:
454,121,145954,2,0,B|450:86|450:86|448:83|448:83|443:45,2,77.0000023498536,2|2|10,3:2|0:0|0:0,0:0:0:0:
502,299,146636,6,0,B|497:337|497:337|495:340|495:340|491:375,1,77.0000023498536,2|2,3:2|0:0,0:0:0:0:
448,384,146891,1,2,0:0:0:0:
448,384,146977,2,0,P|406:365|392:336,1,77.0000023498536,10|2,0:0|0:0,0:0:0:0:
358,315,147232,1,2,0:0:0:0:
358,315,147317,2,0,B|323:319|323:319|320:321|320:321|282:326,2,77.0000023498536,2|2|10,3:2|0:0|0:0,0:0:0:0:
182,376,147999,5,0,3:2:0:0:
36,261,148340,2,0,P|70:232|115:232,1,77.0000023498536,10|0,0:0|0:0,0:0:0:0:
191,250,148681,2,0,P|228:243|255:217,1,77.0000023498536,2|0,3:2|0:0,0:0:0:0:
283,129,149022,2,0,P|317:100|362:100,1,77.0000023498536,10|0,0:0|0:0,0:0:0:0:
437,122,149363,5,2,3:2:0:0:
424,213,149533,1,0,3:2:0:0:
413,308,149704,1,8,0:0:0:0:
413,308,149874,1,0,3:2:0:0:
332,353,150045,2,0,L|286:343,3,38.5000011749268,0|0|8|0,3:2|3:0|0:0|3:0,0:0:0:0:
258,315,150386,2,0,L|212:305,1,38.5000011749268,8|0,0:0|3:0,0:0:0:0:
176,322,150556,1,0,3:2:0:0:
156,319,150641,1,0,3:2:0:0:
138,316,150727,6,0,B|114:267|114:267|130:228|130:228|133:225|133:225|150:183,1,140,6|8,3:2|0:1,0:0:0:0:
208,130,151238,1,2,0:0:0:0:
169,57,151408,2,0,B|119:53|119:53|113:55|113:55|60:50,2,105,2|2|2,3:2|0:0|0:0,0:0:0:0:
208,130,152090,2,0,B|258:134|258:134|264:132|264:132|317:137,2,105,2|2|2,3:2|0:0|0:0,0:0:0:0:
148,189,152772,2,0,B|98:185|98:185|92:187|92:187|39:182,2,105,2|2|2,3:2|0:0|0:0,0:0:0:0:
206,249,153454,6,0,P|220:307|305:317,1,140,6|8,0:0|0:1,0:0:0:0:
357,270,153965,1,2,0:0:0:0:
440,264,154136,2,0,P|483:280|497:345,2,105,2|2|2,3:2|0:0|0:0,0:0:0:0:
391,196,154817,2,0,B|398:146|398:146|402:140|402:140|410:83,2,105,2|2|2,3:2|0:0|0:0,0:0:0:0:
357,270,155499,2,0,P|343:318|296:338,2,105,2|2|2,3:2|0:0|0:0,0:0:0:0:
309,195,156181,6,0,B|273:166|273:166|230:176|230:176|226:180|226:180|174:193,1,140,6|8,0:0|0:1,0:0:0:0:
115,140,156692,1,2,0:0:0:0:
45,187,156863,2,0,B|52:237|52:237|56:243|56:243|64:300,2,105,2|2|2,3:2|0:0|0:0,0:0:0:0:
115,140,157545,2,0,B|122:90|122:90|126:84|126:84|134:27,2,105,2|2|2,3:2|0:0|0:0,0:0:0:0:
183,190,158227,2,0,B|190:240|190:240|194:246|194:246|202:303,2,105,2|2|2,3:2|0:0|0:0,0:0:0:0:
233,123,158908,6,0,P|255:67|338:62,2,140,2|8|2,3:2|0:1|3:2,0:0:0:0:
308,180,159761,1,0,3:2:0:0:
308,180,159846,1,0,3:2:0:0:
308,180,159931,2,0,L|355:186,3,35,8|0|0|0,0:1|3:2|3:2|3:2,0:0:0:0:
384,190,160272,5,2,3:2:0:0:
306,338,160613,1,0,3:2:0:0:
144,290,160954,2,0,B|147:260|147:260|150:255|150:255|156:205,2,70,0|8|8,3:2|0:1|0:1,0:0:0:0:
88,149,161636,6,0,P|117:126|150:122,1,62.9999980773926,6|0,3:2|0:0,0:0:0:0:
213,97,161977,2,0,P|236:117|266:124,1,62.9999980773926,10|2,0:1|0:0,0:0:0:0:
334,168,162317,1,2,3:2:0:0:
334,168,162488,2,0,L|477:152,2,125.999996154785,0|2|2,0:0|0:0|0:0,0:0:0:0:
281,223,163340,2,0,L|298:290,1,62.9999980773926,10|2,0:1|0:0,0:0:0:0:
274,356,163681,2,0,P|233:360|207:339,1,62.9999980773926,2|2,3:2|0:0,0:0:0:0:
181,281,164022,1,10,0:1:0:0:
105,276,164192,1,2,0:0:0:0:
67,348,164363,6,0,L|55:212,1,125.999996154785,2|10,3:2|0:1,0:0:0:0:
11,160,164874,2,0,L|17:92,1,62.9999980773926,2|2,0:0|3:2,0:0:0:0:
60,35,165215,1,2,0:0:0:0:
181,124,165556,6,0,B|245:120|229:78|292:73,1,125.999996154785,2|10,0:0|0:3,0:0:0:0:
350,24,166067,1,10,0:1:0:0:
350,24,166238,1,10,0:3:0:0:
402,78,166408,2,0,P|394:116|386:163,1,62.9999980773926,2|10,3:2|0:3,0:0:0:0:
418,172,166664,1,0,0:0:0:0:
418,172,166749,2,0,P|426:210|434:257,1,62.9999980773926,10|10,0:1|0:1,0:0:0:0:
386,303,167090,6,0,P|355:302|327:288,1,62.9999980773926,2|2,3:2|0:0,0:0:0:0:
277,230,167431,2,0,P|246:231|218:245,1,62.9999980773926,10|2,0:1|0:0,0:0:0:0:
162,296,167772,1,2,3:2:0:0:
162,296,167943,1,2,0:0:0:0:
38,189,168283,6,0,B|69:222|69:222|71:311,1,125.999996154785,2|2,0:0|0:0,0:0:0:0:
26,364,168795,2,0,P|54:382|88:380,1,62.9999980773926,10|2,0:1|0:0,0:0:0:0:
158,373,169136,1,2,3:2:0:0:
226,340,169306,1,2,0:0:0:0:
291,378,169477,2,0,L|354:370,1,62.9999980773926,10|2,0:1|0:0,0:0:0:0:
434,377,169817,6,0,P|472:338|452:261,1,125.999996154785,2|10,3:2|0:1,0:0:0:0:
403,222,170329,2,0,P|368:229|328:237,1,62.9999980773926,2|2,0:0|3:2,0:0:0:0:
272,201,170670,2,0,B|241:189|209:190|209:190|194:227|146:237,1,125.999996154785,2|2,0:0|0:0,0:0:0:0:
89,200,171181,6,0,P|86:172|96:122,1,62.9999980773926,8|10,0:1|0:3,0:0:0:0:
67,58,171522,2,0,P|89:41|138:25,1,62.9999980773926,10|10,0:1|0:3,0:0:0:0:
200,49,171863,1,10,0:1:0:0:
265,113,172033,1,8,0:3:0:0:
265,113,172119,1,0,3:2:0:0:
265,113,172204,1,10,0:1:0:0:
340,81,172374,1,8,0:3:0:0:
