osu file format v14

[General]
AudioFilename: audio.mp3
AudioLeadIn: 0
PreviewTime: 56039
Countdown: 0
SampleSet: Soft
StackLeniency: 0.3
Mode: 0
LetterboxInBreaks: 0
WidescreenStoryboard: 0

[Editor]
Bookmarks: 6181,27999,44363,56636,78454,94817,107090,117999,128908,150727
DistanceSpacing: 0.15
BeatDivisor: 4
GridSize: 32
TimelineZoom: 1.9

[Metadata]
Title:Itsuka Otona ni Nareru to Ii ne.
TitleUnicode:いつかオトナになれるといいね。
Artist:TUYU
ArtistUnicode:ツユ
Creator:Len
Version:Not Classic Extra
Source:
Tags:pop jpop j-pop rock jrock j-rock japanese AzyuN すこやかツカサ 礼衣 ぷす ミロ I Hope You Can Be an Adult Someday iine pnky Lanzhu Erisu fast yf_bmp LeeGod Abelia moly Narcissu Athanasia-
BeatmapID:3630306
BeatmapSetID:1773106

[Difficulty]
HPDrainRate:5
CircleSize:4
OverallDifficulty:9
ApproachRate:9.3
SliderMultiplier:1.95
SliderTickRate:1

[Events]
//Background and Video events
0,0,"1920.jpg",0,0
Video,345,"1280.mp4"
//Break Periods
//Storyboard Layer 0 (Background)
//Storyboard Layer 1 (Fail)
//Storyboard Layer 2 (Pass)
//Storyboard Layer 3 (Foreground)
//Storyboard Layer 4 (Overlay)
//Storyboard Sound Samples

[TimingPoints]
727,340.909090909091,4,2,1,75,1,0
6181,-83.3333333333333,4,2,1,90,0,1
6522,-99.009900990099,4,2,1,90,0,1
11295,-142.857142857143,4,2,1,90,0,1
11636,-83.3333333333333,4,2,1,90,0,1
11977,-99.009900990099,4,2,1,90,0,1
13681,-83.3333333333333,4,2,1,90,0,1
14704,-99.009900990099,4,2,1,90,0,1
17090,-83.3333333333333,4,2,1,90,0,1
17431,-99.009900990099,4,2,1,90,0,1
18113,-83.3333333333333,4,2,1,90,0,1
19477,-99.009900990099,4,2,1,90,0,1
19817,-83.3333333333333,4,2,1,90,0,1
20158,-99.009900990099,4,2,1,90,0,1
21863,-83.3333333333333,4,2,1,90,0,1
22204,-99.009900990099,4,2,1,90,0,1
23567,-83.3333333333333,4,2,1,90,0,1
23908,-99.009900990099,4,2,1,90,0,1
24931,-83.3333333333333,4,2,1,90,0,1
25272,-99.009900990099,4,2,1,90,0,1
27999,-99.009900990099,4,2,1,75,0,0
33113,-166.666666666667,4,2,1,75,0,0
33454,-111.111111111111,4,2,1,70,0,0
44363,-90.9090909090909,4,2,1,60,0,0
48454,-90.9090909090909,4,2,1,75,0,0
49136,-100,4,2,1,75,0,0
49817,-90.9090909090909,4,2,1,60,0,0
53908,-90.9090909090909,4,2,1,75,0,0
55272,-90.9090909090909,4,2,1,50,0,0
56636,-83.3333333333333,4,2,1,90,0,1
56977,-99.009900990099,4,2,1,90,0,1
61749,-142.857142857143,4,2,1,90,0,1
62090,-83.3333333333333,4,2,1,90,0,1
62431,-99.009900990099,4,2,1,90,0,1
64136,-83.3333333333333,4,2,1,90,0,1
65158,-99.009900990099,4,2,1,90,0,1
67545,-83.3333333333333,4,2,1,90,0,1
67886,-99.009900990099,4,2,1,90,0,1
68567,-83.3333333333333,4,2,1,90,0,1
69931,-99.009900990099,4,2,1,90,0,1
70272,-83.3333333333333,4,2,1,90,0,1
70613,-99.009900990099,4,2,1,90,0,1
72658,-142.857142857143,4,2,1,90,0,1
72999,-99.009900990099,4,2,1,90,0,1
74022,-83.3333333333333,4,2,1,90,0,1
74363,-99.009900990099,4,2,1,90,0,1
75386,-83.3333333333333,4,2,1,90,0,1
75727,-99.009900990099,4,2,1,90,0,1
78454,-99.009900990099,4,2,1,75,0,0
83567,-166.666666666667,4,2,1,75,0,0
83908,-111.111111111111,4,2,1,70,0,0
94817,-90.9090909090909,4,2,1,60,0,0
98908,-90.9090909090909,4,2,1,75,0,0
99590,-100,4,2,1,75,0,0
100271,-100,4,2,1,60,0,0
100272,-90.9090909090909,4,2,1,60,0,0
104362,-90.9090909090909,4,2,1,75,0,0
105726,-90.9090909090909,4,2,1,50,0,0
107090,-99.009900990099,4,2,1,75,0,0
117999,-76.9230769230769,4,2,1,85,0,0
118511,-90.9090909090909,4,2,1,85,0,0
127545,-90.9090909090909,4,2,1,50,0,0
128397,-90.9090909090909,4,2,1,70,0,0
128908,-83.3333333333333,4,2,1,90,0,1
129249,-99.009900990099,4,2,1,90,0,1
134022,-142.857142857143,4,2,1,90,0,1
134363,-83.3333333333333,4,2,1,90,0,1
134704,-99.009900990099,4,2,1,90,0,1
136408,-83.3333333333333,4,2,1,90,0,1
137431,-99.009900990099,4,2,1,90,0,1
139817,-83.3333333333333,4,2,1,90,0,1
140158,-99.009900990099,4,2,1,90,0,1
140840,-83.3333333333333,4,2,1,90,0,1
142204,-99.009900990099,4,2,1,90,0,1
144931,-142.857142857143,4,2,1,90,0,1
145272,-99.009900990099,4,2,1,90,0,1
146295,-83.3333333333333,4,2,1,90,0,1
147658,-99.009900990099,4,2,1,90,0,1
147999,-83.3333333333333,4,2,1,90,0,1
148340,-99.009900990099,4,2,1,90,0,1
150727,-99.009900990099,4,2,1,65,0,0
161295,-166.666666666667,4,2,1,65,0,0
161636,-111.111111111111,4,2,1,70,0,0

[Colours]
Combo1 : 255,223,128
Combo2 : 172,172,215
Combo3 : 255,157,157

[HitObjects]
174,41,726,6,0,B|229:43|258:2|258:2|229:43|251:99,1,195,6|6,3:2|3:2,0:0:0:0:
174,41,1238,1,2,0:0:0:0:
325,55,1408,2,0,P|372:44|440:29,1,97.5,2|0,3:2|0:0,0:0:0:0:
139,122,1749,2,0,P|92:133|24:148,1,97.5,10|0,0:1|0:0,0:0:0:0:
334,134,2090,6,0,B|279:136|250:95|250:95|279:136|257:192,1,195,2|10,3:2|0:1,0:0:0:0:
334,134,2602,1,2,0:0:0:0:
183,148,2772,2,0,P|136:137|68:122,1,97.5,2|0,3:2|0:0,0:0:0:0:
369,215,3113,2,0,P|416:226|484:241,1,97.5,10|0,0:1|0:0,0:0:0:0:
174,227,3454,6,0,B|229:229|258:188|258:188|229:229|251:285,1,195,2|10,3:2|0:1,0:0:0:0:
174,227,3965,1,2,0:0:0:0:
325,241,4135,2,0,P|372:230|440:215,1,97.5,2|0,3:2|0:0,0:0:0:0:
139,308,4477,2,0,P|92:319|24:334,1,97.5,10|0,0:1|0:0,0:0:0:0:
318,345,4817,5,2,3:2:0:0:
174,227,4988,1,0,3:2:0:0:
335,111,5159,5,2,3:2:0:0:
249,281,5329,1,2,3:2:0:0:
142,60,5499,6,0,P|136:35|133:11,1,48.75,2|0,3:2|3:2,0:0:0:0:
251,136,5670,2,0,P|245:160|242:185,1,48.75,2|0,3:2|3:2,0:0:0:0:
47,354,5840,1,2,3:2:0:0:
43,329,5926,1,0,0:0:0:0:
38,305,6011,1,2,0:0:0:0:
33,282,6096,1,0,0:0:0:0:
27,258,6181,6,0,P|124:265|138:361,1,175.499994644165,6|0,0:0|0:0,0:0:0:0:
231,377,6522,2,0,P|240:311|258:256,1,98.474998046608,10|0,0:0|0:0,0:0:0:0:
186,146,6863,1,2,3:2:0:0:
330,259,7034,1,2,0:0:0:0:
148,328,7204,1,10,0:0:0:0:
330,259,7374,1,2,0:0:0:0:
94,113,7544,6,0,P|108:176|113:231,1,98.474998046608,2|2,3:2|0:0,0:0:0:0:
268,128,7885,2,0,P|274:79|285:31,1,98.474998046608,10|2,0:0|0:0,0:0:0:0:
39,15,8226,2,0,P|139:11|179:104,1,196.949996093216,2|10,3:2|0:0,0:0:0:0:
111,209,8738,1,2,0:0:0:0:
268,128,8908,6,0,P|257:194|241:317,1,147.712497069912,2|0,3:2|0:0,0:0:0:0:
298,353,9249,2,0,P|359:351|389:299,1,98.474998046608,10|2,0:0|0:0,0:0:0:0:
483,139,9590,1,2,3:2:0:0:
348,250,9761,1,2,0:0:0:0:
483,139,9931,1,10,0:0:0:0:
299,24,10101,5,2,0:0:0:0:
299,24,10187,1,2,0:0:0:0:
299,24,10272,1,2,3:2:0:0:
420,211,10443,1,2,0:0:0:0:
420,211,10527,1,2,0:0:0:0:
420,211,10613,1,10,0:0:0:0:
512,36,10783,6,0,L|457:53,1,49.237499023304,2|0,0:0|0:0,0:0:0:0:
335,177,10954,1,2,3:2:0:0:
312,168,11039,1,0,0:0:0:0:
288,160,11124,1,10,0:0:0:0:
264,154,11209,1,0,0:0:0:0:
240,149,11295,2,0,P|256:202|267:253,1,102.374996875763,10|0,0:0|0:0,0:0:0:0:
324,305,11636,6,0,P|258:276|127:236,1,175.499994644165,2|0,3:2|0:0,0:0:0:0:
81,284,11977,2,0,P|52:225|67:187,1,98.474998046608,8|0,0:0|0:0,0:0:0:0:
199,23,12318,1,2,3:2:0:0:
139,164,12488,1,2,0:0:0:0:
34,29,12659,2,0,P|49:80|55:137,1,98.474998046608,10|2,0:0|0:0,0:0:0:0:
211,100,12999,5,2,3:2:0:0:
130,69,13170,1,2,0:0:0:0:
71,210,13340,2,0,P|121:194|175:184,1,98.474998046608,10|2,0:0|0:0,0:0:0:0:
302,41,13681,2,0,P|370:71|368:184,1,175.499994644165,2|0,3:2|0:0,0:0:0:0:
467,113,14022,2,0,B|497:85|497:85|489:48|481:-7,1,116.999996429443,10|0,0:0|0:0,0:0:0:0:
496,284,14363,6,0,P|422:261|281:237,1,175.499994644165,2|0,3:2|0:0,0:0:0:0:
276,314,14704,2,0,P|227:296|226:226,1,98.474998046608,10|0,0:0|0:0,0:0:0:0:
311,36,15045,1,2,3:2:0:0:
287,123,15215,1,0,0:0:0:0:
287,123,15301,1,0,0:0:0:0:
287,123,15386,2,0,P|233:133|179:149,1,98.474998046608,8|2,0:0|0:0,0:0:0:0:
119,105,15642,1,0,0:0:0:0:
111,98,15727,5,0,3:2:0:0:
262,223,15897,1,2,0:0:0:0:
347,33,16067,1,10,0:0:0:0:
262,223,16238,1,2,0:0:0:0:
244,17,16408,6,0,P|271:74|282:123,1,98.474998046608,2|10,3:2|0:0,0:0:0:0:
385,335,16749,2,0,P|420:346|442:356,1,49.237499023304,10|0,0:0|0:0,0:0:0:0:
512,198,16920,1,2,0:0:0:0:
512,198,17005,1,0,0:0:0:0:
512,198,17090,6,0,P|462:216|332:269,1,175.499994644165,6|0,0:0|0:0,0:0:0:0:
262,223,17431,1,10,0:0:0:0:
245,177,17516,1,2,0:0:0:0:
263,132,17602,1,2,0:0:0:0:
306,110,17687,1,2,0:0:0:0:
361,128,17772,6,0,P|356:157|352:198,1,49.237499023304,0|0,3:2|0:0,0:0:0:0:
249,49,17942,2,0,P|244:19|240:-21,1,49.237499023304,2|0,0:0|0:0,0:0:0:0:
162,209,18113,2,0,P|94:221|-14:253,1,175.499994644165,10|0,0:0|0:0,0:0:0:0:
0,239,18454,1,2,3:2:0:0:
120,353,18624,6,0,P|125:321|137:275,1,58.4999982147217,2|2,0:0|0:0,0:0:0:0:
219,149,18795,1,10,0:0:0:0:
56,56,18965,6,0,P|61:87|73:134,1,58.4999982147217,2|2,0:0|0:0,0:0:0:0:
197,234,19136,1,2,3:2:0:0:
197,234,19221,1,0,0:0:0:0:
197,234,19306,5,2,0:0:0:0:
307,43,19477,2,0,P|251:58|199:66,1,98.474998046608,10|0,0:0|0:0,0:0:0:0:
326,128,19732,1,0,0:0:0:0:
338,136,19817,6,0,P|413:134|442:242,1,175.499994644165,2|0,3:2|0:0,0:0:0:0:
508,287,20158,2,0,P|446:303|393:320,1,98.474998046608,10|2,0:0|0:0,0:0:0:0:
197,234,20499,1,2,3:2:0:0:
317,384,20670,1,2,0:0:0:0:
145,312,20840,1,10,0:0:0:0:
331,222,21011,1,2,0:0:0:0:
120,188,21181,5,0,3:2:0:0:
227,348,21352,1,2,0:0:0:0:
296,142,21522,1,10,0:0:0:0:
145,312,21692,1,2,0:0:0:0:
79,77,21863,2,0,P|130:65|193:40,1,116.999996429443,2|8,3:2|0:0,0:0:0:0:
297,229,22204,2,0,P|250:213|202:201,1,98.474998046608,8|0,0:0|0:0,0:0:0:0:
342,2,22545,5,2,3:2:0:0:
480,160,22715,1,2,0:0:0:0:
506,138,22800,1,2,0:0:0:0:
504,102,22886,1,10,0:0:0:0:
294,84,23056,1,2,0:0:0:0:
466,28,23227,6,0,P|506:15|519:10,2,49.237499023304,2|2|2,3:2|0:0|0:0,0:0:0:0:
350,183,23567,2,0,P|315:125|186:142,1,175.499994644165,10|0,0:0|0:0,0:0:0:0:
122,90,23908,6,0,P|142:154|149:194,1,98.474998046608,2|2,3:2|0:0,0:0:0:0:
136,360,24249,1,10,0:0:0:0:
259,200,24420,2,0,L|247:248,1,49.237499023304,2|2,0:0|0:0,0:0:0:0:
70,305,24590,5,2,3:2:0:0:
70,305,24675,1,2,0:0:0:0:
70,305,24761,1,2,0:0:0:0:
273,369,24931,2,0,P|340:336|333:241,1,175.499994644165,10|0,0:0|0:0,0:0:0:0:
406,190,25272,6,0,P|440:212|438:302,1,98.474998046608,0|0,3:2|0:0,0:0:0:0:
276,292,25613,2,0,P|221:302|163:317,1,98.474998046608,10|0,0:0|0:0,0:0:0:0:
0,128,25954,1,2,3:2:0:0:
147,172,26124,1,0,0:0:0:0:
65,338,26295,2,0,P|56:288|41:225,1,98.474998046608,10|0,0:0|0:0,0:0:0:0:
121,0,26636,5,2,3:2:0:0:
40,156,26806,1,0,3:2:0:0:
195,75,26977,1,8,0:0:0:0:
23,49,27147,1,0,3:2:0:0:
147,172,27317,5,0,3:2:0:0:
171,175,27403,1,0,3:0:0:0:
195,179,27488,1,8,0:0:0:0:
219,184,27573,1,0,3:0:0:0:
243,191,27658,1,8,0:0:0:0:
267,198,27744,1,0,3:0:0:0:
291,203,27829,1,0,3:2:0:0:
315,207,27914,1,0,3:2:0:0:
339,210,27999,6,0,P|352:156|371:106,1,98.474998046608,6|0,3:2|0:0,0:0:0:0:
299,51,28340,1,8,0:1:0:0:
299,51,28511,1,2,0:0:0:0:
428,196,28681,5,2,3:2:0:0:
230,103,28852,1,0,0:0:0:0:
230,103,28937,1,2,0:0:0:0:
230,103,29022,1,8,0:1:0:0:
420,16,29192,1,2,0:0:0:0:
486,263,29363,5,2,3:2:0:0:
343,101,29533,1,0,0:0:0:0:
343,101,29619,1,2,0:0:0:0:
343,101,29704,1,8,0:1:0:0:
326,326,29874,1,2,0:0:0:0:
511,156,30045,6,0,P|463:172|400:185,1,98.474998046608,2|0,3:2|0:0,0:0:0:0:
351,227,30300,1,2,0:0:0:0:
360,239,30386,2,0,P|312:223|249:210,1,98.474998046608,8|2,0:1|0:0,0:0:0:0:
41,44,30727,6,0,P|119:46|156:109,1,147.712497069912,2|0,3:2|0:0,0:0:0:0:
238,109,31067,2,0,P|204:162|178:213,1,98.474998046608,8|0,0:1|0:0,0:0:0:0:
95,367,31408,1,2,3:2:0:0:
1,224,31579,5,0,3:2:0:0:
1,224,31664,1,0,3:2:0:0:
1,224,31749,2,0,P|47:236|71:242,1,49.237499023304,8|0,0:1|3:2,0:0:0:0:
170,329,31920,2,0,L|204:278,1,49.237499023304,0|0,3:2|3:2,0:0:0:0:
75,115,32090,5,2,3:2:0:0:
75,115,32431,5,0,3:2:0:0:
75,115,32772,5,0,3:2:0:0:
172,174,32942,1,8,0:1:0:0:
202,19,33113,2,0,P|161:41|152:88,1,87.7499973220826,8|0,0:1|0:0,0:0:0:0:
172,174,33454,6,0,P|233:190|275:208,1,87.7499973220826,6|2,3:2|0:0,0:0:0:0:
361,170,33795,1,10,0:1:0:0:
393,262,33965,1,2,0:0:0:0:
456,126,34136,1,2,3:2:0:0:
456,126,34221,1,2,0:0:0:0:
456,126,34306,2,0,P|444:78|436:31,1,87.7499973220826,0|8,0:0|0:1,0:0:0:0:
301,25,34647,6,0,P|306:92|332:114,1,87.7499973220826,2|0,0:0|3:2,0:0:0:0:
386,216,34988,1,2,0:0:0:0:
374,309,35158,2,0,P|330:317|287:321,1,87.7499973220826,10|2,0:1|0:0,0:0:0:0:
179,295,35499,2,0,P|194:247|199:196,1,87.7499973220826,2|2,3:2|0:0,0:0:0:0:
60,47,35840,1,10,0:1:0:0:
94,186,36011,1,2,0:0:0:0:
219,70,36181,5,2,3:2:0:0:
219,70,36352,2,0,P|164:82|115:92,1,87.7499973220826,2|10,0:0|0:1,0:0:0:0:
282,186,36692,1,2,0:0:0:0:
282,186,36778,1,2,0:0:0:0:
282,186,36863,2,0,P|230:170|189:158,1,87.7499973220826,2|2,3:2|0:0,0:0:0:0:
308,104,37204,1,8,0:1:0:0:
395,220,37374,6,0,B|297:236|356:294|246:315,1,175.499994644165,2|10,0:0|0:3,0:0:0:0:
110,371,37886,1,10,0:1:0:0:
163,286,38056,1,10,0:3:0:0:
74,224,38227,1,2,3:2:0:0:
74,224,38397,1,10,0:3:0:0:
2,328,38567,2,0,P|55:338|102:353,1,87.7499973220826,10|10,0:1|0:1,0:0:0:0:
191,276,38908,5,2,3:2:0:0:
242,350,39079,1,2,0:0:0:0:
242,350,39164,1,2,0:0:0:0:
242,350,39249,2,0,P|304:368|346:378,1,87.7499973220826,10|2,0:1|0:0,0:0:0:0:
313,256,39590,1,2,3:2:0:0:
435,319,39761,2,0,P|476:295|501:245,1,87.7499973220826,2|8,0:0|0:1,0:0:0:0:
285,172,40102,6,0,P|309:240|318:277,1,87.7499973220826,2|0,0:0|3:2,0:0:0:0:
406,186,40442,1,2,0:0:0:0:
365,95,40613,2,0,P|372:51|378:8,1,87.7499973220826,10|2,0:1|0:0,0:0:0:0:
257,188,40954,1,2,3:2:0:0:
136,40,41124,1,2,0:0:0:0:
265,98,41295,2,0,P|219:106|166:117,1,87.7499973220826,10|2,0:1|0:0,0:0:0:0:
31,171,41636,5,2,3:2:0:0:
136,40,41806,1,2,0:0:0:0:
136,40,41891,1,0,0:0:0:0:
136,40,41977,1,10,0:1:0:0:
141,187,42147,1,2,0:0:0:0:
35,81,42317,2,0,P|13:37|-1:-2,2,87.7499973220826,2|2|8,3:2|0:0|0:1,0:0:0:0:
117,220,42829,6,0,P|90:267|75:311,1,87.7499973220826,2|8,0:0|0:1,0:0:0:0:
192,378,43170,1,10,0:3:0:0:
277,304,43340,2,0,P|327:317|381:322,1,87.7499973220826,10|10,0:1|0:3,0:0:0:0:
232,217,43681,2,0,P|285:206|338:183,1,87.7499973220826,10|8,0:1|0:3,0:0:0:0:
359,69,44022,1,10,0:1:0:0:
364,64,44107,1,8,0:3:0:0:
367,57,44192,1,8,0:3:0:0:
372,52,44278,1,8,0:3:0:0:
385,36,44363,6,0,B|381:69|381:69|382:73|382:73|378:107,1,71.5000021820069,6|2,0:0|0:0,0:0:0:0:
406,188,44590,1,2,0:0:0:0:
295,112,44704,2,0,B|252:86|239:85|203:93|203:93|196:100|160:112,1,143.000004364014,2|0,3:2|0:0,0:0:0:0:
85,114,45045,1,2,3:2:0:0:
64,24,45158,2,0,B|95:40|95:40|130:32,1,71.5000021820069,2|2,0:0|0:0,0:0:0:0:
146,187,45386,2,0,B|92:163|83:155|83:155|71:161|11:167,1,143.000004364014,2|0,3:2|0:0,0:0:0:0:
79,242,45727,6,0,P|43:244|8:251,2,71.5000021820069,2|0|2,3:2|0:0|0:0,0:0:0:0:
161,111,46067,2,0,P|196:108|231:101,2,71.5000021820069,2|2|2,3:2|0:0|0:0,0:0:0:0:
146,187,46408,2,0,B|210:193|216:189|216:189|222:193|222:193|300:200,1,143.000004364014,2|2,3:2|0:0,0:0:0:0:
444,223,46749,2,0,P|376:236|349:300,1,143.000004364014,2|2,3:2|0:0,0:0:0:0:
264,350,47090,6,0,P|266:315|263:278,1,71.5000021820069,2|2,3:2|0:0,0:0:0:0:
353,150,47317,1,2,0:0:0:0:
287,198,47431,2,0,P|259:133|290:66,1,143.000004364014,2|0,3:2|0:0,0:0:0:0:
179,30,47772,2,0,L|183:107,1,71.5000021820069,2|2,3:2|0:0,0:0:0:0:
64,238,47999,1,2,0:0:0:0:
143,246,48113,2,0,P|135:176|79:134,1,143.000004364014,2|0,3:2|0:0,0:0:0:0:
0,174,48454,5,6,0:0:0:0:
103,14,48624,1,2,0:0:0:0:
64,238,48795,5,10,0:0:0:0:
0,50,48965,1,2,0:0:0:0:
184,89,49136,6,0,B|231:80|231:80|235:82|235:82|280:79,1,97.5,2|10,3:0|0:2,0:0:0:0:
129,325,49477,2,0,B|82:316|82:316|78:318|78:318|32:315,1,97.5,10|2,0:0|0:0,0:0:0:0:
151,166,49817,6,0,L|159:250,1,71.5000021820069,6|2,0:0|0:0,0:0:0:0:
79,229,50045,1,2,0:0:0:0:
184,89,50158,2,0,B|225:78|269:79|269:79|271:84|323:103,1,143.000004364014,2|0,3:2|0:0,0:0:0:0:
405,123,50499,1,2,3:2:0:0:
335,180,50613,2,0,B|341:216|341:216|332:251,1,71.5000021820069,2|2,0:0|0:0,0:0:0:0:
488,282,50840,2,0,B|472:210|472:210|484:141,1,143.000004364014,2|0,3:2|0:0,0:0:0:0:
405,123,51181,6,0,B|404:88|404:88|401:84|401:84|402:52,2,71.5000021820069,2|2|2,3:2|0:0|0:0,0:0:0:0:
405,287,51522,2,0,B|404:321|404:321|401:325|401:325|402:357,2,71.5000021820069,2|2|2,3:2|0:0|0:0,0:0:0:0:
263,213,51863,1,2,3:2:0:0:
332,250,51977,2,0,B|341:216|341:216|335:180,1,71.5000021820069,0|2,0:0|0:0,0:0:0:0:
202,160,52204,2,0,P|135:179|102:240,1,143.000004364014,2|0,3:2|0:0,0:0:0:0:
48,369,52545,6,0,P|51:333|48:298,1,71.5000021820069,2|2,3:2|0:0,0:0:0:0:
133,315,52772,1,2,0:0:0:0:
28,218,52886,2,0,B|48:146|48:146|24:81,1,143.000004364014,2|0,3:2|0:0,0:0:0:0:
109,0,53227,6,0,P|105:35|110:71,1,71.5000021820069,2|2,3:2|0:0,0:0:0:0:
142,149,53454,1,2,0:0:0:0:
245,85,53567,2,0,B|220:149|220:149|241:221,1,143.000004364014,2|0,3:2|0:0,0:0:0:0:
319,253,53908,5,6,0:0:0:0:
473,130,54079,1,10,0:3:0:0:
319,32,54249,5,2,3:0:0:0:
429,222,54420,1,10,0:3:0:0:
497,45,54590,5,2,3:0:0:0:
312,153,54761,1,10,0:3:0:0:
512,275,54931,5,10,0:3:0:0:
512,275,55016,1,8,0:3:0:0:
512,275,55102,1,8,0:3:0:0:
512,275,55187,1,8,0:3:0:0:
512,275,55272,1,2,3:0:0:0:
14,166,56124,6,0,L|95:192,1,53.6250016365052,2|0,3:0|3:0,0:0:0:0:
163,227,56295,2,0,L|117:255,1,53.6250016365052,2|0,3:0|0:0,0:0:0:0:
80,378,56465,2,0,L|63:326,1,53.6250016365052,2|0,0:0|0:0,0:0:0:0:
137,124,56636,6,0,B|129:105|119:85|119:85|173:118|239:147,1,175.499994644165,6|0,0:0|0:0,0:0:0:0:
333,254,56977,2,0,P|390:231|387:171,1,98.474998046608,10|0,0:0|0:0,0:0:0:0:
462,21,57317,1,2,3:2:0:0:
327,159,57488,1,2,0:0:0:0:
500,251,57658,1,10,0:0:0:0:
327,159,57829,1,2,0:0:0:0:
512,79,57999,6,0,P|492:138|487:182,1,98.474998046608,2|2,3:2|0:0,0:0:0:0:
347,358,58340,2,0,P|340:310|323:264,1,98.474998046608,10|2,0:0|0:0,0:0:0:0:
465,238,58681,2,0,P|371:241|327:159,1,196.949996093216,2|10,3:2|0:0,0:0:0:0:
397,59,59192,1,2,0:0:0:0:
175,8,59363,6,0,P|193:62|216:186,1,147.712497069912,2|0,3:2|0:0,0:0:0:0:
286,85,59704,2,0,P|311:38|291:-7,1,98.474998046608,10|2,0:0|0:0,0:0:0:0:
61,162,60045,1,2,3:2:0:0:
253,228,60215,1,2,0:0:0:0:
253,228,60300,1,0,0:0:0:0:
253,228,60386,1,10,0:0:0:0:
110,371,60556,5,2,0:0:0:0:
110,371,60641,1,2,0:0:0:0:
110,371,60727,1,2,3:2:0:0:
211,150,60897,1,2,0:0:0:0:
211,150,60982,1,2,0:0:0:0:
211,150,61067,1,10,0:0:0:0:
380,287,61238,6,0,L|363:349,1,49.237499023304,2|0,0:0|0:0,0:0:0:0:
98,292,61408,1,2,3:2:0:0:
96,267,61494,1,0,0:0:0:0:
93,242,61579,1,10,0:0:0:0:
90,218,61664,1,0,0:0:0:0:
86,194,61749,2,0,P|100:147|112:92,1,102.374996875763,10|0,0:0|0:0,0:0:0:0:
23,112,62090,6,0,B|129:116|65:177|192:181,1,175.499994644165,2|0,3:2|0:0,0:0:0:0:
277,25,62431,2,0,P|223:35|197:85,1,98.474998046608,8|0,0:0|0:0,0:0:0:0:
326,271,62772,1,2,3:2:0:0:
444,212,62942,1,2,0:0:0:0:
424,373,63113,2,0,P|411:320|402:254,1,98.474998046608,10|2,0:0|0:0,0:0:0:0:
360,72,63454,5,2,3:2:0:0:
437,108,63624,1,2,0:0:0:0:
355,188,63795,2,0,P|293:197|230:210,1,98.474998046608,10|2,0:0|0:0,0:0:0:0:
22,377,64136,6,0,P|5:305|90:241,1,175.499994644165,2|0,3:2|0:0,0:0:0:0:
163,284,64477,2,0,B|190:304|190:304|182:343|166:389,1,116.999996429443,10|0,0:0|0:0,0:0:0:0:
36,150,64817,6,0,P|120:132|218:97,1,175.499994644165,2|0,3:2|0:0,0:0:0:0:
294,107,65158,2,0,P|315:63|307:16,1,98.474998046608,10|0,0:0|0:0,0:0:0:0:
491,205,65499,1,2,3:2:0:0:
414,149,65670,1,0,0:0:0:0:
414,149,65755,1,0,0:0:0:0:
414,149,65840,2,0,P|403:202|397:257,1,98.474998046608,8|2,0:0|0:0,0:0:0:0:
341,309,66096,1,0,0:0:0:0:
335,320,66181,5,0,3:2:0:0:
173,195,66352,1,2,0:0:0:0:
88,381,66522,1,10,0:0:0:0:
173,195,66692,1,2,0:0:0:0:
265,358,66863,6,0,P|206:337|134:311,1,98.474998046608,2|10,3:2|0:0,0:0:0:0:
4,146,67204,2,0,P|10:169|14:193,1,49.237499023304,10|0,0:0|0:0,0:0:0:0:
294,0,67374,1,2,0:0:0:0:
294,0,67459,1,0,0:0:0:0:
294,0,67545,6,0,P|278:57|257:189,1,175.499994644165,6|0,0:0|0:0,0:0:0:0:
173,195,67886,1,10,0:0:0:0:
129,173,67971,1,2,0:0:0:0:
107,130,68056,1,2,0:0:0:0:
115,82,68141,1,2,0:0:0:0:
149,48,68227,6,0,P|176:54|213:62,1,49.237499023304,0|0,3:2|0:0,0:0:0:0:
30,153,68397,2,0,P|5:158|-28:170,1,49.237499023304,2|0,0:0|0:0,0:0:0:0:
96,306,68567,2,0,P|163:287|277:258,1,175.499994644165,10|0,0:0|0:0,0:0:0:0:
273,250,68908,1,2,3:2:0:0:
373,371,69079,6,0,P|326:359|297:356,1,58.4999982147217,2|2,0:0|0:0,0:0:0:0:
224,176,69249,1,10,0:0:0:0:
351,63,69420,6,0,P|304:75|275:78,1,58.4999982147217,2|2,0:0|0:0,0:0:0:0:
149,225,69590,1,2,3:2:0:0:
348,281,69761,5,2,0:0:0:0:
103,376,69931,2,0,P|86:292|75:250,1,98.474998046608,10|0,0:0|0:0,0:0:0:0:
185,120,70187,1,0,0:0:0:0:
180,107,70272,6,0,P|252:101|295:207,1,175.499994644165,2|0,3:2|0:0,0:0:0:0:
348,281,70613,2,0,P|300:261|244:246,1,98.474998046608,10|2,0:0|0:0,0:0:0:0:
495,97,70954,2,0,P|469:166|460:214,1,98.474998046608,2|2,3:2|0:0,0:0:0:0:
361,12,71295,1,10,0:0:0:0:
149,195,71465,6,0,P|233:175|352:148,1,196.949996093216,2|2,0:0|0:0,0:0:0:0:
174,100,71977,1,10,0:0:0:0:
380,223,72147,1,2,0:0:0:0:
120,318,72317,5,2,3:2:0:0:
280,77,72488,1,8,0:0:0:0:
345,379,72658,2,0,P|301:356|304:286,1,102.374996875763,8|0,0:0|0:0,0:0:0:0:
340,150,72999,5,2,3:2:0:0:
478,314,73170,1,2,0:0:0:0:
452,332,73255,1,2,0:0:0:0:
416,330,73340,1,10,0:0:0:0:
418,132,73511,1,2,0:0:0:0:
292,307,73681,6,0,P|267:311|243:317,2,49.237499023304,2|2|2,3:2|0:0|0:0,0:0:0:0:
512,242,74022,2,0,P|429:226|313:198,1,175.499994644165,10|0,0:0|0:0,0:0:0:0:
254,218,74363,6,0,P|211:196|195:151,1,98.474998046608,2|2,3:2|0:0,0:0:0:0:
287,0,74704,1,10,0:0:0:0:
102,76,74874,2,0,P|112:114|116:141,1,49.237499023304,2|2,0:0|0:0,0:0:0:0:
196,277,75045,5,2,3:2:0:0:
196,277,75130,1,2,0:0:0:0:
196,277,75215,1,2,0:0:0:0:
0,360,75386,2,0,P|0:294|106:255,1,175.499994644165,10|0,0:0|0:0,0:0:0:0:
147,346,75727,6,0,P|217:359|270:375,1,98.474998046608,0|0,3:2|0:0,0:0:0:0:
436,255,76067,2,0,P|464:207|454:152,1,98.474998046608,10|0,0:0|0:0,0:0:0:0:
222,32,76408,1,2,3:2:0:0:
266,202,76579,1,0,0:0:0:0:
415,92,76749,2,0,P|355:107|295:122,1,98.474998046608,10|0,0:0|0:0,0:0:0:0:
107,325,77090,5,2,3:2:0:0:
200,147,77261,1,0,3:2:0:0:
23,240,77431,1,8,0:0:0:0:
220,269,77602,1,2,3:2:0:0:
78,129,77772,5,2,3:2:0:0:
74,104,77857,1,0,3:0:0:0:
71,80,77942,1,8,0:0:0:0:
67,55,78028,1,0,3:0:0:0:
64,31,78113,2,0,P|36:23|2:14,1,49.237499023304,8|0,0:0|3:0,0:0:0:0:
162,196,78283,2,0,L|177:149,1,49.237499023304,2|0,3:2|3:2,0:0:0:0:
398,45,78454,6,0,P|351:58|303:67,1,98.474998046608,6|0,3:2|0:0,0:0:0:0:
230,5,78795,1,8,0:1:0:0:
230,5,78965,1,2,0:0:0:0:
323,150,79136,5,2,3:2:0:0:
481,73,79306,1,0,0:0:0:0:
481,73,79391,1,2,0:0:0:0:
481,73,79477,1,8,0:1:0:0:
411,299,79647,1,2,0:0:0:0:
236,131,79817,5,2,3:2:0:0:
444,216,79988,1,0,0:0:0:0:
444,216,80073,1,2,0:0:0:0:
444,216,80158,1,8,0:1:0:0:
196,339,80329,1,2,0:0:0:0:
362,132,80499,6,0,P|347:188|336:237,1,98.474998046608,2|0,3:2|0:0,0:0:0:0:
271,273,80755,1,2,0:0:0:0:
259,262,80840,2,0,P|271:309|283:357,1,98.474998046608,8|2,0:1|0:0,0:0:0:0:
4,234,81181,6,0,P|65:215|176:192,1,147.712497069912,2|0,3:2|0:0,0:0:0:0:
72,129,81522,2,0,P|15:117|-24:146,1,98.474998046608,8|0,0:1|0:0,0:0:0:0:
107,307,81863,1,2,3:2:0:0:
246,151,82033,5,0,3:2:0:0:
246,151,82119,1,0,3:2:0:0:
246,151,82204,2,0,L|266:84,1,49.237499023304,8|0,0:1|3:2,0:0:0:0:
363,260,82374,2,0,L|385:303,1,49.237499023304,0|0,3:2|3:2,0:0:0:0:
463,86,82545,5,2,3:2:0:0:
463,86,82886,5,0,3:2:0:0:
463,86,83227,5,0,3:2:0:0:
416,168,83397,1,8,0:1:0:0:
307,40,83567,2,0,P|358:47|387:79,1,87.7499973220826,8|0,0:1|0:0,0:0:0:0:
416,168,83908,6,0,P|401:230|400:274,1,87.7499973220826,6|2,3:2|0:0,0:0:0:0:
364,361,84249,1,10,0:1:0:0:
282,284,84420,1,2,0:0:0:0:
198,337,84590,2,0,P|151:347|103:358,2,87.7499973220826,2|2|8,3:2|0:0|0:1,0:0:0:0:
95,273,85102,6,0,P|80:230|90:183,1,87.7499973220826,2|0,0:0|3:2,0:0:0:0:
203,121,85442,2,0,P|189:177|186:218,1,87.7499973220826,2|10,0:0|0:1,0:0:0:0:
141,42,85783,1,2,0:0:0:0:
278,83,85954,2,0,P|313:39|341:4,1,87.7499973220826,2|2,3:2|0:0,0:0:0:0:
475,158,86295,1,10,0:1:0:0:
298,187,86465,1,2,0:0:0:0:
373,325,86636,5,2,3:2:0:0:
373,325,86806,2,0,P|420:313|460:303,1,87.7499973220826,2|10,0:0|0:1,0:0:0:0:
272,278,87147,1,2,0:0:0:0:
272,278,87232,1,2,0:0:0:0:
272,278,87317,2,0,P|291:332|299:367,1,87.7499973220826,2|2,3:2|0:0,0:0:0:0:
298,187,87658,1,8,0:1:0:0:
193,316,87829,6,0,B|87:322|151:257|18:271,1,175.499994644165,2|10,0:0|0:3,0:0:0:0:
1,179,88340,1,10,0:1:0:0:
97,105,88511,1,10,0:3:0:0:
140,211,88681,1,2,3:2:0:0:
140,211,88852,1,10,0:3:0:0:
30,269,89022,2,0,P|26:221|15:174,1,87.7499973220826,10|10,0:1|0:1,0:0:0:0:
0,22,89363,5,2,3:2:0:0:
72,84,89533,1,2,0:0:0:0:
72,84,89704,2,0,P|125:96|168:111,1,87.7499973220826,10|2,0:1|0:0,0:0:0:0:
232,219,90045,1,2,3:2:0:0:
322,153,90215,2,0,P|349:105|350:62,1,87.7499973220826,2|8,0:0|0:1,0:0:0:0:
222,9,90556,6,0,P|234:63|244:117,1,87.7499973220826,2|0,0:0|3:2,0:0:0:0:
232,219,90897,2,0,P|170:237|136:229,1,87.7499973220826,2|10,0:0|0:1,0:0:0:0:
78,160,91238,1,2,0:0:0:0:
10,324,91408,1,2,3:2:0:0:
176,365,91579,1,2,0:0:0:0:
12,235,91749,2,0,P|0:178|-12:139,1,87.7499973220826,10|2,0:1|0:0,0:0:0:0:
90,18,92090,5,2,3:2:0:0:
165,168,92261,1,2,0:0:0:0:
165,168,92346,1,2,0:0:0:0:
165,168,92431,1,10,0:1:0:0:
308,99,92602,1,2,0:0:0:0:
308,99,92687,1,0,0:0:0:0:
308,99,92772,2,0,P|317:45|320:4,2,87.7499973220826,2|2|8,3:2|0:0|0:1,0:0:0:0:
249,241,93283,6,0,P|304:267|336:293,1,87.7499973220826,2|8,0:0|0:1,0:0:0:0:
421,381,93624,1,10,0:3:0:0:
501,213,93795,2,0,P|489:267|484:315,1,87.7499973220826,10|10,0:1|0:3,0:0:0:0:
393,200,94136,2,0,P|379:145|360:107,1,87.7499973220826,10|8,0:1|0:3,0:0:0:0:
223,3,94477,1,10,0:1:0:0:
220,9,94562,1,8,0:3:0:0:
217,14,94647,1,8,0:3:0:0:
215,20,94732,1,8,0:3:0:0:
223,41,94817,6,0,P|180:32|140:25,1,71.5000021820069,6|2,0:0|0:0,0:0:0:0:
76,61,95045,1,2,0:0:0:0:
179,127,95158,2,0,B|201:185|208:190|208:190|200:197|175:280,1,143.000004364014,2|0,3:2|0:0,0:0:0:0:
120,313,95499,1,2,3:2:0:0:
44,273,95613,2,0,P|32:235|18:193,1,71.5000021820069,2|2,0:0|0:0,0:0:0:0:
64,384,95840,6,0,B|127:360|127:360|133:355|133:355|225:329,1,143.000004364014,2|0,3:2|0:0,0:0:0:0:
286,302,96181,2,0,B|280:311|280:311|279:326|267:383,2,71.5000021820069,2|2|2,3:2|0:0|0:0,0:0:0:0:
398,171,96522,2,0,B|392:162|392:162|391:147|379:90,2,71.5000021820069,2|0|2,3:2|0:0|0:0,0:0:0:0:
408,266,96863,2,0,B|344:242|344:242|339:237|339:237|247:211,1,143.000004364014,2|2,3:2|0:0,0:0:0:0:
134,243,97204,2,0,P|82:188|97:114,1,143.000004364014,2|0,3:2|0:0,0:0:0:0:
136,52,97545,6,0,P|84:41|48:32,1,71.5000021820069,2|2,3:2|0:0,0:0:0:0:
164,160,97772,1,2,0:0:0:0:
224,101,97886,2,0,B|286:92|286:92|291:97|291:97|378:127,1,143.000004364014,2|0,3:2|0:0,0:0:0:0:
413,54,98227,2,0,P|380:42|343:30,1,71.5000021820069,2|2,3:2|0:0,0:0:0:0:
396,202,98454,1,2,0:0:0:0:
469,144,98567,2,0,B|499:202|499:202|456:286,1,143.000004364014,2|0,3:2|0:0,0:0:0:0:
441,359,98908,5,6,0:0:0:0:
313,184,99079,1,2,0:0:0:0:
313,184,99164,1,2,0:0:0:0:
313,184,99249,1,8,0:0:0:0:
175,330,99420,1,2,0:0:0:0:
175,330,99505,1,0,0:0:0:0:
175,330,99590,6,0,L|108:344,1,48.75,2|0,3:0|0:0,0:0:0:0:
13,187,99761,2,0,L|63:195,1,48.75,10|2,0:2|0:0,0:0:0:0:
15,357,99931,6,0,L|34:283,1,48.75,8|2,0:0|0:0,0:0:0:0:
175,232,100102,2,0,L|158:162,1,48.75,2|0,0:0|0:0,0:0:0:0:
88,17,100272,6,0,B|83:47|83:47|83:56|83:56|75:108,1,71.5000021820069,6|2,0:0|0:0,0:0:0:0:
4,42,100499,1,2,0:0:0:0:
158,90,100613,2,0,B|198:87|235:79|235:79|241:84|297:104,1,143.000004364014,2|0,3:2|0:0,0:0:0:0:
346,175,100954,1,2,3:2:0:0:
283,236,101067,2,0,B|265:222|265:222|257:202|251:163,1,71.5000021820069,2|2,0:0|0:0,0:0:0:0:
463,116,101295,2,0,P|449:207|439:291,1,143.000004364014,2|0,3:2|0:0,0:0:0:0:
436,342,101636,6,0,B|457:347|457:347|516:313,2,71.5000021820069,2|2|2,3:2|0:0|0:0,0:0:0:0:
283,236,101977,2,0,B|262:231|262:231|203:265,2,71.5000021820069,2|2|0,3:2|0:0|0:0,0:0:0:0:
324,381,102317,1,2,3:2:0:0:
352,302,102431,2,0,P|359:264|370:221,1,71.5000021820069,2|2,0:0|0:0,0:0:0:0:
466,44,102658,2,0,P|385:57|361:151,1,143.000004364014,2|0,3:2|0:0,0:0:0:0:
415,166,102999,6,0,B|348:151|348:151|345:146|345:146|251:126,1,143.000004364014,2|2,3:2|0:0,0:0:0:0:
143,38,103340,2,0,B|101:96|101:96|141:178,1,143.000004364014,2|2,3:2|0:0,0:0:0:0:
208,105,103681,2,0,B|216:86|216:86|213:77|213:77|229:20,2,71.5000021820069,2|2|2,3:2|0:0|0:0,0:0:0:0:
49,197,104022,2,0,B|54:225|54:225|60:230|70:282,2,71.5000021820069,2|2|2,3:2|0:0|0:0,0:0:0:0:
18,329,104363,5,6,0:0:0:0:
198,218,104533,1,8,0:3:0:0:
91,384,104704,5,2,3:0:0:0:
132,160,104874,1,10,0:3:0:0:
132,160,104959,1,2,0:0:0:0:
132,160,105045,6,0,L|122:106,1,53.6250016365052,2|0,3:0|0:0,0:0:0:0:
279,245,105215,2,0,L|266:300,1,53.6250016365052,10|0,0:3|0:0,0:0:0:0:
91,384,105386,5,10,0:3:0:0:
91,384,105471,1,8,0:3:0:0:
91,384,105556,1,8,0:3:0:0:
91,384,105641,1,8,0:3:0:0:
91,384,105727,1,2,0:0:0:0:
120,28,107090,6,0,P|198:18|251:134,1,196.949996093216,6|10,3:2|0:1,0:0:0:0:
256,107,107602,1,2,0:0:0:0:
188,164,107772,2,0,P|136:176|80:193,1,98.474998046608,2|0,3:2|0:0,0:0:0:0:
327,53,108113,2,0,P|379:41|435:24,1,98.474998046608,10|0,0:1|0:0,0:0:0:0:
360,270,108454,6,0,B|269:249|269:249|267:235|267:235|342:162,1,196.949996093216,2|10,3:2|0:1,0:0:0:0:
331,172,108965,1,2,0:0:0:0:
421,205,109136,2,0,P|428:156|440:108,1,98.474998046608,2|0,3:2|0:0,0:0:0:0:
276,19,109477,2,0,P|268:67|256:115,1,98.474998046608,10|0,0:1|0:0,0:0:0:0:
144,276,109817,6,0,P|72:268|59:144,1,196.949996093216,2|10,3:2|0:1,0:0:0:0:
46,160,110329,1,2,0:0:0:0:
105,83,110499,2,0,P|53:70|11:54,1,98.474998046608,2|0,3:2|0:0,0:0:0:0:
208,220,110840,2,0,P|254:202|301:191,1,98.474998046608,10|0,0:1|0:0,0:0:0:0:
472,26,111181,6,0,B|447:83|451:174|451:174|436:147|411:130,1,196.949996093216,2|10,3:2|0:1,0:0:0:0:
421,138,111692,1,2,0:0:0:0:
282,84,111863,2,0,P|318:53|366:51,1,98.474998046608,2|10,3:2|0:1,0:0:0:0:
462,221,112204,1,10,0:1:0:0:
286,316,112374,1,10,0:1:0:0:
286,316,112459,1,10,0:1:0:0:
286,316,112545,6,0,P|294:263|313:164,1,147.712497069912,6|0,3:2|0:0,0:0:0:0:
226,172,112886,2,0,P|197:234|222:269,1,98.474998046608,10|2,0:1|0:0,0:0:0:0:
360,361,113227,2,0,P|412:346|475:334,1,98.474998046608,2|0,3:2|0:0,0:0:0:0:
209,339,113567,2,0,P|157:354|94:366,1,98.474998046608,10|0,0:1|0:0,0:0:0:0:
11,140,113908,6,0,P|76:130|117:221,1,147.712497069912,2|0,3:2|0:0,0:0:0:0:
96,272,114249,2,0,P|40:258|-8:251,1,98.474998046608,10|2,0:1|0:0,0:0:0:0:
186,117,114590,2,0,P|185:60|222:20,1,98.474998046608,2|0,3:2|0:0,0:0:0:0:
370,99,114931,2,0,P|371:156|334:196,1,98.474998046608,10|0,0:1|0:0,0:0:0:0:
443,370,115272,6,0,P|391:353|274:327,1,147.712497069912,2|0,3:2|0:0,0:0:0:0:
208,377,115613,2,0,P|165:336|178:281,1,98.474998046608,10|2,0:1|0:0,0:0:0:0:
16,60,115954,2,0,P|37:128|41:165,1,98.474998046608,2|0,3:2|0:0,0:0:0:0:
216,147,116295,2,0,P|195:79|191:42,1,98.474998046608,10|0,0:1|0:0,0:0:0:0:
3,251,116636,5,2,3:2:0:0:
192,53,116806,1,0,3:2:0:0:
240,336,116977,1,2,3:2:0:0:
40,154,117147,1,0,3:2:0:0:
436,39,117317,5,2,3:2:0:0:
426,74,117403,1,0,3:2:0:0:
418,110,117488,1,2,3:2:0:0:
412,147,117573,1,0,3:2:0:0:
408,183,117658,1,0,3:1:0:0:
404,219,117744,1,0,3:2:0:0:
398,256,117829,1,0,3:1:0:0:
390,292,117914,1,0,3:2:0:0:
380,327,117999,6,0,P|309:288|174:250,1,190.124991296769,6|0,3:2|0:0,0:0:0:0:
90,293,118340,1,10,0:0:0:0:
280,192,118511,2,0,P|312:155|301:67,1,107.25000327301,2|0,0:0|3:2,0:0:0:0:
23,27,118852,5,2,0:0:0:0:
102,202,119022,1,10,0:0:0:0:
226,47,119192,2,0,P|165:65|111:74,1,107.25000327301,2|0,0:0|3:2,0:0:0:0:
295,302,119533,1,2,0:0:0:0:
339,268,119619,1,2,0:0:0:0:
395,267,119704,1,10,0:0:0:0:
428,303,119789,1,2,0:0:0:0:
431,341,119874,1,2,0:0:0:0:
416,361,119959,1,2,0:0:0:0:
398,367,120045,6,0,L|406:304,1,53.6250016365052,2|0,3:2|0:0,0:0:0:0:
512,209,120215,2,0,L|504:272,1,53.6250016365052,2|0,0:0|0:0,0:0:0:0:
346,168,120386,2,0,L|339:114,1,53.6250016365052,10|2,0:0|0:0,0:0:0:0:
493,12,120556,2,0,P|466:70|440:130,1,107.25000327301,2|2,0:0|3:2,0:0:0:0:
279,269,120897,5,2,0:0:0:0:
146,101,121067,1,10,0:0:0:0:
49,270,121238,2,0,P|126:244|194:230,1,107.25000327301,2|2,0:0|3:2,0:0:0:0:
346,38,121579,5,2,0:0:0:0:
279,269,121749,1,10,0:0:0:0:
71,139,121920,2,0,P|46:100|71:27,1,107.25000327301,2|2,0:0|3:2,0:0:0:0:
407,211,122261,5,2,0:0:0:0:
171,109,122431,1,10,0:0:0:0:
171,109,122516,1,2,0:0:0:0:
171,109,122602,1,0,0:0:0:0:
249,376,122772,5,2,3:2:0:0:
353,145,122942,2,0,P|361:103|366:74,1,53.6250016365052,10|10,0:0|0:0,0:0:0:0:
197,265,123113,1,10,0:0:0:0:
157,271,123198,1,0,0:0:0:0:
117,279,123283,1,2,0:0:0:0:
78,288,123369,1,0,0:0:0:0:
39,298,123454,6,0,P|6:233|-14:192,1,107.25000327301,6|2,3:2|0:0,0:0:0:0:
183,34,123795,2,0,P|170:73|167:98,3,53.6250016365052,10|2|2|2,0:0|0:0|0:0|0:0,0:0:0:0:
123,174,124136,5,2,3:2:0:0:
159,189,124221,1,2,0:0:0:0:
199,185,124306,1,2,0:0:0:0:
231,162,124391,1,2,0:0:0:0:
249,126,124477,1,10,0:0:0:0:
285,111,124562,1,2,0:0:0:0:
325,115,124647,1,2,0:0:0:0:
357,138,124732,1,2,0:0:0:0:
375,174,124817,6,0,P|362:212|356:238,3,53.6250016365052,2|0|2|0,3:2|0:0|0:0|0:0,0:0:0:0:
423,295,125158,2,0,P|430:269|440:244,3,53.6250016365052,10|2|2|2,0:0|0:0|0:0|0:0,0:0:0:0:
273,252,125499,6,0,P|283:278|290:304,3,53.6250016365052,0|2|2|2,3:2|0:0|0:0|0:0,0:0:0:0:
221,380,125840,2,0,P|213:354|204:328,3,53.6250016365052,10|2|2|2,0:0|0:0|0:0|0:0,0:0:0:0:
124,288,126181,5,6,3:2:0:0:
95,250,126266,1,0,0:0:0:0:
96,202,126352,1,2,0:0:0:0:
125,165,126437,1,2,0:0:0:0:
171,154,126522,1,10,0:0:0:0:
217,143,126607,1,2,0:0:0:0:
246,106,126692,1,2,0:0:0:0:
247,58,126778,1,2,0:0:0:0:
218,20,126863,6,0,P|180:13|145:6,3,53.6250016365052,10|2|2|2,0:0|0:0|0:0|0:0,0:0:0:0:
282,204,127204,1,10,0:0:0:0:
331,192,127289,1,2,0:0:0:0:
381,183,127374,1,2,3:0:0:0:
432,175,127459,1,2,3:0:0:0:
482,169,127545,1,2,3:0:0:0:
256,192,127630,12,2,128567,0:0:0:0:
482,169,128908,6,0,P|454:92|361:106,1,175.499994644165,6|0,0:0|0:0,0:0:0:0:
284,247,129249,2,0,P|225:255|166:271,1,98.474998046608,10|0,0:0|0:0,0:0:0:0:
9,178,129590,1,2,3:2:0:0:
151,345,129761,1,2,0:0:0:0:
247,154,129931,1,10,0:0:0:0:
151,345,130102,1,2,0:0:0:0:
73,120,130272,6,0,P|58:69|73:17,1,98.474998046608,2|2,3:2|0:0,0:0:0:0:
247,251,130613,2,0,P|256:298|241:345,1,98.474998046608,10|2,0:0|0:0,0:0:0:0:
0,263,130954,2,0,P|64:236|180:212,1,147.712497069912,2|0,3:2|0:0,0:0:0:0:
190,144,131295,1,10,0:0:0:0:
95,318,131465,1,2,0:0:0:0:
333,258,131636,6,0,P|355:213|286:123,1,147.712497069912,2|0,3:2|0:0,0:0:0:0:
312,42,131977,2,0,P|250:37|208:71,1,98.474998046608,10|2,0:0|0:0,0:0:0:0:
242,233,132317,1,2,3:2:0:0:
436,121,132488,1,2,0:0:0:0:
242,233,132658,1,10,0:0:0:0:
419,371,132829,5,2,0:0:0:0:
419,371,132914,1,2,0:0:0:0:
419,371,132999,1,2,3:2:0:0:
305,165,133170,1,2,0:0:0:0:
305,165,133255,1,2,0:0:0:0:
305,165,133340,1,10,0:0:0:0:
493,272,133511,6,0,P|483:321|480:340,1,49.237499023304,2|0,0:0|0:0,0:0:0:0:
311,310,133681,1,2,3:2:0:0:
287,302,133766,1,0,0:0:0:0:
263,296,133852,1,10,0:0:0:0:
239,291,133937,1,0,0:0:0:0:
215,287,134022,2,0,P|165:302|112:313,1,102.374996875763,10|0,0:0|0:0,0:0:0:0:
160,384,134363,6,0,P|170:313|200:180,1,175.499994644165,2|0,3:2|0:0,0:0:0:0:
125,154,134704,2,0,P|76:197|81:246,1,98.474998046608,8|2,0:0|0:0,0:0:0:0:
315,185,135045,1,2,3:2:0:0:
254,9,135215,1,2,0:0:0:0:
416,58,135386,2,0,P|398:120|391:179,1,98.474998046608,10|2,0:0|0:0,0:0:0:0:
171,52,135727,5,2,3:2:0:0:
254,9,135897,1,2,0:0:0:0:
239,139,136067,2,0,P|166:129|107:126,1,98.474998046608,10|2,0:0|0:0,0:0:0:0:
20,338,136408,6,0,P|110:342|133:272,1,175.499994644165,2|0,3:2|0:0,0:0:0:0:
61,162,136749,2,0,B|26:183|26:183|50:273,1,116.999996429443,10|0,0:0|0:0,0:0:0:0:
227,342,137090,6,0,P|305:324|404:310,1,175.499994644165,2|0,3:2|0:0,0:0:0:0:
472,357,137431,2,0,P|510:326|512:252,1,98.474998046608,10|0,0:0|0:0,0:0:0:0:
282,51,137772,1,2,3:2:0:0:
361,103,137942,1,0,0:0:0:0:
361,103,138028,1,0,0:0:0:0:
361,103,138113,2,0,P|352:152|347:207,1,98.474998046608,8|2,0:0|0:0,0:0:0:0:
399,263,138369,1,0,0:0:0:0:
405,275,138454,5,0,3:2:0:0:
235,157,138624,1,2,0:0:0:0:
174,366,138795,1,10,0:0:0:0:
235,157,138965,1,2,0:0:0:0:
365,354,139136,6,0,P|305:342|257:335,1,98.474998046608,2|10,3:2|0:0,0:0:0:0:
33,223,139477,2,0,P|43:247|51:273,1,49.237499023304,10|0,0:0|0:0,0:0:0:0:
202,73,139647,1,2,0:0:0:0:
202,73,139732,1,0,0:0:0:0:
202,73,139817,6,0,P|268:58|382:14,1,175.499994644165,6|0,0:0|0:0,0:0:0:0:
454,44,140158,1,10,0:0:0:0:
474,87,140244,1,2,0:0:0:0:
467,135,140329,1,2,0:0:0:0:
434,171,140414,1,2,0:0:0:0:
387,182,140499,6,0,L|374:129,1,49.237499023304,0|0,3:2|0:0,0:0:0:0:
497,303,140670,2,0,L|485:350,1,49.237499023304,2|0,0:0|0:0,0:0:0:0:
283,302,140840,2,0,P|205:300|176:201,1,175.499994644165,10|0,0:0|0:0,0:0:0:0:
181,208,141181,1,2,3:2:0:0:
20,76,141352,6,0,P|34:121|41:150,1,58.4999982147217,2|2,0:0|0:0,0:0:0:0:
228,139,141522,1,10,0:0:0:0:
71,295,141692,6,0,P|85:250|92:221,1,58.4999982147217,2|0,0:0|0:0,0:0:0:0:
301,186,141863,1,2,3:2:0:0:
106,50,142033,5,2,0:0:0:0:
389,153,142204,2,0,P|379:200|376:259,1,98.474998046608,10|0,0:0|0:0,0:0:0:0:
143,355,142545,5,2,3:2:0:0:
228,139,142715,1,2,0:0:0:0:
365,331,142886,1,10,0:0:0:0:
159,202,143056,1,2,0:0:0:0:
404,98,143227,2,0,P|332:91|270:36,1,147.712497069912,2|0,3:2|0:0,0:0:0:0:
189,50,143567,1,10,0:0:0:0:
432,5,143738,6,0,P|415:75|400:212,1,196.949996093216,2|2,0:0|0:0,0:0:0:0:
283,367,144249,1,10,0:0:0:0:
462,261,144420,1,2,0:0:0:0:
228,139,144590,5,2,3:2:0:0:
365,331,144761,1,8,0:0:0:0:
508,72,144931,2,0,P|467:72|429:122,1,102.374996875763,8|0,0:0|0:0,0:0:0:0:
367,203,145272,5,2,3:2:0:0:
329,219,145357,1,2,0:0:0:0:
289,228,145442,1,2,0:0:0:0:
250,227,145528,1,2,0:0:0:0:
211,208,145613,1,10,0:0:0:0:
179,171,145698,1,2,0:0:0:0:
181,123,145783,1,2,0:0:0:0:
215,90,145869,1,2,0:0:0:0:
263,89,145954,6,0,L|270:144,1,49.237499023304,2|2,3:2|0:0,0:0:0:0:
137,263,146124,2,0,L|143:214,1,49.237499023304,2|0,0:0|0:0,0:0:0:0:
366,314,146295,2,0,P|283:339|199:369,1,175.499994644165,10|0,0:0|0:0,0:0:0:0:
114,346,146636,5,2,3:2:0:0:
67,357,146721,1,2,0:0:0:0:
22,338,146806,1,2,0:0:0:0:
0,295,146891,1,2,0:0:0:0:
6,247,146977,1,10,0:0:0:0:
36,202,147062,1,0,0:0:0:0:
81,168,147147,1,2,0:0:0:0:
99,113,147232,1,2,0:0:0:0:
78,62,147317,6,0,P|48:57|10:49,1,58.4999982147217,2|0,3:2|0:0,0:0:0:0:
168,215,147488,2,0,P|197:209|240:203,1,58.4999982147217,2|0,0:0|0:0,0:0:0:0:
388,107,147658,2,0,P|392:57|400:9,1,98.474998046608,10|0,0:0|0:0,0:0:0:0:
452,206,147914,1,0,0:0:0:0:
461,198,147999,6,0,P|393:133|295:183,1,175.499994644165,0|0,3:2|0:0,0:0:0:0:
300,278,148340,2,0,P|313:349|315:394,1,98.474998046608,10|0,0:0|0:0,0:0:0:0:
90,174,148681,2,0,P|74:129|93:77,1,98.474998046608,2|0,3:2|0:0,0:0:0:0:
299,24,149022,1,10,0:0:0:0:
168,215,149192,1,0,0:0:0:0:
28,13,149363,5,2,3:2:0:0:
231,144,149533,1,0,3:2:0:0:
4,247,149704,1,8,0:0:0:0:
183,67,149874,1,0,3:2:0:0:
230,336,150045,5,0,3:2:0:0:
254,340,150130,1,0,3:0:0:0:
278,346,150215,1,8,0:0:0:0:
301,353,150300,1,0,3:0:0:0:
325,360,150386,1,8,0:0:0:0:
349,367,150471,1,0,3:0:0:0:
372,374,150556,1,0,3:2:0:0:
396,380,150641,1,0,3:2:0:0:
421,383,150727,6,0,P|438:321|464:255,1,98.474998046608,6|0,3:2|0:0,0:0:0:0:
369,235,151067,1,8,0:1:0:0:
369,235,151238,1,2,0:0:0:0:
441,91,151408,5,2,3:2:0:0:
289,261,151579,1,0,0:0:0:0:
289,261,151664,1,2,0:0:0:0:
289,261,151749,1,8,0:1:0:0:
233,14,151920,1,2,0:0:0:0:
431,177,152090,5,2,3:2:0:0:
182,100,152261,1,0,0:0:0:0:
182,100,152346,1,2,0:0:0:0:
182,100,152431,1,8,0:1:0:0:
266,344,152602,1,2,0:0:0:0:
441,91,152772,6,0,P|381:107|326:115,1,98.474998046608,2|0,3:2|0:0,0:0:0:0:
309,186,153028,1,2,0:0:0:0:
317,198,153113,2,0,P|257:182|202:174,1,98.474998046608,8|2,0:1|0:0,0:0:0:0:
2,40,153454,5,6,0:0:0:0:
182,100,153624,1,0,0:0:0:0:
21,221,153795,1,8,0:1:0:0:
79,112,153965,1,2,0:0:0:0:
246,261,154136,5,2,3:2:0:0:
0,320,154306,1,0,0:0:0:0:
0,320,154391,1,2,0:0:0:0:
0,320,154477,1,8,0:1:0:0:
182,100,154647,1,2,0:0:0:0:
168,379,154817,5,2,3:2:0:0:
79,112,154988,1,0,0:0:0:0:
79,112,155073,1,2,0:0:0:0:
79,112,155158,1,8,0:1:0:0:
328,243,155329,1,2,0:0:0:0:
96,337,155499,6,0,P|111:285|120:229,1,98.474998046608,2|0,3:2|0:0,0:0:0:0:
190,187,155755,1,2,0:0:0:0:
204,195,155840,2,0,P|189:143|180:87,1,98.474998046608,8|2,0:1|0:0,0:0:0:0:
403,23,156181,5,6,0:0:0:0:
328,243,156352,1,0,0:0:0:0:
512,125,156522,2,0,P|448:109|381:92,1,98.474998046608,8|2,0:1|0:0,0:0:0:0:
145,30,156863,5,2,3:2:0:0:
336,153,157033,1,0,0:0:0:0:
336,153,157119,1,2,0:0:0:0:
336,153,157204,1,8,0:1:0:0:
118,241,157374,1,2,0:0:0:0:
315,62,157545,5,2,3:2:0:0:
231,335,157715,1,0,0:0:0:0:
231,335,157800,1,2,0:0:0:0:
231,335,157886,1,8,0:1:0:0:
2,191,158056,1,2,0:0:0:0:
318,249,158227,6,0,P|329:184|342:128,1,98.474998046608,2|0,3:2|0:0,0:0:0:0:
247,108,158482,1,2,0:0:0:0:
237,117,158567,2,0,P|226:52|213:-4,1,98.474998046608,8|2,0:1|0:0,0:0:0:0:
31,317,158908,6,0,P|90:330|147:249,1,147.712497069912,2|0,3:2|0:0,0:0:0:0:
220,212,159249,2,0,P|162:185|119:160,1,98.474998046608,8|0,0:1|0:0,0:0:0:0:
275,371,159590,1,2,3:2:0:0:
427,251,159761,1,0,3:2:0:0:
427,251,159846,1,0,3:2:0:0:
427,251,159931,2,0,P|436:214|443:189,1,49.237499023304,8|0,0:1|3:2,0:0:0:0:
271,96,160102,2,0,P|277:119|282:143,1,49.237499023304,0|0,3:2|3:2,0:0:0:0:
380,342,160272,5,2,3:2:0:0:
380,342,160613,5,0,3:2:0:0:
380,342,160954,5,0,3:2:0:0:
275,371,161124,1,8,0:1:0:0:
263,212,161295,2,0,P|295:234|308:292,1,87.7499973220826,8|0,0:1|0:0,0:0:0:0:
275,371,161636,6,0,P|218:375|177:379,1,87.7499973220826,6|0,3:2|0:0,0:0:0:0:
97,320,161977,1,10,0:1:0:0:
0,362,162147,1,2,0:0:0:0:
0,362,162232,1,2,0:0:0:0:
0,362,162317,2,0,P|3:311|1:264,1,87.7499973220826,2|0,3:2|0:0,0:0:0:0:
98,187,162658,1,8,0:1:0:0:
7,92,162829,6,0,P|52:67|111:81,1,87.7499973220826,2|0,0:0|3:2,0:0:0:0:
171,1,163170,1,2,0:0:0:0:
237,100,163340,2,0,P|220:140|211:183,1,87.7499973220826,10|2,0:1|0:0,0:0:0:0:
143,287,163681,1,2,3:2:0:0:
237,347,163852,1,2,0:0:0:0:
237,347,163937,1,2,0:0:0:0:
237,347,164022,2,0,P|287:329|327:320,1,87.7499973220826,10|2,0:1|0:0,0:0:0:0:
478,275,164363,6,0,P|460:320|452:369,1,87.7499973220826,2|2,3:2|0:0,0:0:0:0:
379,208,164704,1,10,0:1:0:0:
445,137,164874,1,2,0:0:0:0:
445,137,164959,1,2,0:0:0:0:
445,137,165045,2,0,P|429:86|421:47,2,87.7499973220826,2|2|8,3:2|0:0|0:1,0:0:0:0:
330,81,165556,6,0,P|275:103|218:113,1,87.7499973220826,2|0,0:0|3:2,0:0:0:0:
176,51,165897,1,10,0:3:0:0:
83,125,166067,2,0,P|99:181|99:217,1,87.7499973220826,10|10,0:1|0:3,0:0:0:0:
40,346,166408,1,2,3:2:0:0:
131,322,166579,1,10,0:3:0:0:
131,322,166664,1,0,0:0:0:0:
131,322,166749,2,0,P|183:342|218:350,1,87.7499973220826,10|10,0:1|0:1,0:0:0:0:
330,270,167090,5,2,3:2:0:0:
418,320,167261,1,2,0:0:0:0:
418,320,167346,1,2,0:0:0:0:
418,320,167431,2,0,P|430:264|445:223,1,87.7499973220826,10|2,0:1|0:0,0:0:0:0:
352,80,167772,2,0,P|365:134|377:187,2,87.7499973220826,2|2|8,3:2|0:0|0:1,0:0:0:0:
265,160,168283,6,0,P|211:169|152:185,1,87.7499973220826,2|0,0:0|3:2,0:0:0:0:
102,100,168624,1,2,0:0:0:0:
23,146,168795,2,0,P|15:103|5:61,1,87.7499973220826,10|2,0:1|0:0,0:0:0:0:
134,26,169136,2,0,P|123:68|115:111,1,87.7499973220826,2|2,3:2|0:0,0:0:0:0:
17,240,169477,1,10,0:1:0:0:
156,357,169647,1,2,0:0:0:0:
206,179,169817,5,2,3:2:0:0:
104,278,169988,2,0,L|126:172,1,87.7499973220826,2|10,0:0|0:1,0:0:0:0:
251,100,170329,1,2,0:0:0:0:
251,100,170414,1,2,0:0:0:0:
251,100,170499,2,0,P|306:123|354:135,1,87.7499973220826,2|2,3:2|0:0,0:0:0:0:
357,241,170840,1,8,0:1:0:0:
457,132,171011,6,0,P|472:76|487:35,1,87.7499973220826,2|8,0:0|0:1,0:0:0:0:
276,202,171352,1,10,0:3:0:0:
439,294,171522,2,0,P|454:350|469:391,1,87.7499973220826,10|10,0:1|0:3,0:0:0:0:
164,347,171863,5,10,0:1:0:0:
357,241,172033,1,8,0:3:0:0:
357,241,172119,1,0,3:2:0:0:
357,241,172204,1,10,0:1:0:0:
189,89,172374,1,8,0:3:0:0:
