osu file format v14

[General]
AudioFilename: audio.mp3
AudioLeadIn: 0
PreviewTime: 56039
Countdown: 0
SampleSet: Soft
StackLeniency: 0.7
Mode: 0
LetterboxInBreaks: 0
WidescreenStoryboard: 1

[Editor]
Bookmarks: 6181,27999,44363,56636,78454,94817,107090,117999,128908,150727
DistanceSpacing: 1.2
BeatDivisor: 4
GridSize: 4
TimelineZoom: 1.7

[Metadata]
Title:Itsuka Otona ni Nareru to Ii ne.
TitleUnicode:いつかオトナになれるといいね。
Artist:TUYU
ArtistUnicode:ツユ
Creator:Len
Version:Narcissu's Insane
Source:
Tags:pop jpop j-pop rock jrock j-rock japanese AzyuN すこやかツカサ 礼衣 ぷす ミロ I Hope You Can Be an Adult Someday iine pnky Lanzhu Erisu fast yf_bmp LeeGod Abelia moly Narcissu Athanasia-
BeatmapID:3630308
BeatmapSetID:1773106

[Difficulty]
HPDrainRate:5
CircleSize:4
OverallDifficulty:8
ApproachRate:9
SliderMultiplier:0.999999999999999
SliderTickRate:1

[Events]
//Background and Video events
0,0,"1920.jpg",0,0
Video,345,"1280.mp4"
//Break Periods
//Storyboard Layer 0 (Background)
//Storyboard Layer 1 (Fail)
//Storyboard Layer 2 (Pass)
//Storyboard Layer 3 (Foreground)
//Storyboard Layer 4 (Overlay)
//Storyboard Sound Samples

[TimingPoints]
727,340.909090909091,4,2,1,75,1,0
727,-71.4285714285714,4,2,1,75,0,0
6181,-62.5,4,2,1,90,0,1
27999,-62.5,4,2,1,75,0,0
33454,-62.5,4,2,1,70,0,0
44363,-62.5,4,2,1,60,0,0
48454,-62.5,4,2,1,75,0,0
49817,-62.5,4,2,1,60,0,0
53908,-62.5,4,2,1,75,0,0
55272,-62.5,4,2,1,50,0,0
56636,-60.6060606060606,4,2,1,90,0,1
78454,-60.6060606060606,4,2,1,75,0,0
83908,-60.6060606060606,4,2,1,70,0,0
94817,-60.6060606060606,4,2,1,60,0,0
98908,-60.6060606060606,4,2,1,75,0,0
100271,-60.6060606060606,4,2,1,60,0,0
104362,-60.6060606060606,4,2,1,75,0,0
105726,-60.6060606060606,4,2,1,50,0,0
107090,-60.6060606060606,4,2,1,75,0,0
117999,-60.6060606060606,4,2,1,85,0,0
127545,-83.3333333333333,4,2,1,50,0,0
128397,-83.3333333333333,4,2,1,70,0,0
128908,-58.8235294117647,4,2,1,90,0,1
150727,-62.5,4,2,1,65,0,0
161636,-58.8235294117647,4,2,1,70,0,0

[Colours]
Combo1 : 255,223,128
Combo2 : 172,172,215
Combo3 : 255,157,157

[HitObjects]
236,120,727,6,0,P|312:124|340:64,1,139.999995727539,6|10,3:2|0:1,0:0:0:0:
420,100,1238,1,2,0:0:0:0:
420,100,1408,2,0,L|428:172,1,69.9999978637695,2|0,3:2|0:0,0:0:0:0:
500,70,1749,2,0,L|507:139,1,69.9999978637695,10|0,0:1|0:0,0:0:0:0:
424,296,2090,6,0,B|392:276|392:276|272:292,1,139.999995727539,2|10,3:2|0:1,0:0:0:0:
208,304,2602,1,2,0:0:0:0:
208,304,2772,2,0,P|176:332|132:348,1,69.9999978637695,2|0,3:2|0:0,0:0:0:0:
63,265,3113,2,0,P|98:267|132:260,1,69.9999978637695,10|0,0:1|0:0,0:0:0:0:
102,56,3454,6,0,P|75:120|87:188,1,139.999995727539,2|10,3:2|0:1,0:0:0:0:
204,136,3965,1,2,0:0:0:0:
320,84,4136,2,0,B|324:44|324:44|308:16,1,69.9999978637695,2|0,3:2|0:0,0:0:0:0:
224,156,4477,2,0,B|209:181|209:181|213:221,1,69.9999978637695,10|0,0:1|0:0,0:0:0:0:
452,252,4817,5,2,3:2:0:0:
312,200,4988,1,0,3:2:0:0:
456,260,5158,1,2,3:2:0:0:
308,208,5329,1,2,3:2:0:0:
400,184,5499,1,2,3:2:0:0:
412,176,5584,1,0,3:2:0:0:
424,168,5670,1,2,3:2:0:0:
436,160,5755,1,0,3:2:0:0:
448,152,5840,2,0,B|440:104|440:104|408:76,1,69.9999978637695,2|2,3:2|0:0,0:0:0:0:
236,128,6181,6,0,B|164:136|164:136|148:132|148:132|88:136,1,120,6|0,0:0|0:0,0:0:0:0:
117,134,6522,2,0,P|112:184|84:228,1,79.9999999999999,10|0,0:0|0:0,0:0:0:0:
0,56,6863,1,2,3:2:0:0:
16,152,7033,1,2,0:0:0:0:
116,112,7204,1,10,0:0:0:0:
0,248,7374,1,2,0:0:0:0:
0,248,7459,1,0,0:0:0:0:
0,248,7545,6,0,P|0:288|36:340,1,79.9999999999999,2|2,3:2|0:0,0:0:0:0:
56,336,7801,1,0,0:0:0:0:
56,336,7886,2,0,L|152:324,1,79.9999999999999,10|2,0:0|0:0,0:0:0:0:
292,305,8227,2,0,L|372:296,1,79.9999999999999,2|0,3:2|0:0,0:0:0:0:
208,261,8567,1,10,0:0:0:0:
208,261,8738,1,2,0:0:0:0:
388,272,8908,6,0,B|424:252|424:252|452:184|404:144,1,160,2|10,3:2|0:0,0:0:0:0:
316,196,9420,1,2,0:0:0:0:
384,24,9590,1,2,3:2:0:0:
240,124,9761,1,2,0:0:0:0:
380,40,9931,1,10,0:0:0:0:
228,104,10102,1,2,0:0:0:0:
224,108,10187,1,2,0:0:0:0:
220,112,10272,6,0,L|132:108,1,79.9999999999999,2|2,3:2|0:0,0:0:0:0:
168,32,10528,1,2,0:0:0:0:
172,28,10613,2,0,L|260:24,1,79.9999999999999,10|2,0:0|0:0,0:0:0:0:
492,136,10954,5,2,3:2:0:0:
304,172,11124,1,10,0:0:0:0:
384,24,11295,2,0,B|396:52|396:52|388:124,1,79.9999999999999,10|0,0:0|0:0,0:0:0:0:
496,244,11636,6,0,B|443:199|379:235|379:235|363:267,1,160,2|8,3:2|0:0,0:0:0:0:
324,352,12147,1,0,0:0:0:0:
324,352,12232,1,0,0:0:0:0:
324,352,12317,1,2,3:2:0:0:
244,300,12488,1,2,0:0:0:0:
172,366,12658,1,10,0:0:0:0:
91,321,12829,1,2,0:0:0:0:
87,325,12999,5,2,3:2:0:0:
168,370,13170,1,2,0:0:0:0:
240,304,13340,1,10,0:0:0:0:
199,217,13511,1,2,0:0:0:0:
103,230,13681,2,0,P|64:224|12:184,1,79.9999999999999,2|0,3:2|0:0,0:0:0:0:
272,292,14022,2,0,P|311:286|363:246,1,79.9999999999999,10|0,0:0|0:0,0:0:0:0:
100,136,14363,6,0,P|79:101|73:62,1,79.9999999999999,2|0,3:2|0:0,0:0:0:0:
264,128,14704,2,0,P|257:167|237:201,1,79.9999999999999,10|0,0:0|0:0,0:0:0:0:
192,64,15045,2,0,P|224:40|262:30,1,79.9999999999999,2|0,3:2|0:0,0:0:0:0:
304,40,15300,1,0,0:0:0:0:
304,40,15386,1,8,0:0:0:0:
464,48,15556,6,0,P|494:105|464:200,1,160,2|2,0:0|0:0,0:0:0:0:
360,268,16067,1,10,0:0:0:0:
480,232,16238,1,2,0:0:0:0:
356,164,16408,1,2,3:2:0:0:
387,287,16579,1,10,0:0:0:0:
379,309,16664,1,2,0:0:0:0:
366,329,16749,1,10,0:0:0:0:
349,346,16834,1,0,0:0:0:0:
327,356,16920,1,2,0:0:0:0:
304,361,17005,1,0,0:0:0:0:
280,360,17090,6,0,P|212:326|124:362,1,160,6|10,0:0|0:0,0:0:0:0:
96,336,17516,1,2,0:0:0:0:
96,336,17602,2,0,L|88:280,1,40,2|2,0:0|0:0,0:0:0:0:
32,248,17772,1,0,3:2:0:0:
92,176,17942,1,2,0:0:0:0:
32,80,18113,2,0,L|20:-8,1,79.9999999999999,10|0,0:0|0:0,0:0:0:0:
168,96,18454,6,0,L|264:108,1,79.9999999999999,2|2,3:2|0:0,0:0:0:0:
272,140,18709,1,2,0:0:0:0:
272,140,18795,2,0,L|368:152,1,79.9999999999999,10|2,0:0|0:0,0:0:0:0:
416,32,19136,1,2,3:2:0:0:
324,56,19306,1,2,0:0:0:0:
464,140,19477,2,0,P|479:176|481:216,1,79.9999999999999,10|0,0:0|0:0,0:0:0:0:
344,336,19817,6,0,P|320:268|372:176,1,160,2|10,3:2|0:0,0:0:0:0:
440,324,20329,1,2,0:0:0:0:
280,260,20499,1,2,3:2:0:0:
268,268,20670,1,2,0:0:0:0:
188,320,20840,1,10,0:0:0:0:
176,328,21011,6,0,P|96:304|8:312,1,160,2|2,0:0|0:0,0:0:0:0:
48,200,21522,1,10,0:0:0:0:
144,188,21692,1,2,0:0:0:0:
12,68,21863,2,0,P|52:88|104:92,1,79.9999999999999,2|8,3:2|0:0,0:0:0:0:
184,88,22204,2,0,P|226:73|266:39,1,79.9999999999999,8|0,0:0|0:0,0:0:0:0:
444,104,22545,6,0,P|400:103|348:76,1,79.9999999999999,2|2,3:2|0:0,0:0:0:0:
332,108,22800,1,2,0:0:0:0:
332,108,22886,2,0,L|324:216,1,79.9999999999999,10|2,0:0|0:0,0:0:0:0:
468,232,23227,1,2,3:2:0:0:
468,232,23312,1,2,0:0:0:0:
468,232,23397,2,0,L|456:160,1,40,2|0,0:0|0:0,0:0:0:0:
400,276,23567,2,0,B|384:292|384:292|300:300,1,79.9999999999999,10|0,0:0|0:0,0:0:0:0:
208,232,23908,5,2,3:2:0:0:
208,232,24079,1,2,0:0:0:0:
80,256,24249,1,10,0:0:0:0:
80,256,24420,1,2,0:0:0:0:
52,136,24590,1,2,3:2:0:0:
52,136,24675,1,2,0:0:0:0:
52,136,24761,2,0,L|46:96,1,40,2|0,0:0|0:0,0:0:0:0:
128,160,24931,2,0,L|120:239,1,79.9999999999999,10|0,0:0|0:0,0:0:0:0:
136,64,25272,6,0,P|192:32|268:60,1,120,0|0,3:2|0:0,0:0:0:0:
244,41,25613,2,0,P|280:48|336:36,1,79.9999999999999,10|0,0:0|0:0,0:0:0:0:
332,135,25954,2,0,P|369:121|399:95,1,79.9999999999999,2|0,3:2|0:0,0:0:0:0:
494,107,26295,2,0,P|480:144|456:176,1,79.9999999999999,10|0,0:0|0:0,0:0:0:0:
240,176,26636,5,2,3:2:0:0:
288,340,26806,1,0,3:2:0:0:
452,208,26977,1,8,0:0:0:0:
436,304,27147,1,0,3:2:0:0:
347,263,27317,1,0,3:2:0:0:
327,251,27403,1,0,3:0:0:0:
304,244,27488,1,8,0:0:0:0:
280,243,27573,1,0,3:0:0:0:
257,247,27658,1,8,0:0:0:0:
235,258,27744,1,0,3:0:0:0:
217,273,27829,1,0,3:2:0:0:
202,292,27914,1,0,3:2:0:0:
193,314,27999,6,0,P|117:335|44:268,1,160,6|8,3:2|0:1,0:0:0:0:
88,132,28511,1,2,0:0:0:0:
88,132,28681,2,0,B|124:164|124:164|136:260,2,120,2|2|2,3:2|0:0|0:0,0:0:0:0:
52,32,29363,6,0,L|148:40,1,79.9999999999999,2|0,3:2|0:0,0:0:0:0:
180,104,29619,2,0,P|240:96|276:52,1,120,2|2,0:0|0:0,0:0:0:0:
484,72,30045,2,0,L|376:80,1,79.9999999999999,2|0,3:2|0:0,0:0:0:0:
376,40,30300,2,0,P|364:92|368:168,1,120,2|2,0:0|0:0,0:0:0:0:
424,292,30727,6,0,P|484:236|448:148,1,160,2|8,3:2|0:1,0:0:0:0:
352,188,31238,1,0,0:0:0:0:
352,188,31408,2,0,L|252:196,1,79.9999999999999,2|0,3:2|3:2,0:0:0:0:
269,206,31664,1,0,3:2:0:0:
267,217,31749,1,8,0:1:0:0:
265,229,31834,1,0,3:2:0:0:
262,241,31920,1,0,3:2:0:0:
260,253,32005,1,0,3:2:0:0:
258,265,32090,6,0,L|236:292,1,20,2|0,3:2|0:0,0:0:0:0:
176,216,32431,2,0,L|172:248,1,20,0|0,3:2|0:0,0:0:0:0:
92,248,32772,2,0,L|96:280,1,20,0|0,3:2|0:0,0:0:0:0:
8,232,33113,2,0,P|56:220|12:204,1,120,8|0,0:1|0:0,0:0:0:0:
18,198,33454,6,0,L|24:101,1,79.9999999999999,6|2,3:2|0:0,0:0:0:0:
120,64,33795,2,0,L|125:143,1,79.9999999999999,10|2,0:1|0:0,0:0:0:0:
212,184,34136,1,2,3:2:0:0:
212,184,34306,2,0,P|252:184|296:164,1,79.9999999999999,0|8,0:0|0:1,0:0:0:0:
496,123,34647,6,0,P|419:135|352:96,1,160,2|2,0:0|0:0,0:0:0:0:
324,4,35158,1,10,0:1:0:0:
272,152,35329,1,2,0:0:0:0:
440,176,35499,1,2,3:2:0:0:
352,216,35670,1,2,0:0:0:0:
444,184,35840,1,10,0:1:0:0:
356,224,36011,1,2,0:0:0:0:
448,332,36181,6,0,P|420:316|372:312,1,79.9999999999999,2|2,3:2|0:0,0:0:0:0:
280,336,36522,1,10,0:1:0:0:
212,268,36692,1,2,0:0:0:0:
212,268,36778,1,2,0:0:0:0:
212,268,36863,1,2,3:2:0:0:
62,339,37033,2,0,P|101:339|140:328,1,79.9999999999999,2|8,0:0|0:1,0:0:0:0:
64,136,37374,6,0,P|96:60|184:44,1,160,2|10,0:0|0:3,0:0:0:0:
320,96,37886,1,10,0:1:0:0:
156,128,38056,1,10,0:3:0:0:
284,16,38227,1,2,3:2:0:0:
264,156,38397,1,10,0:3:0:0:
276,28,38567,1,10,0:1:0:0:
256,168,38738,1,10,0:1:0:0:
260,172,38823,1,8,0:1:0:0:
264,176,38908,6,0,L|372:168,1,79.9999999999999,2|2,3:2|0:0,0:0:0:0:
380,188,39164,1,2,0:0:0:0:
380,188,39249,2,0,P|400:148|396:80,1,79.9999999999999,10|2,0:1|0:0,0:0:0:0:
476,52,39590,1,2,3:2:0:0:
476,52,39761,2,0,P|496:92|492:160,1,79.9999999999999,2|8,0:0|0:1,0:0:0:0:
324,56,40102,6,0,P|260:100|152:72,1,160,2|2,0:0|0:0,0:0:0:0:
56,124,40613,1,10,0:1:0:0:
184,72,40783,1,2,0:0:0:0:
216,220,40954,1,2,3:2:0:0:
120,204,41124,1,2,0:0:0:0:
204,228,41295,1,10,0:1:0:0:
108,212,41465,1,2,0:0:0:0:
80,328,41636,6,0,L|176:320,1,79.9999999999999,2|2,3:2|0:0,0:0:0:0:
256,316,41977,1,10,0:1:0:0:
304,232,42147,1,2,0:0:0:0:
304,232,42232,1,2,0:0:0:0:
304,232,42317,1,2,3:2:0:0:
422,343,42488,2,0,P|400:310|392:272,1,79.9999999999999,2|8,0:0|0:1,0:0:0:0:
498,57,42829,6,0,P|501:135|452:196,1,160,2|10,0:0|0:3,0:0:0:0:
288,212,43340,1,10,0:1:0:0:
248,52,43511,1,10,0:3:0:0:
396,96,43681,1,10,0:1:0:0:
396,96,43766,1,0,3:2:0:0:
396,96,43852,1,8,0:3:0:0:
200,144,44022,1,10,0:1:0:0:
196,136,44107,1,8,0:3:0:0:
168,120,44192,1,8,0:3:0:0:
164,112,44278,1,8,0:3:0:0:
136,96,44363,6,0,B|139:76|151:56|151:56|123:76|123:76|11:76,1,160,6|2,0:0|3:2,0:0:0:0:
292,92,45045,2,0,B|322:95|322:95|334:107|334:107|394:87|394:87|442:95,1,160,2|2,3:2|3:2,0:0:0:0:
144,208,45727,6,0,B|120:232|120:232|32:240|32:240|72:256,1,160,2|2,3:2|3:2,0:0:0:0:
312,200,46408,2,0,B|356:236|356:236|432:212|432:212|396:180,1,160,2|2,3:2|3:2,0:0:0:0:
196,316,47090,6,0,B|172:308|172:308|88:372|88:372|148:364,1,160,2|2,3:2|3:2,0:0:0:0:
340,344,47772,2,0,B|420:356|420:356|432:304|432:304|468:312,1,160,2|2,3:2|3:2,0:0:0:0:
256,212,48454,5,6,0:0:0:0:
412,84,48624,1,2,0:0:0:0:
232,120,48795,1,10,0:0:0:0:
396,180,48965,1,2,0:0:0:0:
212,28,49136,5,2,3:0:0:0:
187,118,49306,1,10,0:2:0:0:
112,176,49477,1,10,0:0:0:0:
17,176,49647,1,2,0:0:0:0:
116,208,49817,6,0,B|100:240|100:240|108:264|108:264|72:316|72:316|28:312,1,160,6|2,0:0|3:2,0:0:0:0:
32,44,50499,2,0,B|64:72|64:72|80:68|80:68|88:56|88:56|204:28,1,160,2|2,3:2|3:2,0:0:0:0:
224,208,51181,6,0,B|224:244|224:244|244:284|244:284|240:300|240:300|268:360,1,160,2|2,3:2|3:2,0:0:0:0:
232,96,51863,2,0,B|256:56|256:56|284:72|284:72|365:72,1,160,2|2,3:2|3:2,0:0:0:0:
492,280,52545,6,0,B|440:284|440:284|416:300|416:300|400:276|400:276|328:236,1,160,2|2,3:2|3:2,0:0:0:0:
496,76,53227,2,0,B|464:100|464:100|452:140|452:140|424:108|424:108|372:104,1,160,2|2,3:2|3:2,0:0:0:0:
232,16,53908,5,6,0:0:0:0:
220,232,54079,1,10,0:3:0:0:
132,124,54249,1,2,3:0:0:0:
304,80,54420,1,10,0:3:0:0:
128,136,54590,1,2,3:0:0:0:
276,168,54761,5,10,0:3:0:0:
291,191,54846,1,0,0:0:0:0:
299,218,54931,1,10,0:3:0:0:
299,246,55016,1,8,0:3:0:0:
291,272,55102,1,8,0:3:0:0:
275,296,55187,1,8,0:3:0:0:
254,313,55272,1,2,3:0:0:0:
220,232,56124,5,2,3:0:0:0:
144,212,56295,1,2,3:0:0:0:
240,156,56465,1,2,0:0:0:0:
392,260,56636,6,0,P|448:212|440:136,1,123.750001180172,6|0,0:0|0:0,0:0:0:0:
413,99,56977,2,0,L|420:16,1,82.5000007867812,10|0,0:0|0:0,0:0:0:0:
340,164,57317,1,2,3:2:0:0:
300,72,57488,1,2,0:0:0:0:
216,124,57658,1,10,0:0:0:0:
72,36,57829,1,2,0:0:0:0:
72,36,57914,1,0,0:0:0:0:
72,36,57999,6,0,L|64:132,1,82.5000007867812,2|2,3:2|0:0,0:0:0:0:
24,128,58255,1,0,0:0:0:0:
24,128,58340,2,0,P|12:172|20:220,1,82.5000007867812,10|2,0:0|0:0,0:0:0:0:
136,320,58681,2,0,P|164:349|201:367,1,82.5000007867812,2|0,3:2|0:0,0:0:0:0:
115,223,59022,1,10,0:0:0:0:
115,223,59192,1,2,0:0:0:0:
292,204,59363,6,0,B|328:224|328:224|356:292|304:348,1,165.000001573562,2|10,3:2|0:0,0:0:0:0:
440,248,59874,1,2,0:0:0:0:
276,220,60045,1,2,3:2:0:0:
464,148,60215,1,2,0:0:0:0:
464,148,60300,1,0,0:0:0:0:
464,148,60386,2,0,P|421:147|364:124,1,82.5000007867812,10|2,0:0|0:0,0:0:0:0:
352,108,60641,1,2,0:0:0:0:
352,108,60727,6,0,L|344:8,1,82.5000007867812,2|2,3:2|0:0,0:0:0:0:
308,44,60982,1,2,0:0:0:0:
308,44,61067,2,0,L|196:52,1,82.5000007867812,10|2,0:0|0:0,0:0:0:0:
196,144,61408,5,2,3:2:0:0:
60,24,61579,1,10,0:0:0:0:
0,160,61749,2,0,B|48:156|48:156|75:135,1,82.5000007867812,10|0,0:0|0:0,0:0:0:0:
16,312,62090,6,0,B|28:275|28:275|92:239|156:284,1,165.000001573562,2|8,3:2|0:0,0:0:0:0:
212,352,62602,1,0,0:0:0:0:
212,352,62687,1,0,0:0:0:0:
212,352,62772,1,2,3:2:0:0:
296,301,62942,1,2,0:0:0:0:
370,369,63113,1,10,0:0:0:0:
452,323,63283,1,2,0:0:0:0:
456,327,63454,5,2,3:2:0:0:
374,373,63624,1,2,0:0:0:0:
300,306,63795,1,10,0:0:0:0:
342,217,63965,1,2,0:0:0:0:
440,230,64136,2,0,P|484:216|528:159,1,82.5000007867812,2|0,3:2|0:0,0:0:0:0:
268,296,64477,2,0,P|241:264|229:225,1,82.5000007867812,10|0,0:0|0:0,0:0:0:0:
424,56,64817,6,0,P|433:100|406:166,1,82.5000007867812,2|0,3:2|0:0,0:0:0:0:
268,32,65158,2,0,P|227:24|187:33,1,82.5000007867812,10|0,0:0|0:0,0:0:0:0:
72,28,65499,2,0,P|45:59|33:98,1,82.5000007867812,2|0,3:2|0:0,0:0:0:0:
52,136,65755,1,0,0:0:0:0:
52,136,65840,1,8,0:0:0:0:
0,220,66011,6,0,B|56:236|56:236|168:204,1,165.000001573562,2|2,0:0|0:0,0:0:0:0:
280,168,66522,1,10,0:0:0:0:
196,312,66692,1,2,0:0:0:0:
180,212,66863,1,2,3:2:0:0:
304,320,67033,1,10,0:0:0:0:
334,329,67119,1,2,0:0:0:0:
365,326,67204,1,10,0:0:0:0:
394,313,67289,1,0,0:0:0:0:
415,288,67374,1,2,0:0:0:0:
426,259,67459,1,0,0:0:0:0:
421,227,67545,6,0,P|408:156|432:56,1,165.000001573562,6|10,0:0|0:0,0:0:0:0:
460,40,67971,1,2,0:0:0:0:
460,40,68056,2,0,L|516:32,1,41.2500003933906,2|2,0:0|0:0,0:0:0:0:
384,0,68227,1,0,3:2:0:0:
328,80,68397,1,2,0:0:0:0:
224,28,68567,2,0,L|126:15,1,82.5000007867812,10|0,0:0|0:0,0:0:0:0:
272,160,68908,6,0,L|260:264,1,82.5000007867812,2|2,3:2|0:0,0:0:0:0:
228,264,69164,1,2,0:0:0:0:
228,264,69249,2,0,L|212:368,1,82.5000007867812,10|2,0:0|0:0,0:0:0:0:
20,296,69590,1,2,3:2:0:0:
8,196,69761,1,2,0:0:0:0:
120,296,69931,2,0,P|104:348|64:388,1,82.5000007867812,10|0,0:0|0:0,0:0:0:0:
8,196,70272,6,0,P|4:116|55:54,1,165.000001573562,2|10,3:2|0:0,0:0:0:0:
262,120,70783,1,2,0:0:0:0:
262,120,70954,2,0,P|194:164|115:151,1,165.000001573562,2|10,3:2|0:0,0:0:0:0:
340,12,71465,6,0,B|348:64|348:64|356:76|356:76|368:180,1,165.000001573562,2|2,0:0|0:0,0:0:0:0:
480,48,71977,1,10,0:0:0:0:
464,144,72147,1,2,0:0:0:0:
512,284,72317,2,0,P|476:315|425:333,1,82.5000007867812,2|8,3:2|0:0,0:0:0:0:
348,348,72658,2,0,P|301:344|251:320,1,82.5000007867812,8|0,0:0|0:0,0:0:0:0:
108,344,72999,6,0,L|120:240,1,82.5000007867812,2|2,3:2|0:0,0:0:0:0:
156,248,73255,1,2,0:0:0:0:
156,248,73340,2,0,P|172:212|168:160,1,82.5000007867812,10|2,0:0|0:0,0:0:0:0:
56,148,73681,1,2,3:2:0:0:
56,148,73766,1,2,0:0:0:0:
56,148,73852,2,0,L|64:224,1,41.2500003933906,2|0,0:0|0:0,0:0:0:0:
92,80,74022,2,0,B|112:60|112:60|192:48,1,82.5000007867812,10|0,0:0|0:0,0:0:0:0:
264,152,74363,5,2,3:2:0:0:
264,152,74533,1,2,0:0:0:0:
296,12,74704,1,10,0:0:0:0:
296,12,74874,1,2,0:0:0:0:
364,84,75045,1,2,3:2:0:0:
364,84,75215,1,2,0:0:0:0:
444,28,75386,2,0,B|464:56|464:56|460:128,1,82.5000007867812,10|0,0:0|0:0,0:0:0:0:
508,304,75727,6,0,P|459:256|375:264,1,123.750001180172,0|0,3:2|0:0,0:0:0:0:
407,252,76067,2,0,P|368:249|315:221,1,82.5000007867812,10|0,0:0|0:0,0:0:0:0:
235,265,76408,2,0,P|258:299|292:323,1,82.5000007867812,2|0,3:2|0:0,0:0:0:0:
155,330,76749,2,0,P|140:291|136:251,1,82.5000007867812,10|0,0:0|0:0,0:0:0:0:
192,48,77090,5,2,3:2:0:0:
52,136,77261,1,0,3:2:0:0:
212,144,77431,1,8,0:0:0:0:
36,232,77602,1,2,3:2:0:0:
152,236,77772,1,2,3:2:0:0:
172,248,77857,1,0,3:0:0:0:
197,255,77942,1,8,0:0:0:0:
222,256,78028,1,0,3:0:0:0:
246,252,78113,1,8,0:0:0:0:
269,241,78198,1,0,3:0:0:0:
288,225,78283,1,2,3:2:0:0:
304,205,78369,1,0,3:2:0:0:
313,182,78454,6,0,P|392:159|487:218,1,165.000001573562,6|8,3:2|0:1,0:0:0:0:
452,288,78965,1,2,0:0:0:0:
464,190,79136,2,0,B|476:108|476:108|512:84,2,123.750001180172,2|2|2,3:2|0:0|0:0,0:0:0:0:
376,144,79817,6,0,L|368:56,1,82.5000007867812,2|0,3:2|0:0,0:0:0:0:
300,36,80073,2,0,P|262:80|197:86,1,123.750001180172,2|2,0:0|0:0,0:0:0:0:
56,32,80499,2,0,L|48:144,1,82.5000007867812,2|0,3:2|0:0,0:0:0:0:
88,100,80755,2,0,L|80:228,1,123.750001180172,2|2,0:0|0:0,0:0:0:0:
216,180,81181,6,0,P|276:236|240:324,1,165.000001573562,2|8,3:2|0:1,0:0:0:0:
92,352,81692,1,0,0:0:0:0:
92,352,81863,2,0,L|174:343,1,82.5000007867812,2|0,3:2|3:2,0:0:0:0:
178,332,82119,1,0,3:2:0:0:
180,321,82204,1,8,0:1:0:0:
182,309,82289,1,0,3:2:0:0:
185,297,82374,1,0,3:2:0:0:
187,285,82459,1,0,3:2:0:0:
189,273,82545,6,0,L|213:241,1,20.6250001966953,2|0,3:2|0:0,0:0:0:0:
280,336,82886,2,0,L|286:299,1,20.6250001966953,0|0,3:2|0:0,0:0:0:0:
372,292,83227,2,0,L|368:256,1,20.6250001966953,0|0,3:2|0:0,0:0:0:0:
508,312,83567,2,0,P|460:324|499:341,1,123.750001180172,8|0,0:1|0:0,0:0:0:0:
508,312,83908,6,0,L|512:208,1,82.5000007867812,6|2,3:2|0:0,0:0:0:0:
512,72,84249,2,0,L|429:79,1,82.5000007867812,10|2,0:1|0:0,0:0:0:0:
324,212,84590,1,2,3:2:0:0:
324,212,84761,2,0,L|424:220,1,82.5000007867812,2|8,0:0|0:1,0:0:0:0:
328,88,85102,6,0,P|251:100|192:40,1,165.000001573562,2|2,0:0|0:0,0:0:0:0:
216,200,85613,1,10,0:1:0:0:
176,64,85783,1,2,0:0:0:0:
28,140,85954,1,2,3:2:0:0:
128,148,86124,1,2,0:0:0:0:
24,148,86295,1,10,0:1:0:0:
124,156,86465,1,2,0:0:0:0:
24,240,86636,6,0,B|46:252|46:252|102:244,1,82.5000007867812,2|2,3:2|0:0,0:0:0:0:
200,232,86977,1,10,0:1:0:0:
164,324,87147,1,2,0:0:0:0:
164,324,87232,1,2,0:0:0:0:
164,324,87317,1,2,3:2:0:0:
292,272,87488,2,0,B|360:280|360:280|388:308,1,82.5000007867812,2|8,0:0|0:1,0:0:0:0:
440,136,87829,6,0,P|428:200|536:244,1,165.000001573562,2|10,0:0|0:3,0:0:0:0:
464,116,88340,1,10,0:1:0:0:
300,176,88511,1,10,0:3:0:0:
328,48,88681,1,2,3:2:0:0:
332,64,88852,1,10,0:3:0:0:
336,80,89022,1,10,0:1:0:0:
228,88,89192,1,10,0:1:0:0:
220,104,89278,1,8,0:1:0:0:
212,120,89363,6,0,L|111:113,1,82.5000007867812,2|2,3:2|0:0,0:0:0:0:
300,176,89704,2,0,P|312:216|314:257,1,82.5000007867812,10|2,0:1|0:0,0:0:0:0:
188,320,90045,1,2,3:2:0:0:
188,320,90215,2,0,P|194:279|208:240,1,82.5000007867812,2|8,0:0|0:1,0:0:0:0:
76,296,90556,6,0,P|20:238|27:158,1,165.000001573562,2|2,0:0|0:0,0:0:0:0:
196,216,91067,1,10,0:1:0:0:
184,52,91238,1,2,0:0:0:0:
120,140,91408,1,2,3:2:0:0:
220,132,91579,1,2,0:0:0:0:
132,148,91749,1,10,0:1:0:0:
232,140,91920,1,2,0:0:0:0:
300,68,92090,6,0,L|400:56,1,82.5000007867812,2|2,3:2|0:0,0:0:0:0:
424,52,92346,1,2,0:0:0:0:
424,52,92431,2,0,L|440:152,1,82.5000007867812,10|2,0:1|0:0,0:0:0:0:
476,128,92687,1,0,0:0:0:0:
476,128,92772,1,2,3:2:0:0:
456,236,92942,2,0,P|452:280|420:320,1,82.5000007867812,2|8,0:0|0:1,0:0:0:0:
208,336,93283,6,0,P|160:276|76:320,1,165.000001573562,2|10,0:0|0:3,0:0:0:0:
188,152,93795,1,10,0:1:0:0:
232,312,93965,1,10,0:3:0:0:
68,188,94136,1,10,0:1:0:0:
68,188,94221,1,0,3:2:0:0:
68,188,94306,1,8,0:3:0:0:
256,224,94477,1,10,0:1:0:0:
260,216,94562,1,8,0:3:0:0:
292,208,94647,1,8,0:3:0:0:
296,200,94732,1,8,0:3:0:0:
328,192,94817,6,0,B|364:220|364:220|432:196|432:196|440:136,1,165.000001573562,6|2,0:0|3:2,0:0:0:0:
180,76,95499,2,0,B|104:100|104:100|72:88|72:88|144:64,1,165.000001573562,2|2,3:2|3:2,0:0:0:0:
354,30,96181,6,0,B|346:66|346:66|350:78|350:78|338:150|338:150|342:166|342:166|334:198,1,165.000001573562,2|2,3:2|3:2,0:0:0:0:
88,324,96863,2,0,B|100:296|100:296|92:272|92:272|116:200|116:200|164:176,1,165.000001573562,2|2,3:2|3:2,0:0:0:0:
344,328,97545,6,0,B|452:336|452:336|460:248,1,165.000001573562,2|2,3:2|3:2,0:0:0:0:
440,48,98227,2,0,B|469:89|469:89|492:92|492:92|420:148,1,165.000001573562,2|2,3:2|3:2,0:0:0:0:
184,196,98908,5,6,0:0:0:0:
284,212,99079,1,2,0:0:0:0:
128,100,99249,1,8,0:0:0:0:
244,60,99420,1,2,0:0:0:0:
168,204,99590,1,2,3:0:0:0:
272,228,99761,1,10,0:2:0:0:
140,84,99931,1,8,0:0:0:0:
248,44,100102,1,2,0:0:0:0:
64,12,100272,6,0,B|47:14|47:14|48:72|48:72|19:134|19:134|39:150,1,165.000001573562,6|2,0:0|3:2,0:0:0:0:
216,308,100954,2,0,B|140:324|140:324|106:311|106:311|52:324,1,165.000001573562,2|2,3:2|3:2,0:0:0:0:
315,129,101636,6,0,B|248:120|248:120|228:108|228:108|208:114|208:114|156:108,1,165.000001573562,2|2,3:2|3:2,0:0:0:0:
456,140,102317,2,0,B|471:155|471:155|463:115|463:115|479:95|479:95|451:23,1,165.000001573562,2|2,3:2|3:2,0:0:0:0:
452,268,102999,6,0,B|412:252|412:252|380:264|380:264|496:312,1,165.000001573562,2|2,3:2|3:2,0:0:0:0:
228,296,103681,2,0,B|196:252|196:252|183:252|183:252|244:340,1,165.000001573562,2|2,3:2|3:2,0:0:0:0:
64,92,104363,5,6,0:0:0:0:
256,184,104533,1,8,0:3:0:0:
68,232,104704,1,2,3:0:0:0:
76,80,104874,1,10,0:3:0:0:
80,236,105045,1,2,3:0:0:0:
188,108,105215,5,10,0:3:0:0:
212,92,105300,1,0,0:0:0:0:
241,84,105386,1,10,0:3:0:0:
270,84,105471,1,8,0:3:0:0:
297,92,105556,1,8,0:3:0:0:
323,109,105641,1,8,0:3:0:0:
340,131,105727,1,2,0:0:0:0:
340,131,107090,6,0,P|432:128|476:60,1,165.000001573562,6|10,3:2|0:1,0:0:0:0:
380,36,107602,1,2,0:0:0:0:
472,74,107772,2,0,L|488:168,1,82.5000007867812,2|0,3:2|0:0,0:0:0:0:
424,236,108113,2,0,L|437:317,1,82.5000007867812,10|0,0:1|0:0,0:0:0:0:
324,164,108454,6,0,B|296:132|296:132|144:124,1,165.000001573562,2|10,3:2|0:1,0:0:0:0:
72,120,108965,1,2,0:0:0:0:
173,125,109136,2,0,P|193:89|196:49,1,82.5000007867812,2|0,3:2|0:0,0:0:0:0:
1,199,109477,2,0,P|4:240|24:276,1,82.5000007867812,10|0,0:1|0:0,0:0:0:0:
152,304,109817,6,0,P|232:252|308:304,1,165.000001573562,2|10,3:2|0:1,0:0:0:0:
296,376,110329,1,2,0:0:0:0:
480,332,110499,2,0,B|484:280|484:280|464:256,1,82.5000007867812,2|0,3:2|0:0,0:0:0:0:
289,276,110840,2,0,B|285:224|285:224|304:200,1,82.5000007867812,10|0,0:1|0:0,0:0:0:0:
460,108,111181,6,0,P|404:124|316:44,1,165.000001573562,2|10,3:2|0:1,0:0:0:0:
152,24,111692,1,2,0:0:0:0:
224,92,111863,2,0,P|221:132|205:170,1,82.5000007867812,2|10,3:2|0:1,0:0:0:0:
0,188,112204,2,0,P|38:172|68:145,1,82.5000007867812,10|10,0:1|0:1,0:0:0:0:
84,108,112459,1,10,0:1:0:0:
84,108,112545,6,0,B|88:148|88:148|104:168|104:168|80:224|116:280,1,165.000001573562,6|10,3:2|0:1,0:0:0:0:
248,324,113056,1,2,0:0:0:0:
192,212,113227,1,2,3:2:0:0:
188,224,113397,1,0,0:0:0:0:
28,312,113567,1,10,0:1:0:0:
32,324,113738,1,0,0:0:0:0:
224,344,113908,6,0,B|272:352|272:352|336:332|328:248,1,165.000001573562,2|10,3:2|0:1,0:0:0:0:
304,164,114420,1,2,0:0:0:0:
476,216,114590,1,2,3:2:0:0:
488,212,114761,1,0,0:0:0:0:
304,280,114931,1,10,0:1:0:0:
292,276,115102,1,0,0:0:0:0:
400,132,115272,6,0,P|350:69|270:68,1,165.000001573562,2|10,3:2|0:1,0:0:0:0:
152,188,115783,1,2,0:0:0:0:
160,88,115954,2,0,L|165:5,1,82.5000007867812,2|0,3:2|0:0,0:0:0:0:
54,213,116295,2,0,L|60:296,1,82.5000007867812,10|0,0:1|0:0,0:0:0:0:
152,188,116636,5,2,3:2:0:0:
196,275,116806,1,0,3:2:0:0:
279,326,116977,1,2,3:2:0:0:
377,327,117147,1,0,3:2:0:0:
461,277,117317,1,2,3:2:0:0:
464,280,117403,1,0,3:2:0:0:
468,284,117488,1,2,3:2:0:0:
472,288,117573,1,0,3:2:0:0:
476,292,117658,1,0,3:1:0:0:
480,296,117744,1,0,3:2:0:0:
484,300,117829,1,0,3:1:0:0:
488,304,117914,1,0,3:2:0:0:
492,308,117999,6,0,B|516:280|516:280|488:136,1,165.000001573562,6|10,3:2|0:0,0:0:0:0:
364,200,118511,2,0,B|376:212|400:216|400:216|332:232|252:196,1,165.000001573562,2|2,0:0|0:0,0:0:0:0:
188,160,119022,1,10,0:0:0:0:
320,96,119192,6,0,P|337:59|344:18,1,82.5000007867812,2|0,0:0|3:2,0:0:0:0:
192,32,119533,1,2,0:0:0:0:
192,32,119619,1,2,0:0:0:0:
192,32,119704,2,0,L|200:96,1,41.2500003933906,10|2,0:0|0:0,0:0:0:0:
116,64,119874,2,0,L|124:128,1,41.2500003933906,2|2,0:0|0:0,0:0:0:0:
40,92,120045,2,0,B|20:112|20:112|12:180,1,82.5000007867812,2|2,3:2|0:0,0:0:0:0:
192,216,120386,1,10,0:0:0:0:
56,280,120556,6,0,B|76:248|76:248|140:208|224:260,1,165.000001573562,2|2,0:0|0:0,0:0:0:0:
344,296,121067,1,10,0:0:0:0:
168,344,121238,2,0,B|240:340|240:340|252:332|252:332|352:316,1,165.000001573562,2|2,0:0|0:0,0:0:0:0:
476,240,121749,1,10,0:0:0:0:
300,188,121920,6,0,B|328:208|328:208|352:200|352:200|408:232|488:208,1,165.000001573562,2|2,0:0|0:0,0:0:0:0:
460,84,122431,2,0,P|392:104|448:120,1,165.000001573562,10|2,0:0|3:2,0:0:0:0:
272,88,122942,1,10,0:0:0:0:
268,72,123028,1,10,0:0:0:0:
284,76,123113,1,10,0:0:0:0:
196,156,123283,1,2,0:0:0:0:
100,28,123454,6,0,B|116:60|116:60|104:132,1,82.5000007867812,6|2,3:2|0:0,0:0:0:0:
32,252,123795,1,10,0:0:0:0:
40,228,123880,1,2,0:0:0:0:
59,212,123965,1,2,0:0:0:0:
83,207,124050,1,2,0:0:0:0:
104,216,124136,6,0,P|128:232|160:236,3,41.2500003933906,2|2|2|2,3:2|0:0|0:0|0:0,0:0:0:0:
124,316,124477,2,0,P|152:317|182:305,3,41.2500003933906,10|2|2|2,0:0|0:0|0:0|0:0,0:0:0:0:
244,336,124817,5,2,3:2:0:0:
252,332,124903,1,0,0:0:0:0:
260,328,124988,1,2,0:0:0:0:
268,324,125073,1,0,0:0:0:0:
276,320,125158,2,0,L|296:236,1,82.5000007867812,10|2,0:0|0:0,0:0:0:0:
456,192,125499,5,0,3:2:0:0:
464,196,125584,1,2,0:0:0:0:
472,200,125670,1,2,0:0:0:0:
480,204,125755,1,2,0:0:0:0:
488,208,125840,2,0,L|508:292,1,82.5000007867812,10|2,0:0|0:0,0:0:0:0:
504,96,126181,5,6,3:2:0:0:
474,81,126266,1,0,0:0:0:0:
441,78,126352,1,2,0:0:0:0:
409,85,126437,1,2,0:0:0:0:
381,102,126522,1,10,0:0:0:0:
353,119,126607,1,2,0:0:0:0:
321,126,126692,1,2,0:0:0:0:
288,123,126778,1,2,0:0:0:0:
258,108,126863,6,0,L|248:48,3,41.2500003933906,10|2|2|2,0:0|0:0|0:0|0:0,0:0:0:0:
180,136,127204,2,0,L|170:76,3,41.2500003933906,10|2|2|2,0:0|0:0|3:0|3:0,0:0:0:0:
88,72,127545,6,0,B|68:32|68:32|56:128|56:128|40:144|40:144|40:156|40:156|4:216|4:216|-16:256|-16:256|19:174|19:174|17:119,1,419.999987182617,2|2,3:0|0:0,0:0:0:0:
116,208,128908,6,0,B|92:248|92:248|108:360,1,127.500002431869,6|0,0:0|0:0,0:0:0:0:
103,328,129249,2,0,P|144:312|212:320,1,85.0000016212463,10|0,0:0|0:0,0:0:0:0:
304,304,129590,1,2,3:2:0:0:
276,208,129761,1,2,0:0:0:0:
204,328,129931,1,10,0:0:0:0:
408,336,130102,1,2,0:0:0:0:
408,336,130187,1,0,0:0:0:0:
408,336,130272,6,0,P|460:324|496:288,1,85.0000016212463,2|2,3:2|0:0,0:0:0:0:
492,264,130527,1,0,0:0:0:0:
492,264,130613,2,0,L|480:160,1,85.0000016212463,10|2,0:0|0:0,0:0:0:0:
282,123,130954,2,0,L|274:231,1,85.0000016212463,2|0,3:2|0:0,0:0:0:0:
456,152,131295,1,10,0:0:0:0:
448,60,131465,1,2,0:0:0:0:
282,123,131635,6,0,B|212:138|176:84|176:84|180:28,1,170.000003242493,2|10,3:2|0:0,0:0:0:0:
292,16,132147,1,2,0:0:0:0:
64,56,132317,1,2,3:2:0:0:
200,148,132488,1,2,0:0:0:0:
68,76,132658,1,10,0:0:0:0:
188,172,132829,1,2,0:0:0:0:
192,176,132914,1,2,0:0:0:0:
196,180,132999,6,0,L|188:272,1,85.0000016212463,2|2,3:2|0:0,0:0:0:0:
92,300,133255,1,2,0:0:0:0:
88,296,133340,2,0,L|84:200,1,85.0000016212463,10|2,0:0|0:0,0:0:0:0:
60,32,133681,5,2,3:2:0:0:
300,144,133852,1,10,0:0:0:0:
180,152,134022,2,0,B|168:124|168:124|184:48,1,85.0000016212463,10|0,0:0|0:0,0:0:0:0:
452,36,134363,6,0,B|482:51|482:51|518:115|469:180,1,170.000003242493,2|8,3:2|0:0,0:0:0:0:
372,212,134874,1,2,0:0:0:0:
372,212,134959,1,0,0:0:0:0:
372,212,135045,1,2,3:2:0:0:
288,156,135215,1,2,0:0:0:0:
211,226,135386,1,10,0:0:0:0:
126,178,135556,1,2,0:0:0:0:
122,183,135727,5,2,3:2:0:0:
283,161,135897,1,2,0:0:0:0:
207,230,136067,1,10,0:0:0:0:
240,68,136238,1,2,0:0:0:0:
138,82,136408,2,0,P|96:72|40:32,1,85.0000016212463,2|0,3:2|0:0,0:0:0:0:
296,152,136749,2,0,P|337:145|396:104,1,85.0000016212463,10|0,0:0|0:0,0:0:0:0:
80,172,137090,6,0,P|59:207|52:252,1,85.0000016212463,2|0,3:2|0:0,0:0:0:0:
272,320,137431,2,0,P|265:281|240:240,1,85.0000016212463,10|0,0:0|0:0,0:0:0:0:
148,280,137772,2,0,P|155:321|177:357,1,85.0000016212463,2|0,3:2|0:0,0:0:0:0:
177,357,138028,1,0,0:0:0:0:
177,357,138113,1,8,0:0:0:0:
372,360,138283,6,0,P|424:304|408:208,1,170.000003242493,2|2,0:0|0:0,0:0:0:0:
280,140,138795,1,10,0:0:0:0:
460,80,138965,1,2,0:0:0:0:
404,192,139136,1,2,3:2:0:0:
352,60,139306,1,10,0:0:0:0:
333,43,139391,1,2,0:0:0:0:
310,31,139477,1,10,0:0:0:0:
285,25,139562,1,0,0:0:0:0:
260,27,139647,1,2,0:0:0:0:
236,34,139732,1,0,0:0:0:0:
215,48,139817,6,0,P|171:114|72:128,1,170.000003242493,6|10,0:0|0:0,0:0:0:0:
56,104,140244,1,2,0:0:0:0:
56,104,140329,2,0,L|0:96,1,42.5000008106231,2|2,0:0|0:0,0:0:0:0:
16,200,140499,1,0,3:2:0:0:
92,16,140670,1,2,0:0:0:0:
16,200,140840,2,0,L|24:288,1,85.0000016212463,10|0,0:0|0:0,0:0:0:0:
140,232,141181,6,0,L|240:220,1,85.0000016212463,2|2,3:2|0:0,0:0:0:0:
288,264,141437,1,2,0:0:0:0:
288,264,141522,2,0,L|392:248,1,85.0000016212463,10|2,0:0|0:0,0:0:0:0:
196,328,141863,1,2,3:2:0:0:
312,156,142033,1,2,0:0:0:0:
472,292,142204,2,0,B|480:264|480:264|468:196,1,85.0000016212463,10|0,0:0|0:0,0:0:0:0:
384,28,142545,5,2,3:2:0:0:
380,40,142715,1,2,0:0:0:0:
348,136,142886,1,10,0:0:0:0:
344,148,143056,1,2,0:0:0:0:
224,40,143227,2,0,P|232:120|132:148,1,170.000003242493,2|10,3:2|0:0,0:0:0:0:
20,92,143738,6,0,P|92:144|184:128,1,170.000003242493,2|2,0:0|0:0,0:0:0:0:
20,272,144249,1,10,0:0:0:0:
120,256,144420,1,2,0:0:0:0:
304,220,144590,2,0,P|350:222|400:246,1,85.0000016212463,2|8,3:2|0:0,0:0:0:0:
467,295,144931,2,0,P|497:330|515:382,1,85.0000016212463,8|0,0:0|0:0,0:0:0:0:
324,328,145272,5,2,3:2:0:0:
324,328,145357,1,2,0:0:0:0:
324,328,145442,2,0,L|276:336,1,42.5000008106231,2|2,0:0|0:0,0:0:0:0:
188,352,145613,1,10,0:0:0:0:
188,352,145698,1,2,0:0:0:0:
188,352,145783,2,0,L|194:310,1,42.5000008106231,2|2,0:0|0:0,0:0:0:0:
212,224,145954,1,2,3:2:0:0:
92,348,146124,1,2,0:0:0:0:
72,248,146295,2,0,L|56:144,1,85.0000016212463,10|0,0:0|0:0,0:0:0:0:
168,32,146636,5,2,3:2:0:0:
168,32,146721,1,2,0:0:0:0:
168,32,146806,2,0,L|160:100,1,42.5000008106231,2|2,0:0|0:0,0:0:0:0:
252,68,146977,2,0,B|276:88|276:88|292:164,1,85.0000016212463,10|2,0:0|0:0,0:0:0:0:
312,240,147317,1,2,3:2:0:0:
480,120,147488,1,2,0:0:0:0:
460,220,147658,2,0,L|440:336,1,85.0000016212463,10|0,0:0|0:0,0:0:0:0:
358,107,147999,6,0,P|313:65|250:67,1,127.500002431869,0|0,3:2|0:0,0:0:0:0:
250,67,148340,2,0,P|214:74|152:60,1,85.0000016212463,10|0,0:0|0:0,0:0:0:0:
108,151,148681,2,0,P|139:180|178:195,1,85.0000016212463,2|0,3:2|0:0,0:0:0:0:
20,200,149022,2,0,P|34:237|64:276,1,85.0000016212463,10|0,0:0|0:0,0:0:0:0:
287,140,149363,5,2,3:2:0:0:
192,328,149533,1,0,3:2:0:0:
296,152,149704,1,8,0:0:0:0:
201,340,149874,1,0,3:2:0:0:
151,250,150045,1,0,3:2:0:0:
172,238,150130,1,0,3:0:0:0:
196,231,150215,1,8,0:0:0:0:
222,229,150300,1,0,3:0:0:0:
246,234,150386,1,8,0:0:0:0:
269,245,150471,1,0,3:0:0:0:
290,260,150556,1,0,3:2:0:0:
303,281,150641,1,0,3:2:0:0:
313,306,150727,6,0,P|415:317|467:254,1,160,6|8,3:2|0:1,0:0:0:0:
464,92,151238,1,2,0:0:0:0:
464,92,151408,2,0,B|428:116|428:116|412:228,2,120,2|2|2,3:2|0:0|0:0,0:0:0:0:
308,56,152090,6,0,L|316:152,1,79.9999999999999,2|0,3:2|0:0,0:0:0:0:
314,135,152346,2,0,P|252:132|196:176,1,120,2|2,0:0|0:0,0:0:0:0:
160,48,152772,2,0,L|48:40,1,79.9999999999999,2|0,3:2|0:0,0:0:0:0:
36,104,153028,2,0,P|76:148|56:224,1,120,2|2,0:0|0:0,0:0:0:0:
112,328,153454,6,0,P|188:340|240:272,1,160,6|8,0:0|0:1,0:0:0:0:
368,356,153965,1,2,0:0:0:0:
348,260,154136,2,0,L|332:168,1,79.9999999999999,2|0,3:2|0:0,0:0:0:0:
334,181,154391,2,0,P|388:204|464:184,1,120,2|2,0:0|0:0,0:0:0:0:
412,24,154817,6,0,L|404:128,1,79.9999999999999,2|0,3:2|0:0,0:0:0:0:
332,64,155073,2,0,L|184:80,1,120,2|2,0:0|0:0,0:0:0:0:
40,96,155499,2,0,L|128:104,1,79.9999999999999,2|0,3:2|0:0,0:0:0:0:
68,24,155755,1,2,0:0:0:0:
68,24,155840,2,0,L|156:32,1,79.9999999999999,8|2,0:1|0:0,0:0:0:0:
0,216,156181,6,0,L|108:200,1,79.9999999999999,6|0,0:0|0:0,0:0:0:0:
172,188,156522,1,8,0:1:0:0:
172,188,156692,1,2,0:0:0:0:
112,316,156863,2,0,L|186:286,1,79.9999999999999,2|0,3:2|0:0,0:0:0:0:
278,254,157204,1,8,0:1:0:0:
278,254,157374,1,2,0:0:0:0:
448,280,157545,6,0,P|452:324|424:388,1,79.9999999999999,2|0,3:2|0:0,0:0:0:0:
356,316,157886,1,8,0:1:0:0:
356,316,158056,1,2,0:0:0:0:
384,124,158227,2,0,P|424:142|465:198,1,79.9999999999999,2|0,3:2|0:0,0:0:0:0:
369,221,158567,1,8,0:1:0:0:
369,221,158738,1,2,0:0:0:0:
278,254,158908,6,0,L|104:240,1,160,2|8,3:2|0:1,0:0:0:0:
0,160,159420,1,0,0:0:0:0:
0,160,159590,2,0,L|100:152,1,79.9999999999999,2|0,3:2|3:2,0:0:0:0:
83,142,159846,1,0,3:2:0:0:
85,131,159931,1,8,0:1:0:0:
87,119,160016,1,0,3:2:0:0:
90,107,160102,1,0,3:2:0:0:
92,95,160187,1,0,3:2:0:0:
94,83,160272,6,0,L|116:56,1,20,2|0,3:2|0:0,0:0:0:0:
176,132,160613,2,0,L|180:100,1,20,0|0,3:2|0:0,0:0:0:0:
260,100,160954,2,0,L|256:68,1,20,0|0,3:2|0:0,0:0:0:0:
392,108,161295,2,0,P|344:96|388:80,1,120,8|0,0:1|0:0,0:0:0:0:
392,108,161636,6,0,L|384:196,1,85.0000016212463,6|0,3:2|0:0,0:0:0:0:
492,192,161977,2,0,L|464:288,1,85.0000016212463,10|2,0:1|0:0,0:0:0:0:
452,312,162232,1,2,0:0:0:0:
452,312,162317,1,2,3:2:0:0:
292,252,162488,2,0,P|248:252|208:272,1,85.0000016212463,0|8,0:0|0:1,0:0:0:0:
36,336,162829,6,0,P|96:280|88:199,1,170.000003242493,2|2,0:0|0:0,0:0:0:0:
220,164,163340,1,10,0:1:0:0:
40,88,163511,1,2,0:0:0:0:
232,148,163681,1,2,3:2:0:0:
152,60,163852,1,2,0:0:0:0:
152,60,163937,1,2,0:0:0:0:
152,60,164022,1,10,0:1:0:0:
104,184,164192,1,2,0:0:0:0:
244,132,164363,6,0,L|344:124,1,85.0000016212463,2|2,3:2|0:0,0:0:0:0:
432,116,164704,1,10,0:1:0:0:
316,24,164874,1,2,0:0:0:0:
316,24,164959,1,2,0:0:0:0:
316,24,165045,1,2,3:2:0:0:
344,224,165215,2,0,L|360:336,1,85.0000016212463,2|8,0:0|0:1,0:0:0:0:
464,368,165556,6,0,B|492:328|492:328|476:184,1,170.000003242493,2|10,0:0|0:3,0:0:0:0:
328,125,166067,1,10,0:1:0:0:
256,292,166238,1,10,0:3:0:0:
456,224,166408,1,2,3:2:0:0:
336,216,166579,1,10,0:3:0:0:
340,220,166664,1,0,0:0:0:0:
344,224,166749,1,10,0:1:0:0:
312,112,166920,1,10,0:1:0:0:
224,276,167090,6,0,P|184:292|108:292,1,85.0000016212463,2|2,3:2|0:0,0:0:0:0:
104,280,167346,1,2,0:0:0:0:
104,280,167431,2,0,P|88:240|88:164,1,85.0000016212463,10|2,0:1|0:0,0:0:0:0:
220,8,167772,1,2,3:2:0:0:
220,8,167942,2,0,P|215:50|199:89,1,85.0000016212463,2|8,0:0|0:1,0:0:0:0:
8,88,168283,6,0,P|88:110|164:72,1,170.000003242493,2|2,0:0|0:0,0:0:0:0:
312,112,168795,1,10,0:1:0:0:
444,76,168965,1,2,0:0:0:0:
308,128,169136,1,2,3:2:0:0:
168,92,169306,1,2,0:0:0:0:
304,144,169477,1,10,0:1:0:0:
436,92,169647,1,2,0:0:0:0:
300,160,169817,6,0,L|316:280,1,85.0000016212463,2|2,3:2|0:0,0:0:0:0:
324,344,170158,1,10,0:1:0:0:
416,224,170329,1,2,0:0:0:0:
416,224,170414,1,2,0:0:0:0:
416,224,170499,1,2,3:2:0:0:
212,260,170670,2,0,L|116:244,1,85.0000016212463,2|8,0:0|0:1,0:0:0:0:
404,192,171011,6,0,B|444:172|444:172|476:92|412:32,1,170.000003242493,2|10,0:0|0:3,0:0:0:0:
200,48,171522,2,0,L|212:156,1,85.0000016212463,10|10,0:1|0:3,0:0:0:0:
320,88,171863,1,10,0:1:0:0:
96,148,172033,1,8,0:3:0:0:
96,148,172119,1,0,3:2:0:0:
96,148,172204,1,10,0:1:0:0:
8,96,172374,1,8,0:3:0:0:
