osu file format v14

[General]
AudioFilename: audio.mp3
AudioLeadIn: 0
PreviewTime: 56039
Countdown: 0
SampleSet: Soft
StackLeniency: 0.7
Mode: 0
LetterboxInBreaks: 0
WidescreenStoryboard: 0

[Editor]
DistanceSpacing: 1
BeatDivisor: 4
GridSize: 4
TimelineZoom: 1.4

[Metadata]
Title:Itsuka Otona ni Nareru to Ii ne.
TitleUnicode:いつかオトナになれるといいね。
Artist:TUYU
ArtistUnicode:ツユ
Creator:Len
Version:Erisu's Normal
Source:
Tags:pop jpop j-pop rock jrock j-rock japanese AzyuN すこやかツカサ 礼衣 ぷす ミロ I Hope You Can Be an Adult Someday iine pnky Lanzhu Erisu fast yf_bmp LeeGod Abelia moly Narcissu Athanasia-
BeatmapID:3630307
BeatmapSetID:1773106

[Difficulty]
HPDrainRate:3
CircleSize:3
OverallDifficulty:4.5
ApproachRate:5.5
SliderMultiplier:1
SliderTickRate:1

[Events]
//Background and Video events
0,0,"1920.jpg",0,0
Video,345,"1280.mp4"
//Break Periods
//Storyboard Layer 0 (Background)
//Storyboard Layer 1 (Fail)
//Storyboard Layer 2 (Pass)
//Storyboard Layer 3 (Foreground)
//Storyboard Layer 4 (Overlay)
//Storyboard Sound Samples

[TimingPoints]
727,340.909090909091,4,2,1,75,1,0
6181,-90.9090909090909,4,2,1,90,0,1
27999,-100,4,2,1,75,0,0
33454,-100,4,2,1,70,0,0
44363,-100,4,2,1,60,0,0
48454,-100,4,2,1,75,0,0
49817,-100,4,2,1,60,0,0
53908,-100,4,2,1,75,0,0
55272,-100,4,2,1,50,0,0
56636,-90.9090909090909,4,2,1,90,0,1
78454,-100,4,2,1,75,0,0
83908,-100,4,2,1,70,0,0
94817,-100,4,2,1,60,0,0
98908,-100,4,2,1,75,0,0
100271,-100,4,2,1,60,0,0
104362,-100,4,2,1,75,0,0
105726,-100,4,2,1,50,0,0
107090,-100,4,2,1,75,0,0
117999,-90.9090909090909,4,2,1,85,0,0
127545,-90.9090909090909,4,2,1,50,0,0
128397,-90.9090909090909,4,2,1,70,0,0
128908,-90.9090909090909,4,2,1,90,0,1
150727,-100,4,2,1,65,0,0
161636,-100,4,2,1,70,0,0

[Colours]
Combo1 : 255,223,128
Combo2 : 172,172,215
Combo3 : 255,157,157

[HitObjects]
440,75,727,6,0,P|387:89|358:130,1,100,6|10,3:2|0:1,0:0:0:0:
336,168,1238,1,2,0:0:0:0:
336,168,1408,2,0,L|355:277,1,100,2|10,3:2|0:1,0:0:0:0:
301,352,2090,2,0,P|246:350|208:316,1,100,2|10,3:2|0:1,0:0:0:0:
189,295,2602,1,2,0:0:0:0:
189,295,2772,2,0,P|200:236|210:191,1,100,2|10,3:2|0:1,0:0:0:0:
213,96,3454,6,0,B|182:74|182:74|105:88,1,100,2|10,3:2|0:1,0:0:0:0:
76,61,3965,1,2,0:0:0:0:
76,61,4136,2,0,P|42:94|44:155,1,100,2|10,3:2|0:1,0:0:0:0:
65,240,4817,1,2,3:2:0:0:
123,321,5158,2,0,L|182:313,1,50,2|2,3:2|3:2,0:0:0:0:
206,276,5499,2,0,L|265:284,1,50,2|2,3:2|3:2,0:0:0:0:
291,318,5840,1,2,3:2:0:0:
388,266,6181,6,0,P|388:225|403:157,1,110.000003356934,6|10,0:0|0:0,0:0:0:0:
461,64,6863,2,0,P|441:53|396:42,1,55.0000016784668,2|2,3:2|0:0,0:0:0:0:
356,29,7204,2,0,P|336:40|291:51,1,55.0000016784668,10|2,0:0|0:0,0:0:0:0:
261,82,7544,1,2,3:2:0:0:
169,20,7885,2,0,P|145:37|135:69,1,55.0000016784668,10|2,0:0|0:0,0:0:0:0:
110,109,8226,2,0,P|123:162|129:220,1,110.000003356934,2|10,3:2|0:0,0:0:0:0:
128,326,8908,6,0,B|72:338|72:338|15:306,1,110.000003356934,2|10,3:2|0:0,0:0:0:0:
10,264,9419,1,2,0:0:0:0:
10,264,9590,2,0,L|25:201,1,55.0000016784668,2|2,3:2|0:0,0:0:0:0:
52,164,9931,2,0,L|37:101,1,55.0000016784668,10|2,0:0|0:0,0:0:0:0:
13,61,10272,1,2,3:2:0:0:
114,17,10613,1,10,0:0:0:0:
189,97,10954,2,0,L|252:81,1,55.0000016784668,2|10,3:2|0:0,0:0:0:0:
282,45,11294,1,10,0:0:0:0:
385,83,11635,6,0,B|432:92|432:92|441:102|441:102|492:112,1,110.000003356934,2|8,3:2|0:0,0:0:0:0:
495,221,12317,2,0,P|477:278|469:343,1,110.000003356934,2|10,3:2|0:0,0:0:0:0:
428,364,12829,1,2,0:0:0:0:
428,364,12999,2,0,P|399:346|361:335,1,55.0000016784668,2|2,3:2|0:0,0:0:0:0:
341,298,13340,2,0,P|312:316|274:327,1,55.0000016784668,10|2,0:0|0:0,0:0:0:0:
244,296,13681,1,2,3:2:0:0:
308,206,14022,1,10,0:0:0:0:
255,112,14363,6,0,B|193:124|209:142|153:156,1,110.000003356934,2|10,3:2|0:0,0:0:0:0:
64,218,15045,2,0,P|99:263|163:269,1,110.000003356934,2|8,3:2|0:0,0:0:0:0:
197,298,15556,1,2,0:0:0:0:
197,298,15727,2,0,P|253:305|329:320,1,110.000003356934,0|10,3:2|0:0,0:0:0:0:
408,355,16408,2,0,P|427:338|434:302,1,55.0000016784668,2|10,3:2|0:0,0:0:0:0:
473,271,16749,2,0,P|467:246|440:221,1,55.0000016784668,10|2,0:0|0:0,0:0:0:0:
398,199,17090,6,0,P|403:149|411:88,1,110.000003356934,6|10,0:0|0:0,0:0:0:0:
381,49,17602,1,2,0:0:0:0:
381,49,17772,2,0,L|320:72,1,55.0000016784668,0|2,3:2|0:0,0:0:0:0:
279,45,18113,1,10,0:0:0:0:
200,122,18454,2,0,P|227:162|232:236,1,110.000003356934,2|10,3:2|0:0,0:0:0:0:
248,275,18965,1,2,0:0:0:0:
248,275,19136,2,0,L|311:292,2,55.0000016784668,2|2|10,3:2|0:0|0:0,0:0:0:0:
167,349,19817,6,0,P|130:319|59:311,1,110.000003356934,2|10,3:2|0:0,0:0:0:0:
28,280,20329,1,2,0:0:0:0:
28,280,20499,2,0,L|47:218,1,55.0000016784668,2|2,3:2|0:0,0:0:0:0:
76,182,20840,1,10,0:0:0:0:
76,182,21011,2,0,L|51:65,1,110.000003356934,2|2,0:0|0:0,0:0:0:0:
87,31,21522,1,10,0:0:0:0:
189,72,21863,2,0,L|264:57,1,55.0000016784668,2|8,3:2|0:0,0:0:0:0:
290,33,22204,1,8,0:0:0:0:
398,50,22545,6,0,B|431:89|431:89|416:157,1,110.000003356934,2|10,3:2|0:0,0:0:0:0:
453,196,23056,1,2,0:0:0:0:
453,196,23227,2,0,L|430:257,1,55.0000016784668,2|2,3:2|0:0,0:0:0:0:
457,298,23567,1,10,0:0:0:0:
349,323,23908,2,0,P|288:304|230:298,1,110.000003356934,2|10,3:2|0:0,0:0:0:0:
197,278,24420,1,2,0:0:0:0:
197,278,24590,2,0,P|154:286|127:295,2,55.0000016784668,2|2|10,3:2|0:0|0:0,0:0:0:0:
273,199,25272,5,0,3:2:0:0:
248,91,25613,2,0,P|191:76|136:72,1,110.000003356934,10|2,0:0|3:2,0:0:0:0:
48,134,26295,1,10,0:0:0:0:
23,241,26636,2,0,P|25:268|40:294,1,55.0000016784668,2|0,3:2|3:2,0:0:0:0:
69,337,26977,1,8,0:0:0:0:
178,346,27317,2,0,L|252:337,1,55.0000016784668,0|8,3:2|0:0,0:0:0:0:
284,319,27658,2,0,L|272:254,1,55.0000016784668,8|0,0:0|3:2,0:0:0:0:
229,242,27999,5,6,3:2:0:0:
142,191,28340,1,8,0:1:0:0:
179,98,28681,2,0,P|226:102|297:113,1,100,2|8,3:2|0:1,0:0:0:0:
365,159,29363,2,0,L|383:244,2,75,2|2|2,3:2|0:0|0:0,0:0:0:0:
395,119,30045,2,0,L|413:34,2,75,2|2|2,3:2|0:0|0:0,0:0:0:0:
436,147,30727,5,2,3:2:0:0:
497,225,31067,1,8,0:1:0:0:
468,320,31408,2,0,P|426:314|368:343,1,100,2|8,3:2|0:1,0:0:0:0:
331,323,31920,1,0,3:2:0:0:
331,323,32090,2,0,L|346:212,2,100,2|0|0,3:2|3:2|3:2,0:0:0:0:
293,356,32942,1,8,0:1:0:0:
293,356,33113,1,8,0:1:0:0:
207,303,33454,6,0,P|182:267|196:199,1,100,6|10,3:2|0:1,0:0:0:0:
268,155,34136,2,0,L|326:166,2,50,2|0|8,3:2|0:0|0:1,0:0:0:0:
231,120,34647,1,2,0:0:0:0:
144,69,34988,1,2,0:0:0:0:
144,69,35158,2,0,P|97:99|92:162,1,100,10|2,0:1|3:2,0:0:0:0:
138,225,35840,2,0,L|131:281,1,50,10|2,0:1|0:0,0:0:0:0:
125,324,36181,6,0,B|171:347|171:347|232:327,1,100,2|10,3:2|0:1,0:0:0:0:
287,260,36863,1,2,3:2:0:0:
287,260,37033,2,0,L|390:277,1,100,2|2,0:0|0:0,0:0:0:0:
476,318,37715,2,0,L|464:370,2,50,10|10|10,0:3|0:1|0:3,0:0:0:0:
499,273,38227,1,2,3:2:0:0:
452,184,38567,2,0,L|438:123,1,50,10|10,0:1|0:1,0:0:0:0:
465,91,38908,6,0,P|418:61|363:72,1,100,2|10,3:2|0:1,0:0:0:0:
305,136,39590,2,0,L|298:188,2,50,2|2|8,3:2|0:0|0:1,0:0:0:0:
269,100,40102,1,2,0:0:0:0:
196,39,40442,1,2,0:0:0:0:
196,39,40613,2,0,P|140:38|101:88,1,100,10|2,0:1|3:2,0:0:0:0:
66,157,41295,2,0,L|76:215,1,50,10|2,0:1|0:0,0:0:0:0:
104,246,41636,6,0,P|149:228|202:223,1,100,2|10,3:2|0:1,0:0:0:0:
288,173,42317,1,2,3:2:0:0:
288,173,42487,2,0,L|391:190,1,100,2|2,0:0|0:0,0:0:0:0:
450,266,43170,2,0,P|474:257|506:248,2,50,10|10|10,0:3|0:1|0:3,0:0:0:0:
412,300,43681,1,10,0:1:0:0:
322,344,44022,2,0,P|288:338|251:335,1,50,10|8,0:1|0:3,0:0:0:0:
225,354,44363,6,0,P|176:351|147:307,1,100,6|2,0:0|3:2,0:0:0:0:
56,270,45045,2,0,P|34:226|57:178,1,100,2|2,3:2|3:2,0:0:0:0:
137,127,45727,2,0,L|124:24,2,100,2|2|2,3:2|3:2|3:2,0:0:0:0:
214,190,46749,2,0,P|238:192|278:200,1,50,2|0,3:2|0:0,0:0:0:0:
306,222,47090,6,0,P|361:212|421:206,1,100,2|2,3:2|3:2,0:0:0:0:
416,107,47772,2,0,P|366:97|317:92,1,100,2|2,3:2|3:2,0:0:0:0:
230,41,48454,1,6,0:0:0:0:
230,41,48624,2,0,L|160:56,1,50,2|10,0:0|0:0,0:0:0:0:
139,75,48965,1,2,0:0:0:0:
139,75,49136,2,0,L|86:64,2,50,2|10|10,3:0|0:2|0:0,0:0:0:0:
182,165,49817,6,0,P|197:208|202:278,1,100,6|2,0:0|3:2,0:0:0:0:
284,320,50499,2,0,P|288:274|299:221,1,100,2|2,3:2|3:2,0:0:0:0:
322,123,51181,2,0,P|292:83|226:73,2,100,2|2|2,3:2|3:2|3:2,0:0:0:0:
422,127,52204,1,2,3:2:0:0:
465,216,52545,6,0,P|483:271|461:316,1,100,2|2,3:2|3:2,0:0:0:0:
384,363,53227,2,0,P|368:316|387:270,1,100,2|2,3:2|3:2,0:0:0:0:
303,224,53908,1,6,0:0:0:0:
303,224,54079,2,0,L|233:239,1,50,10|2,0:3|3:0,0:0:0:0:
213,215,54420,1,10,0:3:0:0:
213,215,54590,2,0,L|160:204,2,50,2|10|10,3:0|0:3|0:3,0:0:0:0:
278,139,55272,5,2,3:0:0:0:
210,65,55613,2,0,L|195:-1,2,50,2|2|2,3:0|3:0|3:0,0:0:0:0:
177,103,56124,1,2,3:0:0:0:
177,103,56295,2,0,P|144:89|113:87,1,50,2|2,3:0|0:0,0:0:0:0:
75,84,56636,6,0,B|39:124|39:124|51:183,1,110.000003356934,6|10,0:0|0:0,0:0:0:0:
23,285,57317,2,0,L|91:300,1,55.0000016784668,2|2,3:2|0:0,0:0:0:0:
122,327,57658,2,0,L|190:312,1,55.0000016784668,10|2,0:0|0:0,0:0:0:0:
214,276,57999,1,2,3:2:0:0:
313,322,58340,2,0,L|330:253,1,55.0000016784668,10|2,0:0|0:0,0:0:0:0:
343,216,58681,2,0,P|334:166|318:104,1,110.000003356934,2|10,3:2|0:0,0:0:0:0:
368,10,59363,6,0,B|422:21|404:54|470:56,1,110.000003356934,2|10,3:2|0:0,0:0:0:0:
500,105,59874,1,2,0:0:0:0:
500,105,60045,2,0,L|485:168,1,55.0000016784668,2|2,3:2|0:0,0:0:0:0:
444,193,60386,2,0,L|459:256,1,55.0000016784668,10|2,0:0|0:0,0:0:0:0:
488,291,60727,1,2,3:2:0:0:
395,351,61067,1,10,0:0:0:0:
310,280,61408,2,0,P|275:278|247:296,1,55.0000016784668,2|10,3:2|0:0,0:0:0:0:
215,322,61749,1,10,0:0:0:0:
107,346,62090,6,0,B|95:293|95:293|124:233,1,110.000003356934,2|8,3:2|0:0,0:0:0:0:
208,178,62772,2,0,P|195:116|183:62,1,110.000003356934,2|10,3:2|0:0,0:0:0:0:
236,46,63283,1,2,0:0:0:0:
236,46,63454,2,0,P|265:64|303:75,1,55.0000016784668,2|2,3:2|0:0,0:0:0:0:
333,96,63795,2,0,P|358:85|381:70,1,55.0000016784668,10|2,0:0|0:0,0:0:0:0:
421,32,64136,1,2,3:2:0:0:
490,117,64477,1,10,0:0:0:0:
407,190,64817,6,0,B|421:248|445:233|445:298,1,110.000003356934,2|10,3:2|0:0,0:0:0:0:
359,361,65499,2,0,P|299:368|261:337,1,110.000003356934,2|8,3:2|0:0,0:0:0:0:
233,299,66010,1,2,0:0:0:0:
233,299,66181,2,0,P|240:243|255:167,1,110.000003356934,0|10,3:2|0:0,0:0:0:0:
253,80,66863,2,0,L|191:64,1,55.0000016784668,2|10,3:2|0:0,0:0:0:0:
152,37,67204,2,0,L|90:53,1,55.0000016784668,10|2,0:0|0:0,0:0:0:0:
46,66,67545,6,0,P|31:122|69:175,1,110.000003356934,6|10,0:0|0:0,0:0:0:0:
98,208,68056,1,2,0:0:0:0:
98,208,68227,2,0,L|86:273,1,55.0000016784668,0|2,3:2|0:0,0:0:0:0:
62,310,68567,1,10,0:0:0:0:
159,361,68908,2,0,B|207:349|207:349|221:354|221:354|283:339,1,110.000003356934,2|10,3:2|0:0,0:0:0:0:
306,306,69420,1,2,0:0:0:0:
306,306,69590,2,0,L|369:323,2,55.0000016784668,2|2|10,3:2|0:0|0:0,0:0:0:0:
222,234,70272,6,0,P|230:181|242:119,1,110.000003356934,2|10,3:2|0:0,0:0:0:0:
253,74,70783,1,2,0:0:0:0:
253,74,70954,2,0,P|276:57|317:56,1,55.0000016784668,2|2,3:2|0:0,0:0:0:0:
354,82,71295,1,10,0:0:0:0:
354,82,71465,2,0,L|470:110,1,110.000003356934,2|2,0:0|0:0,0:0:0:0:
487,156,71977,1,10,0:0:0:0:
423,245,72317,2,0,P|431:277|436:316,1,55.0000016784668,2|8,3:2|0:0,0:0:0:0:
403,343,72658,1,8,0:0:0:0:
293,356,72999,6,0,B|234:352|257:316|174:311,1,110.000003356934,2|10,3:2|0:0,0:0:0:0:
142,313,73511,1,2,0:0:0:0:
142,313,73681,2,0,L|85:330,1,55.0000016784668,2|2,3:2|0:0,0:0:0:0:
40,303,74022,1,10,0:0:0:0:
101,211,74363,2,0,P|108:156|125:104,1,110.000003356934,2|10,3:2|0:0,0:0:0:0:
91,69,74874,1,2,0:0:0:0:
91,69,75045,2,0,P|48:77|21:86,2,55.0000016784668,2|2|10,3:2|0:0|0:0,0:0:0:0:
195,34,75727,5,0,3:2:0:0:
261,121,76067,2,0,P|267:162|274:234,1,110.000003356934,10|2,0:0|3:2,0:0:0:0:
331,324,76749,1,10,0:0:0:0:
438,299,77090,2,0,L|449:230,1,55.0000016784668,2|0,3:2|3:2,0:0:0:0:
483,203,77431,1,8,0:0:0:0:
459,95,77772,2,0,P|426:78|395:82,1,55.0000016784668,2|8,3:2|0:0,0:0:0:0:
366,42,78113,2,0,P|334:62|322:90,1,55.0000016784668,8|2,0:0|3:2,0:0:0:0:
302,126,78454,5,6,3:2:0:0:
359,207,78795,1,8,0:1:0:0:
308,293,79136,2,0,P|261:297|190:308,1,100,2|8,3:2|0:1,0:0:0:0:
142,228,79817,2,0,P|96:241|63:259,2,75,2|2|2,3:2|0:0|0:0,0:0:0:0:
166,185,80499,2,0,P|203:190|240:188,2,75,2|2|2,3:2|0:0|0:0,0:0:0:0:
135,145,81181,5,2,3:2:0:0:
58,80,81522,1,8,0:1:0:0:
140,23,81863,2,0,B|180:31|180:31|194:44|194:44|237:51,1,100,2|8,3:2|0:1,0:0:0:0:
275,87,82374,1,0,3:2:0:0:
275,87,82545,2,0,L|394:73,2,100,2|0|0,3:2|3:2|3:2,0:0:0:0:
242,125,83397,1,8,0:1:0:0:
242,125,83567,1,8,0:1:0:0:
296,208,83908,6,0,L|283:313,1,100,6|10,3:2|0:1,0:0:0:0:
379,335,84590,2,0,L|392:393,2,50,2|2|8,3:2|0:0|0:1,0:0:0:0:
415,300,85102,1,2,0:0:0:0:
472,219,85442,1,2,0:0:0:0:
472,219,85613,2,0,P|483:161|496:113,1,100,10|2,0:1|3:2,0:0:0:0:
423,50,86295,2,0,L|365:63,1,50,10|2,0:1|0:0,0:0:0:0:
335,92,86636,6,0,B|291:89|291:89|276:81|276:81|228:77,1,100,2|10,3:2|0:1,0:0:0:0:
160,22,87317,1,2,3:2:0:0:
160,22,87488,2,0,P|122:54|118:113,1,100,2|2,0:0|0:0,0:0:0:0:
55,182,88170,2,0,L|-5:174,2,50,10|10|10,0:3|0:1|0:3,0:0:0:0:
83,223,88681,1,2,3:2:0:0:
161,284,89022,2,0,L|211:292,1,50,10|10,0:1|0:1,0:0:0:0:
256,310,89363,6,0,P|286:263|275:208,1,100,2|10,3:2|0:1,0:0:0:0:
223,139,90045,2,0,L|163:152,2,50,2|2|8,3:2|0:0|0:1,0:0:0:0:
261,106,90556,1,2,0:0:0:0:
341,45,90897,1,2,0:0:0:0:
341,45,91067,2,0,B|391:32|391:32|446:58,1,100,10|2,0:1|3:2,0:0:0:0:
480,141,91749,2,0,P|473:168|472:199,1,50,10|2,0:1|0:0,0:0:0:0:
483,238,92090,6,0,B|433:242|430:273|392:283,1,100,2|10,3:2|0:1,0:0:0:0:
326,355,92772,1,2,3:2:0:0:
326,355,92942,2,0,P|276:345|223:338,1,100,2|2,0:0|0:0,0:0:0:0:
150,273,93624,2,0,P|124:277|88:283,2,50,10|10|10,0:3|0:1|0:3,0:0:0:0:
186,238,94136,1,10,0:1:0:0:
247,156,94477,2,0,L|256:91,1,50,10|8,0:1|0:3,0:0:0:0:
237,58,94817,6,0,P|180:47|127:34,1,100,6|2,0:0|3:2,0:0:0:0:
119,135,95499,2,0,P|62:145|9:159,1,100,2|2,3:2|3:2,0:0:0:0:
53,250,96181,2,0,P|44:307|37:363,2,100,2|2|2,3:2|3:2|3:2,0:0:0:0:
152,263,97204,2,0,L|216:273,1,50,2|0,3:2|0:0,0:0:0:0:
244,297,97545,6,0,P|300:307|331:263,1,100,2|2,3:2|3:2,0:0:0:0:
407,218,98227,2,0,L|423:111,1,100,2|2,3:2|3:2,0:0:0:0:
368,40,98909,1,6,0:0:0:0:
368,40,99079,2,0,P|341:41|306:58,1,50,2|8,0:0|0:0,0:0:0:0:
277,74,99420,1,2,0:0:0:0:
277,74,99591,2,0,P|248:76|224:63,2,50,2|10|8,3:0|0:2|0:0,0:0:0:0:
229,162,100272,6,0,B|238:207|238:207|236:219|236:219|245:276,1,100,6|2,0:0|3:2,0:0:0:0:
198,350,100954,2,0,P|148:359|106:326,1,100,2|2,3:2|3:2,0:0:0:0:
98,232,101636,2,0,P|54:240|-13:256,2,100,2|2|2,3:2|3:2|3:2,0:0:0:0:
178,171,102658,1,2,3:2:0:0:
219,80,102999,6,0,L|324:103,1,100,2|2,3:2|3:2,0:0:0:0:
295,199,103681,2,0,P|319:242|366:258,1,100,2|2,3:2|3:2,0:0:0:0:
433,185,104363,1,6,0:0:0:0:
433,185,104533,2,0,L|418:115,1,50,8|2,0:3|3:0,0:0:0:0:
447,94,104874,1,10,0:3:0:0:
447,94,105045,2,0,L|500:108,2,50,2|10|10,3:0|0:3|0:3,0:0:0:0:
368,31,105727,5,2,0:0:0:0:
368,31,107090,6,0,L|350:147,1,100,6|10,3:2|0:1,0:0:0:0:
317,164,107602,1,2,0:0:0:0:
317,164,107772,2,0,L|336:273,1,100,2|10,3:2|0:1,0:0:0:0:
279,346,108454,2,0,B|232:363|232:363|184:343,1,100,2|10,3:2|0:1,0:0:0:0:
161,306,108965,1,2,0:0:0:0:
161,306,109136,2,0,B|104:314|112:339|52:336,1,100,2|10,3:2|0:1,0:0:0:0:
23,240,109817,6,0,B|26:192|26:192|34:183|34:183|40:134,1,100,2|10,3:2|0:1,0:0:0:0:
53,98,110329,1,2,0:0:0:0:
53,98,110499,2,0,P|86:64|147:66,1,100,2|10,3:2|0:1,0:0:0:0:
228,100,111181,2,0,P|220:149|213:205,1,100,2|10,3:2|0:1,0:0:0:0:
189,243,111693,1,2,0:0:0:0:
189,243,111863,2,0,B|231:255|231:255|247:267|247:267|298:277,1,100,2|10,3:2|0:1,0:0:0:0:
365,330,112545,6,0,P|396:295|386:227,1,100,6|10,3:2|0:1,0:0:0:0:
422,201,113056,1,2,0:0:0:0:
422,201,113227,2,0,P|407:156|343:131,1,100,2|10,3:2|0:1,0:0:0:0:
354,31,113909,2,0,P|295:42|234:52,1,100,2|10,3:2|0:1,0:0:0:0:
220,84,114420,1,2,0:0:0:0:
220,84,114590,2,0,P|161:72|100:63,1,100,2|10,3:2|0:1,0:0:0:0:
34,116,115272,6,0,B|57:150|57:150|57:221,1,100,2|10,3:2|0:1,0:0:0:0:
102,241,115784,1,2,0:0:0:0:
102,241,115954,2,0,B|79:275|79:275|79:346,1,100,2|10,3:2|0:1,0:0:0:0:
173,367,116636,1,2,3:2:0:0:
263,323,116977,1,2,3:2:0:0:
253,223,117318,1,2,3:2:0:0:
160,184,117659,2,0,L|174:117,1,50,0|0,3:1|3:1,0:0:0:0:
199,88,117999,6,0,P|249:61|323:77,1,110.000003356934,6|10,3:2|0:0,0:0:0:0:
339,105,118511,2,0,L|404:98,1,55.0000016784668,2|0,0:0|3:2,0:0:0:0:
436,64,118852,1,2,0:0:0:0:
506,148,119193,2,0,P|489:193|484:268,1,110.000003356934,2|2,0:0|0:0,0:0:0:0:
501,306,119704,1,10,0:0:0:0:
398,345,120045,2,0,L|337:332,1,55.0000016784668,2|2,3:2|0:0,0:0:0:0:
304,304,120386,1,10,0:0:0:0:
304,304,120556,1,2,0:0:0:0:
197,331,120897,6,0,L|130:319,1,55.0000016784668,2|10,0:0|0:0,0:0:0:0:
92,339,121238,2,0,P|60:301|69:229,1,110.000003356934,2|2,0:0|0:0,0:0:0:0:
109,215,121749,2,0,L|124:142,1,55.0000016784668,10|2,0:0|0:0,0:0:0:0:
77,126,122090,2,0,L|58:9,1,110.000003356934,2|10,3:2|0:0,0:0:0:0:
167,39,122772,1,2,3:2:0:0:
167,39,122943,2,0,L|228:53,1,55.0000016784668,10|10,0:0|0:0,0:0:0:0:
267,22,123284,1,2,0:0:0:0:
267,22,123454,5,6,3:2:0:0:
352,90,123795,2,0,P|339:135|327:199,1,110.000003356934,10|2,0:0|3:2,0:0:0:0:
284,232,124306,1,2,0:0:0:0:
284,232,124477,1,10,0:0:0:0:
312,337,124818,2,0,P|364:350|414:296,1,110.000003356934,2|10,3:2|0:0,0:0:0:0:
476,233,125499,2,0,L|490:162,1,55.0000016784668,0|2,3:2|0:0,0:0:0:0:
456,132,125840,2,0,L|442:61,1,55.0000016784668,10|2,0:0|0:0,0:0:0:0:
390,74,126181,5,6,3:2:0:0:
301,8,126522,1,10,0:0:0:0:
211,72,126863,1,10,0:0:0:0:
245,176,127204,1,10,0:0:0:0:
355,178,127545,2,0,P|347:230|339:303,1,110.000003356934,2|0,3:0|3:0,0:0:0:0:
268,370,128227,1,0,3:0:0:0:
268,370,128397,2,0,P|240:356|211:354,1,55.0000016784668,2|2,3:0|0:0,0:0:0:0:
179,321,128738,1,2,0:0:0:0:
179,321,128909,6,0,B|117:330|133:367|62:360,1,110.000003356934,6|10,0:0|0:0,0:0:0:0:
51,253,129590,2,0,P|39:228|28:188,1,55.0000016784668,2|2,3:2|0:0,0:0:0:0:
76,170,129931,2,0,B|87:145|96:119,1,55.0000016784668,10|2,0:0|0:0,0:0:0:0:
54,83,130272,1,2,3:2:0:0:
146,23,130613,2,0,L|213:35,1,55.0000016784668,10|2,0:0|0:0,0:0:0:0:
252,50,130954,2,0,B|279:100|279:100|261:156,1,110.000003356934,2|10,3:2|0:0,0:0:0:0:
219,251,131636,6,0,B|245:264|267:263|267:263|285:275|285:275|305:276|336:287,1,110.000003356934,2|10,3:2|0:0,0:0:0:0:
368,322,132147,1,2,0:0:0:0:
368,322,132318,2,0,L|431:306,1,55.0000016784668,2|2,3:2|0:0,0:0:0:0:
473,287,132659,2,0,L|458:224,1,55.0000016784668,10|2,0:0|0:0,0:0:0:0:
425,190,132999,1,2,3:2:0:0:
486,98,133340,1,10,0:0:0:0:
393,37,133681,2,0,L|339:50,1,55.0000016784668,2|10,3:2|0:0,0:0:0:0:
286,64,134022,1,10,0:0:0:0:
233,160,134363,6,0,P|178:140|126:131,1,110.000003356934,2|8,3:2|0:0,0:0:0:0:
37,70,135045,2,0,B|0:110|0:110|14:183,1,110.000003356934,2|10,3:2|0:0,0:0:0:0:
25,223,135556,1,2,0:0:0:0:
25,223,135727,2,0,P|54:241|92:252,1,55.0000016784668,2|2,3:2|0:0,0:0:0:0:
113,285,136068,2,0,P|138:274|161:259,1,55.0000016784668,10|2,0:0|0:0,0:0:0:0:
216,259,136409,1,2,3:2:0:0:
305,314,136749,1,10,0:0:0:0:
394,249,137090,6,0,B|410:177|410:177|390:144,1,110.000003356934,2|10,3:2|0:0,0:0:0:0:
326,56,137772,2,0,P|269:48|219:89,1,110.000003356934,2|8,3:2|0:0,0:0:0:0:
188,115,138284,1,2,0:0:0:0:
188,115,138454,2,0,L|205:247,1,110.000003356934,0|10,3:2|0:0,0:0:0:0:
240,327,139136,2,0,P|267:327|303:342,1,55.0000016784668,2|10,3:2|0:0,0:0:0:0:
341,364,139477,2,0,P|368:363|394:355,1,55.0000016784668,10|2,0:0|0:0,0:0:0:0:
441,327,139818,6,0,P|452:273|454:216,1,110.000003356934,6|10,0:0|0:0,0:0:0:0:
425,177,140329,1,2,0:0:0:0:
425,177,140499,2,0,L|436:118,1,55.0000016784668,0|2,3:2|0:0,0:0:0:0:
450,70,140840,1,10,0:0:0:0:
342,44,141181,2,0,P|287:56|228:74,1,110.000003356934,2|10,3:2|0:0,0:0:0:0:
213,124,141693,1,2,0:0:0:0:
213,124,141863,2,0,L|228:189,2,55.0000016784668,2|2|10,3:2|0:0|0:0,0:0:0:0:
127,53,142545,6,0,L|139:-5,2,55.0000016784668,2|2|10,3:2|0:0|0:0,0:0:0:0:
102,102,143056,1,2,0:0:0:0:
102,102,143227,2,0,L|115:169,1,55.0000016784668,2|0,3:2|0:0,0:0:0:0:
109,214,143568,1,10,0:0:0:0:
109,214,143738,2,0,L|84:331,1,110.000003356934,2|2,0:0|0:0,0:0:0:0:
133,348,144249,1,10,0:0:0:0:
230,297,144590,2,0,L|246:232,1,55.0000016784668,2|8,3:2|0:0,0:0:0:0:
256,192,144931,1,8,0:0:0:0:
219,88,145272,6,0,P|257:61|326:70,1,110.000003356934,2|10,3:2|0:0,0:0:0:0:
370,97,145784,1,2,0:0:0:0:
370,97,145954,2,0,L|438:106,1,55.0000016784668,2|2,3:2|0:0,0:0:0:0:
473,129,146295,1,10,0:0:0:0:
386,197,146636,2,0,B|376:248|376:248|384:262|384:262|376:314,1,110.000003356934,2|10,3:2|0:0,0:0:0:0:
370,361,147147,1,2,0:0:0:0:
370,361,147318,2,0,P|413:369|440:378,2,55.0000016784668,2|2|10,3:2|0:0|0:0,0:0:0:0:
261,378,147999,5,0,3:2:0:0:
225,273,148340,2,0,B|161:283|180:304|111:311,1,110.000003356934,10|2,0:0|3:2,0:0:0:0:
18,272,149022,1,10,0:0:0:0:
57,169,149363,2,0,P|86:161|125:149,1,55.0000016784668,2|0,3:2|3:2,0:0:0:0:
154,122,149704,1,8,0:0:0:0:
228,41,150045,2,0,P|259:51|278:74,1,55.0000016784668,0|8,3:2|0:0,0:0:0:0:
322,93,150386,2,0,P|327:123|318:152,1,55.0000016784668,8|0,0:0|3:2,0:0:0:0:
279,182,150727,5,6,3:2:0:0:
355,246,151068,1,8,0:1:0:0:
301,330,151409,2,0,P|254:319|185:312,1,100,2|8,3:2|0:1,0:0:0:0:
129,250,152090,2,0,L|141:175,2,75,2|2|2,3:2|0:0|0:0,0:0:0:0:
92,284,152772,2,0,L|108:358,2,75,2|2|2,3:2|0:0|0:0,0:0:0:0:
47,260,153454,5,6,0:0:0:0:
11,166,153795,1,8,0:1:0:0:
57,77,154136,2,0,P|99:67|172:60,1,100,2|8,3:2|0:1,0:0:0:0:
252,83,154818,2,0,L|272:3,2,75,2|2|2,3:2|0:0|0:0,0:0:0:0:
287,118,155499,2,0,L|307:198,2,75,2|2|2,3:2|0:0|0:0,0:0:0:0:
329,91,156181,6,0,P|377:82|431:111,1,100,6|8,0:0|0:1,0:0:0:0:
464,130,156693,1,2,0:0:0:0:
464,130,156863,1,2,3:2:0:0:
511,218,157204,2,0,L|498:283,1,50,8|2,0:1|0:0,0:0:0:0:
459,294,157545,2,0,L|474:379,2,75,2|2|2,3:2|0:0|0:0,0:0:0:0:
413,272,158227,2,0,P|365:272|318:312,1,100,2|8,3:2|0:1,0:0:0:0:
224,290,158909,6,0,P|231:241|240:183,1,100,2|8,3:2|0:1,0:0:0:0:
310,121,159590,2,0,P|311:97|289:67,1,50,2|0,3:2|3:2,0:0:0:0:
264,38,159931,2,0,P|243:25|206:29,1,50,8|0,0:1|3:2,0:0:0:0:
176,52,160272,2,0,L|64:34,2,100,2|0|0,3:2|3:2|3:2,0:0:0:0:
196,103,161124,1,8,0:1:0:0:
196,103,161295,1,8,0:1:0:0:
110,155,161636,6,0,P|118:192|126:256,1,100,6|10,3:2|0:1,0:0:0:0:
95,349,162318,2,0,P|64:353|37:360,2,50,2|0|8,3:2|0:0|0:1,0:0:0:0:
141,366,162829,1,2,0:0:0:0:
224,309,163170,1,2,0:0:0:0:
224,309,163340,2,0,B|276:315|276:315|284:325|284:325|342:333,1,100,10|2,0:1|3:2,0:0:0:0:
418,331,164022,2,0,L|432:276,1,50,10|2,0:1|0:0,0:0:0:0:
471,253,164363,6,0,B|452:146,1,100,2|10,3:2|0:1,0:0:0:0:
378,96,165045,1,2,3:2:0:0:
378,96,165215,2,0,B|325:89|325:89|280:123,1,100,2|2,0:0|0:0,0:0:0:0:
201,167,165897,2,0,L|132:160,2,50,10|10|10,0:3|0:1|0:3,0:0:0:0:
235,204,166409,1,2,3:2:0:0:
202,298,166749,2,0,L|139:313,1,50,10|10,0:1|0:1,0:0:0:0:
109,333,167090,6,0,P|79:286|90:231,1,100,2|10,3:2|0:1,0:0:0:0:
48,149,167772,2,0,L|-22:136,2,50,2|2|8,3:2|0:0|0:1,0:0:0:0:
80,110,168284,1,2,0:0:0:0:
147,36,168624,1,2,0:0:0:0:
147,36,168795,2,0,P|196:29|251:62,1,100,10|2,0:1|3:2,0:0:0:0:
306,125,169477,2,0,L|359:113,1,50,10|2,0:1|0:0,0:0:0:0:
383,72,169818,6,0,L|491:98,1,100,2|10,3:2|0:1,0:0:0:0:
495,200,170499,1,2,3:2:0:0:
495,200,170670,2,0,L|391:222,1,100,2|2,0:0|0:0,0:0:0:0:
360,255,171181,1,8,0:1:0:0:
299,334,171522,2,0,L|248:311,1,50,10|10,0:1|0:3,0:0:0:0:
212,294,171863,1,10,0:1:0:0:
212,294,172034,2,0,L|143:316,2,50,8|10|8,0:3|0:1|0:3,0:0:0:0:
