osu file format v14

[General]
AudioFilename: audio.mp3
AudioLeadIn: 0
PreviewTime: 56039
Countdown: 0
SampleSet: Soft
StackLeniency: 0.4
Mode: 0
LetterboxInBreaks: 0
WidescreenStoryboard: 1

[Editor]
DistanceSpacing: 1
BeatDivisor: 4
GridSize: 32
TimelineZoom: 1.7

[Metadata]
Title:Itsuka Otona ni Nareru to Ii ne.
TitleUnicode:いつかオトナになれるといいね。
Artist:TUYU
ArtistUnicode:ツユ
Creator:Len
Version:Athanasia's Obsessive
Source:
Tags:pop jpop j-pop rock jrock j-rock japanese AzyuN すこやかツカサ 礼衣 ぷす ミロ I Hope You Can Be an Adult Someday iine pnky Lanzhu Erisu fast yf_bmp LeeGod Abelia moly Narcissu Athanasia-
BeatmapID:3631192
BeatmapSetID:1773106

[Difficulty]
HPDrainRate:5.5
CircleSize:4
OverallDifficulty:9.3
ApproachRate:9.3
SliderMultiplier:1.95
SliderTickRate:1

[Events]
//Background and Video events
0,0,"1920.jpg",0,0
Video,345,"1280.mp4"
//Break Periods
//Storyboard Layer 0 (Background)
//Storyboard Layer 1 (Fail)
//Storyboard Layer 2 (Pass)
//Storyboard Layer 3 (Foreground)
//Storyboard Layer 4 (Overlay)
//Storyboard Sound Samples

[TimingPoints]
727,340.909090909091,4,2,1,75,1,0
727,-100,4,2,1,75,0,0
5840,-250,4,2,1,75,0,0
6181,-83.3333333333333,4,2,1,90,0,1
27999,-100,4,2,1,75,0,0
33113,-250,4,2,1,75,0,0
33454,-100,4,2,1,70,0,0
44363,-100,4,2,1,60,0,0
48454,-100,4,2,1,75,0,0
49817,-100,4,2,1,60,0,0
53908,-100,4,2,1,75,0,0
55272,-250,4,2,1,50,0,0
55954,-666.666666666667,4,2,1,50,0,0
56636,-83.3333333333333,4,2,1,90,0,1
78454,-100,4,2,1,75,0,0
83567,-250,4,2,1,75,0,0
83908,-100,4,2,1,70,0,0
94817,-100,4,2,1,60,0,0
98908,-100,4,2,1,75,0,0
100271,-100,4,2,1,60,0,0
104362,-100,4,2,1,75,0,0
105726,-100,4,2,1,50,0,0
106749,-250,4,2,1,50,0,0
107090,-100,4,2,1,75,0,0
112545,-83.3333333333333,4,2,1,75,0,1
117999,-83.3333333333333,4,2,1,85,0,0
123795,-133.333333333333,4,2,1,85,0,1
124817,-200,4,2,1,85,0,1
125158,-133.333333333333,4,2,1,85,0,1
125499,-100,4,2,1,85,0,1
126181,-80,4,2,1,85,0,1
126863,-66.6666666666667,4,2,1,85,0,1
127545,-250,4,2,1,50,0,0
128397,-250,4,2,1,70,0,0
128567,-400,4,2,1,70,0,0
128908,-83.3333333333333,4,2,1,90,0,1
150727,-100,4,2,1,65,0,0
161295,-250,4,2,1,65,0,0
161636,-100,4,2,1,70,0,0

[Colours]
Combo1 : 255,223,128
Combo2 : 172,172,215
Combo3 : 255,157,157

[HitObjects]
128,156,727,6,0,P|201:137|294:129,1,146.25,6|0,3:2|0:0,0:0:0:0:
343,79,1067,2,0,P|312:43|265:41,1,97.5,10|2,0:1|0:0,0:0:0:0:
37,25,1408,2,0,P|48:80|55:141,1,97.5,2|0,3:2|0:0,0:0:0:0:
320,311,1749,2,0,P|332:224|349:160,1,146.25,10|0,0:1|0:0,0:0:0:0:
421,121,2090,6,0,P|471:155|446:241,1,146.25,2|0,3:2|0:0,0:0:0:0:
370,231,2431,2,0,L|235:217,1,97.5,10|2,0:1|0:0,0:0:0:0:
28,368,2772,2,0,P|63:349|141:340,1,97.5,2|0,3:2|0:0,0:0:0:0:
269,95,3113,2,0,P|214:68|169:160,1,146.25,10|0,0:1|0:0,0:0:0:0:
171,206,3454,6,0,P|200:272|206:349,1,146.25,2|0,3:2|0:0,0:0:0:0:
291,368,3795,2,0,P|358:363|392:340,1,97.5,10|2,0:1|0:0,0:0:0:0:
473,147,4136,2,0,L|348:130,1,97.5,2|0,3:2|0:0,0:0:0:0:
72,67,4477,2,0,P|148:60|232:31,1,146.25,10|0,0:1|0:0,0:0:0:0:
289,1,4817,5,2,3:2:0:0:
447,225,4988,1,0,3:2:0:0:
223,383,5158,1,2,3:2:0:0:
65,159,5329,1,2,3:2:0:0:
277,161,5499,5,2,3:2:0:0:
291,203,5584,1,0,3:2:0:0:
256,229,5670,1,2,3:2:0:0:
220,203,5755,1,0,3:2:0:0:
234,161,5840,1,2,3:2:0:0:
256,229,6181,6,0,L|270:46,1,175.499994644165,6|0,0:0|0:0,0:0:0:0:
205,11,6522,2,0,P|129:16|113:78,1,116.999996429443,10|0,0:0|0:0,0:0:0:0:
7,275,6863,1,2,3:2:0:0:
153,383,7033,1,2,0:0:0:0:
264,80,7204,1,10,0:0:0:0:
156,226,7374,1,2,0:0:0:0:
367,266,7545,5,2,3:2:0:0:
218,158,7715,1,2,0:0:0:0:
367,266,7886,1,10,0:0:0:0:
218,158,8056,1,2,0:0:0:0:
285,275,8227,2,0,P|293:207|303:144,1,116.999996429443,2|0,3:2|0:0,0:0:0:0:
347,7,8567,5,10,0:0:0:0:
450,155,8738,1,2,0:0:0:0:
339,92,8908,1,2,3:2:0:0:
368,89,8993,1,0,0:0:0:0:
397,85,9078,1,0,0:0:0:0:
426,81,9163,1,0,0:0:0:0:
455,77,9248,1,10,0:0:0:0:
498,8,9420,1,2,0:0:0:0:
163,37,9590,5,2,3:2:0:0:
231,77,9761,2,0,P|236:110|243:166,1,58.4999982147217,2|2,0:0|0:0,0:0:0:0:
320,251,9931,1,10,0:0:0:0:
252,291,10102,2,0,P|247:324|240:380,1,58.4999982147217,2|2,0:0|0:0,0:0:0:0:
444,167,10271,5,2,3:2:0:0:
460,251,10442,2,0,P|421:249|377:203,1,58.4999982147217,2|2,0:0|0:0,0:0:0:0:
62,355,10613,1,10,0:0:0:0:
60,269,10783,2,0,P|97:277|132:330,1,58.4999982147217,2|0,0:0|0:0,0:0:0:0:
189,368,10954,6,0,P|198:320|199:270,1,58.4999982147217,2|0,3:2|0:0,0:0:0:0:
261,255,11125,2,0,P|251:207|251:157,1,58.4999982147217,10|0,0:0|0:0,0:0:0:0:
310,17,11295,2,0,P|308:75|298:132,1,116.999996429443,10|0,0:0|0:0,0:0:0:0:
421,263,11636,2,0,P|497:243|492:173,1,116.999996429443,2|0,3:2|0:0,0:0:0:0:
486,140,11891,1,0,0:0:0:0:
486,140,11977,2,0,P|415:131|352:130,1,116.999996429443,8|0,0:0|0:0,0:0:0:0:
202,372,12317,5,2,3:2:0:0:
301,263,12488,1,2,0:0:0:0:
117,173,12658,1,10,0:0:0:0:
216,282,12829,1,2,0:0:0:0:
27,375,12999,1,2,3:2:0:0:
76,307,13170,1,2,0:0:0:0:
199,141,13340,1,10,0:0:0:0:
131,92,13511,1,2,0:0:0:0:
38,233,13681,2,0,P|98:216|185:207,1,116.999996429443,2|0,3:2|0:0,0:0:0:0:
480,273,14022,6,0,B|484:228|457:193|457:193|428:162|433:109,1,175.499994644165,10|0,0:0|0:0,0:0:0:0:
428,31,14363,2,0,P|354:28|294:16,1,116.999996429443,2|0,3:2|0:0,0:0:0:0:
288,170,14704,2,0,P|253:104|233:46,1,116.999996429443,10|0,0:0|0:0,0:0:0:0:
97,118,15045,2,0,P|136:55|176:9,1,116.999996429443,2|0,3:2|0:0,0:0:0:0:
208,351,15386,1,8,0:0:0:0:
208,351,15556,2,0,B|149:368|112:329|112:329|73:300|33:309,1,175.499994644165,2|0,0:0|0:0,0:0:0:0:
26,384,15897,1,2,0:0:0:0:
175,268,16067,1,10,0:0:0:0:
362,318,16238,1,2,0:0:0:0:
256,33,16408,5,2,3:2:0:0:
216,111,16579,1,10,0:0:0:0:
212,118,16665,1,2,0:0:0:0:
208,127,16750,1,10,0:0:0:0:
326,91,16920,2,0,L|394:74,1,58.4999982147217,2|0,0:0|0:0,0:0:0:0:
491,251,17090,6,0,P|446:239|353:223,1,116.999996429443,6|0,0:0|0:0,0:0:0:0:
167,47,17431,1,10,0:0:0:0:
138,40,17516,1,2,0:0:0:0:
110,33,17601,1,2,0:0:0:0:
81,27,17686,1,2,0:0:0:0:
52,23,17772,2,0,P|42:45|30:96,1,58.4999982147217,0|0,3:2|0:0,0:0:0:0:
142,188,17942,2,0,P|131:215|123:262,1,58.4999982147217,2|0,0:0|0:0,0:0:0:0:
19,331,18113,2,0,P|43:207|65:131,1,175.499994644165,10|0,0:0|0:0,0:0:0:0:
186,355,18454,5,2,3:2:0:0:
202,315,18539,1,0,0:0:0:0:
237,289,18624,1,2,0:0:0:0:
281,289,18709,1,2,0:0:0:0:
318,312,18794,1,10,0:0:0:0:
355,335,18880,1,0,0:0:0:0:
398,334,18965,1,2,0:0:0:0:
434,309,19050,1,2,0:0:0:0:
451,270,19136,2,0,P|443:239|426:185,1,58.4999982147217,2|0,3:2|0:0,0:0:0:0:
260,154,19306,2,0,P|252:123|235:69,1,58.4999982147217,2|0,0:0|0:0,0:0:0:0:
312,16,19477,2,0,P|336:85|361:217,1,175.499994644165,10|0,0:0|0:0,0:0:0:0:
475,47,19817,5,2,3:2:0:0:
226,1,19988,1,0,0:0:0:0:
305,256,20158,1,10,0:0:0:0:
397,3,20329,1,2,0:0:0:0:
107,118,20499,1,2,3:2:0:0:
386,272,20670,1,2,0:0:0:0:
34,272,20840,1,10,0:0:0:0:
40,352,21011,6,0,B|86:354|117:310|117:310|151:264|217:274,1,175.499994644165,2|0,0:0|0:0,0:0:0:0:
265,296,21352,1,2,0:0:0:0:
29,364,21522,1,10,0:0:0:0:
181,194,21692,1,2,0:0:0:0:
18,37,21863,2,0,P|47:27|105:17,1,58.4999982147217,2|0,3:2|0:0,0:0:0:0:
227,112,22033,2,0,P|256:102|314:92,1,58.4999982147217,8|0,0:0|0:0,0:0:0:0:
344,284,22204,2,0,P|435:255|509:257,1,116.999996429443,8|0,0:0|0:0,0:0:0:0:
480,58,22545,5,2,3:2:0:0:
427,125,22715,1,2,0:0:0:0:
406,105,22800,1,2,0:0:0:0:
398,77,22886,1,10,0:0:0:0:
391,49,22971,1,0,0:0:0:0:
402,21,23056,1,2,0:0:0:0:
253,197,23227,2,0,P|231:179|216:154,1,58.4999982147217,2|2,3:2|0:0,0:0:0:0:
314,28,23397,2,0,P|284:32|255:30,1,58.4999982147217,2|0,0:0|0:0,0:0:0:0:
71,51,23567,2,0,P|135:62|224:95,1,116.999996429443,10|0,0:0|0:0,0:0:0:0:
40,353,23908,5,2,3:2:0:0:
58,330,23994,1,0,0:0:0:0:
84,318,24079,1,2,0:0:0:0:
145,213,24249,1,10,0:0:0:0:
168,196,24334,1,0,0:0:0:0:
197,194,24420,1,2,0:0:0:0:
225,206,24505,1,2,0:0:0:0:
240,230,24590,2,0,P|267:265|302:293,1,58.4999982147217,2|2,3:2|0:0,0:0:0:0:
388,191,24761,2,0,P|415:226|450:254,1,58.4999982147217,2|0,0:0|0:0,0:0:0:0:
511,357,24931,2,0,P|415:315|343:320,1,175.499994644165,10|0,0:0|0:0,0:0:0:0:
272,356,25272,6,0,P|216:340|132:327,1,116.999996429443,0|0,3:2|0:0,0:0:0:0:
10,265,25613,2,0,P|21:315|31:387,1,116.999996429443,10|0,0:0|0:0,0:0:0:0:
173,136,25954,2,0,P|161:186|152:258,1,116.999996429443,2|0,3:2|0:0,0:0:0:0:
313,69,26295,2,0,P|324:119|334:191,1,116.999996429443,10|0,0:0|0:0,0:0:0:0:
484,372,26636,5,2,3:2:0:0:
407,231,26807,1,0,3:2:0:0:
277,345,26977,1,2,3:2:0:0:
171,140,27147,1,0,0:0:0:0:
12,376,27318,5,0,3:2:0:0:
46,373,27403,1,0,3:0:0:0:
84,369,27488,1,8,0:0:0:0:
122,369,27573,1,0,3:0:0:0:
157,365,27659,1,8,0:0:0:0:
194,361,27744,1,0,3:0:0:0:
230,359,27829,1,0,3:2:0:0:
266,354,27914,1,0,3:2:0:0:
302,349,28000,1,6,3:2:0:0:
390,117,28511,5,2,0:0:0:0:
390,117,28681,2,0,L|254:145,1,97.5,2|0,3:2|0:0,0:0:0:0:
215,155,28937,2,0,P|185:110|193:66,1,97.5,2|0,0:0|0:0,0:0:0:0:
191,69,29192,1,2,0:0:0:0:
191,69,29278,1,0,0:0:0:0:
260,28,29363,5,2,3:2:0:0:
477,231,29619,1,2,0:0:0:0:
192,317,29874,1,2,0:0:0:0:
360,129,30045,5,2,3:2:0:0:
338,252,30300,1,2,0:0:0:0:
240,171,30556,1,2,0:0:0:0:
265,25,30727,6,0,P|208:18|148:18,1,97.5,2|0,3:2|0:0,0:0:0:0:
142,99,31067,2,0,P|86:102|25:112,1,97.5,8|0,0:1|0:0,0:0:0:0:
39,269,31408,1,2,3:2:0:0:
10,344,31579,1,0,3:2:0:0:
6,351,31665,1,0,3:2:0:0:
2,360,31749,1,8,0:1:0:0:
49,347,31834,1,0,3:2:0:0:
96,335,31919,1,0,3:2:0:0:
143,322,32004,1,0,3:2:0:0:
190,310,32090,5,2,3:2:0:0:
190,310,32431,1,0,3:2:0:0:
190,310,32772,1,0,3:2:0:0:
301,154,32942,2,0,P|265:143|240:141,1,48.75,8|0,0:1|0:0,0:0:0:0:
178,143,33113,6,0,P|168:109|166:77,1,58.5,8|0,0:1|0:0,0:0:0:0:
170,10,33454,6,0,P|215:15|276:35,1,97.5,6|2,3:2|0:0,0:0:0:0:
395,133,33795,2,0,P|350:138|289:158,1,97.5,10|2,0:1|0:0,0:0:0:0:
283,278,34136,1,2,3:2:0:0:
283,278,34221,1,2,0:0:0:0:
283,278,34306,1,0,0:0:0:0:
493,378,34647,6,0,L|299:354,1,195,2|2,0:0|0:0,0:0:0:0:
109,179,35158,2,0,L|226:160,1,97.5,10|2,0:1|0:0,0:0:0:0:
464,293,35499,2,0,P|454:227|441:171,1,97.5,2|2,3:2|0:0,0:0:0:0:
285,18,35755,1,0,0:0:0:0:
285,18,35840,2,0,P|273:73|267:143,1,97.5,10|2,0:1|0:0,0:0:0:0:
481,115,36181,5,2,3:2:0:0:
481,115,36352,2,0,P|448:105|402:100,1,48.75,2|0,0:0|0:0,0:0:0:0:
307,192,36522,1,10,0:1:0:0:
307,192,36693,2,0,P|273:199|231:218,1,48.75,2|2,0:0|0:0,0:0:0:0:
105,40,36863,2,0,P|161:28|207:27,1,97.5,2|2,3:2|0:0,0:0:0:0:
226,372,37374,6,0,P|113:324|62:318,1,146.25,2|0,0:0|0:0,0:0:0:0:
14,330,37715,2,0,P|6:295|4:238,1,48.75,10|0,0:3|0:0,0:0:0:0:
142,183,37886,1,10,0:1:0:0:
142,183,38056,2,0,P|134:148|132:91,1,48.75,10|0,0:3|0:0,0:0:0:0:
298,313,38227,1,2,3:2:0:0:
298,313,38397,2,0,P|290:278|288:221,1,48.75,10|0,0:3|0:0,0:0:0:0:
454,100,38567,2,0,P|463:151|474:214,1,97.5,10|10,0:1|0:1,0:0:0:0:
325,75,38908,5,2,3:2:0:0:
311,54,38993,1,0,0:0:0:0:
292,40,39078,1,2,0:0:0:0:
269,32,39163,1,2,0:0:0:0:
244,33,39248,1,10,0:1:0:0:
232,55,39334,1,0,0:0:0:0:
230,78,39419,1,2,0:0:0:0:
234,102,39504,1,0,0:0:0:0:
248,123,39590,1,2,3:2:0:0:
323,161,39761,1,2,0:0:0:0:
195,372,40102,6,0,P|275:346|409:328,1,195,2|2,0:0|0:0,0:0:0:0:
499,191,40613,2,0,P|444:172|379:168,1,97.5,10|2,0:1|0:0,0:0:0:0:
47,27,40954,2,0,P|65:81|70:147,1,97.5,2|2,3:2|0:0,0:0:0:0:
214,274,41209,1,0,0:0:0:0:
214,274,41295,2,0,P|232:219|237:154,1,97.5,10|2,0:1|0:0,0:0:0:0:
397,28,41636,5,2,3:2:0:0:
397,28,41806,2,0,P|405:67|408:106,1,48.75,2|0,0:0|0:0,0:0:0:0:
253,59,41977,1,10,0:1:0:0:
253,59,42147,2,0,P|261:98|264:137,1,48.75,2|2,0:0|0:0,0:0:0:0:
51,172,42317,2,0,P|103:158|170:155,1,97.5,2|2,3:2|0:0,0:0:0:0:
280,372,42829,6,0,P|169:334|112:333,1,146.25,2|0,0:0|0:0,0:0:0:0:
108,254,43170,2,0,P|143:248|177:250,1,48.75,10|0,0:3|0:0,0:0:0:0:
379,151,43340,1,10,0:1:0:0:
379,151,43511,2,0,P|344:145|310:147,1,48.75,10|0,0:3|0:0,0:0:0:0:
141,15,43681,1,10,0:1:0:0:
189,10,43766,1,0,3:2:0:0:
238,5,43851,1,8,0:3:0:0:
477,263,44022,1,10,0:1:0:0:
428,256,44107,1,8,0:3:0:0:
380,249,44192,1,8,0:3:0:0:
332,242,44277,1,8,0:3:0:0:
283,236,44362,5,0,0:0:0:0:
237,171,44477,1,2,0:0:0:0:
204,244,44590,1,2,0:0:0:0:
250,309,44704,1,2,3:2:0:0:
250,309,45045,5,2,3:2:0:0:
204,244,45159,1,2,0:0:0:0:
237,171,45272,1,2,0:0:0:0:
283,236,45387,1,2,3:2:0:0:
283,236,45727,5,2,3:2:0:0:
210,197,45840,1,0,0:0:0:0:
133,214,45954,1,2,0:0:0:0:
283,236,46067,5,2,3:2:0:0:
201,224,46180,1,0,0:0:0:0:
134,266,46294,1,2,0:0:0:0:
283,236,46408,5,2,3:2:0:0:
201,252,46521,1,0,0:0:0:0:
153,315,46635,1,2,0:0:0:0:
203,374,46749,2,0,B|246:373|266:350|266:350|303:328|370:333,1,130,2|2,3:2|0:0,0:0:0:0:
464,219,47090,6,0,L|470:115,3,65,2|2|2|2,3:2|0:0|0:0|3:2,0:0:0:0:
382,213,47772,2,0,L|386:149,3,65,2|2|2|2,3:2|0:0|0:0|3:2,0:0:0:0:
256,32,48454,5,6,0:0:0:0:
52,105,48625,1,2,0:0:0:0:
187,244,48795,1,10,0:0:0:0:
114,40,48966,1,2,0:0:0:0:
264,277,49136,5,2,3:0:0:0:
156,322,49307,1,10,0:2:0:0:
232,352,49477,1,10,0:0:0:0:
187,244,49647,1,2,0:0:0:0:
264,277,49817,5,6,0:0:0:0:
232,352,49931,1,2,0:0:0:0:
156,322,50045,1,2,0:0:0:0:
187,244,50158,1,2,3:2:0:0:
187,244,50499,5,2,3:2:0:0:
156,322,50612,1,0,0:0:0:0:
232,352,50726,1,2,0:0:0:0:
264,277,50840,1,2,3:2:0:0:
264,277,51181,5,2,3:2:0:0:
187,291,51295,1,2,0:0:0:0:
110,306,51408,1,2,0:0:0:0:
264,277,51522,5,2,3:2:0:0:
186,264,51636,1,2,0:0:0:0:
109,251,51749,1,2,0:0:0:0:
264,277,51863,5,2,3:2:0:0:
195,238,51977,1,0,0:0:0:0:
127,199,52090,1,2,0:0:0:0:
117,121,52204,2,0,B|160:120|180:97|180:97|217:75|284:80,1,130,2|0,3:2|0:0,0:0:0:0:
473,33,52545,6,0,L|393:16,3,65,2|2|2|2,3:2|0:0|0:0|3:2,0:0:0:0:
454,117,53227,2,0,L|374:100,3,65,2|2|2|2,3:2|0:0|0:0|3:2,0:0:0:0:
195,24,53908,5,6,0:0:0:0:
195,24,54079,2,0,P|203:57|206:90,1,48.75,10|0,0:3|0:0,0:0:0:0:
305,161,54249,1,2,3:0:0:0:
305,161,54420,2,0,P|297:194|294:227,1,48.75,10|0,0:3|0:0,0:0:0:0:
183,374,54590,2,0,P|191:340|194:241,1,97.5,2|10,3:0|0:3,0:0:0:0:
178,201,54846,1,0,0:0:0:0:
138,174,54931,1,10,0:3:0:0:
90,175,55016,1,8,0:3:0:0:
51,203,55101,1,8,0:3:0:0:
36,249,55186,1,8,0:3:0:0:
50,295,55272,6,0,P|59:322|62:347,1,39,2|0,3:0|3:0,0:0:0:0:
101,156,55613,2,0,P|110:183|113:208,1,39,2|2,3:0|3:0,0:0:0:0:
169,46,55954,6,0,P|178:73|184:101,1,51.1874984378815,2|0,3:0|0:0,0:0:0:0:
200,49,56636,6,0,P|216:141|232:236,1,175.499994644165,6|0,0:0|0:0,0:0:0:0:
245,302,56977,2,0,P|163:328|121:279,1,116.999996429443,10|0,0:0|0:0,0:0:0:0:
55,194,57317,1,2,3:2:0:0:
200,49,57488,1,2,0:0:0:0:
366,291,57658,1,10,0:0:0:0:
220,145,57829,1,2,0:0:0:0:
467,39,57999,5,2,3:2:0:0:
360,211,58170,1,2,0:0:0:0:
467,39,58340,1,10,0:0:0:0:
360,211,58511,1,2,0:0:0:0:
373,34,58681,2,0,P|392:86|415:164,1,116.999996429443,2|0,3:2|0:0,0:0:0:0:
509,365,59022,5,10,0:0:0:0:
348,291,59192,1,2,0:0:0:0:
485,163,59363,1,2,3:2:0:0:
492,192,59448,1,0,0:0:0:0:
497,220,59533,1,0,0:0:0:0:
501,250,59618,1,0,0:0:0:0:
504,279,59703,1,10,0:0:0:0:
429,323,59874,1,2,0:0:0:0:
263,222,60045,5,2,3:2:0:0:
245,139,60215,2,0,P|283:140|314:153,1,58.4999982147217,2|0,0:0|0:0,0:0:0:0:
67,266,60386,1,10,0:0:0:0:
85,349,60556,2,0,P|47:348|16:335,1,58.4999982147217,2|2,0:0|0:0,0:0:0:0:
54,128,60727,5,2,3:2:0:0:
66,50,60897,2,0,P|92:33|132:35,1,58.4999982147217,2|2,0:0|0:0,0:0:0:0:
432,63,61067,1,10,0:0:0:0:
420,141,61237,6,0,P|393:157|353:155,1,58.4999982147217,2|0,0:0|0:0,0:0:0:0:
207,21,61408,2,0,P|224:66|233:115,1,58.4999982147217,2|0,3:2|0:0,0:0:0:0:
284,136,61579,2,0,P|282:185|291:234,1,58.4999982147217,10|0,0:0|0:0,0:0:0:0:
249,357,61749,2,0,P|236:300|217:245,1,116.999996429443,10|0,0:0|0:0,0:0:0:0:
103,120,62090,2,0,P|29:146|15:221,1,116.999996429443,2|0,3:2|0:0,0:0:0:0:
22,252,62346,1,0,0:0:0:0:
22,252,62431,2,0,L|149:231,1,116.999996429443,8|0,0:0|0:0,0:0:0:0:
415,209,62772,5,2,3:2:0:0:
316,294,62942,1,2,0:0:0:0:
163,246,63113,1,10,0:0:0:0:
248,345,63283,1,2,0:0:0:0:
59,369,63454,1,2,3:2:0:0:
111,307,63624,1,2,0:0:0:0:
28,187,63795,1,10,0:0:0:0:
145,53,63965,1,2,0:0:0:0:
15,3,64136,2,0,P|58:64|66:127,1,116.999996429443,2|0,3:2|0:0,0:0:0:0:
203,216,64477,6,0,P|320:210|414:165,1,175.499994644165,10|0,0:0|0:0,0:0:0:0:
449,231,64817,2,0,P|423:296|407:364,1,116.999996429443,2|0,3:2|0:0,0:0:0:0:
270,134,65158,2,0,P|247:79|232:23,1,116.999996429443,10|0,0:0|0:0,0:0:0:0:
123,249,65499,2,0,P|107:305|85:359,1,116.999996429443,2|0,3:2|0:0,0:0:0:0:
412,350,65840,1,8,0:0:0:0:
412,350,66011,2,0,B|354:369|313:347|313:347|264:331|220:355,1,175.499994644165,2|0,0:0|0:0,0:0:0:0:
170,377,66352,1,2,0:0:0:0:
282,233,66522,1,10,0:0:0:0:
482,308,66692,1,2,0:0:0:0:
429,35,66863,5,2,3:2:0:0:
463,113,67033,1,10,0:0:0:0:
467,121,67119,1,2,0:0:0:0:
471,129,67204,1,10,0:0:0:0:
350,90,67374,2,0,L|276:72,1,58.4999982147217,2|0,0:0|0:0,0:0:0:0:
77,80,67545,6,0,P|98:166|113:252,1,175.499994644165,6|0,0:0|0:0,0:0:0:0:
126,333,67886,1,10,0:0:0:0:
96,357,67971,1,2,0:0:0:0:
58,355,68056,1,2,0:0:0:0:
30,329,68141,1,2,0:0:0:0:
21,290,68227,2,0,P|18:264|-1:212,1,58.4999982147217,0|0,3:2|0:0,0:0:0:0:
142,36,68397,2,0,P|150:63|154:92,1,58.4999982147217,2|0,0:0|0:0,0:0:0:0:
103,256,68567,2,0,P|88:170|67:84,1,175.499994644165,10|0,0:0|0:0,0:0:0:0:
23,10,68908,5,2,3:2:0:0:
8,45,68993,1,0,0:0:0:0:
9,84,69078,1,2,0:0:0:0:
26,119,69164,1,2,0:0:0:0:
57,143,69249,1,10,0:0:0:0:
99,133,69334,1,0,0:0:0:0:
142,124,69419,1,2,0:0:0:0:
185,114,69504,1,2,0:0:0:0:
210,145,69590,2,0,P|219:187|216:258,1,58.4999982147217,2|0,3:2|0:0,0:0:0:0:
54,277,69761,2,0,P|45:235|48:164,1,58.4999982147217,2|0,0:0|0:0,0:0:0:0:
101,54,69931,2,0,P|122:146|137:255,1,175.499994644165,10|0,0:0|0:0,0:0:0:0:
140,313,70272,5,2,3:2:0:0:
406,352,70442,1,0,0:0:0:0:
307,104,70613,1,10,0:0:0:0:
268,370,70783,1,2,0:0:0:0:
502,267,70954,1,2,3:2:0:0:
256,169,71124,1,2,0:0:0:0:
14,281,71295,1,10,0:0:0:0:
43,354,71465,6,0,B|99:354|123:304|123:304|149:258|220:261,1,175.499994644165,2|0,0:0|0:0,0:0:0:0:
265,245,71806,1,2,0:0:0:0:
33,366,71977,1,10,0:0:0:0:
179,189,72147,1,2,0:0:0:0:
488,355,72317,2,0,P|482:309|473:271,1,58.4999982147217,2|0,3:2|0:0,0:0:0:0:
337,203,72488,2,0,P|331:157|322:119,1,58.4999982147217,8|0,0:0|0:0,0:0:0:0:
164,18,72658,2,0,P|129:127|128:153,1,116.999996429443,8|0,0:0|0:0,0:0:0:0:
53,361,72999,5,2,3:2:0:0:
112,303,73169,1,2,0:0:0:0:
102,275,73254,1,2,0:0:0:0:
77,261,73340,1,10,0:0:0:0:
49,264,73425,1,0,0:0:0:0:
29,285,73510,1,2,0:0:0:0:
192,315,73681,2,0,P|210:289|246:264,1,58.4999982147217,2|2,3:2|0:0,0:0:0:0:
383,350,73852,2,0,P|374:319|349:283,1,58.4999982147217,2|0,0:0|0:0,0:0:0:0:
330,115,74022,2,0,P|311:185|305:277,1,116.999996429443,10|0,0:0|0:0,0:0:0:0:
415,229,74363,5,2,3:2:0:0:
416,202,74448,1,0,0:0:0:0:
399,177,74533,1,2,0:0:0:0:
187,194,74703,1,10,0:0:0:0:
172,171,74789,1,0,0:0:0:0:
172,144,74874,1,2,0:0:0:0:
190,121,74959,1,2,0:0:0:0:
219,116,75045,2,0,P|203:72|196:28,1,58.4999982147217,2|2,3:2|0:0,0:0:0:0:
381,74,75215,2,0,P|373:45|362:18,1,58.4999982147217,2|0,0:0|0:0,0:0:0:0:
293,72,75386,2,0,P|312:144|333:244,1,175.499994644165,10|0,0:0|0:0,0:0:0:0:
277,296,75727,6,0,P|222:294|131:318,1,116.999996429443,0|0,3:2|0:0,0:0:0:0:
495,267,76067,2,0,P|484:314|472:391,1,116.999996429443,10|0,0:0|0:0,0:0:0:0:
352,110,76408,2,0,P|364:167|373:225,1,116.999996429443,2|0,3:2|0:0,0:0:0:0:
239,25,76749,2,0,P|228:72|216:149,1,116.999996429443,10|0,0:0|0:0,0:0:0:0:
28,372,77090,5,2,3:2:0:0:
105,231,77261,1,0,3:2:0:0:
235,345,77431,1,2,3:2:0:0:
341,140,77601,1,0,0:0:0:0:
499,376,77772,5,2,3:2:0:0:
465,373,77857,1,0,3:0:0:0:
427,369,77942,1,8,0:0:0:0:
389,369,78027,1,0,3:0:0:0:
354,365,78113,1,8,0:0:0:0:
317,361,78198,1,0,3:0:0:0:
281,359,78283,1,2,3:2:0:0:
245,354,78368,1,0,3:2:0:0:
209,349,78454,1,6,3:2:0:0:
242,160,78965,5,2,0:0:0:0:
242,160,79136,2,0,L|363:149,1,97.5,2|0,3:2|0:0,0:0:0:0:
415,138,79391,2,0,P|405:55|388:42,1,97.5,2|0,0:0|0:0,0:0:0:0:
399,49,79647,1,2,0:0:0:0:
399,49,79732,1,0,0:0:0:0:
330,11,79817,5,2,3:2:0:0:
385,295,80073,1,2,0:0:0:0:
101,350,80329,1,2,0:0:0:0:
74,215,80499,5,2,3:2:0:0:
210,188,80755,1,2,0:0:0:0:
237,324,81011,1,2,0:0:0:0:
471,355,81181,6,0,P|434:311|360:294,1,97.5,2|0,3:2|0:0,0:0:0:0:
334,233,81522,2,0,P|341:171|355:108,1,97.5,8|0,0:1|0:0,0:0:0:0:
225,63,81863,1,2,3:2:0:0:
150,34,82034,1,0,3:2:0:0:
142,30,82120,1,0,3:2:0:0:
134,26,82204,1,8,0:1:0:0:
147,73,82289,1,0,3:2:0:0:
159,120,82374,1,0,3:2:0:0:
172,167,82459,1,0,3:2:0:0:
184,214,82545,5,2,3:2:0:0:
184,214,82886,1,0,3:2:0:0:
184,214,83227,1,0,3:2:0:0:
351,147,83397,2,0,L|418:163,1,48.75,8|0,0:1|0:0,0:0:0:0:
474,178,83567,6,0,L|466:248,1,58.5,8|0,0:1|0:0,0:0:0:0:
467,311,83908,6,0,P|399:316|330:328,1,97.5,6|2,3:2|0:0,0:0:0:0:
264,161,84249,2,0,P|215:154|167:151,1,97.5,10|2,0:1|0:0,0:0:0:0:
42,271,84590,1,2,3:2:0:0:
42,271,84675,1,0,0:0:0:0:
42,271,84761,1,2,0:0:0:0:
32,18,85102,6,0,P|61:75|90:244,1,195,2|2,0:0|0:0,0:0:0:0:
269,350,85613,2,0,P|276:304|298:210,1,97.5,10|2,0:1|0:0,0:0:0:0:
486,48,85954,2,0,P|440:41|346:19,1,97.5,2|2,3:2|0:0,0:0:0:0:
203,163,86209,1,0,0:0:0:0:
203,163,86295,2,0,P|249:170|343:192,1,97.5,10|2,0:1|0:0,0:0:0:0:
487,367,86636,5,2,3:2:0:0:
487,367,86806,2,0,P|480:333|470:292,1,48.75,2|0,0:0|0:0,0:0:0:0:
318,130,86977,1,10,0:1:0:0:
318,130,87147,2,0,P|311:164|301:205,1,48.75,2|2,0:0|0:0,0:0:0:0:
78,345,87317,2,0,P|144:325|210:319,1,97.5,2|2,3:2|0:0,0:0:0:0:
268,45,87829,6,0,P|182:34|82:39,1,146.25,2|0,0:0|0:0,0:0:0:0:
40,37,88170,2,0,P|45:51|53:104,1,48.75,10|0,0:3|0:0,0:0:0:0:
198,147,88340,1,10,0:1:0:0:
198,147,88511,2,0,P|193:161|185:214,1,48.75,10|0,0:3|0:0,0:0:0:0:
341,256,88681,1,2,3:2:0:0:
341,256,88852,2,0,P|346:270|354:323,1,48.75,10|0,0:3|0:0,0:0:0:0:
198,147,89022,2,0,P|193:161|185:214,1,48.75,10|0,0:1|0:0,0:0:0:0:
40,37,89192,2,0,P|45:51|53:104,1,48.75,10|8,0:1|0:1,0:0:0:0:
26,282,89363,6,0,P|66:266|136:256,1,97.5,2|2,3:2|0:0,0:0:0:0:
190,363,89704,2,0,P|230:347|300:337,1,97.5,10|2,0:1|0:0,0:0:0:0:
474,207,89959,1,0,0:0:0:0:
474,207,90045,2,0,P|434:191|364:181,1,97.5,2|2,3:2|0:0,0:0:0:0:
179,84,90556,6,0,P|197:182|208:283,1,195,2|2,0:0|0:0,0:0:0:0:
13,361,91067,2,0,P|58:343|135:337,1,97.5,10|2,0:1|0:0,0:0:0:0:
371,208,91408,2,0,P|326:190|249:184,1,97.5,2|2,3:2|0:0,0:0:0:0:
29,49,91749,2,0,P|74:31|151:25,1,97.5,10|2,0:1|0:0,0:0:0:0:
43,212,92090,5,2,3:2:0:0:
43,212,92261,2,0,P|54:238|56:286,1,48.75,2|2,0:0|0:0,0:0:0:0:
238,152,92431,1,10,0:1:0:0:
238,152,92602,2,0,P|249:178|251:226,1,48.75,2|0,0:0|0:0,0:0:0:0:
470,345,92772,2,0,P|403:329|336:327,1,97.5,2|2,3:2|0:0,0:0:0:0:
451,29,93283,6,0,P|461:108|470:213,1,146.25,2|0,0:0|0:0,0:0:0:0:
472,256,93624,2,0,P|437:248|408:248,1,48.75,10|0,0:3|0:0,0:0:0:0:
238,152,93795,1,10,0:1:0:0:
238,152,93965,2,0,P|272:144|302:144,1,48.75,10|0,0:3|0:0,0:0:0:0:
154,304,94136,1,10,0:1:0:0:
105,297,94221,1,0,3:2:0:0:
57,290,94306,1,8,0:3:0:0:
16,106,94477,1,10,0:1:0:0:
64,98,94562,1,8,0:3:0:0:
112,90,94647,1,8,0:3:0:0:
160,82,94732,1,8,0:3:0:0:
208,74,94817,5,6,0:0:0:0:
253,8,94932,1,2,0:0:0:0:
286,81,95045,1,2,0:0:0:0:
240,146,95159,1,2,3:2:0:0:
240,146,95499,5,2,3:2:0:0:
286,81,95613,1,2,0:0:0:0:
253,8,95726,1,2,0:0:0:0:
208,74,95841,1,2,3:2:0:0:
208,74,96181,5,2,3:2:0:0:
287,67,96294,1,2,0:0:0:0:
333,133,96408,1,2,0:0:0:0:
208,74,96522,5,2,3:2:0:0:
284,94,96635,1,0,0:0:0:0:
305,172,96749,1,2,0:0:0:0:
208,74,96863,5,2,3:2:0:0:
272,118,96976,1,0,0:0:0:0:
265,199,97090,1,2,0:0:0:0:
259,282,97204,2,0,B|216:281|192:258|192:258|160:227|92:241,1,130,2|0,3:2|0:0,0:0:0:0:
44,115,97545,6,0,L|134:101,3,65,2|2|2|2,3:2|0:0|0:0|3:2,0:0:0:0:
36,37,98227,2,0,L|126:23,3,65,2|2|2|2,3:2|0:0|0:0|3:2,0:0:0:0:
253,190,98908,6,0,L|368:166,1,97.5,6|2,0:0|0:0,0:0:0:0:
406,223,99164,1,2,0:0:0:0:
416,235,99249,1,8,0:0:0:0:
421,283,99334,1,2,0:0:0:0:
426,331,99419,1,2,0:0:0:0:
245,359,99590,1,2,3:0:0:0:
216,319,99675,1,0,0:0:0:0:
207,272,99760,1,10,0:2:0:0:
220,225,99845,1,2,0:0:0:0:
252,189,99930,1,8,0:0:0:0:
284,153,100016,1,2,0:0:0:0:
297,106,100101,1,2,0:0:0:0:
288,59,100186,1,0,0:0:0:0:
260,20,100272,5,6,0:0:0:0:
339,36,100386,1,2,0:0:0:0:
322,119,100499,1,2,0:0:0:0:
242,100,100613,1,2,3:2:0:0:
242,100,100954,5,2,3:2:0:0:
322,119,101068,1,2,0:0:0:0:
339,36,101181,1,2,0:0:0:0:
260,20,101295,1,2,3:2:0:0:
260,20,101636,5,2,3:2:0:0:
272,96,101749,1,2,0:0:0:0:
284,173,101863,1,2,0:0:0:0:
260,20,101977,5,2,3:2:0:0:
245,95,102090,1,2,0:0:0:0:
230,171,102204,1,2,0:0:0:0:
260,20,102317,5,2,3:2:0:0:
220,85,102430,1,2,0:0:0:0:
180,150,102545,1,2,0:0:0:0:
143,220,102658,2,0,B|137:270|160:290|160:290|185:319|179:384,1,130,2|0,3:2|0:0,0:0:0:0:
335,370,102999,6,0,P|399:347|483:346,1,130,2|2,3:2|0:0,0:0:0:0:
482,268,103340,1,2,3:2:0:0:
437,203,103454,1,0,0:0:0:0:
362,224,103567,1,2,0:0:0:0:
482,268,103681,5,2,3:2:0:0:
461,191,103795,1,2,0:0:0:0:
384,185,103908,1,2,0:0:0:0:
482,268,104022,5,2,3:2:0:0:
488,188,104136,1,2,0:0:0:0:
418,156,104249,1,2,0:0:0:0:
335,41,104363,6,0,L|157:25,1,146.25,6|0,0:0|0:0,0:0:0:0:
111,17,104704,1,2,3:0:0:0:
93,61,104789,1,0,0:0:0:0:
106,107,104874,1,10,0:3:0:0:
144,137,104959,1,2,0:0:0:0:
192,138,105044,1,2,3:0:0:0:
271,348,105215,1,10,0:3:0:0:
311,275,105386,1,10,0:3:0:0:
262,267,105471,1,8,0:3:0:0:
214,259,105556,1,8,0:3:0:0:
166,252,105641,1,8,0:3:0:0:
118,244,105727,5,2,0:0:0:0:
104,264,105812,1,0,0:0:0:0:
98,287,105897,1,0,0:0:0:0:
99,312,105982,1,0,0:0:0:0:
108,334,106067,1,2,0:0:0:0:
183,294,106238,1,2,0:0:0:0:
191,288,106323,1,2,0:0:0:0:
199,284,106408,1,2,0:0:0:0:
200,259,106493,1,2,0:0:0:0:
202,235,106578,1,2,0:0:0:0:
204,211,106663,1,2,0:0:0:0:
205,186,106749,2,0,L|211:119,1,58.5,2|0,0:0|0:0,0:0:0:0:
184,171,107090,6,0,B|191:105|191:105|181:86|181:86|189:-17,1,146.25,6|0,3:2|0:0,0:0:0:0:
263,19,107431,2,0,P|316:64|323:118,1,97.5,10|2,0:1|0:0,0:0:0:0:
97,177,107772,2,0,P|55:247|58:293,1,97.5,2|0,3:2|0:0,0:0:0:0:
229,364,108113,2,0,P|295:352|384:343,1,97.5,10|0,0:1|0:0,0:0:0:0:
452,338,108454,6,0,P|469:260|403:203,1,146.25,2|0,3:2|0:0,0:0:0:0:
354,192,108795,2,0,P|288:180|226:176,1,97.5,10|2,0:1|0:0,0:0:0:0:
34,25,109136,2,0,P|54:87|63:139,1,97.5,2|0,3:2|0:0,0:0:0:0:
35,328,109477,2,0,L|187:296,1,146.25,10|0,0:1|0:0,0:0:0:0:
254,281,109817,6,0,P|241:206|161:190,1,146.25,2|0,3:2|0:0,0:0:0:0:
103,192,110158,2,0,P|116:247|129:317,1,97.5,10|2,0:1|0:0,0:0:0:0:
327,365,110499,2,0,P|336:317|348:269,1,97.5,2|0,3:2|0:0,0:0:0:0:
223,66,110840,2,0,P|306:60|394:26,1,146.25,10|0,0:1|0:0,0:0:0:0:
442,21,111181,6,0,P|493:59|467:141,1,146.25,2|0,3:2|0:0,0:0:0:0:
418,183,111522,2,0,P|362:166|293:167,1,97.5,10|2,0:1|0:0,0:0:0:0:
144,26,111863,1,2,3:2:0:0:
301,238,112033,1,10,0:1:0:0:
30,373,112204,1,10,0:1:0:0:
30,373,112374,5,10,0:1:0:0:
21,300,112459,1,10,0:1:0:0:
13,227,112545,2,0,P|48:228|104:204,1,58.4999982147217,6|0,3:2|0:0,0:0:0:0:
246,100,112715,2,0,P|215:80|155:74,1,58.4999982147217,0|0,0:0|0:0,0:0:0:0:
63,144,112885,2,0,P|120:139|176:156,1,116.999996429443,10|2,0:1|0:0,0:0:0:0:
327,354,113227,2,0,L|438:336,1,77.999997619629,2|0,3:2|0:0,0:0:0:0:
423,338,113397,2,0,P|469:298|459:257,1,77.999997619629,0|0,0:0|0:0,0:0:0:0:
466,266,113567,2,0,L|438:139,1,116.999996429443,10|0,0:1|0:0,0:0:0:0:
179,30,113908,6,0,P|180:71|200:126,1,58.4999982147217,2|0,3:2|0:0,0:0:0:0:
328,230,114079,2,0,P|340:190|341:132,1,58.4999982147217,0|0,0:0|0:0,0:0:0:0:
262,57,114249,2,0,B|276:93|262:127|262:127|243:164|268:214,1,116.999996429443,10|2,0:1|0:0,0:0:0:0:
43,258,114590,2,0,P|93:245|127:264,1,77.999997619629,2|0,3:2|0:0,0:0:0:0:
130,267,114761,2,0,L|124:359,1,77.999997619629,0|0,0:0|0:0,0:0:0:0:
122,364,114931,2,0,P|178:348|257:345,1,116.999996429443,10|0,0:1|0:0,0:0:0:0:
470,146,115272,6,0,L|392:124,1,58.4999982147217,2|0,3:2|0:0,0:0:0:0:
254,257,115442,2,0,L|332:279,1,58.4999982147217,0|0,0:0|0:0,0:0:0:0:
425,221,115613,2,0,L|279:178,1,116.999996429443,10|2,0:1|0:0,0:0:0:0:
46,24,115954,2,0,L|57:125,1,77.999997619629,2|0,3:2|0:0,0:0:0:0:
57,120,116124,2,0,P|112:131|136:108,1,77.999997619629,0|0,0:0|0:0,0:0:0:0:
142,108,116295,2,0,P|185:77|251:85,1,116.999996429443,10|0,0:1|0:0,0:0:0:0:
475,17,116636,5,2,3:2:0:0:
215,162,116806,1,0,3:2:0:0:
471,315,116977,1,2,3:2:0:0:
326,55,117147,1,0,3:2:0:0:
213,373,117317,5,2,3:2:0:0:
169,366,117402,1,0,3:2:0:0:
126,360,117487,1,2,3:2:0:0:
82,354,117572,1,0,3:2:0:0:
39,348,117658,1,0,3:1:0:0:
96,340,117743,1,0,3:2:0:0:
154,332,117828,1,0,3:1:0:0:
212,324,117913,1,0,3:2:0:0:
270,317,117999,6,0,B|289:261|271:224|271:224|250:182|274:114,1,175.499994644165,6|0,3:2|0:0,0:0:0:0:
457,19,118340,2,0,P|502:38|522:74,1,58.4999982147217,10|0,0:0|0:0,0:0:0:0:
451,98,118511,2,0,L|219:58,1,233.999992858887,2|2,0:0|0:0,0:0:0:0:
16,306,119022,2,0,P|49:294|78:291,1,58.4999982147217,10|0,0:0|0:0,0:0:0:0:
164,190,119192,6,0,P|151:284|142:374,1,175.499994644165,2|0,0:0|0:0,0:0:0:0:
338,215,119533,1,2,0:0:0:0:
361,162,119618,1,2,0:0:0:0:
356,104,119703,1,10,0:0:0:0:
322,57,119788,1,2,0:0:0:0:
270,32,119873,1,2,0:0:0:0:
212,37,119959,1,2,0:0:0:0:
164,69,120045,2,0,L|33:47,1,116.999996429443,2|2,3:2|0:0,0:0:0:0:
189,269,120386,6,0,P|214:254|259:247,1,58.4999982147217,10|2,0:0|0:0,0:0:0:0:
473,364,120556,2,0,L|227:329,1,233.999992858887,2|2,0:0|0:0,0:0:0:0:
399,244,121067,6,0,L|376:140,1,58.4999982147217,10|2,0:0|0:0,0:0:0:0:
314,136,121238,2,0,P|330:51|412:135,1,233.999992858887,2|2,0:0|0:0,0:0:0:0:
147,374,121749,6,0,P|106:359|61:355,1,58.4999982147217,10|0,0:0|0:0,0:0:0:0:
69,279,121920,2,0,B|42:287|21:312|21:312|48:85,1,233.999992858887,2|2,0:0|0:0,0:0:0:0:
222,195,122431,6,0,L|354:162,1,116.999996429443,10|0,0:0|0:0,0:0:0:0:
249,380,122772,1,2,3:2:0:0:
466,330,122942,2,0,L|383:351,1,58.4999982147217,10|10,0:0|0:0,0:0:0:0:
331,363,123113,2,0,L|343:239,1,116.999996429443,10|2,0:0|0:0,0:0:0:0:
466,29,123454,6,0,P|426:69|301:55,1,175.499994644165,6|2,3:2|0:0,0:0:0:0:
253,8,123795,1,10,0:0:0:0:
217,16,123880,1,2,0:0:0:0:
191,41,123965,1,2,0:0:0:0:
179,75,124050,1,2,0:0:0:0:
186,111,124135,1,2,3:2:0:0:
189,147,124221,1,2,0:0:0:0:
176,181,124306,1,2,0:0:0:0:
150,206,124391,1,2,0:0:0:0:
116,219,124476,1,10,0:0:0:0:
80,215,124562,1,2,0:0:0:0:
48,197,124647,1,2,0:0:0:0:
28,168,124732,1,2,0:0:0:0:
21,132,124817,5,2,3:2:0:0:
42,121,124902,1,0,0:0:0:0:
66,118,124987,1,2,0:0:0:0:
90,123,125072,1,0,0:0:0:0:
111,135,125158,1,10,0:0:0:0:
145,145,125243,1,2,0:0:0:0:
181,141,125328,1,2,0:0:0:0:
211,121,125413,1,2,0:0:0:0:
230,90,125499,1,0,3:2:0:0:
256,49,125584,1,2,0:0:0:0:
299,26,125669,1,2,0:0:0:0:
347,26,125754,1,2,0:0:0:0:
389,49,125839,1,10,0:0:0:0:
415,90,125925,1,2,0:0:0:0:
419,138,126010,1,2,0:0:0:0:
399,182,126095,1,2,0:0:0:0:
361,211,126181,5,6,3:2:0:0:
314,248,126266,1,0,0:0:0:0:
303,306,126351,1,2,0:0:0:0:
334,357,126436,1,2,0:0:0:0:
391,375,126521,1,10,0:0:0:0:
437,338,126607,1,2,0:0:0:0:
448,279,126692,1,2,0:0:0:0:
417,228,126777,1,2,0:0:0:0:
361,211,126863,5,10,0:0:0:0:
326,273,126948,1,2,0:0:0:0:
257,294,127033,1,2,0:0:0:0:
193,262,127119,1,2,0:0:0:0:
169,195,127203,1,10,0:0:0:0:
212,135,127289,1,2,0:0:0:0:
176,71,127374,1,2,3:0:0:0:
219,12,127459,1,2,3:0:0:0:
219,12,127545,6,0,P|238:6|270:7,1,39,2|0,3:0|3:0,0:0:0:0:
273,129,127800,1,0,3:0:0:0:
273,129,127886,2,0,P|254:123|222:124,1,39,0|0,3:0|3:0,0:0:0:0:
227,255,128227,2,0,P|246:249|278:250,1,39,0|2,3:0|3:0,0:0:0:0:
275,376,128567,6,0,P|256:370|230:371,1,36.5625,2|0,0:0|0:0,0:0:0:0:
302,360,128908,6,0,P|229:338|113:352,1,175.499994644165,6|0,0:0|0:0,0:0:0:0:
54,360,129249,2,0,P|30:301|57:244,1,116.999996429443,10|0,0:0|0:0,0:0:0:0:
236,24,129590,1,2,3:2:0:0:
7,128,129761,1,2,0:0:0:0:
209,259,129931,1,10,0:0:0:0:
105,30,130102,1,2,0:0:0:0:
302,116,130272,5,2,3:2:0:0:
466,46,130443,1,2,0:0:0:0:
302,116,130613,1,10,0:0:0:0:
466,46,130784,1,2,0:0:0:0:
372,30,130954,2,0,P|389:90|397:187,1,116.999996429443,2|0,3:2|0:0,0:0:0:0:
269,353,131295,5,10,0:0:0:0:
210,189,131465,1,2,0:0:0:0:
182,263,131636,1,2,3:2:0:0:
211,266,131721,1,0,0:0:0:0:
240,271,131806,1,0,0:0:0:0:
268,274,131891,1,0,0:0:0:0:
297,279,131977,1,10,0:0:0:0:
366,234,132147,1,2,0:0:0:0:
81,361,132317,5,2,3:2:0:0:
36,290,132488,2,0,P|76:276|112:278,1,58.4999982147217,2|0,0:0|0:0,0:0:0:0:
243,43,132658,1,10,0:0:0:0:
288,114,132829,2,0,P|248:128|212:126,1,58.4999982147217,2|2,0:0|0:0,0:0:0:0:
372,382,132999,5,2,3:2:0:0:
303,341,133170,2,0,P|296:308|301:256,1,58.4999982147217,2|2,0:0|0:0,0:0:0:0:
348,10,133340,1,10,0:0:0:0:
422,38,133511,2,0,P|434:68|438:121,1,58.4999982147217,2|0,0:0|0:0,0:0:0:0:
482,164,133681,6,0,P|438:177|388:184,1,58.4999982147217,2|0,3:2|0:0,0:0:0:0:
347,216,133852,2,0,P|303:203|253:196,1,58.4999982147217,10|0,0:0|0:0,0:0:0:0:
102,190,134022,2,0,P|138:186|239:157,1,116.999996429443,10|0,0:0|0:0,0:0:0:0:
167,68,134363,2,0,P|119:16|44:33,1,116.999996429443,2|0,3:2|0:0,0:0:0:0:
1,36,134619,1,0,0:0:0:0:
1,36,134704,2,0,L|29:196,1,116.999996429443,8|2,0:0|0:0,0:0:0:0:
173,364,135045,5,2,3:2:0:0:
39,317,135215,1,2,0:0:0:0:
200,283,135386,1,10,0:0:0:0:
334,236,135556,1,2,0:0:0:0:
451,338,135727,1,2,3:2:0:0:
373,314,135897,1,2,0:0:0:0:
218,185,136067,1,10,0:0:0:0:
296,161,136237,1,2,0:0:0:0:
160,23,136408,2,0,P|141:94|151:157,1,116.999996429443,2|0,3:2|0:0,0:0:0:0:
479,52,136749,6,0,P|376:32|277:22,1,175.499994644165,10|0,0:0|0:0,0:0:0:0:
466,245,137090,2,0,P|458:187|443:131,1,116.999996429443,2|0,3:2|0:0,0:0:0:0:
264,256,137431,2,0,P|249:313|242:371,1,116.999996429443,10|0,0:0|0:0,0:0:0:0:
74,289,137772,2,0,P|59:232|51:174,1,116.999996429443,2|0,3:2|0:0,0:0:0:0:
304,50,138113,1,8,0:0:0:0:
304,50,138283,2,0,B|246:69|205:47|205:47|156:31|112:55,1,175.499994644165,2|0,0:0|0:0,0:0:0:0:
64,3,138624,1,2,0:0:0:0:
172,124,138795,1,10,0:0:0:0:
383,26,138965,1,2,0:0:0:0:
374,338,139135,5,2,3:2:0:0:
420,261,139306,1,10,0:0:0:0:
424,253,139392,1,2,0:0:0:0:
428,245,139477,1,10,0:0:0:0:
304,282,139647,2,0,L|225:300,1,58.4999982147217,2|0,0:0|0:0,0:0:0:0:
45,224,139817,6,0,P|100:201|153:145,1,116.999996429443,6|0,0:0|0:0,0:0:0:0:
370,43,140158,1,10,0:0:0:0:
342,38,140243,1,2,0:0:0:0:
313,33,140328,1,2,0:0:0:0:
284,29,140413,1,2,0:0:0:0:
255,24,140499,2,0,P|263:60|269:100,1,58.4999982147217,0|0,3:2|0:0,0:0:0:0:
431,105,140670,2,0,P|439:141|445:181,1,58.4999982147217,2|0,0:0|0:0,0:0:0:0:
375,312,140840,2,0,P|364:228|344:122,1,175.499994644165,10|0,0:0|0:0,0:0:0:0:
289,361,141181,5,2,3:2:0:0:
278,319,141266,1,0,0:0:0:0:
244,292,141351,1,2,0:0:0:0:
201,291,141436,1,2,0:0:0:0:
166,316,141521,1,10,0:0:0:0:
132,341,141607,1,0,0:0:0:0:
89,340,141692,1,2,0:0:0:0:
55,313,141777,1,0,0:0:0:0:
45,272,141863,2,0,P|76:258|147:259,1,58.4999982147217,2|0,3:2|0:0,0:0:0:0:
332,132,142033,2,0,P|301:118|230:119,1,58.4999982147217,2|0,0:0|0:0,0:0:0:0:
100,173,142204,2,0,P|187:180|273:200,1,175.499994644165,10|0,0:0|0:0,0:0:0:0:
482,347,142545,5,2,3:2:0:0:
332,132,142715,1,2,0:0:0:0:
192,316,142886,1,10,0:0:0:0:
407,166,143056,1,2,0:0:0:0:
56,97,143227,1,2,3:2:0:0:
265,279,143397,1,0,0:0:0:0:
371,4,143567,1,10,0:0:0:0:
455,20,143738,6,0,B|440:74|385:84|385:84|334:97|319:166,1,175.499994644165,2|0,0:0|0:0,0:0:0:0:
334,213,144079,1,2,0:0:0:0:
472,12,144249,1,10,0:0:0:0:
253,122,144420,1,2,0:0:0:0:
473,356,144590,2,0,P|437:342|401:336,1,58.4999982147217,2|0,3:2|0:0,0:0:0:0:
258,241,144761,2,0,P|222:227|186:221,1,58.4999982147217,8|0,0:0|0:0,0:0:0:0:
18,381,144931,2,0,P|58:367|151:356,1,116.999996429443,8|0,0:0|0:0,0:0:0:0:
38,148,145272,5,2,3:2:0:0:
66,152,145357,1,2,0:0:0:0:
94,144,145442,1,2,0:0:0:0:
114,123,145527,1,2,0:0:0:0:
123,96,145612,1,10,0:0:0:0:
132,69,145698,1,2,0:0:0:0:
152,48,145783,1,2,0:0:0:0:
180,40,145868,1,2,0:0:0:0:
209,45,145954,2,0,P|244:67|270:98,1,58.4999982147217,2|2,3:2|0:0,0:0:0:0:
396,48,146124,2,0,P|357:63|326:89,1,58.4999982147217,2|0,0:0|0:0,0:0:0:0:
277,266,146295,2,0,P|300:181|305:119,1,116.999996429443,10|0,0:0|0:0,0:0:0:0:
471,186,146636,5,2,3:2:0:0:
441,196,146721,1,2,0:0:0:0:
422,217,146806,1,2,0:0:0:0:
414,244,146891,1,2,0:0:0:0:
420,273,146976,1,10,0:0:0:0:
425,301,147062,1,0,0:0:0:0:
417,329,147147,1,2,0:0:0:0:
398,350,147232,1,2,0:0:0:0:
371,360,147317,2,0,L|292:376,1,58.4999982147217,2|0,3:2|0:0,0:0:0:0:
233,219,147488,2,0,L|154:235,1,58.4999982147217,2|0,0:0|0:0,0:0:0:0:
116,328,147658,2,0,L|288:293,1,175.499994644165,10|0,0:0|0:0,0:0:0:0:
333,223,147999,6,0,P|342:165|284:106,1,116.999996429443,0|0,3:2|0:0,0:0:0:0:
72,135,148340,2,0,P|58:78|37:24,1,116.999996429443,10|0,0:0|0:0,0:0:0:0:
192,212,148681,2,0,P|206:155|227:100,1,116.999996429443,2|0,3:2|0:0,0:0:0:0:
368,334,149022,2,0,P|353:277|332:222,1,116.999996429443,10|0,0:0|0:0,0:0:0:0:
484,12,149363,5,2,3:2:0:0:
407,153,149534,1,0,3:2:0:0:
277,39,149704,1,2,3:2:0:0:
171,244,149874,1,0,0:0:0:0:
13,8,150045,5,0,3:2:0:0:
47,11,150130,1,0,3:0:0:0:
85,15,150215,1,8,0:0:0:0:
123,15,150300,1,0,3:0:0:0:
158,19,150386,1,8,0:0:0:0:
195,23,150471,1,0,3:0:0:0:
231,25,150556,1,0,3:2:0:0:
267,30,150641,1,0,3:2:0:0:
303,35,150727,1,6,3:2:0:0:
369,233,151238,5,2,0:0:0:0:
369,233,151408,2,0,L|233:213,1,97.5,2|0,3:2|0:0,0:0:0:0:
195,209,151664,2,0,P|170:268|181:311,1,97.5,2|0,0:0|0:0,0:0:0:0:
175,299,151920,1,2,0:0:0:0:
175,299,152005,1,0,0:0:0:0:
263,323,152090,5,2,3:2:0:0:
19,376,152346,1,2,0:0:0:0:
111,116,152602,1,2,0:0:0:0:
347,37,152772,5,2,3:2:0:0:
251,21,153028,1,2,0:0:0:0:
286,113,153284,1,2,0:0:0:0:
474,38,153454,2,0,B|476:99|444:124|444:124|412:144|421:228,1,195,6|8,0:0|0:1,0:0:0:0:
202,354,153965,5,2,0:0:0:0:
202,354,154136,2,0,L|81:342,1,97.5,2|0,3:2|0:0,0:0:0:0:
28,331,154391,2,0,P|22:261|47:231,1,97.5,2|0,0:0|0:0,0:0:0:0:
35,241,154647,1,2,0:0:0:0:
35,241,154732,1,0,0:0:0:0:
48,161,154817,5,2,3:2:0:0:
291,42,155073,1,2,0:0:0:0:
272,311,155329,1,2,0:0:0:0:
417,200,155499,5,2,3:2:0:0:
493,162,155670,1,0,0:0:0:0:
493,162,155755,1,2,0:0:0:0:
493,162,155840,2,0,P|484:129|445:42,1,97.5,8|2,0:1|0:0,0:0:0:0:
398,15,156181,6,0,P|340:35|337:159,1,195,6|8,0:0|0:1,0:0:0:0:
259,358,156692,1,2,0:0:0:0:
316,282,156863,1,2,3:2:0:0:
315,281,156948,2,0,P|293:273|269:267,1,48.75,0|0,0:0|0:0,0:0:0:0:
205,195,157119,1,2,0:0:0:0:
205,195,157204,2,0,P|241:182|295:177,1,48.75,8|0,0:1|0:0,0:0:0:0:
401,266,157374,1,2,0:0:0:0:
478,52,157545,5,2,3:2:0:0:
478,52,157630,2,0,P|465:88|460:142,1,48.75,0|0,0:0|0:0,0:0:0:0:
366,15,157801,1,2,0:0:0:0:
366,15,157886,2,0,P|353:51|348:105,1,48.75,8|0,0:1|0:0,0:0:0:0:
385,143,158056,2,0,P|370:193|362:231,1,48.75,2|0,0:0|0:0,0:0:0:0:
203,366,158227,5,2,3:2:0:0:
203,366,158312,2,0,L|270:356,1,48.75
144,291,158482,1,2,0:0:0:0:
144,291,158567,2,0,L|211:281,1,48.75,8|0,0:1|0:0,0:0:0:0:
179,207,158738,2,0,L|248:196,1,48.75,2|0,0:0|0:0,0:0:0:0:
250,62,158908,6,0,L|121:33,1,97.5,2|0,3:2|0:0,0:0:0:0:
78,22,159249,2,0,P|61:69|101:139,1,97.5,8|0,0:1|0:0,0:0:0:0:
307,178,159590,1,2,3:2:0:0:
386,142,159761,1,0,3:2:0:0:
393,138,159847,1,0,3:2:0:0:
402,134,159931,1,8,0:1:0:0:
389,181,160016,1,0,3:2:0:0:
377,228,160101,1,0,3:2:0:0:
364,275,160186,1,0,3:2:0:0:
352,322,160272,5,2,3:2:0:0:
352,322,160613,1,0,3:2:0:0:
352,322,160954,1,0,3:2:0:0:
200,203,161124,2,0,P|162:197|127:198,1,48.75,8|0,0:1|0:0,0:0:0:0:
76,203,161295,6,0,P|60:179|58:136,1,58.5,8|0,0:1|0:0,0:0:0:0:
58,73,161636,6,0,L|176:55,1,97.5,6|0,3:2|0:0,0:0:0:0:
330,20,161977,1,10,0:1:0:0:
321,42,162062,1,0,0:0:0:0:
314,66,162147,1,2,0:0:0:0:
308,89,162232,1,2,0:0:0:0:
304,113,162317,2,0,P|317:150|325:219,1,97.5,2|0,3:2|0:0,0:0:0:0:
27,369,162829,6,0,P|116:350|263:331,1,195,2|2,0:0|0:0,0:0:0:0:
468,244,163340,1,10,0:1:0:0:
468,244,163511,2,0,P|433:234|387:234,1,48.75,2|0,0:0|0:0,0:0:0:0:
193,76,163681,1,2,3:2:0:0:
193,76,163852,2,0,P|202:110|203:157,1,48.75,2|2,0:0|0:0,0:0:0:0:
304,351,164022,2,0,P|313:316|314:270,1,48.75,10|0,0:1|0:0,0:0:0:0:
474,112,164192,2,0,P|483:146|484:193,1,48.75,2|0,0:0|0:0,0:0:0:0:
264,235,164363,6,0,P|198:223|129:218,1,97.5,2|2,3:2|0:0,0:0:0:0:
35,76,164704,1,10,0:1:0:0:
67,59,164789,1,0,0:0:0:0:
101,46,164874,1,2,0:0:0:0:
137,39,164959,1,2,0:0:0:0:
174,37,165045,2,0,P|226:35|291:22,1,97.5,2|2,3:2|0:0,0:0:0:0:
471,353,165556,6,0,P|457:236|445:171,1,146.25,2|0,0:0|0:0,0:0:0:0:
431,134,165897,2,0,P|411:129|356:124,1,48.75,10|0,0:3|0:0,0:0:0:0:
292,260,166067,1,10,0:1:0:0:
292,260,166238,2,0,P|272:264|217:270,1,48.75,10|0,0:3|0:0,0:0:0:0:
161,171,166408,1,2,3:2:0:0:
161,171,166579,2,0,P|141:166|86:161,1,48.75,10|0,0:3|0:0,0:0:0:0:
18,368,166749,2,0,P|72:348|137:340,1,97.5,10|10,0:1|0:1,0:0:0:0:
292,260,167090,6,0,P|287:197|281:154,1,97.5,2|2,3:2|0:0,0:0:0:0:
274,86,167346,1,2,0:0:0:0:
274,86,167431,2,0,P|344:77|360:109,1,97.5,10|2,0:1|0:0,0:0:0:0:
474,300,167772,2,0,P|403:285|360:283,1,97.5,2|2,3:2|0:0,0:0:0:0:
19,361,168283,6,0,B|69:368|106:327|106:327|146:287|224:291,1,195,2|2,0:0|0:0,0:0:0:0:
462,203,168795,2,0,P|468:152|448:104,1,97.5,10|2,0:1|0:0,0:0:0:0:
213,43,169136,2,0,L|97:25,1,97.5,2|2,3:2|0:0,0:0:0:0:
256,355,169477,2,0,L|372:337,1,97.5,10|2,0:1|0:0,0:0:0:0:
294,92,169817,5,2,3:2:0:0:
294,92,169988,2,0,L|306:176,1,48.75,2|0,0:0|0:0,0:0:0:0:
174,166,170158,1,10,0:1:0:0:
174,166,170329,2,0,L|162:250,1,48.75,2|2,0:0|0:0,0:0:0:0:
37,279,170499,2,0,L|24:146,1,97.5,2|2,3:2|0:0,0:0:0:0:
95,67,170840,2,0,P|39:75|16:123,1,97.5,8|2,0:1|0:0,0:0:0:0:
161,313,171181,5,8,0:1:0:0:
480,243,171352,1,10,0:3:0:0:
279,35,171522,1,10,0:1:0:0:
349,354,171693,1,10,0:3:0:0:
37,255,171863,1,10,0:1:0:0:
249,152,172033,1,8,0:3:0:0:
249,152,172119,1,0,3:2:0:0:
249,152,172204,2,0,P|259:199|263:248,1,97.5,10|8,0:1|0:3,0:0:0:0:
