osu file format v14

[General]
AudioFilename: audio.mp3
AudioLeadIn: 0
PreviewTime: 146971
Countdown: 0
SampleSet: Soft
StackLeniency: 0.2
Mode: 0
LetterboxInBreaks: 0
WidescreenStoryboard: 0

[Editor]
DistanceSpacing: 1
BeatDivisor: 4
GridSize: 32
TimelineZoom: 5.799996

[Metadata]
Title:Doro no Bunzai de Watashi dake no Taisetsu o Ubaouda nante
TitleUnicode:泥の分際で私だけの大切を奪おうだなんて
Artist:TUYU
ArtistUnicode:ツユ
Creator:SnowNiNo_
Version:Estrangement
Source:
Tags:tsuyu -laura- ぷす Pusu 礼衣 Reii おむたつ omutatsu japanese rock Silent Rock Akitoshi Corinn Miyohashikoori Deppyforce Dogerinoo
BeatmapID:2590119
BeatmapSetID:1246100

[Difficulty]
HPDrainRate:6.2
CircleSize:4
OverallDifficulty:9.7
ApproachRate:9.8
SliderMultiplier:1.8
SliderTickRate:1

[Events]
//Background and Video events
0,0,"maxresdefault.jpg",0,0
//Break Periods
2,131784,139784
//Storyboard Layer 0 (Background)
//Storyboard Layer 1 (Fail)
//Storyboard Layer 2 (Pass)
//Storyboard Layer 3 (Foreground)
//Storyboard Layer 4 (Overlay)
//Storyboard Sound Samples

[TimingPoints]
-2616,266.666666666667,4,2,2,60,1,0
450,-133.333333333333,4,2,2,60,0,0
15517,-83.3333333333333,4,2,1,90,0,1
35784,-133.333333333333,4,2,1,50,0,0
43783,-333.333333333333,4,2,1,50,0,0
44250,-333.333333333333,4,2,1,5,0,0
44317,-100,4,2,1,70,0,0
61384,-100,4,2,1,80,0,1
68850,-66.6666666666667,4,2,1,80,0,0
69917,-83.3333333333333,4,2,1,90,0,1
90184,-133.333333333333,4,2,1,50,0,0
98718,-100,4,2,1,80,0,0
116851,-100,4,2,1,90,0,0
118985,-100,4,2,1,60,0,0
121117,-83.3333333333333,4,2,1,80,0,1
128850,-113.636363636364,4,2,1,80,0,0
140317,-133.333333333333,4,2,2,60,0,0
145917,-250,4,2,1,80,0,0
147784,-76.9230769230769,4,2,1,90,0,1
189317,-76.9230769230769,4,2,1,80,0,0

[Colours]
Combo1 : 64,159,255
Combo2 : 251,176,85
Combo3 : 179,179,255
Combo4 : 255,66,66

[HitObjects]
174,71,450,5,2,2:0:0:0:
246,141,584,2,0,P|272:136|316:103,1,67.5000025749208,2|0,2:0|0:0,0:0:0:0:
149,168,850,2,0,P|139:193|145:250,1,67.5000025749208,8|2,0:0|2:0,0:0:0:0:
293,300,1117,2,0,P|274:278|224:256,1,67.5000025749208,2|0,2:0|0:0,0:0:0:0:
106,359,1384,2,0,P|136:353|188:315,1,67.5000025749208,8|2,0:0|2:0,0:0:0:0:
66,200,1650,2,0,P|91:229|126:247,1,67.5000025749208,2|0,2:0|0:0,0:0:0:0:
183,85,1917,2,0,P|169:127|169:172,1,67.5000025749208,8|2,2:0|2:0,0:0:0:0:
281,236,2184,2,0,P|281:191|267:148,1,67.5000025749208,2|0,2:0|0:0,0:0:0:0:
276,50,2450,1,8,2:0:0:0:
183,85,2584,1,2,2:0:0:0:
108,24,2717,6,0,P|60:17|19:18,1,67.5000025749208,2|2,2:0|2:0,0:0:0:0:
39,193,2984,2,0,P|48:146|54:101,1,67.5000025749208,10|2,2:0|2:0,0:0:0:0:
141,183,3250,2,0,P|147:227|156:271,1,67.5000025749208,2|2,2:0|2:0,0:0:0:0:
71,304,3517,1,10,2:0:0:0:
133,372,3650,2,0,P|171:362|222:357,1,67.5000025749208,2|0,0:0|2:0,0:0:0:0:
321,282,3917,2,0,P|276:277|236:266,2,67.5000025749208,2|10|2,0:0|2:0|0:0,0:0:0:0:
428,331,4317,2,0,P|416:280|423:179,1,135.000005149842,2|8,2:0|2:0,0:0:0:0:
456,107,4717,1,2,2:0:0:0:
317,157,4850,6,0,P|328:105|328:61,1,67.5000025749208,2|0,2:0|0:0,0:0:0:0:
197,156,5117,2,0,P|199:200|209:244,1,67.5000025749208,8|2,2:0|2:0,0:0:0:0:
115,77,5384,2,0,P|163:63|208:59,1,67.5000025749208,2|0,2:0|0:0,0:0:0:0:
87,170,5650,1,8,2:0:0:0:
1,134,5784,1,2,2:0:0:0:
12,229,5917,2,0,P|18:277|23:319,1,67.5000025749208,2|0,2:0|0:0,0:0:0:0:
123,373,6184,2,0,P|127:328|131:288,1,67.5000025749208,8|2,2:0|2:0,0:0:0:0:
321,286,6450,2,0,P|267:296|224:300,1,67.5000025749208,2|0,2:0|0:0,0:0:0:0:
159,188,6717,2,0,P|203:192|238:198,1,67.5000025749208,8|2,2:0|2:0,0:0:0:0:
318,200,6984,5,2,2:0:0:0:
347,115,7117,1,2,2:0:0:0:
277,59,7250,1,10,2:0:0:0:
202,110,7384,1,2,2:0:0:0:
227,196,7517,1,2,2:0:0:0:
318,200,7650,1,2,2:0:0:0:
339,287,7784,1,10,2:0:0:0:
264,337,7917,1,2,2:0:0:0:
194,280,8050,6,0,P|146:260|49:246,1,135.000005149842,2|10,2:0|2:0,0:0:0:0:
1,317,8450,1,2,2:0:0:0:
47,152,8584,2,0,P|102:140|142:140,1,67.5000025749208,2|0,2:0|2:0,0:0:0:0:
216,50,8850,2,0,P|161:38|121:37,1,67.5000025749208,10|0,2:0|2:0,0:0:0:0:
299,178,9117,6,0,P|309:115|392:101,1,135.000005149842,2|8,2:0|2:0,0:0:0:0:
396,193,9517,1,2,2:0:0:0:
330,270,9650,2,0,P|284:276|241:274,1,67.5000025749208,2|0,2:0|0:0,0:0:0:0:
89,321,9917,1,10,2:0:0:0:
185,347,10050,2,0,P|176:291|180:195,1,135.000005149842,2|2,2:0|2:0,0:0:0:0:
243,128,10450,2,0,P|228:79|214:45,1,67.5000025749208,10|2,2:0|2:0,0:0:0:0:
324,190,10717,2,0,P|339:141|355:109,1,67.5000025749208,2|2,2:0|2:0,0:0:0:0:
256,262,10984,1,10,2:0:0:0:
256,262,11250,6,0,P|321:266|411:289,1,135.000005149842,2|8,2:0|2:0,0:0:0:0:
382,368,11650,1,2,2:0:0:0:
185,347,11784,2,0,P|201:290|202:193,1,135.000005149842,2|8,2:0|2:0,0:0:0:0:
204,214,12317,2,0,P|155:209|127:199,1,67.5000025749208,2|2,2:0|2:0,0:0:0:0:
236,110,12584,2,0,P|285:105|317:96,1,67.5000025749208,10|0,2:0|0:0,0:0:0:0:
310,208,12850,2,0,P|301:258|300:302,1,67.5000025749208,2|2,2:0|2:0,0:0:0:0:
458,377,13117,1,10,2:0:0:0:
363,336,13250,6,0,P|295:320|210:315,1,135.000005149842,2|0,2:0|0:0,0:0:0:0:
130,222,13650,2,0,P|163:207|203:179,1,67.5000025749208,10|0,2:0|2:0,0:0:0:0:
233,112,13917,1,2,2:0:0:0:
279,189,14050,1,2,2:0:0:0:
292,43,14184,1,10,2:0:0:0:
368,169,14317,1,2,2:0:0:0:
374,79,14450,5,2,2:0:0:0:
374,79,14717,1,2,2:0:0:0:
374,79,14984,1,2,2:0:0:0:
374,79,15250,1,0,0:0:0:0:
285,270,15517,6,0,P|276:192|230:41,1,215.999993408203,6|8,1:2|2:0,0:0:0:0:
165,247,15917,1,0,2:0:0:0:
390,221,16050,2,0,P|408:164|416:97,1,107.999996704102,2|0,1:2|1:0,0:0:0:0:
128,31,16317,2,0,P|136:84|153:135,1,107.999996704102,8|2,2:0|2:0,0:0:0:0:
295,347,16584,5,2,1:2:0:0:
301,92,16717,1,2,1:2:0:0:
146,292,16850,1,10,2:0:0:0:
390,221,16984,1,2,2:0:0:0:
153,135,17117,2,0,P|94:140|46:156,1,107.999996704102,2|0,1:2|1:0,0:0:0:0:
146,292,17384,1,10,2:0:0:0:
240,169,17517,6,0,P|210:83|301:92,1,215.999993408203,2|2,2:0|1:2,0:0:0:0:
281,252,17917,1,10,0:0:0:0:
47,155,18050,1,2,0:0:0:0:
332,174,18184,1,2,1:2:0:0:
88,238,18317,1,0,1:0:0:0:
373,257,18450,1,10,2:0:0:0:
140,161,18584,1,0,2:0:0:0:
344,21,18717,6,0,B|313:77|313:77|334:184,1,161.999995056153,2|0,1:2|0:0,0:0:0:0:
346,226,18984,1,10,2:0:0:0:
206,35,19117,1,2,2:0:0:0:
215,248,19250,1,0,1:2:0:0:
75,57,19384,1,2,1:2:0:0:
332,174,19517,1,8,2:0:0:0:
47,155,19650,1,0,0:0:0:0:
408,39,19784,5,4,1:2:0:0:
408,39,20050,2,0,P|389:90|380:146,1,107.999996704102,10|0,2:0|0:0,0:0:0:0:
145,321,20317,2,0,P|136:267|117:217,1,107.999996704102,2|0,1:2|1:2,0:0:0:0:
59,112,20584,1,10,2:0:0:0:
229,259,20717,6,0,P|290:247|350:247,1,107.999996704102,2|0,2:0|1:2,0:0:0:0:
508,271,20984,1,2,1:2:0:0:
314,346,21117,1,10,2:0:0:0:
487,372,21250,1,2,2:0:0:0:
335,245,21384,2,0,P|333:192|342:132,1,107.999996704102,2|0,1:2|1:2,0:0:0:0:
397,52,21650,1,10,2:0:0:0:
230,152,21784,6,0,P|215:96|66:66,1,215.999993408203,2|2,2:0|1:2,0:0:0:0:
103,241,22184,1,10,2:0:0:0:
129,147,22317,1,2,2:0:0:0:
204,246,22450,1,2,1:2:0:0:
230,152,22584,1,2,1:2:0:0:
305,251,22717,1,10,2:0:0:0:
331,157,22850,1,2,2:0:0:0:
399,226,22984,6,0,B|411:272|388:338|388:338|443:304|516:315,1,215.999993408203,2|10,1:2|2:0,0:0:0:0:
484,155,23384,2,0,B|472:109|495:43|495:43|440:77|367:66,1,215.999993408203,2|2,2:0|1:2,0:0:0:0:
230,152,23784,1,8,2:0:0:0:
399,226,23917,1,10,2:0:0:0:
295,52,24050,6,0,P|308:108|310:269,1,215.999993408203,6|8,1:2|2:0,0:0:0:0:
181,342,24450,1,2,2:0:0:0:
90,190,24584,2,0,P|139:147|158:261,1,215.999993408203,2|8,1:2|2:0,0:0:0:0:
94,287,24984,1,2,2:0:0:0:
16,136,25117,6,0,P|50:90|205:74,1,215.999993408203,2|10,1:2|2:0,0:0:0:0:
265,144,25517,1,2,2:0:0:0:
354,22,25650,2,0,P|326:80|321:246,1,215.999993408203,2|8,1:2|2:0,0:0:0:0:
440,356,26050,6,0,B|375:336|375:336|310:353|310:353|216:332,1,215.999993408203,2|0,2:0|1:2,0:0:0:0:
75,269,26450,2,0,P|131:261|179:234,1,107.999996704102,10|0,2:0|2:0,0:0:0:0:
147,37,26717,1,2,1:2:0:0:
99,163,26850,1,2,1:2:0:0:
246,27,26984,1,10,2:0:0:0:
282,170,27117,1,2,2:0:0:0:
397,49,27250,6,0,P|384:112|382:172,1,107.999996704102,2|0,1:2|1:2,0:0:0:0:
501,309,27517,2,0,P|497:255|485:202,1,107.999996704102,10|0,2:0|1:2,0:0:0:0:
188,224,27784,1,2,2:0:0:0:
362,242,27917,1,2,1:2:0:0:
211,330,28050,1,8,2:0:0:0:
318,341,28184,1,0,2:0:0:0:
282,170,28317,6,0,P|275:107|277:49,1,107.999996704102,4|0,1:2|0:0,0:0:0:0:
58,129,28584,2,0,P|151:123|183:236,1,215.999993408203,8|0,2:0|1:2,0:0:0:0:
125,326,28984,1,0,1:2:0:0:
342,246,29117,2,0,P|317:304|305:358,1,107.999996704102,8|0,2:0|0:0,0:0:0:0:
428,126,29384,5,2,1:2:0:0:
411,315,29517,1,2,1:2:0:0:
267,169,29650,1,10,2:0:0:0:
415,323,29784,1,0,1:2:0:0:
433,117,29917,1,2,2:0:0:0:
306,347,30050,1,2,1:2:0:0:
260,162,30184,1,8,2:0:0:0:
108,302,30317,6,0,P|42:295|-1:276,1,107.999996704102,2|2,2:0|1:2,0:0:0:0:
55,91,30584,1,2,1:2:0:0:
260,162,30717,2,0,P|229:223|194:368,1,215.999993408203,10|0,2:0|1:2,0:0:0:0:
304,384,31117,1,0,1:2:0:0:
386,199,31250,2,0,P|372:140|351:89,1,107.999996704102,8|0,2:0|0:0,0:0:0:0:
134,142,31517,5,2,1:2:0:0:
260,162,31650,1,2,1:2:0:0:
64,64,31784,2,0,P|36:125|43:192,1,107.999996704102,10|0,2:0|1:2,0:0:0:0:
208,284,32050,1,2,2:0:0:0:
134,142,32184,1,2,1:2:0:0:
95,276,32317,1,10,2:0:0:0:
260,162,32450,6,0,P|322:152|379:158,1,107.999996704102,2|4,2:0|1:2,0:0:0:0:
208,284,32717,1,0,0:0:0:0:
134,142,32850,2,0,P|156:83|190:36,1,107.999996704102,10|0,2:0|0:0,0:0:0:0:
95,276,33117,2,0,P|55:227|32:174,1,107.999996704102,0|0,1:2|1:2,0:0:0:0:
331,45,33384,2,0,P|370:93|393:146,1,107.999996704102,8|2,2:0|2:0,0:0:0:0:
208,284,33650,5,12,1:2:0:0:
331,45,33784,1,0,0:0:0:0:
304,284,33917,1,8,1:2:0:0:
181,45,34050,1,2,1:2:0:0:
203,295,34184,5,10,1:2:0:0:
338,33,34317,1,0,1:2:0:0:
308,295,34450,1,8,2:0:0:0:
173,33,34584,1,2,1:2:0:0:
418,204,34717,5,6,1:2:0:0:
83,206,34850,1,0,1:2:0:0:
442,88,34984,1,8,2:0:0:0:
70,88,35117,1,2,1:2:0:0:
256,384,35250,1,10,2:0:0:0:
256,32,35384,1,0,2:0:0:0:
260,297,35517,2,0,B|270:245|270:245|256:192,1,107.999996704102,10|2,2:0|0:0,0:0:0:0:
256,192,35784,5,2,1:2:0:0:
256,192,36850,1,0,1:2:0:0:
256,192,37117,2,0,L|246:116,2,67.5000025749208,2|0|0,2:0|0:0|0:0,0:0:0:0:
338,183,37650,5,2,2:0:0:0:
338,183,37917,1,0,1:2:0:0:
338,183,38184,2,0,L|328:107,2,67.5000025749208,0|0|2,0:0|0:0|2:0,0:0:0:0:
420,174,38717,5,0,0:0:0:0:
420,174,38984,1,0,1:2:0:0:
420,174,39250,2,0,L|410:98,2,67.5000025749208,2|0|2,2:0|0:0|2:0,0:0:0:0:
502,166,39784,5,2,0:0:0:0:
502,166,40050,2,0,P|509:219|470:308,1,135.000005149842,0|0,1:2|0:0,0:0:0:0:
391,342,40450,1,0,0:0:0:0:
391,342,40584,2,0,P|399:286|358:193,1,135.000005149842,2|2,0:0|0:0,0:0:0:0:
225,125,41117,2,0,P|281:117|268:29,1,135.000005149842,2|2,1:2|0:0,0:0:0:0:
136,59,41650,2,0,P|80:67|93:155,1,135.000005149842,2|2,0:0|0:0,0:0:0:0:
72,300,42184,6,0,B|137:268|142:323|219:281,1,135.000005149842,2|2,1:2|0:0,0:0:0:0:
368,312,42717,2,0,P|321:294|402:227,1,202.500007724762,2|0,0:0|0:0,0:0:0:0:
446,281,43184,1,0,0:0:0:0:
446,281,43250,1,6,1:2:0:0:
446,281,43784,6,0,L|452:182,1,94.4999971160889,2|0,2:0|2:0,0:0:0:0:
472,61,44317,6,0,P|416:97|378:5,1,180,4|2,1:2|2:0,0:0:0:0:
274,9,44717,1,0,0:0:0:0:
271,107,44850,2,0,P|279:161|279:207,1,90,10|0,2:0|0:0,0:0:0:0:
167,107,45117,2,0,P|168:62|175:17,1,90,2|0,2:0|0:0,0:0:0:0:
171,204,45384,1,0,1:2:0:0:
171,204,45650,2,0,P|111:199|62:182,1,90,2|0,1:2|0:0,0:0:0:0:
4,308,45917,2,0,P|64:303|113:286,1,90,10|0,2:0|0:0,0:0:0:0:
174,360,46184,2,0,P|201:320|295:343,1,135,2|0,2:0|0:0,0:0:0:0:
317,349,46450,6,0,P|310:286|316:252,1,90,2|2,1:2|2:0,0:0:0:0:
401,172,46717,1,2,2:0:0:0:
429,254,46850,1,2,2:0:0:0:
487,189,46984,2,0,P|489:137|480:81,1,90,10|0,2:0|0:0,0:0:0:0:
316,51,47250,2,0,P|310:95|313:140,1,90,2|0,2:0|0:0,0:0:0:0:
314,261,47517,1,0,1:2:0:0:
314,261,47784,2,0,L|202:248,1,90,2|0,1:2|0:0,0:0:0:0:
89,206,48050,1,10,2:0:0:0:
167,151,48184,1,0,0:0:0:0:
81,111,48317,2,0,P|74:64|81:17,1,90,2|0,2:0|0:0,0:0:0:0:
167,1,48584,5,2,1:2:0:0:
213,77,48717,1,2,2:0:0:0:
281,19,48850,1,2,2:0:0:0:
327,95,48984,1,2,2:0:0:0:
395,37,49117,2,0,P|447:29|492:28,1,90,10|0,2:0|0:0,0:0:0:0:
476,137,49384,2,0,P|459:193|450:237,1,90,2|0,2:0|0:0,0:0:0:0:
494,305,49650,1,0,1:2:0:0:
494,305,49917,2,0,P|450:321|389:332,1,90,2|0,1:2|0:0,0:0:0:0:
272,216,50184,2,0,P|315:225|358:240,1,90,8|0,1:2|0:0,0:0:0:0:
183,286,50450,2,0,P|174:237|175:144,1,135,2|0,2:0|0:0,0:0:0:0:
209,123,50717,6,0,P|217:63|211:23,1,90,2|2,1:2|2:0,0:0:0:0:
317,21,50984,1,2,2:0:0:0:
323,115,51117,1,2,2:0:0:0:
429,24,51250,2,0,P|425:68|433:112,1,90,10|0,2:0|0:0,0:0:0:0:
492,268,51517,2,0,P|499:223|496:179,1,90,2|0,2:0|0:0,0:0:0:0:
406,280,51784,1,0,1:2:0:0:
406,280,52050,2,0,P|350:263|302:259,1,90,0|0,1:2|0:0,0:0:0:0:
167,198,52317,2,0,P|211:191|254:177,1,90,10|0,2:0|0:0,0:0:0:0:
368,81,52584,2,0,P|355:126|346:181,1,90,2|0,2:0|0:0,0:0:0:0:
309,15,52850,5,6,1:2:0:0:
261,84,52984,1,2,2:0:0:0:
202,18,53117,1,2,2:0:0:0:
154,87,53250,1,2,2:0:0:0:
95,21,53384,2,0,P|45:16|1:18,1,90,10|0,2:0|0:0,0:0:0:0:
20,198,53650,2,0,P|39:151|50:103,1,90,2|0,2:0|0:0,0:0:0:0:
102,252,53917,1,0,1:2:0:0:
102,252,54184,2,0,P|164:240|214:243,1,90,2|0,1:2|0:0,0:0:0:0:
286,156,54450,2,0,P|241:154|197:144,1,90,10|0,2:0|0:0,0:0:0:0:
294,251,54717,2,0,P|315:308|321:355,1,90,2|0,2:0|0:0,0:0:0:0:
234,379,54984,5,2,1:2:0:0:
207,296,55117,1,0,2:0:0:0:
122,339,55250,1,2,2:0:0:0:
95,256,55384,1,2,2:0:0:0:
10,299,55517,2,0,P|11:236|5:204,1,90,10|0,2:0|0:0,0:0:0:0:
91,68,55784,2,0,P|84:112|87:157,1,90,2|0,2:0|0:0,0:0:0:0:
179,190,56050,1,0,1:2:0:0:
179,190,56317,2,0,P|234:186|275:174,1,90,2|0,1:2|0:0,0:0:0:0:
316,294,56584,2,0,P|261:290|220:278,1,90,10|0,2:0|0:0,0:0:0:0:
123,268,56850,2,0,P|144:318|151:368,1,90,2|2,2:0|2:0,0:0:0:0:
66,199,57117,5,2,1:2:0:0:
34,282,57250,1,0,0:0:0:0:
155,185,57384,1,2,2:0:0:0:
123,268,57517,1,2,2:0:0:0:
244,171,57650,2,0,P|234:112|220:73,1,90,10|0,2:0|0:0,0:0:0:0:
327,252,57917,2,0,P|337:193|351:154,1,90,2|0,2:0|0:0,0:0:0:0:
249,318,58184,1,0,1:2:0:0:
249,318,58450,2,0,P|197:316|157:304,1,90,2|0,1:2|0:0,0:0:0:0:
327,252,58717,2,0,P|348:305|353:354,1,90,10|0,2:0|0:0,0:0:0:0:
215,231,58984,1,2,2:0:0:0:
249,318,59117,1,2,2:0:0:0:
123,221,59250,5,2,1:2:0:0:
160,305,59384,1,2,2:0:0:0:
215,231,59517,1,2,2:0:0:0:
249,318,59650,1,2,2:0:0:0:
270,157,59784,2,0,P|263:93|262:51,1,90,10|0,2:0|0:0,0:0:0:0:
461,251,60050,2,0,P|458:295|453:340,1,90,2|0,2:0|0:0,0:0:0:0:
315,358,60317,1,2,1:2:0:0:
315,358,60584,2,0,P|260:347|212:346,1,90,2|0,1:2|0:0,0:0:0:0:
0,205,60850,2,0,P|55:194|103:193,1,90,10|0,2:0|0:0,0:0:0:0:
224,94,61117,5,10,2:0:0:0:
131,341,61250,1,8,2:0:0:0:
313,132,61384,6,0,P|322:72|223:0,1,180,6|8,1:2|2:0,0:0:0:0:
206,231,61784,1,2,2:0:0:0:
429,149,61917,2,0,P|439:90|433:44,1,90,10|2,2:0|1:2,0:0:0:0:
110,182,62184,2,0,P|100:241|106:287,1,90,8|2,2:0|1:2,0:0:0:0:
438,275,62450,6,0,L|323:256,1,90,6|0,1:2|0:0,0:0:0:0:
110,182,62717,1,10,2:0:0:0:
341,94,62850,1,2,2:0:0:0:
24,110,62984,2,0,P|8:166|6:214,1,90,8|0,2:0|0:0,0:0:0:0:
205,260,63250,1,8,2:0:0:0:
205,32,63384,6,0,L|104:21,1,90,2|6,1:2|1:2,0:0:0:0:
336,62,63650,1,2,2:0:0:0:
159,124,63784,1,10,2:0:0:0:
324,163,63917,1,2,2:0:0:0:
113,216,64050,1,10,2:0:0:0:
312,264,64184,1,2,1:2:0:0:
67,308,64317,1,10,2:0:0:0:
300,365,64450,1,2,1:2:0:0:
159,124,64584,5,6,1:2:0:0:
197,328,64717,1,2,0:0:0:0:
324,163,64850,1,10,2:0:0:0:
201,304,64984,1,2,2:0:0:0:
257,84,65117,2,0,P|311:71|358:69,1,90,10|0,2:0|1:2,0:0:0:0:
394,291,65384,2,0,P|349:287|305:275,1,90,10|0,2:0|1:2,0:0:0:0:
415,26,65650,6,0,P|436:81|456:227,1,180,6|10,1:2|2:0,0:0:0:0:
306,276,66050,1,0,2:0:0:0:
200,57,66184,2,0,P|252:36|302:29,1,90,10|0,2:0|1:2,0:0:0:0:
105,225,66450,2,0,P|61:215|19:198,1,90,10|0,2:0|1:2,0:0:0:0:
302,186,66717,5,6,1:2:0:0:
302,186,66984,1,10,2:0:0:0:
200,4,67117,1,2,2:0:0:0:
64,199,67250,2,0,P|125:216|170:218,1,90,10|0,2:0|1:2,0:0:0:0:
384,66,67517,2,0,P|341:52|296:46,1,90,10|0,2:0|1:2,0:0:0:0:
150,353,67784,6,0,P|156:296|146:183,1,135,6|0,1:2|0:0,0:0:0:0:
132,187,68050,2,0,P|132:136|140:93,1,90,8|0,2:0|2:0,0:0:0:0:
332,8,68317,1,8,2:0:0:0:
241,203,68450,1,0,1:2:0:0:
224,20,68584,1,8,2:0:0:0:
369,188,68717,1,8,2:0:0:0:
369,188,68784,1,8,2:0:0:0:
369,188,68850,6,0,B|458:143|458:143|510:257,1,202.500007724762,12|0,1:2|0:0,0:0:0:0:
472,328,69117,2,0,B|383:373|383:373|331:259,1,202.500007724762,12|0,1:2|0:0,0:0:0:0:
420,256,69384,1,10,1:2:0:0:
420,256,69650,1,0,0:0:0:0:
420,256,69917,6,0,B|384:205|384:205|412:85,1,161.999995056153,6|0,1:2|0:0,0:0:0:0:
390,69,70184,2,0,P|343:43|276:46,1,107.999996704102,8|0,2:0|2:0,0:0:0:0:
97,114,70450,2,0,P|163:119|134:195,1,161.999995056153,2|0,1:2|0:0,0:0:0:0:
100,214,70717,1,8,2:0:0:0:
175,368,70850,1,2,2:0:0:0:
263,171,70984,6,0,B|245:221|245:221|254:280,1,107.999996704102,2|2,1:2|1:2,0:0:0:0:
343,229,71250,1,10,2:0:0:0:
162,277,71384,1,2,2:0:0:0:
339,345,71517,2,0,L|464:350,1,107.999996704102,2|0,1:2|1:2,0:0:0:0:
431,182,71784,1,10,2:0:0:0:
253,275,71917,6,0,P|182:269|203:195,1,161.999995056153,2|0,2:0|0:0,0:0:0:0:
244,185,72184,1,2,1:2:0:0:
339,345,72317,1,10,2:0:0:0:
293,109,72450,1,2,2:0:0:0:
165,310,72584,2,0,B|108:314|108:314|58:289,1,107.999996704102,2|0,1:2|1:2,0:0:0:0:
367,208,72850,2,0,B|424:204|424:204|474:229,1,107.999996704102,10|0,2:0|2:0,0:0:0:0:
121,219,73117,6,0,B|83:159|83:159|102:-3,1,215.999993408203,2|10,1:2|2:0,0:0:0:0:
382,127,73517,1,2,2:0:0:0:
172,134,73650,1,0,1:2:0:0:
337,5,73784,1,2,1:2:0:0:
280,207,73917,1,8,2:0:0:0:
208,9,74050,1,0,0:0:0:0:
438,220,74184,5,4,1:2:0:0:
438,220,74450,2,0,P|421:277|415:328,1,107.999996704102,10|0,2:0|0:0,0:0:0:0:
243,362,74717,2,0,P|235:308|141:303,1,161.999995056153,2|0,1:2|0:0,0:0:0:0:
113,338,74984,1,10,2:0:0:0:
39,166,75117,6,0,P|55:213|60:281,1,107.999996704102,2|0,2:0|1:2,0:0:0:0:
129,129,75384,1,2,1:2:0:0:
143,300,75517,1,10,2:0:0:0:
219,92,75650,1,2,0:0:0:0:
226,330,75784,2,0,B|274:349|274:349|336:336,1,107.999996704102,2|0,1:2|1:2,0:0:0:0:
293,169,76050,1,10,2:0:0:0:
182,222,76184,6,0,B|283:262|283:262|405:236,1,215.999993408203,2|2,2:0|1:2,0:0:0:0:
311,50,76584,1,10,2:0:0:0:
293,169,76717,1,2,2:0:0:0:
228,43,76850,1,2,1:2:0:0:
241,162,76984,1,2,1:2:0:0:
146,57,77117,1,10,2:0:0:0:
189,169,77250,1,2,2:0:0:0:
70,91,77384,6,0,P|45:144|52:256,1,161.999995056153,2|0,1:2|0:0,0:0:0:0:
74,286,77650,1,10,2:0:0:0:
291,190,77784,2,0,P|236:167|180:171,1,107.999996704102,2|0,1:2|0:0,0:0:0:0:
186,310,78050,2,0,P|239:310|288:288,1,107.999996704102,2|10,1:2|2:0,0:0:0:0:
294,92,78317,1,10,2:0:0:0:
415,319,78450,6,0,B|380:269|380:269|401:149,1,161.999995056153,6|0,1:2|0:0,0:0:0:0:
406,120,78717,1,8,2:0:0:0:
478,247,78850,1,2,2:0:0:0:
473,55,78984,2,0,P|422:29|323:78,1,161.999995056153,2|0,1:2|0:0,0:0:0:0:
317,112,79250,1,8,2:0:0:0:
280,257,79384,1,2,2:0:0:0:
218,34,79517,6,0,B|210:147|210:147|147:178,1,161.999995056153,2|0,1:2|0:0,0:0:0:0:
121,189,79784,1,8,2:0:0:0:
88,38,79917,1,2,2:0:0:0:
36,190,80050,2,0,P|56:244|170:257,1,161.999995056153,2|0,1:2|0:0,0:0:0:0:
196,252,80317,1,8,2:0:0:0:
317,112,80450,6,0,P|252:100|292:196,1,215.999993408203,2|2,2:0|1:2,0:0:0:0:
405,124,80850,1,10,2:0:0:0:
409,266,80984,1,2,2:0:0:0:
404,109,81117,1,2,1:2:0:0:
409,280,81250,1,2,1:2:0:0:
404,91,81384,1,10,2:0:0:0:
409,298,81517,1,2,2:0:0:0:
491,138,81650,5,2,1:2:0:0:
323,252,81784,1,2,1:2:0:0:
318,45,81917,2,0,P|262:21|212:15,1,107.999996704102,10|2,2:0|1:2,0:0:0:0:
115,150,82184,1,2,2:0:0:0:
245,104,82317,1,2,1:2:0:0:
85,61,82450,1,10,2:0:0:0:
215,15,82584,1,2,2:0:0:0:
23,132,82717,6,0,P|12:186|8:246,1,107.999996704102,4|0,1:2|0:0,0:0:0:0:
190,342,82984,2,0,P|185:288|175:235,1,107.999996704102,8|0,2:0|0:0,0:0:0:0:
93,308,83250,1,0,1:2:0:0:
310,305,83384,1,0,1:2:0:0:
190,129,83517,2,0,P|179:181|175:235,1,107.999996704102,8|0,2:0|2:0,0:0:0:0:
310,305,83784,5,2,1:2:0:0:
303,153,83917,1,2,1:2:0:0:
394,302,84050,1,10,2:0:0:0:
387,150,84184,1,0,1:2:0:0:
269,231,84317,1,2,2:0:0:0:
428,224,84450,1,2,1:2:0:0:
253,231,84584,1,10,2:0:0:0:
443,223,84717,6,0,P|476:171|473:117,1,107.999996704102,2|0,2:0|1:2,0:0:0:0:
399,21,84984,1,2,1:2:0:0:
204,83,85117,2,0,B|238:140|238:140|401:150,1,215.999993408203,10|0,2:0|1:2,0:0:0:0:
289,57,85517,1,0,1:2:0:0:
122,14,85650,2,0,B|100:67|100:67|108:137,1,107.999996704102,8|0,2:0|0:0,0:0:0:0:
209,249,85917,5,2,1:2:0:0:
204,82,86050,1,2,1:2:0:0:
109,220,86184,1,10,2:0:0:0:
264,164,86317,1,0,1:2:0:0:
105,117,86450,1,2,2:0:0:0:
212,257,86584,1,2,1:2:0:0:
206,73,86717,1,10,2:0:0:0:
102,225,86850,6,0,P|88:282|88:336,1,107.999996704102,2|4,2:0|1:2,0:0:0:0:
186,372,87117,1,0,0:0:0:0:
318,271,87250,2,0,P|261:257|207:257,1,107.999996704102,10|0,2:0|0:0,0:0:0:0:
375,378,87517,2,0,P|428:376|481:363,1,107.999996704102,0|0,1:0|1:2,0:0:0:0:
471,188,87784,2,0,P|418:174|364:173,1,107.999996704102,8|2,2:0|2:0,0:0:0:0:
212,257,88050,5,14,1:2:0:0:
410,277,88184,1,2,2:0:0:0:
167,152,88317,1,8,2:0:0:0:
365,172,88450,1,2,1:2:0:0:
196,265,88584,5,10,2:0:0:0:
434,289,88717,1,0,1:2:0:0:
142,139,88850,1,8,2:0:0:0:
380,163,88984,1,2,1:2:0:0:
127,339,89117,5,10,2:0:0:0:
180,37,89250,1,0,1:2:0:0:
385,339,89384,1,8,2:0:0:0:
332,37,89517,1,2,1:2:0:0:
64,248,89650,1,10,2:0:0:0:
448,248,89784,1,0,1:2:0:0:
203,106,89917,2,0,B|257:96|257:96|308:107,1,107.999996704102,10|2,2:0|2:0,0:0:0:0:
256,192,90184,5,2,1:2:0:0:
256,192,91250,1,0,1:2:0:0:
256,192,91517,2,0,L|265:264,2,67.5000025749208,2|0|0,2:0|0:0|0:0,0:0:0:0:
177,200,92050,5,2,2:0:0:0:
177,200,92317,1,0,1:2:0:0:
177,200,92584,2,0,L|186:272,2,67.5000025749208,0|0|2,0:0|0:0|2:0,0:0:0:0:
99,208,93117,5,0,0:0:0:0:
99,208,93384,1,0,1:2:0:0:
99,208,93650,2,0,L|108:280,2,67.5000025749208,2|0|2,2:0|0:0|2:0,0:0:0:0:
20,216,94184,5,0,0:0:0:0:
20,216,94450,1,0,1:2:0:0:
408,115,95517,1,0,1:2:0:0:
109,46,96584,1,0,1:2:0:0:
257,360,97650,2,0,L|251:301,1,33.7500012874604,4|0,1:2|0:0,0:0:0:0:
259,38,98184,5,2,2:0:0:0:
186,103,98317,2,0,P|173:39|88:62,1,168.750006437302,2|0,2:0|0:0,0:0:0:0:
26,134,98717,5,6,1:2:0:0:
22,163,98806,1,2,2:0:0:0:
34,190,98895,1,2,2:0:0:0:
24,249,98984,5,10,2:0:0:0:
47,266,99072,1,2,2:0:0:0:
76,270,99161,1,2,2:0:0:0:
122,306,99250,5,2,1:2:0:0:
148,295,99339,1,0,0:0:0:0:
166,271,99428,1,0,0:0:0:0:
223,254,99517,5,10,3:2:0:0:
227,226,99606,1,0,0:0:0:0:
215,199,99695,1,0,0:0:0:0:
198,141,99784,5,2,1:2:0:0:
224,155,99872,1,0,0:0:0:0:
254,154,99961,1,0,0:0:0:0:
297,112,100050,5,10,2:0:0:0:
323,98,100139,1,0,0:0:0:0:
353,99,100228,1,0,0:0:0:0:
379,153,100317,6,0,P|419:165|478:161,1,90,2|0,1:2|1:2,0:0:0:0:
482,42,100584,1,10,2:0:0:0:
353,99,100717,6,0,P|354:54|342:11,1,90,2|0,2:0|1:2,0:0:0:0:
263,225,100984,1,2,1:2:0:0:
218,45,101117,1,10,0:0:0:0:
235,328,101250,2,0,P|279:331|324:324,1,90,2|0,0:0|1:2,0:0:0:0:
213,26,101517,1,2,1:2:0:0:
156,220,101650,1,8,2:0:0:0:
325,49,101784,1,2,2:0:0:0:
268,244,101917,5,2,1:2:0:0:
208,7,102050,1,2,1:2:0:0:
360,171,102184,1,10,2:0:0:0:
55,163,102317,2,0,P|57:118|74:76,1,90,2|2,0:0|1:2,0:0:0:0:
186,324,102584,1,0,1:2:0:0:
440,232,102717,2,0,P|456:193|456:126,1,90,8|0,2:0|2:0,0:0:0:0:
247,33,102984,6,0,B|207:79|207:79|230:225,1,180,4|10,1:2|2:0,0:0:0:0:
186,324,103384,1,0,0:0:0:0:
119,165,103517,1,2,1:2:0:0:
80,293,103650,1,2,0:0:0:0:
225,196,103784,2,0,P|272:182|328:189,1,90,10|2,2:0|0:0,0:0:0:0:
282,280,104050,5,2,1:2:0:0:
264,96,104184,1,2,0:0:0:0:
339,364,104317,2,0,P|292:378|236:371,1,90,10|2,2:0|0:0,0:0:0:0:
264,96,104584,1,2,1:2:0:0:
282,280,104717,1,2,0:0:0:0:
178,104,104850,1,10,2:0:0:0:
196,288,104984,1,2,0:0:0:0:
347,181,105117,6,0,L|357:83,1,90,2|0,1:2|1:2,0:0:0:0:
232,209,105384,1,10,2:0:0:0:
214,25,105517,1,2,2:0:0:0:
146,217,105650,1,2,1:2:0:0:
300,17,105784,1,2,1:2:0:0:
232,217,105917,1,10,2:0:0:0:
213,16,106050,1,2,2:0:0:0:
48,134,106184,6,0,L|41:239,1,90,2|2,1:2|1:2,0:0:0:0:
148,339,106450,1,10,2:0:0:0:
308,210,106584,2,0,B|261:176|261:176|114:226,1,180,2|0,1:2|1:2,0:0:0:0:
330,307,106984,1,8,2:0:0:0:
393,159,107117,1,8,2:0:0:0:
430,316,107250,5,6,1:2:0:0:
310,112,107384,1,0,0:0:0:0:
444,333,107517,1,10,2:0:0:0:
296,95,107650,1,0,0:0:0:0:
458,350,107784,1,2,1:2:0:0:
282,78,107917,2,0,P|237:64|182:69,1,90,2|8,1:2|2:0,0:0:0:0:
149,298,108184,6,0,P|195:275|212:127,1,180,2|0,2:0|1:2,0:0:0:0:
127,191,108584,1,10,2:0:0:0:
320,242,108717,1,2,1:2:0:0:
46,264,108850,1,2,2:0:0:0:
401,170,108984,1,2,1:2:0:0:
239,314,109117,2,0,L|133:297,1,90,10|0,2:0|0:0,0:0:0:0:
312,70,109384,6,0,B|324:115|324:115|316:169,1,90,2|0,1:2|0:0,0:0:0:0:
113,149,109650,1,10,2:0:0:0:
86,94,109739,1,2,0:0:0:0:
103,36,109828,1,2,0:0:0:0:
154,5,109917,2,0,L|258:1,1,90,2|2,1:2|1:2,0:0:0:0:
320,242,110184,1,10,2:0:0:0:
113,149,110317,6,0,P|102:107|112:56,1,90,2|0,2:0|1:2,0:0:0:0:
142,256,110584,1,2,1:2:0:0:
142,256,110650,1,0,0:0:0:0:
142,256,110717,1,10,2:0:0:0:
197,105,110850,2,0,L|312:97,1,90,2|0,1:2|0:0,0:0:0:0:
375,153,111117,1,0,1:2:0:0:
113,149,111250,2,0,P|102:107|112:56,1,90,8|0,2:0|2:0,0:0:0:0:
202,305,111517,5,6,1:2:0:0:
219,280,111606,1,2,2:0:0:0:
216,250,111695,1,2,2:0:0:0:
166,216,111784,5,10,2:0:0:0:
149,191,111872,1,2,2:0:0:0:
152,161,111961,1,2,2:0:0:0:
106,123,112050,5,2,1:2:0:0:
119,95,112139,1,2,2:0:0:0:
146,83,112228,1,2,2:0:0:0:
166,26,112317,5,10,2:0:0:0:
197,23,112406,1,2,2:0:0:0:
221,40,112495,1,2,2:0:0:0:
306,30,112584,6,0,P|278:90|275:205,1,180,2|8,1:2|2:0,0:0:0:0:
389,320,112984,2,0,P|402:261|396:214,1,90,2|0,2:0|1:2,0:0:0:0:
364,137,113250,1,0,1:2:0:0:
162,307,113384,2,0,P|213:331|264:334,1,90,8|0,2:0|2:0,0:0:0:0:
164,145,113650,5,2,1:2:0:0:
62,301,113784,1,0,1:2:0:0:
64,139,113917,2,0,P|54:81|58:44,1,90,10|0,2:0|2:0,0:0:0:0:
210,225,114184,1,2,1:2:0:0:
11,219,114317,1,2,1:2:0:0:
254,135,114450,1,10,2:0:0:0:
151,364,114584,6,0,P|142:304|143:255,1,90,2|0,2:0|1:2,0:0:0:0:
303,227,114850,1,2,1:2:0:0:
282,354,114984,1,10,2:0:0:0:
413,308,115117,2,0,P|422:248|421:199,1,90,2|0,2:0|1:2,0:0:0:0:
355,129,115384,1,0,1:2:0:0:
512,166,115517,2,0,P|489:109|464:67,1,90,8|0,2:0|2:0,0:0:0:0:
195,86,115784,6,0,P|261:74|372:165,1,180,6|10,1:2|2:0,0:0:0:0:
352,231,116184,1,0,0:0:0:0:
227,292,116317,5,2,1:2:0:0:
219,262,116406,1,2,0:0:0:0:
216,233,116495,1,2,0:0:0:0:
165,201,116584,5,10,2:0:0:0:
172,171,116672,1,2,0:0:0:0:
175,142,116761,1,2,0:0:0:0:
215,97,116850,5,14,1:2:0:0:
104,300,116984,1,0,2:0:0:0:
92,105,117117,1,10,2:0:0:0:
227,292,117250,1,0,2:0:0:0:
220,86,117384,5,10,2:0:0:0:
98,310,117517,1,0,1:2:0:0:
85,95,117650,1,10,2:0:0:0:
233,301,117784,1,0,1:2:0:0:
320,192,117917,5,14,2:0:0:0:
51,310,118050,1,0,2:0:0:0:
352,192,118184,1,10,2:0:0:0:
51,74,118317,1,0,1:2:0:0:
384,192,118450,1,14,2:0:0:0:
0,192,118584,1,0,2:0:0:0:
416,192,118717,2,0,L|512:192,1,90,2|0,2:0|0:0,0:0:0:0:
209,220,118984,6,0,L|221:120,1,90,2|0,1:2|0:0,0:0:0:0:
343,77,119250,2,0,L|333:166,1,90,8|0,2:0|0:0,0:0:0:0:
293,311,119517,1,0,1:2:0:0:
293,311,119650,1,0,1:2:0:0:
416,192,119784,1,8,2:0:0:0:
383,327,119917,1,8,2:0:0:0:
469,277,120050,5,2,1:2:0:0:
376,129,121117,6,0,B|325:83|325:83|174:108,1,215.999993408203,6|8,1:2|2:0,0:0:0:0:
271,352,121517,1,2,1:2:0:0:
296,181,121650,1,10,2:0:0:0:
88,268,121784,2,0,L|209:286,1,107.999996704102,2|8,1:2|2:0,0:0:0:0:
482,113,122050,6,0,L|361:131,1,107.999996704102,2|6,1:2|1:2,0:0:0:0:
160,152,122317,1,2,2:0:0:0:
360,228,122450,1,10,2:0:0:0:
137,141,122584,1,2,1:2:0:0:
383,239,122717,2,0,L|496:279,1,107.999996704102,10|0,2:0|1:2,0:0:0:0:
272,90,122984,1,8,2:0:0:0:
225,353,123117,6,0,P|214:299|214:244,1,107.999996704102,2|6,1:2|1:2,0:0:0:0:
378,73,123384,1,2,2:0:0:0:
304,286,123517,1,10,2:0:0:0:
272,90,123650,1,2,1:2:0:0:
410,269,123784,1,10,2:0:0:0:
381,62,123917,1,2,1:2:0:0:
299,295,124050,1,10,2:0:0:0:
265,81,124184,1,2,1:2:0:0:
416,277,124317,6,0,P|467:292|530:289,1,107.999996704102,6|2,1:2|1:2,0:0:0:0:
326,155,124584,1,10,2:0:0:0:
273,368,124717,1,2,1:2:0:0:
224,168,124850,1,10,2:0:0:0:
186,320,124984,1,2,1:2:0:0:
111,221,125117,2,0,P|98:161|98:107,1,107.999996704102,10|0,2:0|1:2,0:0:0:0:
363,109,125384,6,0,P|323:77|226:175,1,215.999993408203,6|10,1:2|2:0,0:0:0:0:
243,344,125784,1,0,1:2:0:0:
404,308,125917,2,0,P|418:246|414:190,1,107.999996704102,10|0,2:0|1:2,0:0:0:0:
133,98,126184,2,0,P|119:160|123:216,1,107.999996704102,10|0,2:0|1:2,0:0:0:0:
334,46,126450,5,6,1:2:0:0:
334,46,126717,1,10,2:0:0:0:
295,218,126850,1,2,1:2:0:0:
456,35,126984,2,0,P|473:93|481:152,1,107.999996704102,10|2,2:0|1:2,0:0:0:0:
170,250,127250,2,0,P|178:196|194:145,1,107.999996704102,10|0,2:0|1:2,0:0:0:0:
500,294,127517,6,0,L|280:311,1,215.999993408203,6|8,1:2|2:0,0:0:0:0:
194,145,127917,1,0,1:2:0:0:
386,73,128050,2,0,P|406:134|411:185,1,107.999996704102,8|0,2:0|1:2,0:0:0:0:
205,260,128317,1,8,2:0:0:0:
123,56,128450,1,8,2:0:0:0:
123,56,128517,1,8,2:0:0:0:
123,56,128584,6,0,L|234:47,1,107.999996704102,0|0,1:0|0:0,0:0:0:0:
89,316,128850,6,0,B|91:350|119:386|170:395|215:377|225:334|252:215|252:215|313:194|359:243|359:243|420:220|466:267|466:267|473:155|396:81|297:40|297:40|300:3|300:3|288:38|288:38|180:33|78:65|36:168|36:168|100:145|144:192|144:192|193:172|234:209,1,1425.60004350586,4|8,1:2|2:0,0:0:0:0:
157,142,140317,6,0,P|144:97|144:61,1,67.5000025749208,2|0,2:0|2:0,0:0:0:0:
241,58,140584,2,0,P|254:103|254:139,1,67.5000025749208,8|2,2:1|2:0,0:0:0:0:
227,227,140850,2,0,P|294:206|374:204,1,135.000005149842,2|8,2:0|2:1,0:0:0:0:
456,329,141250,2,0,P|388:324|324:304,1,135.000005149842,2|2,2:0|2:0,0:0:0:0:
144,292,141650,2,0,P|179:330|197:361,1,67.5000025749208,8|0,2:1|2:0,0:0:0:0:
227,227,141917,2,0,P|231:175|244:146,1,67.5000025749208,2|2,2:0|2:0,0:0:0:0:
305,96,142184,1,10,2:0:0:0:
305,96,142450,6,0,P|259:85|167:81,1,135.000005149842,2|8,2:0|2:1,0:0:0:0:
84,104,142850,1,2,2:0:0:0:
55,196,142984,2,0,P|101:185|193:181,1,135.000005149842,2|8,2:0|2:1,0:0:0:0:
396,349,143517,2,0,P|395:309|391:273,1,67.5000025749208,2|2,2:0|2:0,0:0:0:0:
471,238,143784,2,0,P|472:198|476:162,1,67.5000025749208,10|0,2:0|0:0,0:0:0:0:
478,67,144050,2,0,P|442:73|395:73,1,67.5000025749208,2|2,2:0|2:0,0:0:0:0:
335,23,144317,1,8,2:1:0:0:
258,73,144450,6,0,P|271:114|282:210,1,135.000005149842,2|2,0:0|0:0,0:0:0:0:
363,267,144850,2,0,P|366:225|377:185,1,67.5000025749208,8|0,2:1|2:0,0:0:0:0:
282,353,145117,2,0,P|278:311|267:271,1,67.5000025749208,2|0,2:0|2:0,0:0:0:0:
176,290,145384,2,0,P|179:248|190:208,1,67.5000025749208,8|0,2:1|2:0,0:0:0:0:
103,357,145650,5,2,2:0:0:0:
103,357,145917,2,0,L|95:277,2,72,2|2|2,2:0|2:0|2:0,0:0:0:0:
409,357,146984,6,0,L|417:277,2,72,2|2|2,0:0|2:0|2:0,0:0:0:0:
363,38,147784,6,0,B|285:81|285:81|178:63,1,175.499991966248,6|0,1:2|0:0,0:0:0:0:
143,54,148050,1,8,2:0:0:0:
352,162,148184,1,0,2:0:0:0:
92,281,148317,2,0,B|80:224|80:224|100:157,1,116.999994644165,2|0,1:2|1:2,0:0:0:0:
448,109,148584,2,0,B|460:166|460:166|440:233,1,116.999994644165,8|2,2:0|2:0,0:0:0:0:
331,354,148850,5,2,1:2:0:0:
184,107,148984,1,2,1:2:0:0:
443,222,149117,1,10,2:0:0:0:
167,280,149250,1,2,1:2:0:0:
356,72,149384,2,0,L|489:69,1,116.999994644165,2|0,2:0|1:2,0:0:0:0:
337,369,149650,1,10,2:0:0:0:
147,122,149784,6,0,B|129:65|129:65|147:-3,1,116.999994644165,2|0,2:0|1:2,0:0:0:0:
376,180,150050,1,2,2:0:0:0:
101,211,150184,1,10,2:0:0:0:
330,269,150317,1,2,0:0:0:0:
55,300,150450,2,0,B|7:238|7:238|28:116,1,175.499991966248,2|0,1:2|0:0,0:0:0:0:
36,85,150717,1,10,2:0:0:0:
157,285,150850,1,0,2:0:0:0:
203,44,150984,6,0,B|271:22|271:22|403:40,1,175.499991966248,2|0,1:2|0:0,0:0:0:0:
432,45,151250,1,10,2:0:0:0:
187,147,151384,1,2,1:2:0:0:
456,142,151517,1,0,2:0:0:0:
171,250,151650,1,2,1:2:0:0:
480,239,151784,1,8,2:0:0:0:
155,353,151917,1,0,2:0:0:0:
280,115,152050,5,4,1:2:0:0:
280,115,152317,2,0,L|161:104,1,116.999994644165,10|0,2:0|0:0,0:0:0:0:
503,21,152584,2,0,B|452:60|452:60|471:185,1,175.499991966248,2|0,1:2|0:0,0:0:0:0:
479,226,152850,1,10,2:0:0:0:
363,98,152984,6,0,B|338:38|338:38|212:24,1,175.499991966248,2|0,2:0|0:0,0:0:0:0:
169,19,153250,1,2,1:2:0:0:
274,161,153384,1,10,2:0:0:0:
79,232,153517,1,2,2:0:0:0:
229,364,153650,2,0,L|354:359,1,116.999994644165,2|0,1:2|1:2,0:0:0:0:
428,268,153917,1,10,2:0:0:0:
198,97,154050,6,0,B|176:152|176:152|189:223,1,116.999994644165,2|0,2:0|1:2,0:0:0:0:
420,136,154317,1,2,1:2:0:0:
274,161,154450,1,10,2:0:0:0:
419,209,154584,1,2,2:0:0:0:
271,194,154717,1,2,1:2:0:0:
400,279,154850,1,2,1:2:0:0:
261,227,154984,1,10,2:0:0:0:
362,341,155117,1,2,2:0:0:0:
241,254,155250,6,0,B|191:227|191:227|120:234,1,116.999994644165,2|0,1:2|1:2,0:0:0:0:
88,358,155517,1,10,2:0:0:0:
325,309,155650,2,0,B|337:250|337:250|319:181,1,116.999994644165,2|0,2:0|1:2,0:0:0:0:
38,79,155917,2,0,B|26:138|26:138|44:207,1,116.999994644165,2|8,1:2|2:0,0:0:0:0:
203,365,156184,1,10,2:0:0:0:
203,365,156250,1,0,0:0:0:0:
203,365,156317,6,0,L|192:157,1,175.499991966248,6|0,1:2|0:0,0:0:0:0:
190,131,156584,1,8,2:0:0:0:
325,309,156717,1,2,2:0:0:0:
275,82,156850,2,0,B|231:37|231:37|110:50,1,175.499991966248,2|0,1:2|0:0,0:0:0:0:
60,53,157117,1,8,2:0:0:0:
313,178,157250,1,2,2:0:0:0:
46,188,157384,6,0,B|13:252|13:252|44:352,1,175.499991966248,2|0,1:2|0:0,0:0:0:0:
94,378,157650,1,8,2:0:0:0:
178,164,157784,1,2,2:0:0:0:
241,378,157917,2,0,B|286:332|286:332|421:344,1,175.499991966248,2|0,1:2|0:0,0:0:0:0:
455,348,158184,1,8,2:0:0:0:
428,119,158317,6,0,B|449:173|449:173|440:247,1,116.999994644165,2|0,2:0|1:2,0:0:0:0:
178,164,158584,1,2,1:2:0:0:
252,335,158717,1,10,2:0:0:0:
364,186,158850,1,2,2:0:0:0:
102,222,158984,1,2,1:2:0:0:
288,245,159117,1,2,1:2:0:0:
214,73,159250,1,10,2:0:0:0:
193,260,159384,1,2,2:0:0:0:
364,186,159517,5,2,1:2:0:0:
178,164,159650,1,2,1:2:0:0:
441,231,159784,2,0,B|449:173|449:173|428:119,1,116.999994644165,10|2,2:0|2:0,0:0:0:0:
214,73,160050,1,2,1:2:0:0:
288,245,160184,1,2,1:2:0:0:
428,39,160317,2,0,B|372:21|372:21|297:33,1,116.999994644165,10|2,2:0|2:0,0:0:0:0:
324,328,160584,6,0,B|382:284|382:284|365:107,1,233.999989288331,6|8,1:2|2:0,0:0:0:0:
178,25,160984,1,2,2:0:0:0:
22,213,161117,2,0,B|57:231|57:231|200:215,1,175.499991966248,2|0,1:2|0:0,0:0:0:0:
250,207,161384,1,8,2:0:0:0:
81,50,161517,1,2,2:0:0:0:
74,316,161650,6,0,L|211:301,1,116.999994644165,6|0,1:2|1:2,0:0:0:0:
416,148,161917,1,10,2:0:0:0:
38,169,162050,1,0,1:2:0:0:
373,267,162184,1,10,2:0:0:0:
81,50,162317,1,0,1:2:0:0:
174,384,162450,1,10,2:0:0:0:
225,357,162517,1,8,2:0:0:0:
249,305,162584,1,8,2:0:0:0:
236,249,162650,1,8,2:0:0:0:
192,213,162717,6,0,L|75:225,1,116.999994644165,6|0,1:2|0:0,0:0:0:0:
396,43,162984,2,0,L|512:55,1,116.999994644165,8|0,2:0|2:0,0:0:0:0:
371,364,163250,2,0,B|317:334|317:334|327:193,1,175.499991966248,2|0,1:2|0:0,0:0:0:0:
328,161,163517,1,8,2:0:0:0:
225,357,163650,1,2,2:0:0:0:
448,244,163784,5,2,1:2:0:0:
165,171,163917,1,2,1:2:0:0:
462,247,164050,1,10,2:0:0:0:
150,167,164184,1,2,2:0:0:0:
396,43,164317,2,0,B|413:99|413:99|396:166,1,116.999994644165,2|0,1:2|1:2,0:0:0:0:
351,275,164584,1,8,2:0:0:0:
74,125,164717,6,0,B|115:76|115:76|247:98,1,175.499991966248,2|0,2:0|0:0,0:0:0:0:
283,102,164984,1,2,1:2:0:0:
70,244,165117,1,10,2:0:0:0:
323,212,165250,1,2,2:0:0:0:
190,363,165384,2,0,B|170:310|170:310|182:226,1,116.999994644165,2|0,1:2|1:2,0:0:0:0:
466,7,165650,2,0,B|486:60|486:60|474:144,1,116.999994644165,10|0,2:0|0:0,0:0:0:0:
100,382,165917,6,0,B|77:319|77:319|96:199,1,175.499991966248,2|0,1:2|0:0,0:0:0:0:
105,154,166184,1,10,2:0:0:0:
433,318,166317,2,0,B|380:342|380:342|316:331,1,116.999994644165,2|0,2:0|1:2,0:0:0:0:
40,79,166584,2,0,B|93:55|93:55|169:71,1,116.999994644165,2|8,1:2|2:0,0:0:0:0:
348,151,166850,1,0,2:0:0:0:
100,382,166984,5,4,1:2:0:0:
100,382,167250,2,0,L|114:259,1,116.999994644165,10|0,2:0|0:0,0:0:0:0:
492,88,167517,2,0,L|506:211,1,116.999994644165,2|0,1:2|1:2,0:0:0:0:
287,329,167784,1,10,2:0:0:0:
276,90,167917,6,0,B|326:61|326:61|408:71,1,116.999994644165,2|2,2:0|1:2,0:0:0:0:
113,265,168184,1,2,1:2:0:0:
143,28,168317,1,10,2:0:0:0:
260,239,168450,1,2,2:0:0:0:
41,137,168584,2,0,B|26:80|26:80|42:15,1,116.999994644165,2|0,1:2|1:2,0:0:0:0:
276,90,168850,1,10,2:0:0:0:
113,265,168984,6,0,L|-3:258,1,116.999994644165,2|0,2:0|1:2,0:0:0:0:
182,181,169250,1,2,1:2:0:0:
195,337,169384,1,10,2:0:0:0:
251,178,169517,1,2,0:0:0:0:
223,332,169650,1,2,1:2:0:0:
319,193,169784,1,2,1:2:0:0:
252,334,169917,1,10,2:0:0:0:
380,224,170050,1,2,2:0:0:0:
279,344,170184,6,0,L|469:358,1,175.499991966248,2|0,1:2|0:0,0:0:0:0:
503,327,170450,1,10,2:0:0:0:
314,136,170584,2,0,B|284:182|284:182|279:259,1,116.999994644165,2|0,2:0|0:0,0:0:0:0:
444,114,170850,1,2,1:2:0:0:
135,145,170984,1,10,2:0:0:0:
475,109,171117,1,10,2:0:0:0:
104,150,171250,6,0,B|83:209|83:209|97:285,1,116.999994644165,6|0,1:2|0:0,0:0:0:0:
257,256,171517,1,8,2:0:0:0:
227,49,171650,1,2,2:0:0:0:
171,289,171784,2,0,B|205:343|205:343|336:332,1,175.499991966248,2|0,1:2|0:0,0:0:0:0:
374,328,172050,1,8,2:0:0:0:
461,194,172184,1,2,2:0:0:0:
461,194,172250,1,0,0:0:0:0:
461,194,172317,6,0,B|477:127|477:127|462:75,1,116.999994644165,2|0,1:2|1:2,0:0:0:0:
232,156,172584,1,8,2:0:0:0:
349,14,172717,1,2,2:0:0:0:
346,222,172850,2,0,B|324:274|324:274|190:284,1,175.499991966248,2|0,1:2|0:0,0:0:0:0:
145,284,173117,1,8,2:0:0:0:
330,123,173250,6,0,B|386:130|386:130|433:167,1,116.999994644165,2|0,2:0|1:2,0:0:0:0:
299,372,173517,1,2,1:2:0:0:
232,156,173650,1,10,2:0:0:0:
397,339,173784,1,2,2:0:0:0:
248,60,173917,1,2,1:2:0:0:
217,309,174050,1,2,1:2:0:0:
150,93,174184,1,10,2:0:0:0:
315,276,174317,1,2,2:0:0:0:
48,173,174450,5,2,1:2:0:0:
330,123,174584,1,2,1:2:0:0:
140,367,174717,2,0,B|123:308|123:308|141:243,1,116.999994644165,10|2,2:0|2:0,0:0:0:0:
408,63,174984,2,0,B|425:122|425:122|397:242,1,175.499991966248,2|0,1:2|0:0,0:0:0:0:
386,289,175250,1,10,2:0:0:0:
201,135,175384,1,2,2:0:0:0:
507,137,175517,6,0,L|474:275,1,116.999994644165,4|0,1:2|0:0,0:0:0:0:
303,10,175784,2,0,L|336:148,1,116.999994644165,8|0,2:0|0:0,0:0:0:0:
179,362,176050,2,0,B|162:303|162:303|202:129,1,233.999989288331,0|8,1:2|2:0,0:0:0:0:
330,123,176450,1,0,2:0:0:0:
376,310,176584,6,0,B|320:332|320:332|257:314,1,116.999994644165,2|0,1:2|1:2,0:0:0:0:
464,90,176850,1,10,2:0:0:0:
512,353,176984,1,2,1:2:0:0:
311,233,177117,2,0,B|304:172|304:172|330:121,1,116.999994644165,2|0,2:0|1:2,0:0:0:0:
499,208,177384,1,10,2:0:0:0:
220,244,177517,6,0,B|210:155|210:155|257:62,1,175.499991966248,2|0,2:0|0:0,0:0:0:0:
281,28,177784,1,2,1:2:0:0:
129,255,177917,2,0,L|114:132,1,116.999994644165,8|0,2:0|0:0,0:0:0:0:
311,233,178184,1,0,1:2:0:0:
38,266,178317,1,0,1:2:0:0:
402,222,178450,2,0,L|536:200,1,116.999994644165,8|0,2:0|0:0,0:0:0:0:
333,101,178717,5,2,1:2:0:0:
342,338,178850,1,2,1:2:0:0:
239,89,178984,1,10,2:0:0:0:
247,353,179117,1,2,1:2:0:0:
425,135,179250,1,2,2:0:0:0:
194,229,179384,1,2,1:2:0:0:
449,315,179517,1,10,2:0:0:0:
124,159,179650,6,0,B|99:216|99:216|114:291,1,116.999994644165,2|0,2:0|1:2,0:0:0:0:
235,361,179917,1,0,0:0:0:0:
207,83,180050,2,0,B|159:53|159:53|91:50,1,116.999994644165,10|0,2:0|0:0,0:0:0:0:
374,204,180317,2,0,B|424:177|424:177|461:120,1,116.999994644165,0|0,1:2|1:2,0:0:0:0:
185,273,180584,2,0,B|183:330|183:330|211:384,1,116.999994644165,8|2,2:0|2:0,0:0:0:0:
324,111,180850,5,6,1:2:0:0:
55,216,180984,1,0,2:0:0:0:
297,255,181117,1,8,2:0:0:0:
82,72,181250,1,2,2:0:0:0:
337,105,181384,5,10,2:0:0:0:
41,221,181517,1,0,1:2:0:0:
307,264,181650,1,8,2:0:0:0:
71,62,181784,1,2,1:2:0:0:
231,367,181917,5,10,2:0:0:0:
193,51,182050,1,0,1:2:0:0:
317,369,182184,1,8,2:0:0:0:
315,39,182317,1,2,1:2:0:0:
403,371,182450,5,14,1:2:0:0:
360,379,182517,1,0,0:0:0:0:
317,369,182584,1,2,0:0:0:0:
281,344,182650,1,0,0:0:0:0:
259,307,182717,1,2,0:0:0:0:
252,264,182784,1,0,0:0:0:0:
263,222,182850,1,2,2:0:0:0:
289,187,182917,1,0,0:0:0:0:
327,166,182984,6,0,B|281:121|281:121|159:130,1,175.499991966248,6|0,1:2|0:0,0:0:0:0:
111,133,183250,1,8,2:0:0:0:
252,264,183384,1,0,2:0:0:0:
48,347,183517,2,0,B|34:302|34:302|47:208,1,116.999994644165,0|0,1:2|1:2,0:0:0:0:
418,247,183784,1,10,2:0:0:0:
132,296,183917,1,0,2:0:0:0:
495,197,184050,6,0,B|508:241|508:241|496:336,1,116.999994644165,2|0,1:2|1:2,0:0:0:0:
325,67,184317,1,10,2:0:0:0:
284,301,184450,1,0,2:0:0:0:
138,50,184584,2,0,B|124:94|124:94|137:189,1,116.999994644165,2|0,2:0|1:2,0:0:0:0:
371,357,184850,2,0,B|384:312|384:312|372:218,1,116.999994644165,10|0,2:0|2:0,0:0:0:0:
60,302,185117,6,0,B|121:270|121:270|294:303,1,233.999989288331,2|10,1:2|2:0,0:0:0:0:
462,73,185517,2,0,L|334:86,1,116.999994644165,2|0,2:0|1:0,0:0:0:0:
61,137,185784,1,0,0:0:0:0:
461,193,185917,1,10,2:0:0:0:
27,131,186050,1,2,2:0:0:0:
495,199,186184,6,0,B|512:254|512:254|492:383,1,175.499991966248,2|0,1:2|0:0,0:0:0:0:
436,379,186450,1,8,2:0:0:0:
345,84,186584,1,0,2:0:0:0:
131,345,186717,2,0,L|119:225,1,116.999994644165,2|0,1:2|1:2,0:0:0:0:
453,76,186984,2,0,L|441:196,1,116.999994644165,10|0,2:0|0:0,0:0:0:0:
87,71,187250,6,0,B|138:45|138:45|208:48,1,116.999994644165,6|0,1:2|0:0,0:0:0:0:
441,192,187517,1,10,2:0:0:0:
158,138,187650,1,0,1:2:0:0:
436,281,187784,1,10,2:0:0:0:
119,229,187917,1,0,1:2:0:0:
431,370,188050,1,10,2:0:0:0:
80,320,188184,1,2,1:2:0:0:
386,58,188317,5,14,2:0:0:0:
334,357,188450,1,0,1:2:0:0:
285,32,188584,1,10,2:0:0:0:
233,363,188717,1,2,1:2:0:0:
184,6,188850,1,10,2:0:0:0:
132,369,188984,1,2,1:2:0:0:
473,232,189117,1,10,2:0:0:0:
475,214,189184,1,8,2:0:0:0:
477,196,189250,1,8,2:0:0:0:
479,178,189317,1,8,2:0:0:0:
