osu file format v14

[General]
AudioFilename: audio.mp3
AudioLeadIn: 0
PreviewTime: 146983
Countdown: 0
SampleSet: Drum
StackLeniency: 0.7
Mode: 3
LetterboxInBreaks: 0
SpecialStyle: 0
WidescreenStoryboard: 0

[Editor]
DistanceSpacing: 1
BeatDivisor: 8
GridSize: 8
TimelineZoom: 2.6

[Metadata]
Title:Doro no Bunzai de Watashi dake no Taisetsu o Ubaou da nante
TitleUnicode:泥の分際で私だけの大切を奪おうだなんて
Artist:TUYU
ArtistUnicode:ツユ
Creator:deta5859
Version:Regret
Source:SOUND VOLTEX EXCEED GEAR
Tags:Fresh Chicken Aruel Nabi- Madoka2574 ML-ysg Being low as dirt, taking what's important from me 貴方を不幸に誘いますね ぷす Pusu 礼衣 Rei あじゅん AzyuN おむたつ Omutatsu TUYU-0002 Japanese Rock J-Rock J-Pop Pop sdvx VI Nolstalgia Op.3 konami
BeatmapID:2583811
BeatmapSetID:1242820

[Difficulty]
HPDrainRate:8
CircleSize:4
OverallDifficulty:8
ApproachRate:5
SliderMultiplier:1.4
SliderTickRate:1

[Events]
//Background and Video events
0,0,"regret.jpg",0,0
//Break Periods
//Storyboard Layer 0 (Background)
//Storyboard Layer 1 (Fail)
//Storyboard Layer 2 (Pass)
//Storyboard Layer 3 (Foreground)
//Storyboard Layer 4 (Overlay)
//Storyboard Sound Samples
Sample,17649,0,"Hihat.wav",50
Sample,20849,0,"Hihat.wav",50
Sample,21916,0,"Hihat.wav",50
Sample,26183,0,"Hihat.wav",50
Sample,30449,0,"Hihat.wav",50
Sample,72049,0,"Hihat.wav",50
Sample,75249,0,"Hihat.wav",50
Sample,76316,0,"Hihat.wav",50
Sample,80583,0,"Hihat.wav",50
Sample,84849,0,"Hihat.wav",50
Sample,99249,0,"Hihat.wav",50
Sample,99783,0,"Hihat.wav",50
Sample,100849,0,"Hihat.wav",50
Sample,101383,0,"Hihat.wav",50
Sample,101916,0,"Hihat.wav",50
Sample,103516,0,"Hihat.wav",50
Sample,104049,0,"Hihat.wav",50
Sample,105116,0,"Hihat.wav",50
Sample,105649,0,"Hihat.wav",50
Sample,106183,0,"Hihat.wav",50
Sample,107783,0,"Hihat.wav",50
Sample,108316,0,"Hihat.wav",50
Sample,109383,0,"Hihat.wav",50
Sample,109916,0,"Hihat.wav",50
Sample,110449,0,"Hihat.wav",50
Sample,112049,0,"Hihat.wav",50
Sample,112583,0,"Hihat.wav",50
Sample,114716,0,"Hihat.wav",50
Sample,116316,0,"Hihat.wav",50
Sample,149916,0,"Hihat.wav",50
Sample,153116,0,"Hihat.wav",50
Sample,154183,0,"Hihat.wav",50
Sample,158449,0,"Hihat.wav",50
Sample,164849,0,"Hihat.wav",50
Sample,166716,0,"Hihat.wav",50
Sample,168049,0,"Hihat.wav",50
Sample,169116,0,"Hihat.wav",50
Sample,177649,0,"Hihat.wav",50

[TimingPoints]
583,266.666666666667,4,3,1,50,1,0
15516,-100,4,3,1,50,0,1
35783,-100,4,3,1,50,0,0
69916,-100,4,3,1,50,0,1
90183,-100,4,3,1,50,0,0
147783,-100,4,3,1,50,0,1
189383,-100,4,3,1,50,0,0

[HitObjects]
64,192,583,1,0,0:0:0:0:
448,192,583,1,0,0:0:0:0:
64,192,849,1,0,0:0:0:20:Clap.wav
192,192,849,1,0,0:0:0:0:
320,192,849,1,0,0:0:0:0:
64,192,1116,1,0,0:0:0:0:
448,192,1116,1,0,0:0:0:0:
192,192,1383,1,0,0:0:0:20:Clap.wav
320,192,1383,1,0,0:0:0:0:
448,192,1383,1,0,0:0:0:0:
64,192,1649,1,0,0:0:0:0:
320,192,1649,1,0,0:0:0:0:
64,192,1916,1,0,0:0:0:20:Clap.wav
192,192,1916,1,0,0:0:0:0:
448,192,1916,1,0,0:0:0:0:
192,192,2183,1,0,0:0:0:0:
448,192,2183,1,0,0:0:0:0:
64,192,2449,1,0,0:0:0:20:Clap.wav
320,192,2449,1,0,0:0:0:0:
448,192,2449,1,0,0:0:0:0:
64,192,2716,1,0,0:0:0:0:
192,192,2716,1,0,0:0:0:0:
192,192,2983,1,0,0:0:0:20:Clap.wav
320,192,2983,1,0,0:0:0:0:
448,192,2983,1,0,0:0:0:0:
320,192,3249,1,0,0:0:0:0:
448,192,3249,1,0,0:0:0:0:
64,192,3516,1,0,0:0:0:20:Clap.wav
192,192,3516,1,0,0:0:0:0:
320,192,3516,1,0,0:0:0:0:
320,192,3783,1,0,0:0:0:0:
448,192,3783,1,0,0:0:0:0:
192,192,4049,1,0,0:0:0:20:Clap.wav
320,192,4049,1,0,0:0:0:0:
448,192,4049,1,0,0:0:0:0:
64,192,4316,1,0,0:0:0:0:
192,192,4316,1,0,0:0:0:0:
64,192,4583,1,0,0:0:0:20:Clap.wav
192,192,4583,1,0,0:0:0:0:
320,192,4583,1,0,0:0:0:0:
64,192,4849,1,0,0:0:0:0:
448,192,4849,1,0,0:0:0:0:
192,192,5116,1,0,0:0:0:20:Clap.wav
320,192,5116,1,0,0:0:0:0:
448,192,5116,1,0,0:0:0:0:
64,192,5383,1,0,0:0:0:0:
448,192,5383,1,0,0:0:0:0:
64,192,5649,1,0,0:0:0:20:Clap.wav
192,192,5649,1,0,0:0:0:0:
320,192,5649,1,0,0:0:0:0:
192,192,5916,1,0,0:0:0:0:
448,192,5916,1,0,0:0:0:0:
64,192,6183,1,0,0:0:0:20:Clap.wav
320,192,6183,1,0,0:0:0:0:
448,192,6183,1,0,0:0:0:0:
64,192,6449,1,0,0:0:0:0:
320,192,6449,1,0,0:0:0:0:
64,192,6716,1,0,0:0:0:20:Clap.wav
192,192,6716,1,0,0:0:0:0:
448,192,6716,1,0,0:0:0:0:
320,192,6983,1,0,0:0:0:0:
448,192,6983,1,0,0:0:0:0:
64,192,7249,1,0,0:0:0:20:Clap.wav
192,192,7249,1,0,0:0:0:0:
320,192,7249,1,0,0:0:0:0:
64,192,7516,1,0,0:0:0:0:
192,192,7516,1,0,0:0:0:0:
192,192,7783,1,0,0:0:0:20:Clap.wav
320,192,7783,1,0,0:0:0:0:
448,192,7783,1,0,0:0:0:0:
64,192,8049,1,0,0:0:0:0:
192,192,8049,1,0,0:0:0:0:
64,192,8316,1,0,0:0:0:20:Clap.wav
192,192,8316,1,0,0:0:0:0:
320,192,8316,1,0,0:0:0:0:
320,192,8583,1,0,0:0:0:0:
448,192,8583,1,0,0:0:0:0:
192,192,8849,1,0,0:0:0:20:Clap.wav
320,192,8849,1,0,0:0:0:0:
448,192,8849,1,0,0:0:0:0:
192,192,9116,1,0,0:0:0:0:
448,192,9116,128,0,9249:0:0:0:0:
64,192,9249,128,0,9383:0:0:0:0:
320,192,9383,128,0,9516:0:0:0:20:Clap.wav
448,192,9383,1,0,0:0:0:0:
64,192,9516,128,0,9649:0:0:0:0:
192,192,9649,1,0,0:0:0:0:
448,192,9649,128,0,9783:0:0:0:0:
64,192,9783,128,0,9916:0:0:0:0:
192,192,9916,128,0,10049:0:0:0:20:Clap.wav
448,192,9916,1,0,0:0:0:0:
320,192,10049,128,0,10183:0:0:0:0:
192,192,10183,1,0,0:0:0:0:
448,192,10183,128,0,10316:0:0:0:0:
64,192,10316,128,0,10449:0:0:0:0:
192,192,10449,1,0,0:0:0:20:Clap.wav
320,192,10449,128,0,10583:0:0:0:0:
448,192,10583,128,0,10716:0:0:0:0:
64,192,10716,1,0,0:0:0:0:
320,192,10716,128,0,10849:0:0:0:0:
192,192,10849,128,0,10983:0:0:0:0:
64,192,10983,128,0,11116:0:0:0:20:Clap.wav
448,192,10983,1,0,0:0:0:0:
192,192,11116,128,0,11249:0:0:0:0:
64,192,11249,128,0,11383:0:0:0:0:
448,192,11249,1,0,0:0:0:0:
320,192,11383,128,0,11516:0:0:0:0:
64,192,11516,1,0,0:0:0:20:Clap.wav
192,192,11516,128,0,11649:0:0:0:0:
448,192,11649,128,0,11783:0:0:0:0:
192,192,11783,1,0,0:0:0:0:
320,192,11783,128,0,11916:0:0:0:0:
64,192,11916,128,0,12049:0:0:0:0:
192,192,12049,128,0,12183:0:0:0:20:Clap.wav
448,192,12049,1,0,0:0:0:0:
320,192,12183,128,0,12316:0:0:0:0:
64,192,12316,1,0,0:0:0:0:
448,192,12316,128,0,12449:0:0:0:0:
192,192,12449,128,0,12583:0:0:0:0:
320,192,12583,128,0,12716:0:0:0:20:Clap.wav
448,192,12583,1,0,0:0:0:0:
64,192,12716,128,0,12849:0:0:0:0:
320,192,12849,1,0,0:0:0:0:
448,192,12849,128,0,12983:0:0:0:0:
192,192,12983,128,0,13116:0:0:0:0:
64,192,13116,1,0,0:0:0:20:Clap.wav
320,192,13116,128,0,13249:0:0:0:0:
192,192,13249,128,0,13383:0:0:0:0:
64,192,13383,128,0,13516:0:0:0:0:
448,192,13383,1,0,0:0:0:0:
320,192,13516,128,0,13649:0:0:0:0:
192,192,13649,1,0,0:0:0:20:Clap.wav
448,192,13649,128,0,13783:0:0:0:0:
64,192,13783,128,0,13916:0:0:0:0:
320,192,13916,128,0,14049:0:0:0:0:
448,192,13916,1,0,0:0:0:0:
192,192,14049,128,0,14183:0:0:0:0:
64,192,14183,1,0,0:0:0:20:Clap.wav
320,192,14183,128,0,14316:0:0:0:0:
448,192,14316,128,0,14449:0:0:0:0:
64,192,14449,128,0,14983:0:0:0:0:
320,192,14449,128,0,14583:0:0:0:0:
192,192,14716,128,0,14983:0:0:0:0:
320,192,14983,128,0,15249:0:0:0:0:
448,192,15249,128,0,15516:0:0:0:0:
64,192,15516,128,2,15783:0:0:0:0:
192,192,15516,1,4,0:0:0:0:
320,192,15516,1,0,0:0:0:0:
192,192,15783,1,8,0:0:0:0:
320,192,15783,1,0,0:0:0:50:Hihat.wav
448,192,15783,1,0,0:0:0:0:
64,192,15916,1,0,0:0:0:0:
320,192,16049,1,2,0:0:0:0:
448,192,16049,128,0,16449:0:0:0:50:Hihat.wav
64,192,16183,1,2,0:0:0:0:
64,192,16316,1,8,0:0:0:0:
192,192,16316,1,0,0:0:0:50:Hihat.wav
320,192,16449,128,0,16583:0:0:0:0:
64,192,16583,1,2,0:0:0:0:
448,192,16583,128,0,16716:0:0:0:50:Hihat.wav
192,192,16716,128,2,16849:0:0:0:0:
320,192,16716,1,0,0:0:0:0:
64,192,16849,128,8,16983:0:0:0:0:
448,192,16849,1,0,0:0:0:50:Hihat.wav
192,192,16983,1,2,0:0:0:0:
320,192,16983,128,0,17116:0:0:0:0:
64,192,17116,1,0,0:0:0:50:Hihat.wav
448,192,17116,128,0,17383:0:0:0:0:
192,192,17249,1,2,0:0:0:0:
192,192,17383,128,8,17516:0:0:0:0:
320,192,17383,1,0,0:0:0:50:Hihat.wav
64,192,17516,128,0,17783:0:0:0:0:
448,192,17649,1,2,0:0:0:0:
192,192,17783,1,2,0:0:0:0:
320,192,17783,128,0,17916:0:0:0:0:
64,192,17916,1,8,0:0:0:0:
448,192,17916,128,0,18049:0:0:0:50:Hihat.wav
192,192,18049,128,0,18183:0:0:0:0:
320,192,18049,1,0,0:0:0:0:
64,192,18183,128,2,18449:0:0:0:0:
448,192,18183,1,0,0:0:0:50:Hihat.wav
320,192,18316,1,2,0:0:0:0:
320,192,18449,128,8,18716:0:0:0:0:
448,192,18449,1,0,0:0:0:50:Hihat.wav
192,192,18583,1,0,0:0:0:0:
64,192,18716,128,2,18983:0:0:0:0:
448,192,18716,1,0,0:0:0:50:Hihat.wav
192,192,18849,1,2,0:0:0:0:
320,192,18983,1,8,0:0:0:0:
448,192,18983,128,0,19116:0:0:0:50:Hihat.wav
64,192,19116,128,2,19383:0:0:0:0:
192,192,19116,1,0,0:0:0:0:
320,192,19249,1,0,0:0:0:50:Hihat.wav
320,192,19383,1,2,0:0:0:0:
448,192,19383,128,0,19649:0:0:0:0:
64,192,19516,1,8,0:0:0:0:
192,192,19516,1,0,0:0:0:50:Hihat.wav
320,192,19649,1,0,0:0:0:0:
64,192,19783,128,2,20049:0:0:0:0:
192,192,19783,1,4,0:0:0:0:
448,192,19783,1,0,0:0:0:0:
320,192,20049,1,8,0:0:0:0:
448,192,20049,128,0,20183:0:0:0:50:Hihat.wav
64,192,20316,128,2,20583:0:0:0:0:
320,192,20316,1,0,0:0:0:50:Hihat.wav
448,192,20449,1,2,0:0:0:0:
192,192,20583,128,8,20716:0:0:0:0:
448,192,20583,1,0,0:0:0:50:Hihat.wav
320,192,20716,128,0,20983:0:0:0:0:
64,192,20849,1,2,0:0:0:0:
192,192,20983,1,2,0:0:0:0:
448,192,20983,128,0,21116:0:0:0:0:
64,192,21116,128,8,21249:0:0:0:0:
320,192,21116,1,0,0:0:0:50:Hihat.wav
192,192,21249,128,2,21383:0:0:0:0:
320,192,21249,1,0,0:0:0:0:
448,192,21383,128,0,21516:0:0:0:50:Hihat.wav
320,192,21516,1,2,0:0:0:0:
64,192,21649,1,8,0:0:0:0:
192,192,21649,128,0,21783:0:0:0:50:Hihat.wav
448,192,21783,128,0,22049:0:0:0:0:
64,192,21916,1,2,0:0:0:0:
192,192,22049,128,2,22183:0:0:0:0:
320,192,22049,1,0,0:0:0:0:
64,192,22183,128,8,22316:0:0:0:0:
448,192,22183,1,0,0:0:0:50:Hihat.wav
320,192,22316,128,0,22449:0:0:0:0:
192,192,22449,128,2,22583:0:0:0:0:
448,192,22449,1,0,0:0:0:50:Hihat.wav
64,192,22583,128,2,22716:0:0:0:0:
320,192,22583,1,0,0:0:0:0:
192,192,22716,1,8,0:0:0:0:
448,192,22716,128,0,22849:0:0:0:50:Hihat.wav
320,192,22849,128,0,22983:0:0:0:0:
64,192,22983,128,2,23249:0:0:0:0:
192,192,22983,1,0,0:0:0:50:Hihat.wav
320,192,23116,1,2,0:0:0:0:
192,192,23249,1,8,0:0:0:0:
448,192,23249,128,0,23383:0:0:0:50:Hihat.wav
64,192,23383,128,2,23649:0:0:0:0:
320,192,23383,1,0,0:0:0:0:
192,192,23516,128,0,23649:0:0:0:50:Hihat.wav
320,192,23649,128,2,23783:0:0:0:0:
448,192,23649,1,0,0:0:0:0:
64,192,23783,1,8,0:0:0:0:
192,192,23783,1,0,0:0:0:50:Hihat.wav
320,192,23916,128,8,24316:0:0:0:0:
448,192,23916,1,0,0:0:0:0:
64,192,24049,128,2,24316:0:0:0:0:
192,192,24049,1,4,0:0:0:0:
192,192,24316,1,8,0:0:0:0:
448,192,24316,1,0,0:0:0:50:Hihat.wav
320,192,24449,128,0,24583:0:0:0:0:
64,192,24583,128,2,24849:0:0:0:0:
448,192,24583,1,0,0:0:0:50:Hihat.wav
192,192,24716,1,2,0:0:0:0:
320,192,24716,128,0,24849:0:0:0:0:
192,192,24849,128,8,24983:0:0:0:0:
448,192,24849,1,0,0:0:0:50:Hihat.wav
448,192,24983,128,0,25116:0:0:0:0:
64,192,25116,128,2,25383:0:0:0:0:
192,192,25116,128,0,25249:0:0:0:50:Hihat.wav
320,192,25249,1,2,0:0:0:0:
192,192,25383,1,8,0:0:0:0:
448,192,25383,1,0,0:0:0:50:Hihat.wav
192,192,25516,1,2,0:0:0:0:
320,192,25516,128,0,25649:0:0:0:0:
64,192,25649,128,0,25916:0:0:0:50:Hihat.wav
448,192,25649,128,0,25783:0:0:0:0:
192,192,25783,1,2,0:0:0:0:
320,192,25916,1,8,0:0:0:0:
448,192,25916,1,0,0:0:0:50:Hihat.wav
192,192,26049,128,0,26316:0:0:0:0:
448,192,26183,128,2,26316:0:0:0:0:
64,192,26316,128,2,26449:0:0:0:0:
320,192,26316,1,0,0:0:0:0:
192,192,26449,1,8,0:0:0:0:
320,192,26449,128,0,26716:0:0:0:50:Hihat.wav
448,192,26583,128,0,26716:0:0:0:0:
64,192,26716,1,2,0:0:0:0:
192,192,26716,128,0,26849:0:0:0:50:Hihat.wav
320,192,26849,1,2,0:0:0:0:
448,192,26849,128,0,26983:0:0:0:0:
64,192,26983,128,8,27116:0:0:0:0:
192,192,26983,1,0,0:0:0:50:Hihat.wav
320,192,27116,128,0,27249:0:0:0:0:
192,192,27249,128,2,27383:0:0:0:0:
448,192,27249,1,0,0:0:0:50:Hihat.wav
64,192,27383,1,2,0:0:0:0:
448,192,27383,128,0,27516:0:0:0:0:
192,192,27516,128,8,27649:0:0:0:0:
320,192,27516,1,0,0:0:0:50:Hihat.wav
64,192,27649,128,2,27783:0:0:0:0:
320,192,27649,1,0,0:0:0:0:
448,192,27783,128,0,27916:0:0:0:50:Hihat.wav
64,192,27916,1,2,0:0:0:0:
192,192,27916,128,0,28049:0:0:0:0:
320,192,28049,128,8,28249:0:0:0:0:
448,192,28049,1,0,0:0:0:50:Hihat.wav
64,192,28249,128,0,28583:0:0:0:0:
192,192,28316,1,2,0:0:0:0:
448,192,28316,128,4,28583:0:0:0:0:
192,192,28583,1,8,0:0:0:0:
320,192,28583,1,0,0:0:0:50:Hihat.wav
320,192,28849,1,2,0:0:0:0:
448,192,28849,1,0,0:0:0:50:Hihat.wav
64,192,28983,1,2,0:0:0:0:
192,192,28983,1,0,0:0:0:0:
64,192,29116,1,8,0:0:0:0:
320,192,29116,1,0,0:0:0:50:Hihat.wav
448,192,29116,1,0,0:0:0:0:
192,192,29383,1,2,0:0:0:0:
448,192,29383,128,0,29516:0:0:0:50:Hihat.wav
64,192,29516,1,2,0:0:0:0:
320,192,29516,128,0,29649:0:0:0:0:
192,192,29649,128,8,29783:0:0:0:0:
448,192,29649,1,0,0:0:0:50:Hihat.wav
64,192,29783,1,2,0:0:0:0:
320,192,29783,128,0,29916:0:0:0:0:
192,192,29916,128,0,30049:0:0:0:50:Hihat.wav
64,192,30049,128,2,30183:0:0:0:0:
320,192,30049,1,0,0:0:0:0:
192,192,30183,1,8,0:0:0:0:
448,192,30183,128,0,30316:0:0:0:50:Hihat.wav
320,192,30316,128,0,30583:0:0:0:0:
64,192,30449,1,2,0:0:0:0:
192,192,30583,128,2,30716:0:0:0:0:
448,192,30583,1,0,0:0:0:0:
64,192,30716,128,8,30983:0:0:0:0:
320,192,30716,1,0,0:0:0:50:Hihat.wav
320,192,30983,1,2,0:0:0:0:
448,192,30983,1,0,0:0:0:50:Hihat.wav
64,192,31116,1,2,0:0:0:0:
192,192,31116,1,0,0:0:0:0:
64,192,31249,1,8,0:0:0:0:
320,192,31249,1,0,0:0:0:50:Hihat.wav
448,192,31249,1,0,0:0:0:0:
64,192,31516,128,2,31649:0:0:0:0:
320,192,31516,1,0,0:0:0:50:Hihat.wav
192,192,31649,128,2,31783:0:0:0:0:
448,192,31649,1,0,0:0:0:0:
64,192,31783,1,8,0:0:0:0:
320,192,31783,128,0,31916:0:0:0:50:Hihat.wav
192,192,31916,128,2,32049:0:0:0:0:
448,192,31916,1,0,0:0:0:0:
320,192,32049,128,0,32183:0:0:0:50:Hihat.wav
192,192,32183,1,2,0:0:0:0:
448,192,32183,128,0,32316:0:0:0:0:
64,192,32316,128,8,32449:0:0:0:0:
320,192,32316,1,0,0:0:0:50:Hihat.wav
192,192,32449,128,0,32716:0:0:0:0:
320,192,32583,1,2,0:0:0:0:
448,192,32583,1,4,0:0:0:0:
64,192,32716,128,0,32849:0:0:0:0:
320,192,32849,1,8,0:0:0:0:
448,192,32849,128,0,33116:0:0:0:50:Hihat.wav
64,192,33116,1,2,0:0:0:0:
192,192,33116,1,0,0:0:0:50:Hihat.wav
320,192,33249,1,2,0:0:0:0:
448,192,33249,1,0,0:0:0:0:
64,192,33383,1,8,0:0:0:0:
192,192,33383,1,0,0:0:0:50:Hihat.wav
448,192,33383,1,0,0:0:0:0:
320,192,33516,128,0,33649:0:0:0:0:
448,192,33583,1,0,0:0:0:0:
64,192,33649,128,2,33916:0:0:0:0:
192,192,33649,128,4,33783:0:0:0:0:
448,192,33783,1,2,0:0:0:0:
192,192,33916,1,8,0:0:0:0:
320,192,33916,128,4,34049:0:0:0:0:
64,192,34049,1,2,0:0:0:0:
448,192,34049,128,0,34183:0:0:0:0:
64,192,34183,128,8,34316:0:0:0:0:
192,192,34183,128,4,34449:0:0:0:0:
448,192,34316,1,2,0:0:0:0:
320,192,34449,128,8,34583:0:0:0:0:
448,192,34449,1,4,0:0:0:0:
64,192,34583,128,2,34716:0:0:0:0:
192,192,34583,1,0,0:0:0:0:
320,192,34716,128,8,34983:0:0:0:0:
448,192,34716,128,4,34849:0:0:0:0:
64,192,34849,1,2,0:0:0:0:
64,192,34983,1,8,0:0:0:0:
192,192,34983,128,4,35116:0:0:0:0:
320,192,35116,1,2,0:0:0:0:
448,192,35116,128,0,35249:0:0:0:0:
64,192,35249,128,8,35649:0:0:0:0:
320,192,35249,128,4,35383:0:0:0:0:
448,192,35383,1,2,0:0:0:0:
192,192,35516,1,8,0:0:0:0:
320,192,35516,1,0,0:0:0:0:
448,192,35649,128,0,35783:0:0:0:0:
192,192,35783,128,2,36583:0:0:0:0:
320,192,35783,1,0,0:0:0:0:
64,192,36849,128,2,37916:0:0:0:0:
448,192,36849,1,0,0:0:0:0:
320,192,37116,128,0,37249:0:0:0:0:
448,192,37249,128,0,37383:0:0:0:0:
192,192,37383,128,0,37649:0:0:0:0:
320,192,37649,128,0,37916:0:0:0:0:
192,192,37916,1,2,0:0:0:0:
448,192,37916,128,0,38449:0:0:0:0:
64,192,38183,128,0,38316:0:0:0:0:
192,192,38316,128,0,38449:0:0:0:0:
64,192,38449,128,0,38583:0:0:0:0:
320,192,38449,128,0,38849:0:0:0:0:
448,192,38583,128,0,38716:0:0:0:0:
192,192,38716,128,0,38849:0:0:0:0:
448,192,38849,128,0,38983:0:0:0:0:
64,192,38916,1,0,0:0:0:0:
192,192,38949,1,0,0:0:0:0:
64,192,38983,128,2,39516:0:0:0:0:
320,192,38983,128,0,39249:0:0:0:0:
448,192,39249,128,0,39516:0:0:0:0:
192,192,39516,128,0,40049:0:0:0:30:Ride.wav
320,192,39516,128,0,39783:0:0:0:0:
64,192,39783,128,0,40316:0:0:0:0:
320,192,40049,128,2,40316:0:0:0:0:
448,192,40049,128,0,40583:0:0:0:0:
192,192,40316,128,0,40449:0:0:0:0:
320,192,40449,128,0,40583:0:0:0:0:
64,192,40583,128,0,40849:0:0:0:30:Ride.wav
192,192,40849,128,0,41116:0:0:0:0:
448,192,40983,1,0,0:0:0:0:
320,192,41049,1,0,0:0:0:0:
64,192,41116,1,2,0:0:0:0:
448,192,41116,128,0,41383:0:0:0:0:
64,192,41383,128,0,41649:0:0:0:0:
192,192,41649,128,0,41916:0:0:0:30:Ride.wav
448,192,41849,1,0,0:0:0:0:
320,192,41916,128,0,42183:0:0:0:0:
64,192,42183,128,2,42449:0:0:0:0:
192,192,42183,1,0,0:0:0:0:
448,192,42449,128,0,42716:0:0:0:0:
320,192,42716,128,0,42983:0:0:0:30:Ride.wav
64,192,42983,128,0,43149:0:0:0:0:
448,192,43116,1,0,0:0:0:0:
320,192,43160,1,0,0:0:0:0:
192,192,43205,1,0,0:0:0:0:
64,192,43249,1,2,0:0:0:0:
448,192,43249,128,4,43383:0:0:0:0:
64,192,44316,1,2,0:0:0:0:
192,192,44316,1,4,0:0:0:0:
448,192,44316,128,0,44583:0:0:0:0:
320,192,44583,128,0,44716:0:0:0:0:
192,192,44716,128,0,44849:0:0:0:0:
64,192,44849,128,8,45116:0:0:0:0:
320,192,44849,1,0,0:0:0:0:
448,192,44849,1,0,0:0:0:0:
320,192,45116,128,0,45649:0:0:0:0:
192,192,45383,1,2,0:0:0:0:
448,192,45383,1,0,0:0:0:0:
64,192,45649,128,2,45916:0:0:0:0:
448,192,45649,1,0,0:0:0:0:
192,192,45916,128,8,46183:0:0:0:0:
320,192,45916,1,0,0:0:0:0:
448,192,45916,1,0,0:0:0:0:
320,192,46183,128,0,46449:0:0:0:0:
64,192,46449,1,2,0:0:0:0:
448,192,46449,128,0,46716:0:0:0:0:
320,192,46716,128,0,46849:0:0:0:0:
192,192,46849,128,0,46983:0:0:0:0:
64,192,46983,128,8,47249:0:0:0:0:
320,192,46983,1,0,0:0:0:0:
448,192,46983,1,0,0:0:0:0:
320,192,47249,128,0,47783:0:0:0:0:
192,192,47516,1,2,0:0:0:0:
448,192,47516,1,0,0:0:0:0:
64,192,47783,128,2,48049:0:0:0:0:
448,192,47783,1,0,0:0:0:0:
192,192,48049,128,8,48316:0:0:0:0:
320,192,48049,1,0,0:0:0:0:
448,192,48049,1,0,0:0:0:0:
320,192,48316,128,0,48583:0:0:0:0:
64,192,48583,1,2,0:0:0:0:
448,192,48583,128,0,48849:0:0:0:0:
320,192,48849,128,0,48983:0:0:0:0:
192,192,48983,128,0,49116:0:0:0:0:
64,192,49116,128,8,49383:0:0:0:0:
320,192,49116,1,0,0:0:0:0:
448,192,49116,1,0,0:0:0:0:
320,192,49383,128,0,49916:0:0:0:0:
64,192,49649,1,2,0:0:0:0:
448,192,49649,1,0,0:0:0:0:
64,192,49916,128,2,50183:0:0:0:0:
448,192,49916,1,0,0:0:0:0:
192,192,50183,128,8,50449:0:0:0:0:
320,192,50183,1,0,0:0:0:0:
448,192,50183,1,0,0:0:0:0:
320,192,50449,128,0,50716:0:0:0:0:
64,192,50716,1,2,0:0:0:0:
448,192,50716,128,0,50983:0:0:0:0:
320,192,50983,128,0,51116:0:0:0:0:
192,192,51116,128,0,51249:0:0:0:0:
64,192,51249,128,8,51516:0:0:0:0:
320,192,51249,1,0,0:0:0:0:
448,192,51249,1,0,0:0:0:0:
448,192,51516,128,0,52049:0:0:0:0:
320,192,51649,1,0,0:0:0:0:
192,192,51694,1,0,0:0:0:0:
320,192,51738,1,0,0:0:0:0:
64,192,51783,128,2,51916:0:0:0:0:
192,192,52049,128,2,52316:0:0:0:0:
320,192,52049,128,0,52183:0:0:0:0:
64,192,52316,128,8,52583:0:0:0:0:
320,192,52316,1,0,0:0:0:0:
448,192,52316,128,0,52849:0:0:0:0:
192,192,52583,128,0,52849:0:0:0:0:
64,192,52849,128,2,52983:0:0:0:0:
320,192,52849,128,4,53116:0:0:0:0:
192,192,52983,128,0,53116:0:0:0:0:
64,192,53116,128,0,53249:0:0:0:0:
448,192,53116,128,0,53249:0:0:0:0:
320,192,53249,128,0,53383:0:0:0:0:
64,192,53383,128,8,53649:0:0:0:0:
192,192,53383,1,0,0:0:0:0:
448,192,53383,1,0,0:0:0:0:
320,192,53649,128,0,53783:0:0:0:0:
448,192,53649,128,0,54183:0:0:0:0:
192,192,53783,128,0,53916:0:0:0:0:
64,192,53916,128,2,54049:0:0:0:0:
320,192,53916,1,0,0:0:0:0:
192,192,54183,128,2,54449:0:0:0:0:
320,192,54183,1,0,0:0:0:0:
64,192,54449,128,8,54583:0:0:0:0:
320,192,54449,1,0,0:0:0:0:
448,192,54449,128,0,54716:0:0:0:0:
192,192,54583,128,0,54716:0:0:0:0:
64,192,54716,128,0,54983:0:0:0:0:
320,192,54716,128,0,54849:0:0:0:0:
192,192,54983,128,2,55249:0:0:0:0:
448,192,54983,128,0,55116:0:0:0:0:
320,192,55116,128,0,55249:0:0:0:0:
64,192,55249,128,2,55383:0:0:0:0:
448,192,55249,128,0,55383:0:0:0:0:
192,192,55383,128,0,55516:0:0:0:0:
64,192,55516,128,8,55783:0:0:0:0:
320,192,55516,1,0,0:0:0:0:
448,192,55516,1,0,0:0:0:0:
320,192,55783,128,0,55916:0:0:0:0:
448,192,55783,128,0,56316:0:0:0:0:
192,192,55916,128,0,56049:0:0:0:0:
64,192,56049,1,2,0:0:0:0:
320,192,56049,128,0,56183:0:0:0:0:
64,192,56316,1,2,0:0:0:0:
192,192,56316,128,0,56583:0:0:0:0:
64,192,56583,128,8,56716:0:0:0:0:
320,192,56583,1,0,0:0:0:0:
448,192,56583,128,0,56849:0:0:0:0:
192,192,56716,128,0,56849:0:0:0:0:
64,192,56849,128,0,56983:0:0:0:0:
320,192,56849,128,0,57116:0:0:0:0:
192,192,57116,128,2,57383:0:0:0:0:
448,192,57116,128,0,57249:0:0:0:0:
320,192,57249,128,0,57383:0:0:0:0:
64,192,57383,128,0,57516:0:0:0:0:
448,192,57383,128,0,57516:0:0:0:0:
192,192,57516,128,0,57649:0:0:0:0:
64,192,57649,1,8,0:0:0:0:
320,192,57649,128,0,57916:0:0:0:0:
448,192,57649,1,0,0:0:0:0:
64,192,57916,128,0,58049:0:0:0:0:
448,192,57916,128,0,58449:0:0:0:0:
192,192,58049,128,0,58183:0:0:0:0:
64,192,58183,128,2,58316:0:0:0:0:
320,192,58183,1,0,0:0:0:0:
192,192,58449,1,2,0:0:0:0:
320,192,58449,128,0,58716:0:0:0:0:
64,192,58716,128,8,58983:0:0:0:0:
448,192,58716,128,0,58849:0:0:0:0:
320,192,58849,128,0,58983:0:0:0:0:
192,192,58983,128,0,59249:0:0:0:0:
448,192,58983,128,0,59116:0:0:0:0:
64,192,59249,128,2,59383:0:0:0:0:
448,192,59249,128,0,59516:0:0:0:0:
192,192,59383,128,0,59516:0:0:0:0:
64,192,59516,128,0,59649:0:0:0:0:
320,192,59516,128,0,59649:0:0:0:0:
64,192,59783,1,8,0:0:0:0:
192,192,59783,1,0,0:0:0:0:
448,192,59783,128,0,59916:0:0:0:0:
64,192,59916,128,0,60049:0:0:0:0:
320,192,60049,128,0,60183:0:0:0:0:
192,192,60183,128,0,60316:0:0:0:0:
64,192,60316,1,2,0:0:0:0:
320,192,60316,128,0,60449:0:0:0:50:Hihat.wav
448,192,60316,128,0,60583:0:0:0:0:
64,192,60583,128,2,60849:0:0:0:0:
192,192,60583,1,0,0:0:0:50:Hihat.wav
320,192,60849,1,8,0:0:0:0:
448,192,60849,1,0,0:0:0:50:Hihat.wav
64,192,61116,1,8,0:0:0:0:
192,192,61116,1,0,0:0:0:0:
320,192,61249,1,8,0:0:0:0:
448,192,61249,1,0,0:0:0:0:
64,192,61383,1,2,0:0:0:0:
192,192,61383,128,4,61649:0:0:0:0:
64,192,61649,1,8,0:0:0:0:
448,192,61649,1,0,0:0:0:50:Hihat.wav
320,192,61783,128,2,61916:0:0:0:0:
64,192,61916,1,8,0:0:0:0:
192,192,61916,128,0,62049:0:0:0:50:Hihat.wav
320,192,62049,128,2,62183:0:0:0:0:
192,192,62183,1,8,0:0:0:0:
448,192,62183,128,0,62316:0:0:0:50:Hihat.wav
64,192,62316,128,2,62449:0:0:0:0:
192,192,62449,1,2,0:0:0:0:
320,192,62449,128,4,62716:0:0:0:0:
64,192,62716,1,8,0:0:0:0:
448,192,62716,128,0,62849:0:0:0:50:Hihat.wav
192,192,62849,128,2,62983:0:0:0:0:
320,192,62983,128,8,63116:0:0:0:0:
448,192,62983,1,0,0:0:0:50:Hihat.wav
64,192,63116,128,2,63249:0:0:0:0:
320,192,63249,128,8,63383:0:0:0:0:
448,192,63249,1,0,0:0:0:50:Hihat.wav
192,192,63383,128,2,63516:0:0:0:0:
64,192,63516,128,2,63649:0:0:0:0:
320,192,63516,1,4,0:0:0:0:
448,192,63649,128,0,63783:0:0:0:0:
64,192,63783,128,8,63916:0:0:0:0:
192,192,63783,1,0,0:0:0:50:Hihat.wav
448,192,63916,128,2,64049:0:0:0:0:
64,192,64049,128,8,64183:0:0:0:0:
320,192,64049,1,0,0:0:0:50:Hihat.wav
448,192,64183,128,2,64316:0:0:0:0:
64,192,64316,1,8,0:0:0:0:
320,192,64316,128,0,64449:0:0:0:50:Hihat.wav
192,192,64449,128,2,64583:0:0:0:0:
64,192,64583,1,2,0:0:0:0:
448,192,64583,128,4,64849:0:0:0:0:
320,192,64716,128,0,64849:0:0:0:0:
64,192,64849,128,8,64983:0:0:0:0:
192,192,64849,1,0,0:0:0:50:Hihat.wav
448,192,64983,128,2,65116:0:0:0:0:
192,192,65116,1,8,0:0:0:0:
320,192,65116,128,0,65249:0:0:0:50:Hihat.wav
64,192,65249,128,2,65383:0:0:0:0:
192,192,65383,1,8,0:0:0:0:
448,192,65383,128,0,65516:0:0:0:50:Hihat.wav
320,192,65516,128,2,65649:0:0:0:0:
64,192,65649,128,2,65783:0:0:0:0:
192,192,65649,1,4,0:0:0:0:
320,192,65783,128,0,65916:0:0:0:0:
192,192,65916,1,8,0:0:0:0:
448,192,65916,128,0,66049:0:0:0:50:Hihat.wav
64,192,66049,128,2,66183:0:0:0:0:
192,192,66183,1,8,0:0:0:0:
320,192,66183,128,0,66316:0:0:0:50:Hihat.wav
64,192,66316,128,2,66449:0:0:0:0:
192,192,66449,128,8,66583:0:0:0:0:
320,192,66449,1,0,0:0:0:50:Hihat.wav
448,192,66583,128,2,66716:0:0:0:0:
64,192,66716,1,2,0:0:0:0:
320,192,66716,128,4,66983:0:0:0:0:
192,192,66983,128,8,67116:0:0:0:0:
448,192,66983,1,0,0:0:0:50:Hihat.wav
320,192,67116,128,2,67249:0:0:0:0:
64,192,67249,1,8,0:0:0:0:
448,192,67249,128,0,67383:0:0:0:50:Hihat.wav
192,192,67383,128,2,67516:0:0:0:0:
64,192,67516,128,8,67649:0:0:0:0:
320,192,67516,1,0,0:0:0:50:Hihat.wav
448,192,67649,128,2,67783:0:0:0:0:
192,192,67783,128,2,68049:0:0:0:0:
320,192,67783,1,4,0:0:0:0:
64,192,67916,128,0,68049:0:0:0:0:
320,192,68049,1,8,0:0:0:0:
448,192,68049,128,0,68183:0:0:0:50:Hihat.wav
192,192,68183,128,2,68316:0:0:0:0:
64,192,68316,1,8,0:0:0:0:
448,192,68316,128,0,68449:0:0:0:50:Hihat.wav
192,192,68449,128,2,68583:0:0:0:0:
64,192,68583,1,8,0:0:0:0:
448,192,68583,1,0,0:0:0:50:Hihat.wav
320,192,68716,1,8,0:0:0:0:
448,192,68716,1,0,0:0:0:0:
192,192,68783,1,8,0:0:0:0:
64,192,68849,128,4,68983:0:0:0:0:
320,192,68849,128,8,68983:0:0:0:0:
448,192,68849,128,0,68983:0:0:0:0:
64,192,69116,128,4,69249:0:0:0:0:
192,192,69116,128,8,69249:0:0:0:0:
448,192,69116,128,0,69249:0:0:0:0:
192,192,69383,128,8,69516:0:0:0:0:
320,192,69383,128,4,69516:0:0:0:0:
448,192,69383,128,0,69516:0:0:0:0:
64,192,69649,128,0,69916:0:0:0:0:
192,192,69916,1,4,0:0:0:0:
320,192,69916,1,2,0:0:0:0:
448,192,69916,128,0,70183:0:0:0:0:
64,192,70183,1,8,0:0:0:0:
192,192,70183,1,0,0:0:0:50:Hihat.wav
320,192,70183,1,0,0:0:0:0:
448,192,70316,1,0,0:0:0:0:
64,192,70449,128,2,70849:0:0:0:0:
192,192,70449,1,0,0:0:0:50:Hihat.wav
448,192,70583,1,2,0:0:0:0:
320,192,70716,1,8,0:0:0:0:
448,192,70716,1,0,0:0:0:50:Hihat.wav
192,192,70849,128,0,70983:0:0:0:0:
64,192,70983,128,2,71116:0:0:0:0:
448,192,70983,1,0,0:0:0:50:Hihat.wav
192,192,71116,1,2,0:0:0:0:
320,192,71116,128,0,71249:0:0:0:0:
64,192,71249,1,8,0:0:0:0:
448,192,71249,128,0,71383:0:0:0:50:Hihat.wav
192,192,71383,128,2,71516:0:0:0:0:
320,192,71383,1,0,0:0:0:0:
64,192,71516,128,0,71783:0:0:0:50:Hihat.wav
448,192,71649,1,2,0:0:0:0:
192,192,71783,1,8,0:0:0:0:
320,192,71783,128,0,71916:0:0:0:50:Hihat.wav
448,192,71916,128,0,72183:0:0:0:0:
64,192,72049,1,2,0:0:0:0:
192,192,72183,128,2,72316:0:0:0:0:
320,192,72183,1,0,0:0:0:0:
64,192,72316,128,8,72449:0:0:0:0:
448,192,72316,1,0,0:0:0:50:Hihat.wav
320,192,72449,128,0,72583:0:0:0:0:
64,192,72583,1,2,0:0:0:0:
448,192,72583,128,0,72849:0:0:0:50:Hihat.wav
192,192,72716,1,2,0:0:0:0:
64,192,72849,1,8,0:0:0:0:
192,192,72849,128,0,73116:0:0:0:50:Hihat.wav
320,192,72983,1,0,0:0:0:0:
64,192,73116,1,2,0:0:0:0:
448,192,73116,128,0,73383:0:0:0:50:Hihat.wav
320,192,73249,1,2,0:0:0:0:
64,192,73383,128,8,73516:0:0:0:0:
192,192,73383,1,0,0:0:0:50:Hihat.wav
320,192,73516,1,2,0:0:0:0:
448,192,73516,128,0,73783:0:0:0:0:
192,192,73649,1,0,0:0:0:50:Hihat.wav
64,192,73783,128,2,74049:0:0:0:0:
320,192,73783,1,0,0:0:0:0:
192,192,73916,1,8,0:0:0:0:
448,192,73916,1,0,0:0:0:50:Hihat.wav
320,192,74049,1,0,0:0:0:0:
64,192,74183,1,4,0:0:0:0:
192,192,74183,1,2,0:0:0:0:
448,192,74183,128,0,74449:0:0:0:0:
64,192,74449,128,8,74583:0:0:0:0:
320,192,74449,1,0,0:0:0:50:Hihat.wav
320,192,74716,1,2,0:0:0:0:
448,192,74716,128,0,74983:0:0:0:50:Hihat.wav
192,192,74849,1,2,0:0:0:0:
64,192,74983,1,8,0:0:0:0:
320,192,74983,128,0,75116:0:0:0:50:Hihat.wav
192,192,75116,128,0,75383:0:0:0:0:
448,192,75249,1,2,0:0:0:0:
64,192,75383,128,2,75516:0:0:0:0:
320,192,75383,1,0,0:0:0:0:
192,192,75516,1,8,0:0:0:0:
448,192,75516,128,0,75649:0:0:0:50:Hihat.wav
192,192,75649,1,2,0:0:0:0:
320,192,75649,128,0,75783:0:0:0:0:
64,192,75783,128,0,76049:0:0:0:50:Hihat.wav
448,192,75916,1,2,0:0:0:0:
192,192,76049,1,8,0:0:0:0:
320,192,76049,128,0,76183:0:0:0:50:Hihat.wav
64,192,76183,128,0,76449:0:0:0:0:
448,192,76316,1,2,0:0:0:0:
192,192,76449,1,2,0:0:0:0:
320,192,76449,128,0,76583:0:0:0:0:
64,192,76583,1,8,0:0:0:0:
448,192,76583,128,0,76716:0:0:0:50:Hihat.wav
192,192,76716,128,0,76849:0:0:0:0:
64,192,76849,1,2,0:0:0:0:
320,192,76849,128,0,76983:0:0:0:50:Hihat.wav
192,192,76983,1,2,0:0:0:0:
448,192,76983,128,0,77116:0:0:0:0:
64,192,77116,128,8,77249:0:0:0:0:
320,192,77116,1,0,0:0:0:50:Hihat.wav
192,192,77249,128,0,77383:0:0:0:0:
320,192,77383,1,2,0:0:0:0:
448,192,77383,128,0,77649:0:0:0:50:Hihat.wav
192,192,77516,1,2,0:0:0:0:
64,192,77649,128,8,77783:0:0:0:0:
320,192,77649,1,0,0:0:0:50:Hihat.wav
192,192,77783,1,2,0:0:0:0:
448,192,77783,128,0,78049:0:0:0:0:
320,192,77916,128,0,78049:0:0:0:50:Hihat.wav
64,192,78049,1,2,0:0:0:0:
192,192,78049,128,0,78183:0:0:0:0:
320,192,78183,1,8,0:0:0:0:
448,192,78183,1,0,0:0:0:50:Hihat.wav
64,192,78316,1,8,0:0:0:0:
192,192,78316,128,0,78716:0:0:0:0:
320,192,78449,1,4,0:0:0:0:
448,192,78449,128,2,78716:0:0:0:0:
64,192,78716,1,8,0:0:0:0:
320,192,78716,1,0,0:0:0:50:Hihat.wav
192,192,78849,128,0,78983:0:0:0:0:
64,192,78983,1,2,0:0:0:0:
448,192,78983,128,0,79249:0:0:0:50:Hihat.wav
192,192,79116,128,2,79249:0:0:0:0:
320,192,79116,1,0,0:0:0:0:
64,192,79249,1,8,0:0:0:0:
320,192,79249,128,0,79383:0:0:0:50:Hihat.wav
64,192,79383,128,0,79516:0:0:0:0:
320,192,79516,128,2,79649:0:0:0:0:
448,192,79516,128,0,79783:0:0:0:50:Hihat.wav
192,192,79649,1,2,0:0:0:0:
64,192,79783,1,8,0:0:0:0:
320,192,79783,1,0,0:0:0:50:Hihat.wav
192,192,79916,128,2,80049:0:0:0:0:
64,192,80049,128,0,80183:0:0:0:50:Hihat.wav
448,192,80049,128,0,80316:0:0:0:0:
320,192,80183,1,2,0:0:0:0:
64,192,80316,1,8,0:0:0:0:
192,192,80316,1,0,0:0:0:50:Hihat.wav
320,192,80449,128,0,80716:0:0:0:0:
192,192,80583,128,2,80716:0:0:0:0:
64,192,80716,1,2,0:0:0:0:
448,192,80716,128,0,80849:0:0:0:0:
192,192,80849,128,8,80983:0:0:0:0:
320,192,80849,1,0,0:0:0:50:Hihat.wav
64,192,80983,128,0,81116:0:0:0:0:
320,192,81116,128,2,81249:0:0:0:0:
448,192,81116,1,0,0:0:0:50:Hihat.wav
64,192,81249,128,2,81383:0:0:0:0:
192,192,81249,1,0,0:0:0:0:
320,192,81383,1,8,0:0:0:0:
448,192,81383,128,0,81516:0:0:0:50:Hihat.wav
192,192,81516,128,0,81649:0:0:0:0:
64,192,81649,1,2,0:0:0:0:
320,192,81649,128,0,81783:0:0:0:50:Hihat.wav
64,192,81783,128,2,81916:0:0:0:0:
448,192,81783,1,0,0:0:0:0:
192,192,81916,1,8,0:0:0:0:
320,192,81916,128,0,82049:0:0:0:50:Hihat.wav
192,192,82049,1,2,0:0:0:0:
448,192,82049,128,0,82183:0:0:0:0:
64,192,82183,128,0,82316:0:0:0:50:Hihat.wav
320,192,82316,128,2,82449:0:0:0:0:
448,192,82316,1,0,0:0:0:0:
64,192,82449,1,8,0:0:0:0:
192,192,82449,128,0,82583:0:0:0:50:Hihat.wav
448,192,82583,128,0,82983:0:0:0:0:
64,192,82716,128,4,82983:0:0:0:0:
320,192,82716,1,2,0:0:0:0:
192,192,82983,1,8,0:0:0:0:
320,192,82983,1,0,0:0:0:50:Hihat.wav
64,192,83249,1,2,0:0:0:0:
192,192,83249,1,0,0:0:0:50:Hihat.wav
320,192,83383,1,2,0:0:0:0:
448,192,83383,1,0,0:0:0:0:
64,192,83516,1,8,0:0:0:0:
192,192,83516,1,0,0:0:0:50:Hihat.wav
448,192,83516,1,0,0:0:0:0:
64,192,83783,128,2,83916:0:0:0:0:
320,192,83783,1,0,0:0:0:50:Hihat.wav
192,192,83916,128,2,84049:0:0:0:0:
448,192,83916,1,0,0:0:0:0:
64,192,84049,1,8,0:0:0:0:
320,192,84049,128,0,84183:0:0:0:50:Hihat.wav
192,192,84183,128,2,84316:0:0:0:0:
448,192,84183,1,0,0:0:0:0:
320,192,84316,128,0,84449:0:0:0:50:Hihat.wav
192,192,84449,1,2,0:0:0:0:
448,192,84449,128,0,84583:0:0:0:0:
64,192,84583,128,8,84716:0:0:0:0:
320,192,84583,1,0,0:0:0:50:Hihat.wav
192,192,84716,128,0,84983:0:0:0:0:
448,192,84849,1,2,0:0:0:0:
64,192,84983,1,2,0:0:0:0:
320,192,84983,128,0,85116:0:0:0:0:
192,192,85116,1,8,0:0:0:0:
448,192,85116,128,0,85383:0:0:0:50:Hihat.wav
64,192,85383,1,2,0:0:0:0:
192,192,85383,1,0,0:0:0:50:Hihat.wav
320,192,85516,1,2,0:0:0:0:
448,192,85516,1,0,0:0:0:0:
64,192,85649,1,8,0:0:0:0:
192,192,85649,1,0,0:0:0:50:Hihat.wav
448,192,85649,1,0,0:0:0:0:
192,192,85916,1,2,0:0:0:0:
448,192,85916,128,0,86049:0:0:0:50:Hihat.wav
64,192,86049,1,2,0:0:0:0:
320,192,86049,128,0,86183:0:0:0:0:
192,192,86183,128,8,86316:0:0:0:0:
448,192,86183,1,0,0:0:0:50:Hihat.wav
64,192,86316,1,2,0:0:0:0:
320,192,86316,128,0,86449:0:0:0:0:
192,192,86449,128,0,86583:0:0:0:50:Hihat.wav
64,192,86583,128,2,86716:0:0:0:0:
320,192,86583,1,0,0:0:0:0:
192,192,86716,1,8,0:0:0:0:
448,192,86716,128,0,86849:0:0:0:50:Hihat.wav
320,192,86849,128,0,87116:0:0:0:0:
64,192,86983,1,4,0:0:0:0:
192,192,86983,1,2,0:0:0:0:
448,192,87116,128,0,87249:0:0:0:0:
64,192,87249,128,8,87516:0:0:0:0:
192,192,87249,1,0,0:0:0:50:Hihat.wav
320,192,87516,1,2,0:0:0:0:
448,192,87516,1,0,0:0:0:50:Hihat.wav
64,192,87649,1,2,0:0:0:0:
192,192,87649,1,0,0:0:0:0:
64,192,87783,1,8,0:0:0:0:
320,192,87783,1,0,0:0:0:50:Hihat.wav
448,192,87783,1,0,0:0:0:0:
192,192,87916,128,0,88049:0:0:0:0:
64,192,88049,128,4,88183:0:0:0:0:
448,192,88049,128,2,88316:0:0:0:0:
320,192,88183,1,2,0:0:0:0:
192,192,88316,128,8,88449:0:0:0:0:
320,192,88316,1,4,0:0:0:0:
64,192,88449,128,2,88583:0:0:0:0:
448,192,88449,1,0,0:0:0:0:
320,192,88583,128,4,88849:0:0:0:0:
448,192,88583,128,8,88716:0:0:0:0:
64,192,88716,1,2,0:0:0:0:
64,192,88849,1,4,0:0:0:0:
192,192,88849,128,8,88983:0:0:0:0:
320,192,88983,1,2,0:0:0:0:
448,192,88983,128,0,89116:0:0:0:0:
64,192,89116,128,4,89249:0:0:0:0:
192,192,89116,128,8,89383:0:0:0:0:
448,192,89249,1,2,0:0:0:0:
320,192,89383,128,4,89516:0:0:0:0:
448,192,89383,1,8,0:0:0:0:
64,192,89516,128,2,89649:0:0:0:0:
192,192,89516,1,0,0:0:0:0:
320,192,89649,128,4,89783:0:0:0:0:
448,192,89649,128,8,90049:0:0:0:0:
64,192,89783,1,2,0:0:0:0:
192,192,89916,1,8,0:0:0:0:
320,192,89916,1,0,0:0:0:0:
64,192,90049,128,0,90183:0:0:0:0:
192,192,90183,1,2,0:0:0:0:
320,192,90183,128,0,90983:0:0:0:0:
64,192,91249,1,2,0:0:0:0:
448,192,91249,128,0,92316:0:0:0:0:
192,192,91516,128,0,91649:0:0:0:0:
64,192,91649,128,0,91783:0:0:0:0:
320,192,91783,128,0,92049:0:0:0:0:
192,192,92049,128,0,92316:0:0:0:0:
64,192,92316,128,2,93383:0:0:0:0:
320,192,92316,1,0,0:0:0:0:
192,192,92583,128,0,92716:0:0:0:0:
320,192,92716,128,0,92849:0:0:0:0:
448,192,92849,128,0,92983:0:0:0:0:
192,192,92983,128,0,93116:0:0:0:0:
320,192,93116,128,0,93249:0:0:0:0:
192,192,93249,128,0,93383:0:0:0:0:
320,192,93383,128,2,93649:0:0:0:0:
448,192,93383,128,0,93916:0:0:0:0:
192,192,93649,128,0,93916:0:0:0:0:
64,192,93916,128,0,94449:0:0:0:30:Ride.wav
320,192,93916,128,0,94183:0:0:0:0:
448,192,94183,128,0,94716:0:0:0:0:
192,192,94449,1,2,0:0:0:0:
320,192,94449,128,0,94983:0:0:0:0:
64,192,94716,128,0,94849:0:0:0:0:
192,192,94849,128,0,94983:0:0:0:0:
448,192,94983,128,0,95249:0:0:0:30:Ride.wav
320,192,95249,128,0,95516:0:0:0:0:
64,192,95516,128,2,96316:0:0:0:0:
192,192,95516,128,0,95783:0:0:0:0:
448,192,95783,128,0,96049:0:0:0:0:
320,192,96049,128,0,96316:0:0:0:30:Ride.wav
448,192,96249,1,0,0:0:0:0:
192,192,96316,128,0,96583:0:0:0:0:
320,192,96583,128,2,96849:0:0:0:0:
448,192,96583,128,0,97383:0:0:0:0:
64,192,96849,128,0,97116:0:0:0:0:
192,192,97116,128,0,97383:0:0:0:30:Ride.wav
320,192,97383,128,0,97516:0:0:0:0:
64,192,97516,1,0,0:0:0:0:
192,192,97560,1,0,0:0:0:0:
320,192,97605,1,0,0:0:0:0:
64,192,97649,128,2,97783:0:0:0:0:
448,192,97649,1,4,0:0:0:0:
192,192,98183,128,0,98316:0:0:0:0:
320,192,98316,128,0,98516:0:0:0:0:
320,192,98716,1,2,0:0:0:0:
448,192,98716,128,4,98805:0:0:0:0:
192,192,98805,128,0,98894:0:0:0:0:
64,192,98894,128,0,98983:0:0:0:0:
320,192,98983,1,8,0:0:0:0:
448,192,98983,128,0,99071:0:0:0:50:Hihat.wav
192,192,99071,128,0,99160:0:0:0:0:
64,192,99160,128,0,99249:0:0:0:0:
320,192,99249,128,2,99338:0:0:0:0:
192,192,99338,128,0,99427:0:0:0:0:
64,192,99427,128,0,99516:0:0:0:0:
320,192,99516,1,8,0:0:0:0:
448,192,99516,128,0,99605:0:0:0:50:Hihat.wav
192,192,99605,128,0,99694:0:0:0:0:
64,192,99694,128,0,99783:0:0:0:0:
320,192,99783,128,2,99871:0:0:0:0:
192,192,99871,128,0,99960:0:0:0:0:
64,192,99960,128,0,100049:0:0:0:0:
192,192,100049,1,8,0:0:0:0:
448,192,100049,128,0,100138:0:0:0:50:Hihat.wav
320,192,100138,128,0,100227:0:0:0:0:
192,192,100227,128,0,100316:0:0:0:0:
64,192,100316,128,0,100583:0:0:0:50:Hihat.wav
448,192,100316,1,0,0:0:0:0:
320,192,100449,1,2,0:0:0:0:
192,192,100583,1,8,0:0:0:0:
448,192,100583,128,0,100849:0:0:0:50:Hihat.wav
320,192,100849,128,2,100983:0:0:0:0:
64,192,100983,128,2,101116:0:0:0:0:
192,192,101116,128,8,101249:0:0:0:0:
320,192,101116,1,0,0:0:0:50:Hihat.wav
448,192,101249,128,0,101516:0:0:0:0:
64,192,101383,1,2,0:0:0:0:
192,192,101516,128,2,101649:0:0:0:0:
64,192,101649,1,8,0:0:0:0:
320,192,101649,128,0,101783:0:0:0:50:Hihat.wav
448,192,101783,128,0,101916:0:0:0:0:
64,192,101916,128,2,102049:0:0:0:0:
192,192,102049,128,2,102116:0:0:0:0:
192,192,102183,128,8,102316:0:0:0:0:
448,192,102183,1,0,0:0:0:50:Hihat.wav
320,192,102316,128,2,102583:0:0:0:0:
64,192,102449,1,0,0:0:0:50:Hihat.wav
448,192,102583,128,2,102716:0:0:0:0:
64,192,102716,128,8,102983:0:0:0:0:
192,192,102716,1,0,0:0:0:50:Hihat.wav
320,192,102983,1,2,0:0:0:0:
448,192,102983,128,4,103116:0:0:0:0:
192,192,103116,128,0,103249:0:0:0:0:
64,192,103249,1,8,0:0:0:0:
320,192,103249,128,0,103383:0:0:0:50:Hihat.wav
448,192,103383,128,0,103516:0:0:0:0:
64,192,103516,128,2,103649:0:0:0:0:
192,192,103649,128,2,103783:0:0:0:0:
64,192,103783,1,8,0:0:0:0:
320,192,103783,128,0,103916:0:0:0:50:Hihat.wav
448,192,103916,128,0,104049:0:0:0:0:
192,192,104049,128,2,104183:0:0:0:0:
320,192,104183,128,2,104316:0:0:0:0:
64,192,104316,128,8,104449:0:0:0:0:
448,192,104316,1,0,0:0:0:50:Hihat.wav
192,192,104449,128,2,104583:0:0:0:0:
320,192,104583,128,0,104716:0:0:0:50:Hihat.wav
448,192,104716,128,2,104849:0:0:0:0:
64,192,104849,1,8,0:0:0:0:
192,192,104849,128,0,104983:0:0:0:50:Hihat.wav
320,192,104983,128,0,105116:0:0:0:0:
64,192,105116,128,2,105383:0:0:0:0:
192,192,105249,1,2,0:0:0:0:
320,192,105383,128,8,105516:0:0:0:0:
448,192,105383,1,0,0:0:0:50:Hihat.wav
192,192,105516,128,0,105649:0:0:0:0:
64,192,105649,128,2,105783:0:0:0:0:
448,192,105783,128,2,105916:0:0:0:0:
64,192,105916,1,8,0:0:0:0:
192,192,105916,128,0,106049:0:0:0:50:Hihat.wav
320,192,106049,128,0,106183:0:0:0:0:
64,192,106183,128,2,106316:0:0:0:0:
448,192,106316,128,2,106449:0:0:0:0:
192,192,106449,128,8,106583:0:0:0:0:
320,192,106449,1,0,0:0:0:50:Hihat.wav
64,192,106583,128,2,106983:0:0:0:0:
320,192,106716,1,0,0:0:0:50:Hihat.wav
448,192,106849,128,2,106983:0:0:0:0:
192,192,106983,128,8,107116:0:0:0:0:
320,192,106983,1,0,0:0:0:50:Hihat.wav
64,192,107116,1,8,0:0:0:0:
448,192,107116,128,0,107249:0:0:0:0:
192,192,107249,128,2,107316:0:0:0:0:
320,192,107249,1,4,0:0:0:0:
192,192,107383,128,0,107449:0:0:0:0:
192,192,107516,128,8,107583:0:0:0:0:
448,192,107516,1,0,0:0:0:50:Hihat.wav
192,192,107649,128,0,107716:0:0:0:0:
192,192,107783,128,2,107916:0:0:0:0:
64,192,107916,128,2,108049:0:0:0:0:
192,192,108049,1,8,0:0:0:0:
320,192,108049,1,0,0:0:0:50:Hihat.wav
448,192,108183,128,0,108383:0:0:0:0:
192,192,108316,1,2,0:0:0:0:
448,192,108449,128,2,108516:0:0:0:0:
64,192,108583,1,8,0:0:0:0:
448,192,108583,128,0,108649:0:0:0:50:Hihat.wav
320,192,108716,128,2,108783:0:0:0:0:
320,192,108849,128,0,108916:0:0:0:50:Hihat.wav
64,192,108983,1,2,0:0:0:0:
320,192,108983,128,0,109249:0:0:0:0:
192,192,109116,1,8,0:0:0:0:
448,192,109116,1,0,0:0:0:50:Hihat.wav
64,192,109316,128,0,109383:0:0:0:0:
320,192,109383,128,2,109649:0:0:0:0:
192,192,109516,1,2,0:0:0:0:
64,192,109649,1,8,0:0:0:0:
448,192,109649,128,0,109738:0:0:0:50:Hihat.wav
192,192,109738,128,0,109827:0:0:0:0:
64,192,109827,128,0,109916:0:0:0:0:
320,192,109916,128,2,110183:0:0:0:0:
192,192,110049,1,2,0:0:0:0:
64,192,110183,1,8,0:0:0:0:
448,192,110183,128,0,110316:0:0:0:50:Hihat.wav
192,192,110316,128,0,110583:0:0:0:0:
448,192,110449,1,2,0:0:0:0:
320,192,110583,128,2,110627:0:0:0:0:
64,192,110627,128,0,110716:0:0:0:0:
192,192,110716,1,8,0:0:0:0:
448,192,110716,128,0,110849:0:0:0:50:Hihat.wav
64,192,110849,128,2,111249:0:0:0:0:
320,192,110983,1,0,0:0:0:50:Hihat.wav
448,192,111116,1,2,0:0:0:0:
192,192,111249,128,8,111516:0:0:0:0:
320,192,111249,1,0,0:0:0:50:Hihat.wav
64,192,111516,1,2,0:0:0:0:
448,192,111516,128,4,111605:0:0:0:0:
320,192,111605,128,0,111694:0:0:0:0:
64,192,111694,128,0,111783:0:0:0:0:
320,192,111783,1,8,0:0:0:0:
448,192,111783,128,0,111871:0:0:0:50:Hihat.wav
192,192,111871,128,0,111960:0:0:0:0:
64,192,111960,128,0,112049:0:0:0:0:
320,192,112049,128,2,112138:0:0:0:0:
192,192,112138,128,0,112227:0:0:0:0:
64,192,112227,128,0,112316:0:0:0:0:
192,192,112316,1,8,0:0:0:0:
448,192,112316,128,0,112405:0:0:0:50:Hihat.wav
320,192,112405,128,0,112494:0:0:0:0:
192,192,112494,128,0,112583:0:0:0:0:
448,192,112583,128,2,112983:0:0:0:0:
64,192,112716,1,2,0:0:0:0:
192,192,112849,1,8,0:0:0:0:
320,192,112849,1,0,0:0:0:50:Hihat.wav
64,192,112983,128,2,113383:0:0:0:0:
320,192,113116,1,0,0:0:0:50:Hihat.wav
192,192,113249,1,2,0:0:0:0:
320,192,113383,1,8,0:0:0:0:
448,192,113383,1,0,0:0:0:50:Hihat.wav
192,192,113649,128,2,113916:0:0:0:0:
320,192,113649,1,0,0:0:0:50:Hihat.wav
64,192,113783,1,2,0:0:0:0:
320,192,113916,128,8,114183:0:0:0:0:
448,192,113916,1,0,0:0:0:50:Hihat.wav
64,192,114183,128,2,114449:0:0:0:0:
448,192,114183,1,0,0:0:0:50:Hihat.wav
320,192,114316,1,2,0:0:0:0:
192,192,114449,1,8,0:0:0:0:
448,192,114449,128,0,114583:0:0:0:50:Hihat.wav
320,192,114583,128,0,114849:0:0:0:0:
192,192,114716,1,2,0:0:0:0:
64,192,114849,128,2,114983:0:0:0:0:
192,192,114983,128,8,115116:0:0:0:0:
448,192,114983,1,0,0:0:0:50:Hihat.wav
64,192,115116,128,2,115516:0:0:0:0:
448,192,115249,1,0,0:0:0:50:Hihat.wav
320,192,115383,1,2,0:0:0:0:
192,192,115516,1,8,0:0:0:0:
448,192,115516,128,0,115783:0:0:0:50:Hihat.wav
64,192,115783,1,2,0:0:0:0:
192,192,115783,128,4,115916:0:0:0:0:
320,192,115916,128,0,116049:0:0:0:0:
64,192,116049,128,8,116183:0:0:0:0:
448,192,116049,1,0,0:0:0:50:Hihat.wav
192,192,116183,128,0,116316:0:0:0:0:
320,192,116316,128,2,116405:0:0:0:0:
64,192,116405,128,0,116494:0:0:0:0:
448,192,116494,128,0,116583:0:0:0:0:
192,192,116583,1,8,0:0:0:0:
320,192,116583,128,0,116671:0:0:0:50:Hihat.wav
64,192,116671,128,0,116760:0:0:0:0:
448,192,116760,128,0,116849:0:0:0:0:
192,192,116849,128,2,116983:0:0:0:0:
320,192,116849,128,4,116983:0:0:0:0:
320,192,117116,128,8,117249:0:0:0:0:
448,192,117116,128,4,117249:0:0:0:0:
64,192,117249,1,2,0:0:0:0:
192,192,117383,128,4,117516:0:0:0:0:
320,192,117383,128,0,117516:0:0:0:0:
448,192,117516,1,2,0:0:0:0:
64,192,117649,128,8,117783:0:0:0:0:
192,192,117649,128,4,117783:0:0:0:0:
320,192,117783,1,2,0:0:0:0:
320,192,117916,128,8,118049:0:0:0:0:
448,192,117916,128,4,118049:0:0:0:0:
192,192,118049,1,2,0:0:0:0:
64,192,118183,128,8,118316:0:0:0:0:
192,192,118183,128,4,118316:0:0:0:0:
448,192,118316,1,2,0:0:0:0:
320,192,118449,128,8,118583:0:0:0:0:
448,192,118449,128,4,118583:0:0:0:0:
192,192,118583,1,0,0:0:0:0:
64,192,118716,128,0,118849:0:0:0:0:
320,192,118983,1,2,0:0:0:0:
448,192,118983,128,0,119783:0:0:0:0:
64,192,119249,1,8,0:0:0:0:
192,192,119249,1,0,0:0:0:0:
320,192,119516,1,2,0:0:0:0:
320,192,119649,1,2,0:0:0:0:
64,192,119783,1,8,0:0:0:0:
192,192,119783,1,0,0:0:0:0:
64,192,119916,1,8,0:0:0:0:
192,192,119916,1,0,0:0:0:0:
320,192,120049,1,2,0:0:0:0:
448,192,120049,1,0,0:0:0:0:
192,192,121116,1,2,0:0:0:0:
320,192,121116,128,4,121383:0:0:0:0:
448,192,121116,1,0,0:0:0:0:
64,192,121383,1,8,0:0:0:0:
448,192,121383,1,0,0:0:0:50:Hihat.wav
192,192,121516,128,2,121649:0:0:0:0:
320,192,121649,128,8,121783:0:0:0:0:
448,192,121649,1,0,0:0:0:50:Hihat.wav
192,192,121783,128,2,121916:0:0:0:0:
64,192,121916,128,8,122049:0:0:0:0:
320,192,121916,1,0,0:0:0:50:Hihat.wav
448,192,122049,128,2,122183:0:0:0:0:
192,192,122183,128,2,122449:0:0:0:0:
320,192,122183,1,4,0:0:0:0:
64,192,122449,1,8,0:0:0:0:
448,192,122449,128,0,122583:0:0:0:50:Hihat.wav
320,192,122583,128,2,122716:0:0:0:0:
64,192,122716,128,8,122849:0:0:0:0:
192,192,122716,1,0,0:0:0:50:Hihat.wav
320,192,122849,128,2,122983:0:0:0:0:
64,192,122983,1,8,0:0:0:0:
192,192,122983,128,0,123116:0:0:0:50:Hihat.wav
320,192,123116,128,2,123249:0:0:0:0:
192,192,123249,1,2,0:0:0:0:
448,192,123249,128,4,123383:0:0:0:0:
64,192,123383,128,0,123516:0:0:0:0:
192,192,123516,1,8,0:0:0:0:
448,192,123516,128,0,123649:0:0:0:50:Hihat.wav
64,192,123649,128,2,123783:0:0:0:0:
320,192,123783,1,8,0:0:0:0:
448,192,123783,128,0,123916:0:0:0:50:Hihat.wav
64,192,123916,128,2,124049:0:0:0:0:
192,192,124049,128,8,124183:0:0:0:0:
448,192,124049,1,0,0:0:0:50:Hihat.wav
320,192,124183,128,2,124316:0:0:0:0:
64,192,124316,128,2,124583:0:0:0:0:
448,192,124316,1,4,0:0:0:0:
192,192,124449,128,0,124583:0:0:0:0:
320,192,124583,1,8,0:0:0:0:
448,192,124583,128,0,124716:0:0:0:50:Hihat.wav
64,192,124716,128,2,124849:0:0:0:0:
192,192,124849,128,8,124983:0:0:0:0:
320,192,124849,1,0,0:0:0:50:Hihat.wav
448,192,124983,128,2,125116:0:0:0:0:
64,192,125116,128,8,125249:0:0:0:0:
192,192,125116,1,0,0:0:0:50:Hihat.wav
320,192,125249,128,2,125383:0:0:0:0:
192,192,125383,1,2,0:0:0:0:
448,192,125383,128,4,125516:0:0:0:0:
64,192,125516,128,0,125649:0:0:0:0:
192,192,125649,128,8,125783:0:0:0:0:
320,192,125649,1,0,0:0:0:50:Hihat.wav
448,192,125783,128,2,125916:0:0:0:0:
64,192,125916,128,8,126049:0:0:0:0:
320,192,125916,1,0,0:0:0:50:Hihat.wav
192,192,126049,128,2,126183:0:0:0:0:
64,192,126183,128,8,126316:0:0:0:0:
320,192,126183,1,0,0:0:0:50:Hihat.wav
448,192,126316,128,2,126449:0:0:0:0:
192,192,126449,128,2,126716:0:0:0:0:
320,192,126449,1,4,0:0:0:0:
64,192,126583,128,0,126716:0:0:0:0:
320,192,126716,128,8,126849:0:0:0:0:
448,192,126716,1,0,0:0:0:50:Hihat.wav
192,192,126849,128,2,126983:0:0:0:0:
64,192,126983,128,8,127116:0:0:0:0:
448,192,126983,1,0,0:0:0:50:Hihat.wav
320,192,127116,128,2,127249:0:0:0:0:
192,192,127249,1,8,0:0:0:0:
448,192,127249,128,0,127383:0:0:0:50:Hihat.wav
64,192,127383,128,2,127516:0:0:0:0:
192,192,127516,1,2,0:0:0:0:
320,192,127516,128,4,127783:0:0:0:0:
448,192,127649,128,0,127783:0:0:0:0:
64,192,127783,128,8,127916:0:0:0:0:
192,192,127783,1,0,0:0:0:50:Hihat.wav
320,192,127916,128,2,128049:0:0:0:0:
64,192,128049,128,8,128183:0:0:0:0:
448,192,128049,1,0,0:0:0:50:Hihat.wav
320,192,128183,128,2,128316:0:0:0:0:
64,192,128316,1,8,0:0:0:0:
448,192,128316,1,0,0:0:0:50:Hihat.wav
64,192,128449,1,8,0:0:0:0:
192,192,128449,1,0,0:0:0:0:
320,192,128516,1,8,0:0:0:0:
64,192,128583,128,4,128716:0:0:0:0:
192,192,128583,128,8,128716:0:0:0:0:
448,192,128583,128,0,128716:0:0:0:0:
64,192,128849,128,4,129649:0:0:0:0:
320,192,128849,128,8,129649:0:0:0:0:
448,192,128849,128,0,129649:0:0:0:0:
192,192,129649,128,0,129783:0:0:0:0:
320,192,129783,128,0,129983:0:0:0:0:
448,192,129983,128,0,130049:0:0:0:0:
64,192,130049,128,0,130183:0:0:0:0:
192,192,130183,128,0,130383:0:0:0:0:
320,192,130383,128,0,130449:0:0:0:0:
448,192,130449,128,0,131116:0:0:0:0:
64,192,130583,128,0,131116:0:0:0:0:
64,192,131249,1,8,0:0:0:0:
192,192,131249,1,2,0:0:0:0:
320,192,131249,1,0,0:0:0:0:
448,192,131249,1,0,0:0:0:0:
64,192,131783,1,0,0:0:0:0:
448,192,131783,1,0,0:0:0:0:
192,192,132049,1,0,0:0:0:20:Clap.wav
320,192,132049,1,0,0:0:0:0:
448,192,132049,1,0,0:0:0:0:
64,192,132316,1,0,0:0:0:0:
448,192,132316,1,0,0:0:0:0:
64,192,132583,1,0,0:0:0:20:Clap.wav
192,192,132583,1,0,0:0:0:0:
320,192,132583,1,0,0:0:0:0:
192,192,132849,1,0,0:0:0:0:
448,192,132849,1,0,0:0:0:0:
64,192,133116,1,0,0:0:0:20:Clap.wav
320,192,133116,1,0,0:0:0:0:
448,192,133116,1,0,0:0:0:0:
64,192,133383,1,0,0:0:0:0:
320,192,133383,1,0,0:0:0:0:
64,192,133649,1,0,0:0:0:20:Clap.wav
192,192,133649,1,0,0:0:0:0:
448,192,133649,1,0,0:0:0:0:
320,192,133916,1,0,0:0:0:0:
448,192,133916,1,0,0:0:0:0:
64,192,134183,1,0,0:0:0:20:Clap.wav
192,192,134183,1,0,0:0:0:0:
320,192,134183,1,0,0:0:0:0:
64,192,134449,1,0,0:0:0:0:
192,192,134449,1,0,0:0:0:0:
192,192,134716,1,0,0:0:0:20:Clap.wav
320,192,134716,1,0,0:0:0:0:
448,192,134716,1,0,0:0:0:0:
64,192,134983,1,0,0:0:0:0:
192,192,134983,1,0,0:0:0:0:
64,192,135249,1,0,0:0:0:20:Clap.wav
192,192,135249,1,0,0:0:0:0:
320,192,135249,1,0,0:0:0:0:
320,192,135516,1,0,0:0:0:0:
448,192,135516,1,0,0:0:0:0:
192,192,135783,1,0,0:0:0:20:Clap.wav
320,192,135783,1,0,0:0:0:0:
448,192,135783,1,0,0:0:0:0:
64,192,136049,1,0,0:0:0:0:
448,192,136049,1,0,0:0:0:0:
64,192,136316,1,0,0:0:0:20:Clap.wav
192,192,136316,1,0,0:0:0:0:
320,192,136316,1,0,0:0:0:0:
64,192,136583,1,0,0:0:0:0:
448,192,136583,1,0,0:0:0:0:
192,192,136849,1,0,0:0:0:20:Clap.wav
320,192,136849,1,0,0:0:0:0:
448,192,136849,1,0,0:0:0:0:
64,192,137116,1,0,0:0:0:0:
320,192,137116,1,0,0:0:0:0:
64,192,137383,1,0,0:0:0:20:Clap.wav
192,192,137383,1,0,0:0:0:0:
448,192,137383,1,0,0:0:0:0:
192,192,137649,1,0,0:0:0:0:
448,192,137649,1,0,0:0:0:0:
64,192,137916,1,0,0:0:0:20:Clap.wav
320,192,137916,1,0,0:0:0:0:
448,192,137916,1,0,0:0:0:0:
64,192,138183,1,0,0:0:0:0:
192,192,138183,1,0,0:0:0:0:
192,192,138449,1,0,0:0:0:20:Clap.wav
320,192,138449,1,0,0:0:0:0:
448,192,138449,1,0,0:0:0:0:
320,192,138716,1,0,0:0:0:0:
448,192,138716,1,0,0:0:0:0:
64,192,138983,1,0,0:0:0:20:Clap.wav
192,192,138983,1,0,0:0:0:0:
320,192,138983,1,0,0:0:0:0:
320,192,139249,1,0,0:0:0:0:
448,192,139249,1,0,0:0:0:0:
192,192,139516,1,0,0:0:0:20:Clap.wav
320,192,139516,1,0,0:0:0:0:
448,192,139516,1,0,0:0:0:0:
64,192,139783,1,0,0:0:0:0:
192,192,139783,1,0,0:0:0:0:
64,192,140049,1,0,0:0:0:20:Clap.wav
192,192,140049,1,0,0:0:0:0:
320,192,140049,1,0,0:0:0:0:
64,192,140316,128,0,140449:0:0:0:0:
192,192,140316,1,0,0:0:0:0:
448,192,140449,128,0,140583:0:0:0:0:
64,192,140583,1,0,0:0:0:20:Clap.wav
320,192,140583,128,0,140716:0:0:0:0:
192,192,140716,128,0,140849:0:0:0:0:
64,192,140849,128,0,140983:0:0:0:0:
320,192,140849,1,0,0:0:0:0:
448,192,140983,128,0,141116:0:0:0:0:
64,192,141116,1,0,0:0:0:20:Clap.wav
320,192,141116,128,0,141249:0:0:0:0:
192,192,141249,128,0,141383:0:0:0:0:
64,192,141383,128,0,141516:0:0:0:0:
320,192,141383,1,0,0:0:0:0:
448,192,141516,128,0,141649:0:0:0:0:
64,192,141649,128,0,141783:0:0:0:20:Clap.wav
192,192,141649,1,0,0:0:0:0:
448,192,141783,128,0,141916:0:0:0:0:
64,192,141916,1,0,0:0:0:0:
192,192,141916,128,0,142049:0:0:0:0:
448,192,142049,128,0,142183:0:0:0:0:
192,192,142183,1,0,0:0:0:20:Clap.wav
320,192,142183,128,0,142316:0:0:0:0:
64,192,142316,128,0,142449:0:0:0:0:
192,192,142449,128,0,142583:0:0:0:0:
320,192,142449,1,0,0:0:0:0:
448,192,142583,128,0,142716:0:0:0:0:
192,192,142716,1,0,0:0:0:20:Clap.wav
320,192,142716,128,0,142849:0:0:0:0:
64,192,142849,128,0,142983:0:0:0:0:
192,192,142983,128,0,143116:0:0:0:0:
320,192,142983,1,0,0:0:0:0:
448,192,143116,128,0,143249:0:0:0:0:
64,192,143249,1,0,0:0:0:20:Clap.wav
320,192,143249,128,0,143383:0:0:0:0:
192,192,143383,128,0,143516:0:0:0:0:
64,192,143516,128,0,143649:0:0:0:0:
448,192,143516,1,0,0:0:0:0:
320,192,143649,128,0,143783:0:0:0:0:
64,192,143783,1,0,0:0:0:20:Clap.wav
192,192,143783,128,0,143916:0:0:0:0:
448,192,143916,128,0,144049:0:0:0:0:
64,192,144049,128,0,144183:0:0:0:0:
192,192,144049,1,0,0:0:0:0:
320,192,144183,128,0,144316:0:0:0:0:
192,192,144316,128,0,144449:0:0:0:20:Clap.wav
448,192,144316,1,0,0:0:0:0:
320,192,144449,128,0,144583:0:0:0:0:
64,192,144583,1,0,0:0:0:0:
448,192,144583,128,0,144716:0:0:0:0:
192,192,144716,128,0,144849:0:0:0:0:
64,192,144849,128,0,144983:0:0:0:20:Clap.wav
320,192,144849,1,0,0:0:0:0:
448,192,144983,128,0,145116:0:0:0:0:
64,192,145116,1,0,0:0:0:0:
320,192,145116,128,0,145249:0:0:0:0:
192,192,145249,128,0,145383:0:0:0:0:
320,192,145383,128,0,145516:0:0:0:20:Clap.wav
448,192,145383,1,0,0:0:0:0:
64,192,145516,128,0,145649:0:0:0:0:
192,192,145649,128,0,145783:0:0:0:0:
448,192,145649,128,0,146183:0:0:0:0:
64,192,145916,128,0,146183:0:0:0:0:
320,192,146183,128,0,146449:0:0:0:0:
448,192,146449,128,0,146716:0:0:0:0:
64,192,146983,128,0,147249:0:0:0:0:
192,192,147249,128,0,147716:0:0:0:0:
320,192,147249,128,0,147516:0:0:0:0:
448,192,147516,128,0,147716:0:0:0:0:
64,192,147783,1,4,0:0:0:0:
320,192,147783,128,2,148183:0:0:0:0:
448,192,147783,1,0,0:0:0:0:
64,192,148049,1,8,0:0:0:0:
192,192,148049,1,0,0:0:0:50:Hihat.wav
64,192,148316,1,2,0:0:0:0:
192,192,148316,128,0,148716:0:0:0:50:Hihat.wav
448,192,148449,1,2,0:0:0:0:
320,192,148583,1,8,0:0:0:0:
448,192,148583,1,0,0:0:0:50:Hihat.wav
64,192,148716,128,0,148849:0:0:0:0:
192,192,148849,128,2,148983:0:0:0:0:
448,192,148849,1,0,0:0:0:50:Hihat.wav
64,192,148983,1,2,0:0:0:0:
320,192,148983,128,0,149116:0:0:0:0:
192,192,149116,1,8,0:0:0:0:
448,192,149116,128,0,149249:0:0:0:50:Hihat.wav
64,192,149249,128,2,149383:0:0:0:0:
320,192,149249,1,0,0:0:0:0:
192,192,149383,128,0,149649:0:0:0:50:Hihat.wav
320,192,149516,1,2,0:0:0:0:
64,192,149649,128,8,149783:0:0:0:0:
448,192,149649,1,0,0:0:0:50:Hihat.wav
320,192,149783,128,0,150049:0:0:0:0:
192,192,149916,128,2,150049:0:0:0:0:
64,192,150049,1,2,0:0:0:0:
448,192,150049,128,0,150183:0:0:0:0:
192,192,150183,128,8,150316:0:0:0:0:
320,192,150183,1,0,0:0:0:50:Hihat.wav
448,192,150316,128,0,150449:0:0:0:0:
64,192,150449,128,2,150583:0:0:0:0:
320,192,150449,128,0,150716:0:0:0:50:Hihat.wav
192,192,150583,1,2,0:0:0:0:
64,192,150716,128,8,150983:0:0:0:0:
448,192,150716,128,0,150849:0:0:0:50:Hihat.wav
192,192,150983,128,2,151249:0:0:0:0:
448,192,150983,128,0,151116:0:0:0:50:Hihat.wav
320,192,151116,1,2,0:0:0:0:
64,192,151249,1,8,0:0:0:0:
448,192,151249,128,0,151383:0:0:0:50:Hihat.wav
192,192,151383,128,2,151649:0:0:0:0:
320,192,151383,1,0,0:0:0:0:
64,192,151516,128,0,151649:0:0:0:50:Hihat.wav
320,192,151649,1,2,0:0:0:0:
448,192,151649,128,0,151916:0:0:0:0:
64,192,151783,128,8,151916:0:0:0:0:
192,192,151783,1,0,0:0:0:50:Hihat.wav
192,192,152049,128,4,152316:0:0:0:0:
320,192,152049,1,2,0:0:0:0:
64,192,152316,1,8,0:0:0:0:
320,192,152316,1,0,0:0:0:50:Hihat.wav
448,192,152316,128,0,152449:0:0:0:0:
64,192,152583,128,2,152849:0:0:0:0:
192,192,152583,1,0,0:0:0:50:Hihat.wav
448,192,152716,1,2,0:0:0:0:
192,192,152849,128,8,152983:0:0:0:0:
320,192,152849,1,0,0:0:0:50:Hihat.wav
64,192,152983,128,0,153249:0:0:0:0:
320,192,153116,1,2,0:0:0:0:
192,192,153249,1,2,0:0:0:0:
448,192,153249,128,0,153383:0:0:0:0:
64,192,153383,1,8,0:0:0:0:
320,192,153383,128,0,153516:0:0:0:50:Hihat.wav
192,192,153516,1,2,0:0:0:0:
448,192,153516,128,0,153649:0:0:0:0:
64,192,153649,128,0,153916:0:0:0:50:Hihat.wav
192,192,153783,1,2,0:0:0:0:
320,192,153916,1,8,0:0:0:0:
448,192,153916,128,0,154049:0:0:0:50:Hihat.wav
192,192,154049,128,0,154316:0:0:0:0:
448,192,154183,1,2,0:0:0:0:
64,192,154316,1,2,0:0:0:0:
320,192,154316,128,0,154449:0:0:0:0:
192,192,154449,1,8,0:0:0:0:
448,192,154449,128,0,154583:0:0:0:50:Hihat.wav
64,192,154583,128,0,154716:0:0:0:0:
192,192,154716,1,2,0:0:0:0:
448,192,154716,128,0,154849:0:0:0:50:Hihat.wav
64,192,154849,128,2,154983:0:0:0:0:
320,192,154849,1,0,0:0:0:0:
192,192,154983,1,8,0:0:0:0:
448,192,154983,128,0,155116:0:0:0:50:Hihat.wav
64,192,155116,128,0,155249:0:0:0:0:
192,192,155249,128,2,155383:0:0:0:0:
448,192,155249,1,0,0:0:0:50:Hihat.wav
64,192,155383,128,2,155516:0:0:0:0:
320,192,155383,1,0,0:0:0:0:
320,192,155516,1,8,0:0:0:0:
448,192,155516,128,0,155649:0:0:0:50:Hihat.wav
64,192,155649,1,2,0:0:0:0:
192,192,155649,128,0,155916:0:0:0:0:
320,192,155783,1,0,0:0:0:50:Hihat.wav
64,192,155916,1,2,0:0:0:0:
448,192,155916,128,0,156249:0:0:0:0:
192,192,156049,1,8,0:0:0:0:
320,192,156049,1,0,0:0:0:50:Hihat.wav
64,192,156183,1,8,0:0:0:0:
320,192,156249,128,0,156316:0:0:0:0:
64,192,156316,1,4,0:0:0:0:
192,192,156316,128,2,156583:0:0:0:0:
64,192,156583,1,8,0:0:0:0:
320,192,156583,1,0,0:0:0:50:Hihat.wav
448,192,156716,128,0,156849:0:0:0:0:
64,192,156849,1,2,0:0:0:0:
192,192,156849,128,0,157116:0:0:0:50:Hihat.wav
320,192,156983,1,2,0:0:0:0:
64,192,157116,1,8,0:0:0:0:
448,192,157116,1,0,0:0:0:50:Hihat.wav
320,192,157249,128,0,157383:0:0:0:0:
64,192,157383,1,2,0:0:0:0:
192,192,157383,128,0,157649:0:0:0:50:Hihat.wav
320,192,157516,1,2,0:0:0:0:
64,192,157649,1,8,0:0:0:0:
448,192,157649,1,0,0:0:0:50:Hihat.wav
192,192,157783,1,2,0:0:0:0:
320,192,157783,128,0,157916:0:0:0:0:
64,192,157916,128,0,158183:0:0:0:50:Hihat.wav
448,192,158049,1,2,0:0:0:0:
192,192,158183,1,8,0:0:0:0:
320,192,158183,1,0,0:0:0:50:Hihat.wav
320,192,158316,128,0,158583:0:0:0:0:
448,192,158449,1,2,0:0:0:0:
64,192,158583,1,2,0:0:0:0:
192,192,158583,128,0,158716:0:0:0:0:
320,192,158716,128,8,158849:0:0:0:0:
448,192,158716,1,0,0:0:0:50:Hihat.wav
64,192,158849,128,0,158983:0:0:0:0:
192,192,158983,128,2,159116:0:0:0:0:
448,192,158983,1,0,0:0:0:50:Hihat.wav
320,192,159116,128,2,159249:0:0:0:0:
64,192,159249,1,8,0:0:0:0:
448,192,159249,128,0,159383:0:0:0:50:Hihat.wav
192,192,159383,128,0,159516:0:0:0:0:
64,192,159516,1,2,0:0:0:0:
448,192,159516,128,0,159649:0:0:0:50:Hihat.wav
64,192,159649,128,2,159783:0:0:0:0:
320,192,159649,1,0,0:0:0:0:
192,192,159783,128,8,159916:0:0:0:0:
448,192,159783,1,0,0:0:0:50:Hihat.wav
64,192,159916,128,2,160049:0:0:0:0:
320,192,159916,1,0,0:0:0:0:
448,192,160049,128,0,160183:0:0:0:50:Hihat.wav
64,192,160183,1,2,0:0:0:0:
320,192,160183,128,0,160316:0:0:0:0:
192,192,160316,128,8,160516:0:0:0:0:
448,192,160316,1,0,0:0:0:50:Hihat.wav
64,192,160516,128,0,160716:0:0:0:0:
320,192,160583,1,4,0:0:0:0:
448,192,160583,128,2,160849:0:0:0:0:
64,192,160849,1,8,0:0:0:0:
192,192,160849,1,0,0:0:0:50:Hihat.wav
320,192,160983,128,0,161116:0:0:0:0:
64,192,161116,1,2,0:0:0:0:
192,192,161116,128,0,161516:0:0:0:50:Hihat.wav
448,192,161249,1,2,0:0:0:0:
320,192,161383,1,8,0:0:0:0:
448,192,161383,1,0,0:0:0:50:Hihat.wav
64,192,161516,128,0,161649:0:0:0:0:
320,192,161649,128,2,161916:0:0:0:0:
448,192,161649,1,4,0:0:0:0:
192,192,161783,1,2,0:0:0:0:
64,192,161916,128,8,162183:0:0:0:0:
448,192,161916,1,0,0:0:0:50:Hihat.wav
320,192,162049,1,2,0:0:0:0:
192,192,162183,128,8,162449:0:0:0:0:
448,192,162183,1,0,0:0:0:50:Hihat.wav
320,192,162316,1,2,0:0:0:0:
64,192,162449,1,8,0:0:0:0:
448,192,162449,128,0,162716:0:0:0:50:Hihat.wav
320,192,162516,1,8,0:0:0:0:
192,192,162583,1,8,0:0:0:0:
64,192,162649,1,8,0:0:0:0:
192,192,162716,1,2,0:0:0:0:
320,192,162716,128,4,163116:0:0:0:0:
64,192,162983,1,8,0:0:0:0:
192,192,162983,1,0,0:0:0:50:Hihat.wav
192,192,163249,128,2,163649:0:0:0:0:
448,192,163249,1,0,0:0:0:50:Hihat.wav
320,192,163383,1,2,0:0:0:0:
64,192,163516,1,8,0:0:0:0:
448,192,163516,1,0,0:0:0:50:Hihat.wav
320,192,163649,128,0,163783:0:0:0:0:
64,192,163783,128,2,163916:0:0:0:0:
192,192,163783,1,0,0:0:0:50:Hihat.wav
320,192,163916,1,2,0:0:0:0:
448,192,163916,128,0,164049:0:0:0:0:
64,192,164049,128,8,164183:0:0:0:0:
192,192,164049,1,0,0:0:0:50:Hihat.wav
320,192,164183,1,2,0:0:0:0:
448,192,164183,128,0,164316:0:0:0:0:
64,192,164316,128,0,164583:0:0:0:50:Hihat.wav
192,192,164316,1,0,0:0:0:0:
320,192,164449,1,2,0:0:0:0:
192,192,164583,1,8,0:0:0:0:
448,192,164583,1,0,0:0:0:50:Hihat.wav
320,192,164716,128,0,164983:0:0:0:0:
448,192,164849,1,2,0:0:0:0:
64,192,164983,128,2,165116:0:0:0:0:
192,192,164983,1,0,0:0:0:0:
320,192,165116,1,8,0:0:0:0:
448,192,165116,128,0,165249:0:0:0:50:Hihat.wav
64,192,165249,128,0,165383:0:0:0:0:
192,192,165383,128,2,165649:0:0:0:0:
448,192,165383,1,0,0:0:0:50:Hihat.wav
320,192,165516,1,2,0:0:0:0:
64,192,165649,1,8,0:0:0:0:
448,192,165649,128,0,165916:0:0:0:50:Hihat.wav
64,192,165916,128,2,166183:0:0:0:0:
320,192,165916,1,0,0:0:0:50:Hihat.wav
192,192,166049,1,2,0:0:0:0:
320,192,166183,1,8,0:0:0:0:
448,192,166183,128,0,166316:0:0:0:50:Hihat.wav
64,192,166316,128,2,166583:0:0:0:0:
192,192,166316,1,0,0:0:0:0:
448,192,166449,1,0,0:0:0:50:Hihat.wav
192,192,166583,128,2,166849:0:0:0:0:
320,192,166583,128,0,166716:0:0:0:0:
448,192,166716,128,8,166849:0:0:0:0:
64,192,166849,128,0,166983:0:0:0:0:
192,192,166983,1,2,0:0:0:0:
320,192,166983,128,4,167249:0:0:0:0:
64,192,167249,1,8,0:0:0:0:
448,192,167249,128,0,167516:0:0:0:50:Hihat.wav
192,192,167516,128,2,167783:0:0:0:0:
320,192,167516,1,0,0:0:0:50:Hihat.wav
64,192,167649,1,2,0:0:0:0:
320,192,167783,128,8,167916:0:0:0:0:
448,192,167783,1,0,0:0:0:50:Hihat.wav
64,192,167916,128,0,168183:0:0:0:0:
320,192,168049,1,2,0:0:0:0:
192,192,168183,1,2,0:0:0:0:
448,192,168183,128,0,168316:0:0:0:0:
64,192,168316,1,8,0:0:0:0:
192,192,168316,128,0,168449:0:0:0:50:Hihat.wav
320,192,168449,128,2,168583:0:0:0:0:
448,192,168449,1,0,0:0:0:0:
64,192,168583,128,0,168849:0:0:0:50:Hihat.wav
320,192,168716,1,2,0:0:0:0:
192,192,168849,1,8,0:0:0:0:
448,192,168849,128,0,168983:0:0:0:50:Hihat.wav
320,192,168983,128,0,169249:0:0:0:0:
64,192,169116,1,2,0:0:0:0:
192,192,169249,1,2,0:0:0:0:
448,192,169249,128,0,169383:0:0:0:0:
64,192,169383,128,8,169516:0:0:0:0:
320,192,169383,1,0,0:0:0:50:Hihat.wav
448,192,169516,128,0,169649:0:0:0:0:
64,192,169649,128,2,169783:0:0:0:0:
192,192,169649,1,0,0:0:0:50:Hihat.wav
320,192,169783,1,2,0:0:0:0:
448,192,169783,128,0,169916:0:0:0:0:
64,192,169916,128,8,170049:0:0:0:0:
192,192,169916,1,0,0:0:0:50:Hihat.wav
320,192,170049,128,0,170183:0:0:0:0:
64,192,170183,1,2,0:0:0:0:
192,192,170183,128,0,170449:0:0:0:50:Hihat.wav
448,192,170316,1,2,0:0:0:0:
320,192,170449,128,8,170583:0:0:0:0:
448,192,170449,1,0,0:0:0:50:Hihat.wav
64,192,170583,128,2,170849:0:0:0:0:
192,192,170583,1,0,0:0:0:0:
320,192,170849,1,2,0:0:0:0:
448,192,170849,128,0,170983:0:0:0:0:
64,192,170983,1,8,0:0:0:0:
192,192,170983,128,0,171116:0:0:0:50:Hihat.wav
320,192,171116,128,8,171249:0:0:0:0:
448,192,171116,1,0,0:0:0:0:
64,192,171249,128,2,171516:0:0:0:0:
192,192,171249,1,4,0:0:0:0:
192,192,171516,1,8,0:0:0:0:
320,192,171516,1,0,0:0:0:50:Hihat.wav
448,192,171649,128,0,171783:0:0:0:0:
192,192,171783,128,2,172049:0:0:0:0:
320,192,171783,1,0,0:0:0:50:Hihat.wav
64,192,171916,1,2,0:0:0:0:
320,192,172049,1,8,0:0:0:0:
448,192,172049,1,0,0:0:0:50:Hihat.wav
64,192,172183,128,0,172316:0:0:0:0:
320,192,172316,128,2,172583:0:0:0:0:
448,192,172316,1,0,0:0:0:50:Hihat.wav
192,192,172449,1,2,0:0:0:0:
64,192,172583,1,8,0:0:0:0:
448,192,172583,1,0,0:0:0:50:Hihat.wav
192,192,172716,128,2,172849:0:0:0:0:
320,192,172716,1,0,0:0:0:0:
64,192,172849,128,0,172983:0:0:0:50:Hihat.wav
448,192,172849,128,0,173116:0:0:0:0:
320,192,172983,128,2,173116:0:0:0:0:
64,192,173116,1,8,0:0:0:0:
192,192,173116,128,0,173383:0:0:0:50:Hihat.wav
448,192,173249,128,0,173516:0:0:0:0:
64,192,173383,1,2,0:0:0:0:
320,192,173383,128,0,173649:0:0:0:50:Hihat.wav
64,192,173516,128,2,173649:0:0:0:0:
192,192,173649,1,8,0:0:0:0:
448,192,173649,128,0,173783:0:0:0:50:Hihat.wav
64,192,173783,128,0,173916:0:0:0:0:
192,192,173916,128,2,174049:0:0:0:0:
448,192,173916,128,0,174183:0:0:0:50:Hihat.wav
320,192,174049,128,2,174183:0:0:0:0:
64,192,174183,128,8,174316:0:0:0:0:
192,192,174183,1,0,0:0:0:50:Hihat.wav
320,192,174316,128,0,174449:0:0:0:0:
64,192,174449,128,2,174716:0:0:0:0:
448,192,174449,128,0,174583:0:0:0:50:Hihat.wav
192,192,174583,128,2,174716:0:0:0:0:
320,192,174716,128,8,174849:0:0:0:0:
448,192,174716,1,0,0:0:0:50:Hihat.wav
64,192,174849,128,2,174983:0:0:0:0:
192,192,174849,1,0,0:0:0:0:
448,192,174983,128,0,175116:0:0:0:50:Hihat.wav
64,192,175116,1,2,0:0:0:0:
320,192,175116,128,0,175249:0:0:0:0:
192,192,175249,128,8,175383:0:0:0:0:
448,192,175249,1,0,0:0:0:50:Hihat.wav
64,192,175383,128,0,175783:0:0:0:0:
320,192,175383,128,0,175516:0:0:0:0:
192,192,175516,128,2,175783:0:0:0:0:
448,192,175516,1,4,0:0:0:0:
320,192,175783,1,8,0:0:0:0:
448,192,175783,1,0,0:0:0:50:Hihat.wav
64,192,176049,128,2,176316:0:0:0:0:
192,192,176049,128,0,176316:0:0:0:50:Hihat.wav
448,192,176183,1,2,0:0:0:0:
320,192,176316,1,8,0:0:0:0:
448,192,176316,1,0,0:0:0:50:Hihat.wav
320,192,176583,1,2,0:0:0:0:
448,192,176583,128,0,176849:0:0:0:50:Hihat.wav
64,192,176716,1,2,0:0:0:0:
192,192,176849,1,8,0:0:0:0:
320,192,176849,128,0,176983:0:0:0:50:Hihat.wav
64,192,176983,128,2,177116:0:0:0:0:
448,192,176983,1,0,0:0:0:0:
192,192,177116,128,0,177383:0:0:0:50:Hihat.wav
320,192,177249,1,2,0:0:0:0:
64,192,177383,128,8,177516:0:0:0:0:
448,192,177383,1,0,0:0:0:50:Hihat.wav
320,192,177516,128,0,177783:0:0:0:0:
192,192,177649,1,2,0:0:0:0:
64,192,177783,128,2,177916:0:0:0:0:
448,192,177783,1,0,0:0:0:0:
192,192,177916,128,8,178316:0:0:0:0:
320,192,177916,1,0,0:0:0:50:Hihat.wav
320,192,178183,128,2,178449:0:0:0:0:
448,192,178183,1,0,0:0:0:50:Hihat.wav
64,192,178316,1,2,0:0:0:0:
192,192,178449,1,8,0:0:0:0:
448,192,178449,1,0,0:0:0:50:Hihat.wav
192,192,178716,128,2,178849:0:0:0:0:
448,192,178716,1,0,0:0:0:50:Hihat.wav
64,192,178849,1,2,0:0:0:0:
320,192,178849,128,0,178983:0:0:0:0:
64,192,178983,1,8,0:0:0:0:
448,192,178983,128,0,179116:0:0:0:50:Hihat.wav
192,192,179116,128,2,179249:0:0:0:0:
320,192,179116,1,0,0:0:0:0:
64,192,179249,128,0,179383:0:0:0:50:Hihat.wav
320,192,179383,1,2,0:0:0:0:
448,192,179383,128,0,179516:0:0:0:0:
64,192,179516,1,8,0:0:0:0:
192,192,179516,128,0,179649:0:0:0:50:Hihat.wav
320,192,179649,128,0,179916:0:0:0:0:
64,192,179783,1,2,0:0:0:0:
192,192,179783,1,4,0:0:0:0:
448,192,179916,128,0,180049:0:0:0:0:
64,192,180049,1,8,0:0:0:0:
320,192,180049,1,0,0:0:0:50:Hihat.wav
192,192,180183,128,0,180316:0:0:0:0:
64,192,180316,1,2,0:0:0:0:
448,192,180316,1,0,0:0:0:50:Hihat.wav
192,192,180449,1,2,0:0:0:0:
320,192,180449,1,0,0:0:0:0:
64,192,180583,1,8,0:0:0:0:
320,192,180583,1,0,0:0:0:50:Hihat.wav
448,192,180583,1,0,0:0:0:0:
192,192,180716,128,0,180849:0:0:0:0:
320,192,180783,1,0,0:0:0:0:
64,192,180849,128,2,181116:0:0:0:0:
448,192,180849,128,4,180983:0:0:0:0:
320,192,180983,1,2,0:0:0:0:
192,192,181116,1,8,0:0:0:0:
448,192,181116,128,4,181249:0:0:0:0:
64,192,181249,1,2,0:0:0:0:
320,192,181249,128,0,181383:0:0:0:0:
192,192,181383,128,4,181649:0:0:0:0:
448,192,181383,128,0,181516:0:0:0:0:
320,192,181516,1,2,0:0:0:0:
64,192,181649,128,8,181783:0:0:0:0:
448,192,181649,1,4,0:0:0:0:
192,192,181783,1,2,0:0:0:0:
320,192,181783,128,0,181916:0:0:0:0:
64,192,181916,128,8,182183:0:0:0:0:
448,192,181916,128,4,182049:0:0:0:0:
320,192,182049,1,2,0:0:0:0:
192,192,182183,128,8,182316:0:0:0:0:
320,192,182183,1,4,0:0:0:0:
64,192,182316,1,2,0:0:0:0:
448,192,182316,128,0,182449:0:0:0:0:
192,192,182449,128,8,182849:0:0:0:0:
320,192,182449,128,4,182849:0:0:0:0:
448,192,182849,128,0,182983:0:0:0:0:
64,192,182983,128,2,183516:0:0:0:0:
192,192,182983,1,4,0:0:0:0:
320,192,183249,1,8,0:0:0:0:
448,192,183249,1,0,0:0:0:50:Hihat.wav
192,192,183516,1,0,0:0:0:50:Hihat.wav
448,192,183516,1,0,0:0:0:0:
64,192,183783,1,8,0:0:0:0:
192,192,183783,1,0,0:0:0:50:Hihat.wav
320,192,183783,128,0,184049:0:0:0:0:
64,192,184049,1,2,0:0:0:0:
448,192,184049,128,0,184316:0:0:0:50:Hihat.wav
192,192,184183,1,2,0:0:0:0:
64,192,184316,128,8,184583:0:0:0:0:
320,192,184316,1,0,0:0:0:50:Hihat.wav
320,192,184449,1,2,0:0:0:0:
192,192,184583,1,0,0:0:0:50:Hihat.wav
448,192,184583,128,0,184849:0:0:0:0:
320,192,184716,1,2,0:0:0:0:
64,192,184849,128,8,185116:0:0:0:0:
192,192,184849,1,0,0:0:0:50:Hihat.wav
320,192,185116,128,2,185383:0:0:0:0:
448,192,185116,1,0,0:0:0:50:Hihat.wav
64,192,185249,1,2,0:0:0:0:
192,192,185383,128,8,185516:0:0:0:0:
448,192,185383,1,0,0:0:0:50:Hihat.wav
320,192,185516,128,0,185783:0:0:0:0:
448,192,185649,1,0,0:0:0:50:Hihat.wav
64,192,185783,128,2,185916:0:0:0:0:
192,192,185783,1,0,0:0:0:0:
320,192,185916,1,8,0:0:0:0:
448,192,185916,128,0,186049:0:0:0:50:Hihat.wav
64,192,186049,128,0,186183:0:0:0:0:
192,192,186183,1,2,0:0:0:0:
320,192,186183,128,0,186583:0:0:0:50:Hihat.wav
448,192,186316,1,2,0:0:0:0:
64,192,186449,1,8,0:0:0:0:
192,192,186449,1,0,0:0:0:50:Hihat.wav
64,192,186583,1,2,0:0:0:0:
448,192,186583,1,0,0:0:0:0:
192,192,186716,128,0,187249:0:0:0:50:Hihat.wav
320,192,186716,1,0,0:0:0:0:
448,192,186849,1,2,0:0:0:0:
64,192,186983,1,8,0:0:0:0:
320,192,186983,128,0,187249:0:0:0:50:Hihat.wav
64,192,187249,1,2,0:0:0:0:
448,192,187249,128,4,187516:0:0:0:0:
64,192,187516,1,8,0:0:0:0:
192,192,187516,1,0,0:0:0:50:Hihat.wav
320,192,187516,128,0,187783:0:0:0:0:
448,192,187649,1,2,0:0:0:0:
64,192,187783,1,8,0:0:0:0:
192,192,187783,128,0,187916:0:0:0:50:Hihat.wav
448,192,187783,1,0,0:0:0:0:
320,192,187916,128,2,188049:0:0:0:0:
192,192,188049,128,8,188183:0:0:0:0:
448,192,188049,1,0,0:0:0:50:Hihat.wav
64,192,188183,128,2,188316:0:0:0:0:
320,192,188183,1,0,0:0:0:0:
192,192,188316,1,8,0:0:0:0:
448,192,188316,128,4,188583:0:0:0:0:
64,192,188583,1,8,0:0:0:0:
192,192,188583,1,0,0:0:0:50:Hihat.wav
320,192,188583,128,0,188716:0:0:0:0:
64,192,188716,128,2,188983:0:0:0:0:
192,192,188849,1,8,0:0:0:0:
448,192,188849,1,0,0:0:0:50:Hihat.wav
320,192,188983,128,2,189116:0:0:0:0:
64,192,189116,128,8,189383:0:0:0:0:
448,192,189116,1,0,0:0:0:50:Hihat.wav
192,192,189183,1,8,0:0:0:0:
448,192,189249,1,8,0:0:0:0:
192,192,189316,1,8,0:0:0:0:
