osu file format v14

[General]
AudioFilename: audio.mp3
AudioLeadIn: 0
PreviewTime: 146983
Countdown: 0
SampleSet: Drum
StackLeniency: 0.7
Mode: 3
LetterboxInBreaks: 0
SpecialStyle: 0
WidescreenStoryboard: 1

[Editor]
Bookmarks: 818,9351,15751,36018,44551,61618,70151,90418,98951,121351,132018,140551,148018,162951,183218,189618
DistanceSpacing: 1
BeatDivisor: 4
GridSize: 8
TimelineZoom: 2.6

[Metadata]
Title:Doro no Bunzai de Watashi dake no Taisetsu o Ubaou da nante
TitleUnicode:泥の分際で私だけの大切を奪おうだなんて
Artist:TUYU
ArtistUnicode:ツユ
Creator:deta5859
Version:Madoka's Normal
Source:SOUND VOLTEX EXCEED GEAR
Tags:Fresh Chicken Aruel Nabi- Madoka2574 ML-ysg Being low as dirt, taking what's important from me 貴方を不幸に誘いますね ぷす Pusu 礼衣 Rei あじゅん AzyuN おむたつ Omutatsu TUYU-0002 Japanese Rock J-Rock J-Pop Pop sdvx VI Nolstalgia Op.3 konami
BeatmapID:2593080
BeatmapSetID:1242820

[Difficulty]
HPDrainRate:7
CircleSize:4
OverallDifficulty:7
ApproachRate:5
SliderMultiplier:1.4
SliderTickRate:1

[Events]
//Background and Video events
0,0,"qwq.jpg",0,0
//Break Periods
//Storyboard Layer 0 (Background)
//Storyboard Layer 1 (Fail)
//Storyboard Layer 2 (Pass)
//Storyboard Layer 3 (Foreground)
//Storyboard Layer 4 (Overlay)
//Storyboard Sound Samples
Sample,16049,0,"Hihat.wav",50
Sample,16583,0,"Hihat.wav",50
Sample,17649,0,"Hihat.wav",50
Sample,18183,0,"Hihat.wav",50
Sample,18716,0,"Hihat.wav",50
Sample,20316,0,"Hihat.wav",50
Sample,20849,0,"Hihat.wav",50
Sample,21916,0,"Hihat.wav",50
Sample,22449,0,"Hihat.wav",50
Sample,22983,0,"Hihat.wav",50
Sample,24583,0,"Hihat.wav",50
Sample,25116,0,"Hihat.wav",50
Sample,26183,0,"Hihat.wav",50
Sample,26716,0,"Hihat.wav",50
Sample,27249,0,"Hihat.wav",50
Sample,28849,0,"Hihat.wav",50
Sample,29383,0,"Hihat.wav",50
Sample,30449,0,"Hihat.wav",50
Sample,30983,0,"Hihat.wav",50
Sample,31516,0,"Hihat.wav",50
Sample,33116,0,"Hihat.wav",50
Sample,60316,0,"Hihat.wav",50
Sample,60583,0,"Hihat.wav",50
Sample,61649,0,"Hihat.wav",50
Sample,61916,0,"Hihat.wav",50
Sample,62183,0,"Hihat.wav",50
Sample,62716,0,"Hihat.wav",50
Sample,62983,0,"Hihat.wav",50
Sample,63249,0,"Hihat.wav",50
Sample,63783,0,"Hihat.wav",50
Sample,64049,0,"Hihat.wav",50
Sample,64316,0,"Hihat.wav",50
Sample,64849,0,"Hihat.wav",50
Sample,65116,0,"Hihat.wav",50
Sample,65383,0,"Hihat.wav",50
Sample,65916,0,"Hihat.wav",50
Sample,66183,0,"Hihat.wav",50
Sample,66449,0,"Hihat.wav",50
Sample,66983,0,"Hihat.wav",50
Sample,67249,0,"Hihat.wav",50
Sample,67516,0,"Hihat.wav",50
Sample,68049,0,"Hihat.wav",50
Sample,68316,0,"Hihat.wav",50
Sample,68583,0,"Hihat.wav",50
Sample,70449,0,"Hihat.wav",50
Sample,70983,0,"Hihat.wav",50
Sample,72049,0,"Hihat.wav",50
Sample,72583,0,"Hihat.wav",50
Sample,73116,0,"Hihat.wav",50
Sample,74716,0,"Hihat.wav",50
Sample,75249,0,"Hihat.wav",50
Sample,76316,0,"Hihat.wav",50
Sample,76849,0,"Hihat.wav",50
Sample,77383,0,"Hihat.wav",50
Sample,78983,0,"Hihat.wav",50
Sample,79516,0,"Hihat.wav",50
Sample,80583,0,"Hihat.wav",50
Sample,81116,0,"Hihat.wav",50
Sample,81649,0,"Hihat.wav",50
Sample,83249,0,"Hihat.wav",50
Sample,83783,0,"Hihat.wav",50
Sample,84849,0,"Hihat.wav",50
Sample,85383,0,"Hihat.wav",50
Sample,85916,0,"Hihat.wav",50
Sample,87516,0,"Hihat.wav",50
Sample,99249,0,"Hihat.wav",50
Sample,99783,0,"Hihat.wav",50
Sample,100849,0,"Hihat.wav",50
Sample,101916,0,"Hihat.wav",50
Sample,103516,0,"Hihat.wav",50
Sample,104049,0,"Hihat.wav",50
Sample,105116,0,"Hihat.wav",50
Sample,105649,0,"Hihat.wav",50
Sample,106183,0,"Hihat.wav",50
Sample,106983,0,"Hihat.wav",50
Sample,107783,0,"Hihat.wav",50
Sample,109383,0,"Hihat.wav",50
Sample,109916,0,"Hihat.wav",50
Sample,112049,0,"Hihat.wav",50
Sample,112583,0,"Hihat.wav",50
Sample,113649,0,"Hihat.wav",50
Sample,114183,0,"Hihat.wav",50
Sample,116316,0,"Hihat.wav",50
Sample,121383,0,"Hihat.wav",50
Sample,121649,0,"Hihat.wav",50
Sample,121916,0,"Hihat.wav",50
Sample,122449,0,"Hihat.wav",50
Sample,122716,0,"Hihat.wav",50
Sample,122983,0,"Hihat.wav",50
Sample,123516,0,"Hihat.wav",50
Sample,123783,0,"Hihat.wav",50
Sample,124049,0,"Hihat.wav",50
Sample,124583,0,"Hihat.wav",50
Sample,124849,0,"Hihat.wav",50
Sample,125116,0,"Hihat.wav",50
Sample,125649,0,"Hihat.wav",50
Sample,125916,0,"Hihat.wav",50
Sample,126183,0,"Hihat.wav",50
Sample,126716,0,"Hihat.wav",50
Sample,126983,0,"Hihat.wav",50
Sample,127249,0,"Hihat.wav",50
Sample,127783,0,"Hihat.wav",50
Sample,128049,0,"Hihat.wav",50
Sample,128316,0,"Hihat.wav",50
Sample,148316,0,"Hihat.wav",50
Sample,148849,0,"Hihat.wav",50
Sample,149916,0,"Hihat.wav",50
Sample,150449,0,"Hihat.wav",50
Sample,150983,0,"Hihat.wav",50
Sample,152583,0,"Hihat.wav",50
Sample,153116,0,"Hihat.wav",50
Sample,154183,0,"Hihat.wav",50
Sample,154716,0,"Hihat.wav",50
Sample,155249,0,"Hihat.wav",50
Sample,156849,0,"Hihat.wav",50
Sample,157383,0,"Hihat.wav",50
Sample,158449,0,"Hihat.wav",50
Sample,158983,0,"Hihat.wav",50
Sample,159516,0,"Hihat.wav",50
Sample,161116,0,"Hihat.wav",50
Sample,163249,0,"Hihat.wav",50
Sample,163783,0,"Hihat.wav",50
Sample,164849,0,"Hihat.wav",50
Sample,165383,0,"Hihat.wav",50
Sample,165916,0,"Hihat.wav",50
Sample,167516,0,"Hihat.wav",50
Sample,168049,0,"Hihat.wav",50
Sample,169116,0,"Hihat.wav",50
Sample,169649,0,"Hihat.wav",50
Sample,170183,0,"Hihat.wav",50
Sample,171783,0,"Hihat.wav",50
Sample,172316,0,"Hihat.wav",50
Sample,173383,0,"Hihat.wav",50
Sample,173916,0,"Hihat.wav",50
Sample,174449,0,"Hihat.wav",50
Sample,176049,0,"Hihat.wav",50
Sample,176583,0,"Hihat.wav",50
Sample,177649,0,"Hihat.wav",50
Sample,178183,0,"Hihat.wav",50
Sample,178716,0,"Hihat.wav",50
Sample,180316,0,"Hihat.wav",50
Sample,184049,0,"Hihat.wav",50
Sample,185116,0,"Hihat.wav",50
Sample,186183,0,"Hihat.wav",50

[TimingPoints]
583,266.666666666667,4,3,1,50,1,0
15516,-100,4,3,1,50,0,1
35783,-100,4,3,1,50,0,0
69916,-100,4,3,1,50,0,1
90183,-100,4,3,1,50,0,0
147783,-100,4,3,1,50,0,1
189383,-100,4,3,1,50,0,0

[HitObjects]
64,192,583,1,0,0:0:0:0:
320,192,849,1,0,0:0:0:20:Clap.wav
448,192,1116,1,0,0:0:0:0:
192,192,1383,1,0,0:0:0:20:Clap.wav
64,192,1649,1,0,0:0:0:0:
448,192,1916,1,0,0:0:0:20:Clap.wav
192,192,2183,1,0,0:0:0:0:
320,192,2449,1,0,0:0:0:20:Clap.wav
448,192,2716,1,0,0:0:0:0:
192,192,2983,1,0,0:0:0:20:Clap.wav
448,192,3249,1,0,0:0:0:0:
64,192,3516,1,0,0:0:0:20:Clap.wav
320,192,3783,1,0,0:0:0:0:
448,192,4049,1,0,0:0:0:20:Clap.wav
192,192,4316,1,0,0:0:0:0:
64,192,4583,1,0,0:0:0:20:Clap.wav
320,192,4849,1,0,0:0:0:0:
192,192,5116,1,0,0:0:0:20:Clap.wav
448,192,5383,1,0,0:0:0:0:
320,192,5649,1,0,0:0:0:20:Clap.wav
64,192,5916,1,0,0:0:0:0:
192,192,6183,1,0,0:0:0:20:Clap.wav
448,192,6449,1,0,0:0:0:0:
192,192,6716,1,0,0:0:0:20:Clap.wav
320,192,6983,1,0,0:0:0:0:
64,192,7249,1,0,0:0:0:20:Clap.wav
448,192,7516,1,0,0:0:0:0:
192,192,7783,1,0,0:0:0:20:Clap.wav
448,192,8049,1,0,0:0:0:0:
64,192,8316,1,0,0:0:0:20:Clap.wav
320,192,8583,1,0,0:0:0:0:
192,192,8849,1,0,0:0:0:20:Clap.wav
448,192,9116,1,0,0:0:0:0:
320,192,9249,1,0,0:0:0:0:
192,192,9383,1,0,0:0:0:20:Clap.wav
320,192,9649,1,0,0:0:0:0:
192,192,9783,1,0,0:0:0:0:
64,192,9916,1,0,0:0:0:20:Clap.wav
320,192,10183,128,0,10449:0:0:0:0:
64,192,10449,128,0,10716:0:0:0:20:Clap.wav
448,192,10716,128,0,10983:0:0:0:0:
192,192,10983,128,0,11249:0:0:0:20:Clap.wav
448,192,11249,1,0,0:0:0:0:
64,192,11383,1,0,0:0:0:0:
320,192,11516,1,0,0:0:0:20:Clap.wav
192,192,11649,1,0,0:0:0:0:
448,192,11783,1,0,0:0:0:0:
64,192,11916,1,0,0:0:0:0:
192,192,12049,1,0,0:0:0:20:Clap.wav
320,192,12183,1,0,0:0:0:0:
448,192,12316,128,0,12583:0:0:0:0:
192,192,12583,128,0,12849:0:0:0:20:Clap.wav
320,192,12849,128,0,13116:0:0:0:0:
64,192,13116,128,0,13383:0:0:0:20:Clap.wav
448,192,13383,1,0,0:0:0:0:
320,192,13516,1,0,0:0:0:0:
192,192,13649,1,0,0:0:0:20:Clap.wav
320,192,13783,1,0,0:0:0:0:
64,192,13916,1,0,0:0:0:0:
192,192,14049,1,0,0:0:0:0:
320,192,14183,1,0,0:0:0:20:Clap.wav
448,192,14316,1,0,0:0:0:0:
64,192,14449,128,0,14983:0:0:0:0:
64,192,15516,1,2,0:0:0:0:
448,192,15516,1,4,0:0:0:0:
192,192,15783,1,8,0:0:0:0:
320,192,15783,1,0,0:0:0:50:Hihat.wav
64,192,16049,1,2,0:0:0:0:
192,192,16183,1,2,0:0:0:0:
320,192,16316,1,8,0:0:0:0:
448,192,16316,1,0,0:0:0:50:Hihat.wav
448,192,16583,1,2,0:0:0:0:
320,192,16716,1,2,0:0:0:0:
64,192,16849,1,8,0:0:0:0:
192,192,16849,1,0,0:0:0:50:Hihat.wav
448,192,16983,1,2,0:0:0:0:
320,192,17249,1,2,0:0:0:0:
64,192,17383,1,8,0:0:0:0:
448,192,17383,1,0,0:0:0:50:Hihat.wav
192,192,17649,1,2,0:0:0:0:
320,192,17783,1,2,0:0:0:0:
192,192,17916,1,8,0:0:0:0:
448,192,17916,1,0,0:0:0:50:Hihat.wav
320,192,18183,1,2,0:0:0:0:
192,192,18316,1,2,0:0:0:0:
64,192,18449,1,8,0:0:0:0:
448,192,18449,1,0,0:0:0:50:Hihat.wav
320,192,18716,1,2,0:0:0:0:
192,192,18849,1,2,0:0:0:0:
320,192,18983,1,8,0:0:0:0:
448,192,18983,1,0,0:0:0:50:Hihat.wav
64,192,19116,1,2,0:0:0:0:
192,192,19383,1,2,0:0:0:0:
64,192,19516,1,8,0:0:0:0:
448,192,19516,1,0,0:0:0:50:Hihat.wav
192,192,19783,1,2,0:0:0:0:
320,192,19783,1,4,0:0:0:0:
64,192,20049,1,8,0:0:0:0:
448,192,20049,1,0,0:0:0:50:Hihat.wav
320,192,20316,1,2,0:0:0:0:
448,192,20449,1,2,0:0:0:0:
64,192,20583,1,8,0:0:0:0:
192,192,20583,1,0,0:0:0:50:Hihat.wav
320,192,20849,1,2,0:0:0:0:
192,192,20983,1,2,0:0:0:0:
64,192,21116,1,8,0:0:0:0:
448,192,21116,1,0,0:0:0:50:Hihat.wav
320,192,21249,1,2,0:0:0:0:
64,192,21516,1,2,0:0:0:0:
192,192,21649,1,8,0:0:0:0:
448,192,21649,1,0,0:0:0:50:Hihat.wav
448,192,21916,1,2,0:0:0:0:
320,192,22049,1,2,0:0:0:0:
64,192,22183,1,8,0:0:0:0:
192,192,22183,1,0,0:0:0:50:Hihat.wav
448,192,22449,1,2,0:0:0:0:
320,192,22583,1,2,0:0:0:0:
64,192,22716,1,8,0:0:0:0:
192,192,22716,1,0,0:0:0:50:Hihat.wav
320,192,22983,1,2,0:0:0:0:
64,192,23116,1,2,0:0:0:0:
192,192,23249,1,8,0:0:0:0:
448,192,23249,1,0,0:0:0:50:Hihat.wav
320,192,23383,1,2,0:0:0:0:
192,192,23649,1,2,0:0:0:0:
64,192,23783,1,8,0:0:0:0:
448,192,23783,1,0,0:0:0:50:Hihat.wav
320,192,23916,1,8,0:0:0:0:
64,192,24049,1,2,0:0:0:0:
192,192,24049,1,4,0:0:0:0:
320,192,24316,1,8,0:0:0:0:
448,192,24316,1,0,0:0:0:50:Hihat.wav
192,192,24583,1,2,0:0:0:0:
448,192,24716,1,2,0:0:0:0:
64,192,24849,1,8,0:0:0:0:
320,192,24849,1,0,0:0:0:50:Hihat.wav
64,192,25116,1,2,0:0:0:0:
192,192,25249,1,2,0:0:0:0:
320,192,25383,1,8,0:0:0:0:
448,192,25383,1,0,0:0:0:50:Hihat.wav
64,192,25516,1,2,0:0:0:0:
320,192,25783,1,2,0:0:0:0:
192,192,25916,1,8,0:0:0:0:
448,192,25916,1,0,0:0:0:50:Hihat.wav
64,192,26183,1,2,0:0:0:0:
448,192,26316,1,2,0:0:0:0:
192,192,26449,1,8,0:0:0:0:
320,192,26449,1,0,0:0:0:50:Hihat.wav
448,192,26716,1,2,0:0:0:0:
320,192,26849,1,2,0:0:0:0:
64,192,26983,1,8,0:0:0:0:
192,192,26983,1,0,0:0:0:50:Hihat.wav
192,192,27249,1,2,0:0:0:0:
320,192,27383,1,2,0:0:0:0:
64,192,27516,1,8,0:0:0:0:
448,192,27516,1,0,0:0:0:50:Hihat.wav
192,192,27649,1,2,0:0:0:0:
448,192,27916,1,2,0:0:0:0:
64,192,28049,1,8,0:0:0:0:
320,192,28049,1,0,0:0:0:50:Hihat.wav
192,192,28316,1,2,0:0:0:0:
448,192,28316,1,4,0:0:0:0:
64,192,28583,1,8,0:0:0:0:
320,192,28583,1,0,0:0:0:50:Hihat.wav
192,192,28849,1,2,0:0:0:0:
320,192,28983,1,2,0:0:0:0:
64,192,29116,1,8,0:0:0:0:
448,192,29116,1,0,0:0:0:50:Hihat.wav
64,192,29383,1,2,0:0:0:0:
320,192,29516,1,2,0:0:0:0:
192,192,29649,1,8,0:0:0:0:
448,192,29649,1,0,0:0:0:50:Hihat.wav
64,192,29783,1,2,0:0:0:0:
448,192,30049,1,2,0:0:0:0:
192,192,30183,1,8,0:0:0:0:
320,192,30183,1,0,0:0:0:50:Hihat.wav
192,192,30449,1,2,0:0:0:0:
448,192,30583,1,2,0:0:0:0:
64,192,30716,1,8,0:0:0:0:
320,192,30716,1,0,0:0:0:50:Hihat.wav
192,192,30983,1,2,0:0:0:0:
320,192,31116,1,2,0:0:0:0:
64,192,31249,1,8,0:0:0:0:
448,192,31249,1,0,0:0:0:50:Hihat.wav
192,192,31516,1,2,0:0:0:0:
448,192,31649,1,2,0:0:0:0:
64,192,31783,1,8,0:0:0:0:
192,192,31783,1,0,0:0:0:50:Hihat.wav
320,192,31916,1,2,0:0:0:0:
64,192,32183,1,2,0:0:0:0:
192,192,32316,1,8,0:0:0:0:
448,192,32316,1,0,0:0:0:50:Hihat.wav
64,192,32583,1,2,0:0:0:0:
320,192,32583,1,4,0:0:0:0:
192,192,32849,1,8,0:0:0:0:
448,192,32849,1,0,0:0:0:50:Hihat.wav
64,192,33116,1,2,0:0:0:0:
192,192,33249,1,2,0:0:0:0:
320,192,33383,1,8,0:0:0:0:
448,192,33383,1,0,0:0:0:50:Hihat.wav
64,192,33649,1,2,0:0:0:0:
192,192,33649,1,4,0:0:0:0:
320,192,33916,1,8,0:0:0:0:
448,192,33916,1,4,0:0:0:0:
192,192,34183,1,8,0:0:0:0:
320,192,34183,1,4,0:0:0:0:
64,192,34449,1,8,0:0:0:0:
192,192,34449,1,4,0:0:0:0:
320,192,34716,1,8,0:0:0:0:
448,192,34716,1,4,0:0:0:0:
64,192,34983,1,8,0:0:0:0:
192,192,34983,1,4,0:0:0:0:
192,192,35249,1,8,0:0:0:0:
320,192,35249,1,4,0:0:0:0:
448,192,35516,1,8,0:0:0:0:
64,192,35783,128,2,36583:0:0:0:0:
192,192,35783,1,0,0:0:0:0:
320,192,36849,1,2,0:0:0:0:
448,192,36849,1,0,0:0:0:0:
64,192,37916,1,2,0:0:0:0:
448,192,37916,1,0,0:0:0:0:
192,192,38983,1,2,0:0:0:0:
448,192,38983,1,0,0:0:0:0:
320,192,39516,1,0,0:0:0:30:Ride.wav
64,192,40049,1,2,0:0:0:0:
192,192,40049,1,0,0:0:0:0:
64,192,41116,1,2,0:0:0:0:
320,192,41116,1,0,0:0:0:0:
192,192,42183,1,2,0:0:0:0:
320,192,42183,1,0,0:0:0:0:
64,192,43249,1,2,0:0:0:0:
448,192,43249,1,4,0:0:0:0:
320,192,43783,128,0,44316:0:0:0:0:
64,192,44316,1,2,0:0:0:0:
448,192,44316,1,4,0:0:0:0:
192,192,44449,1,0,0:0:0:0:
320,192,44583,1,0,0:0:0:0:
64,192,44716,1,0,0:0:0:0:
192,192,44849,1,8,0:0:0:0:
448,192,44849,1,0,0:0:0:0:
320,192,45116,1,0,0:0:0:0:
64,192,45383,1,2,0:0:0:0:
64,192,45649,1,2,0:0:0:0:
192,192,45916,1,8,0:0:0:0:
448,192,45916,1,0,0:0:0:0:
320,192,46183,1,0,0:0:0:0:
64,192,46449,1,2,0:0:0:0:
448,192,46583,1,0,0:0:0:0:
320,192,46716,1,0,0:0:0:0:
192,192,46849,1,0,0:0:0:0:
64,192,46983,1,8,0:0:0:0:
448,192,46983,1,0,0:0:0:0:
320,192,47249,1,0,0:0:0:0:
192,192,47516,1,2,0:0:0:0:
192,192,47783,1,2,0:0:0:0:
64,192,48049,1,8,0:0:0:0:
448,192,48049,1,0,0:0:0:0:
320,192,48316,1,0,0:0:0:0:
192,192,48583,1,2,0:0:0:0:
448,192,48716,1,0,0:0:0:0:
64,192,48849,1,0,0:0:0:0:
320,192,48983,1,0,0:0:0:0:
64,192,49116,1,8,0:0:0:0:
192,192,49116,1,0,0:0:0:0:
448,192,49383,1,0,0:0:0:0:
320,192,49649,1,2,0:0:0:0:
320,192,49916,1,2,0:0:0:0:
64,192,50183,1,8,0:0:0:0:
192,192,50183,1,0,0:0:0:0:
320,192,50449,1,0,0:0:0:0:
192,192,50716,1,2,0:0:0:0:
448,192,50849,1,0,0:0:0:0:
64,192,50983,1,0,0:0:0:0:
192,192,51116,1,0,0:0:0:0:
320,192,51249,1,8,0:0:0:0:
448,192,51249,1,0,0:0:0:0:
64,192,51516,1,0,0:0:0:0:
192,192,51783,1,2,0:0:0:0:
192,192,52049,1,2,0:0:0:0:
320,192,52316,1,8,0:0:0:0:
448,192,52316,1,0,0:0:0:0:
192,192,52583,1,0,0:0:0:0:
64,192,52849,1,2,0:0:0:0:
448,192,52849,1,4,0:0:0:0:
320,192,52983,1,0,0:0:0:0:
192,192,53116,1,0,0:0:0:0:
448,192,53249,1,0,0:0:0:0:
64,192,53383,1,8,0:0:0:0:
320,192,53383,1,0,0:0:0:0:
192,192,53649,1,0,0:0:0:0:
448,192,53916,1,2,0:0:0:0:
448,192,54183,1,2,0:0:0:0:
64,192,54449,1,8,0:0:0:0:
320,192,54449,1,0,0:0:0:0:
192,192,54716,1,0,0:0:0:0:
448,192,54849,1,0,0:0:0:0:
64,192,54983,1,2,0:0:0:0:
320,192,55116,1,0,0:0:0:0:
64,192,55249,1,2,0:0:0:0:
192,192,55383,1,0,0:0:0:0:
320,192,55516,1,8,0:0:0:0:
448,192,55516,1,0,0:0:0:0:
192,192,55783,1,0,0:0:0:0:
64,192,56049,1,2,0:0:0:0:
64,192,56316,1,2,0:0:0:0:
320,192,56583,1,8,0:0:0:0:
448,192,56583,1,0,0:0:0:0:
192,192,56849,1,0,0:0:0:0:
320,192,56983,1,0,0:0:0:0:
448,192,57116,1,2,0:0:0:0:
64,192,57249,1,0,0:0:0:0:
320,192,57383,1,0,0:0:0:0:
192,192,57516,1,0,0:0:0:0:
64,192,57649,1,8,0:0:0:0:
448,192,57649,1,0,0:0:0:0:
320,192,57783,1,0,0:0:0:0:
192,192,57916,1,0,0:0:0:0:
320,192,58183,1,2,0:0:0:0:
320,192,58449,1,2,0:0:0:0:
64,192,58716,1,8,0:0:0:0:
448,192,58716,1,0,0:0:0:0:
320,192,58983,1,0,0:0:0:0:
192,192,59116,1,0,0:0:0:0:
448,192,59249,1,2,0:0:0:0:
64,192,59383,1,0,0:0:0:0:
192,192,59516,1,0,0:0:0:0:
320,192,59649,1,0,0:0:0:0:
64,192,59783,1,8,0:0:0:0:
448,192,59783,1,0,0:0:0:0:
192,192,60049,1,0,0:0:0:0:
320,192,60316,1,2,0:0:0:0:
320,192,60583,1,2,0:0:0:0:
64,192,60849,1,8,0:0:0:0:
448,192,60849,1,0,0:0:0:50:Hihat.wav
64,192,61116,1,8,0:0:0:0:
192,192,61249,1,8,0:0:0:0:
320,192,61383,1,2,0:0:0:0:
448,192,61383,1,4,0:0:0:0:
64,192,61649,1,8,0:0:0:0:
320,192,61783,1,2,0:0:0:0:
192,192,61916,1,8,0:0:0:0:
448,192,62049,1,2,0:0:0:0:
192,192,62183,1,8,0:0:0:0:
320,192,62316,1,2,0:0:0:0:
64,192,62449,1,2,0:0:0:0:
448,192,62449,1,4,0:0:0:0:
192,192,62716,1,8,0:0:0:0:
320,192,62849,1,2,0:0:0:0:
448,192,62983,1,8,0:0:0:0:
192,192,63116,1,2,0:0:0:0:
64,192,63249,1,8,0:0:0:0:
448,192,63383,1,2,0:0:0:0:
192,192,63516,1,2,0:0:0:0:
320,192,63516,1,4,0:0:0:0:
64,192,63783,1,8,0:0:0:0:
320,192,63916,1,2,0:0:0:0:
448,192,64049,1,8,0:0:0:0:
192,192,64183,1,2,0:0:0:0:
448,192,64316,1,8,0:0:0:0:
320,192,64449,1,2,0:0:0:0:
64,192,64583,1,2,0:0:0:0:
192,192,64583,1,4,0:0:0:0:
448,192,64849,1,8,0:0:0:0:
64,192,64983,1,2,0:0:0:0:
192,192,65116,1,8,0:0:0:0:
320,192,65249,1,2,0:0:0:0:
448,192,65383,1,8,0:0:0:0:
192,192,65516,1,2,0:0:0:0:
64,192,65649,1,2,0:0:0:0:
320,192,65649,1,4,0:0:0:0:
192,192,65916,1,8,0:0:0:0:
448,192,66049,1,2,0:0:0:0:
320,192,66183,1,8,0:0:0:0:
64,192,66316,1,2,0:0:0:0:
192,192,66449,1,8,0:0:0:0:
320,192,66583,1,2,0:0:0:0:
64,192,66716,1,2,0:0:0:0:
448,192,66716,1,4,0:0:0:0:
320,192,66983,1,8,0:0:0:0:
64,192,67116,1,2,0:0:0:0:
448,192,67249,1,8,0:0:0:0:
192,192,67383,1,2,0:0:0:0:
320,192,67516,1,8,0:0:0:0:
64,192,67649,1,2,0:0:0:0:
192,192,67783,1,2,0:0:0:0:
448,192,67783,1,4,0:0:0:0:
320,192,68049,1,8,0:0:0:0:
192,192,68183,1,2,0:0:0:0:
448,192,68316,1,8,0:0:0:0:
320,192,68449,1,2,0:0:0:0:
64,192,68583,1,8,0:0:0:0:
192,192,68716,1,8,0:0:0:0:
320,192,68849,1,4,0:0:0:0:
448,192,68849,1,8,0:0:0:0:
64,192,69116,1,4,0:0:0:0:
192,192,69116,1,8,0:0:0:0:
320,192,69383,1,8,0:0:0:0:
448,192,69383,1,4,0:0:0:0:
64,192,69916,1,4,0:0:0:0:
448,192,69916,1,2,0:0:0:0:
192,192,70183,1,8,0:0:0:0:
320,192,70183,1,0,0:0:0:50:Hihat.wav
448,192,70449,1,2,0:0:0:0:
320,192,70583,1,2,0:0:0:0:
64,192,70716,1,8,0:0:0:0:
192,192,70716,1,0,0:0:0:50:Hihat.wav
64,192,70983,1,2,0:0:0:0:
192,192,71116,1,2,0:0:0:0:
320,192,71249,1,8,0:0:0:0:
448,192,71249,1,0,0:0:0:50:Hihat.wav
64,192,71383,1,2,0:0:0:0:
192,192,71649,1,2,0:0:0:0:
64,192,71783,1,8,0:0:0:0:
448,192,71783,1,0,0:0:0:50:Hihat.wav
320,192,72049,1,2,0:0:0:0:
192,192,72183,1,2,0:0:0:0:
64,192,72316,1,8,0:0:0:0:
320,192,72316,1,0,0:0:0:50:Hihat.wav
192,192,72583,1,2,0:0:0:0:
320,192,72716,1,2,0:0:0:0:
64,192,72849,1,8,0:0:0:0:
448,192,72849,1,0,0:0:0:50:Hihat.wav
192,192,73116,1,2,0:0:0:0:
320,192,73249,1,2,0:0:0:0:
64,192,73383,1,8,0:0:0:0:
192,192,73383,1,0,0:0:0:50:Hihat.wav
448,192,73516,1,2,0:0:0:0:
320,192,73783,1,2,0:0:0:0:
64,192,73916,1,8,0:0:0:0:
448,192,73916,1,0,0:0:0:50:Hihat.wav
192,192,74183,1,4,0:0:0:0:
320,192,74183,1,2,0:0:0:0:
64,192,74449,1,8,0:0:0:0:
448,192,74449,1,0,0:0:0:50:Hihat.wav
192,192,74716,1,2,0:0:0:0:
64,192,74849,1,2,0:0:0:0:
320,192,74983,1,8,0:0:0:0:
448,192,74983,1,0,0:0:0:50:Hihat.wav
192,192,75249,1,2,0:0:0:0:
320,192,75383,1,2,0:0:0:0:
64,192,75516,1,8,0:0:0:0:
448,192,75516,1,0,0:0:0:50:Hihat.wav
192,192,75649,1,2,0:0:0:0:
448,192,75916,1,2,0:0:0:0:
64,192,76049,1,8,0:0:0:0:
320,192,76049,1,0,0:0:0:50:Hihat.wav
192,192,76316,1,2,0:0:0:0:
320,192,76449,1,2,0:0:0:0:
64,192,76583,1,8,0:0:0:0:
448,192,76583,1,0,0:0:0:50:Hihat.wav
192,192,76849,1,2,0:0:0:0:
320,192,76983,1,2,0:0:0:0:
64,192,77116,1,8,0:0:0:0:
448,192,77116,1,0,0:0:0:50:Hihat.wav
192,192,77383,1,2,0:0:0:0:
448,192,77516,1,2,0:0:0:0:
64,192,77649,1,8,0:0:0:0:
320,192,77649,1,0,0:0:0:50:Hihat.wav
192,192,77783,1,2,0:0:0:0:
320,192,78049,1,2,0:0:0:0:
64,192,78183,1,8,0:0:0:0:
448,192,78183,1,0,0:0:0:50:Hihat.wav
192,192,78316,1,8,0:0:0:0:
320,192,78449,1,4,0:0:0:0:
448,192,78449,1,2,0:0:0:0:
64,192,78716,1,8,0:0:0:0:
192,192,78716,1,0,0:0:0:50:Hihat.wav
320,192,78983,1,2,0:0:0:0:
64,192,79116,1,2,0:0:0:0:
192,192,79249,1,8,0:0:0:0:
448,192,79249,1,0,0:0:0:50:Hihat.wav
448,192,79516,1,2,0:0:0:0:
320,192,79649,1,2,0:0:0:0:
64,192,79783,1,8,0:0:0:0:
192,192,79783,1,0,0:0:0:50:Hihat.wav
448,192,79916,1,2,0:0:0:0:
192,192,80183,1,2,0:0:0:0:
64,192,80316,1,8,0:0:0:0:
320,192,80316,1,0,0:0:0:50:Hihat.wav
448,192,80583,1,2,0:0:0:0:
64,192,80716,1,2,0:0:0:0:
192,192,80849,1,8,0:0:0:0:
320,192,80849,1,0,0:0:0:50:Hihat.wav
64,192,81116,1,2,0:0:0:0:
192,192,81249,1,2,0:0:0:0:
320,192,81383,1,8,0:0:0:0:
448,192,81383,1,0,0:0:0:50:Hihat.wav
64,192,81649,1,2,0:0:0:0:
448,192,81783,1,2,0:0:0:0:
64,192,81916,1,8,0:0:0:0:
192,192,81916,1,0,0:0:0:50:Hihat.wav
320,192,82049,1,2,0:0:0:0:
64,192,82316,1,2,0:0:0:0:
192,192,82449,1,8,0:0:0:0:
448,192,82449,1,0,0:0:0:50:Hihat.wav
64,192,82716,1,4,0:0:0:0:
320,192,82716,1,2,0:0:0:0:
192,192,82983,1,8,0:0:0:0:
448,192,82983,1,0,0:0:0:50:Hihat.wav
320,192,83249,1,2,0:0:0:0:
192,192,83383,1,2,0:0:0:0:
64,192,83516,1,8,0:0:0:0:
448,192,83516,1,0,0:0:0:50:Hihat.wav
320,192,83783,1,2,0:0:0:0:
192,192,83916,1,2,0:0:0:0:
64,192,84049,1,8,0:0:0:0:
320,192,84049,1,0,0:0:0:50:Hihat.wav
448,192,84183,1,2,0:0:0:0:
64,192,84449,1,2,0:0:0:0:
192,192,84583,1,8,0:0:0:0:
448,192,84583,1,0,0:0:0:50:Hihat.wav
320,192,84849,1,2,0:0:0:0:
192,192,84983,1,2,0:0:0:0:
64,192,85116,1,8,0:0:0:0:
448,192,85116,1,0,0:0:0:50:Hihat.wav
192,192,85383,1,2,0:0:0:0:
320,192,85516,1,2,0:0:0:0:
64,192,85649,1,8,0:0:0:0:
448,192,85649,1,0,0:0:0:50:Hihat.wav
320,192,85916,1,2,0:0:0:0:
64,192,86049,1,2,0:0:0:0:
320,192,86183,1,8,0:0:0:0:
448,192,86183,1,0,0:0:0:50:Hihat.wav
192,192,86316,1,2,0:0:0:0:
448,192,86583,1,2,0:0:0:0:
64,192,86716,1,8,0:0:0:0:
320,192,86716,1,0,0:0:0:50:Hihat.wav
192,192,86983,1,4,0:0:0:0:
448,192,86983,1,2,0:0:0:0:
64,192,87249,1,8,0:0:0:0:
320,192,87249,1,0,0:0:0:50:Hihat.wav
448,192,87516,1,2,0:0:0:0:
320,192,87649,1,2,0:0:0:0:
64,192,87783,1,8,0:0:0:0:
192,192,87783,1,0,0:0:0:50:Hihat.wav
320,192,88049,1,4,0:0:0:0:
448,192,88049,1,2,0:0:0:0:
192,192,88316,1,8,0:0:0:0:
448,192,88316,1,4,0:0:0:0:
64,192,88583,1,4,0:0:0:0:
320,192,88583,1,8,0:0:0:0:
64,192,88849,1,4,0:0:0:0:
192,192,88849,1,8,0:0:0:0:
320,192,89116,1,4,0:0:0:0:
448,192,89116,1,8,0:0:0:0:
64,192,89383,1,4,0:0:0:0:
192,192,89383,1,8,0:0:0:0:
320,192,89649,1,4,0:0:0:0:
448,192,89649,1,8,0:0:0:0:
192,192,89916,1,8,0:0:0:0:
64,192,90183,1,2,0:0:0:0:
448,192,90183,128,0,90983:0:0:0:0:
64,192,91249,1,2,0:0:0:0:
192,192,91249,1,0,0:0:0:0:
192,192,92316,1,2,0:0:0:0:
448,192,92316,1,0,0:0:0:0:
64,192,93383,1,2,0:0:0:0:
320,192,93383,1,0,0:0:0:0:
448,192,93916,1,0,0:0:0:30:Ride.wav
64,192,94449,1,2,0:0:0:0:
192,192,94449,1,0,0:0:0:0:
320,192,95516,1,2,0:0:0:0:
448,192,95516,1,0,0:0:0:0:
192,192,96583,1,2,0:0:0:0:
320,192,96583,1,0,0:0:0:0:
64,192,97649,1,2,0:0:0:0:
448,192,97649,1,4,0:0:0:0:
320,192,98183,128,0,98516:0:0:0:0:
192,192,98316,128,0,98516:0:0:0:0:
64,192,98716,1,2,0:0:0:0:
448,192,98716,128,4,98983:0:0:0:0:
192,192,98983,128,8,99249:0:0:0:0:
320,192,98983,1,0,0:0:0:50:Hihat.wav
320,192,99249,128,2,99516:0:0:0:0:
64,192,99516,128,8,99783:0:0:0:0:
192,192,99516,1,0,0:0:0:50:Hihat.wav
448,192,99783,128,2,100049:0:0:0:0:
192,192,100049,128,8,100316:0:0:0:0:
320,192,100049,1,0,0:0:0:50:Hihat.wav
64,192,100316,128,0,100583:0:0:0:50:Hihat.wav
320,192,100583,1,8,0:0:0:0:
448,192,100583,128,0,100849:0:0:0:50:Hihat.wav
192,192,100849,1,2,0:0:0:0:
448,192,100983,1,2,0:0:0:0:
64,192,101116,1,8,0:0:0:0:
192,192,101116,1,0,0:0:0:50:Hihat.wav
448,192,101249,128,0,101516:0:0:0:0:
64,192,101516,1,2,0:0:0:0:
192,192,101649,1,8,0:0:0:0:
320,192,101649,1,0,0:0:0:50:Hihat.wav
448,192,101783,1,0,0:0:0:0:
64,192,101916,1,2,0:0:0:0:
192,192,102049,1,2,0:0:0:0:
320,192,102183,1,8,0:0:0:0:
448,192,102183,1,0,0:0:0:50:Hihat.wav
192,192,102316,128,2,102583:0:0:0:0:
320,192,102583,1,2,0:0:0:0:
64,192,102716,1,8,0:0:0:0:
448,192,102716,1,0,0:0:0:50:Hihat.wav
192,192,102983,128,2,103249:0:0:0:0:
320,192,102983,1,4,0:0:0:0:
64,192,103249,128,8,103516:0:0:0:0:
448,192,103249,1,0,0:0:0:50:Hihat.wav
320,192,103516,128,2,103783:0:0:0:0:
64,192,103783,1,8,0:0:0:0:
448,192,103783,128,0,104049:0:0:0:50:Hihat.wav
192,192,104049,128,2,104316:0:0:0:0:
320,192,104316,128,8,104583:0:0:0:0:
448,192,104316,1,0,0:0:0:50:Hihat.wav
64,192,104583,128,0,104849:0:0:0:50:Hihat.wav
320,192,104849,1,8,0:0:0:0:
448,192,104849,128,0,105116:0:0:0:50:Hihat.wav
192,192,105116,128,2,105383:0:0:0:0:
320,192,105383,1,8,0:0:0:0:
448,192,105383,1,0,0:0:0:50:Hihat.wav
64,192,105516,1,0,0:0:0:0:
192,192,105649,1,2,0:0:0:0:
320,192,105783,1,2,0:0:0:0:
64,192,105916,1,8,0:0:0:0:
448,192,105916,1,0,0:0:0:50:Hihat.wav
192,192,106049,1,0,0:0:0:0:
448,192,106183,1,2,0:0:0:0:
64,192,106316,1,2,0:0:0:0:
320,192,106449,1,8,0:0:0:0:
448,192,106449,1,0,0:0:0:50:Hihat.wav
192,192,106583,128,2,106849:0:0:0:0:
64,192,106849,1,2,0:0:0:0:
448,192,106983,1,8,0:0:0:0:
320,192,107116,1,8,0:0:0:0:
64,192,107249,1,2,0:0:0:0:
192,192,107249,1,4,0:0:0:0:
448,192,107383,1,0,0:0:0:0:
64,192,107516,1,8,0:0:0:0:
192,192,107516,1,0,0:0:0:50:Hihat.wav
448,192,107649,1,0,0:0:0:0:
64,192,107783,1,2,0:0:0:0:
192,192,107916,1,2,0:0:0:0:
320,192,108049,1,8,0:0:0:0:
448,192,108049,1,0,0:0:0:50:Hihat.wav
64,192,108183,128,0,108449:0:0:0:0:
320,192,108449,1,2,0:0:0:0:
192,192,108583,1,8,0:0:0:0:
448,192,108583,1,0,0:0:0:50:Hihat.wav
64,192,108716,1,2,0:0:0:0:
320,192,108849,128,0,109116:0:0:0:50:Hihat.wav
64,192,109116,1,8,0:0:0:0:
192,192,109116,1,0,0:0:0:50:Hihat.wav
448,192,109383,128,2,109649:0:0:0:0:
64,192,109649,128,8,109916:0:0:0:0:
192,192,109649,1,0,0:0:0:50:Hihat.wav
320,192,109916,128,2,110183:0:0:0:0:
64,192,110183,1,8,0:0:0:0:
448,192,110183,1,0,0:0:0:50:Hihat.wav
192,192,110316,128,0,110583:0:0:0:0:
448,192,110583,1,2,0:0:0:0:
64,192,110716,1,8,0:0:0:0:
192,192,110716,1,0,0:0:0:50:Hihat.wav
320,192,110849,128,2,111116:0:0:0:0:
192,192,111116,1,2,0:0:0:0:
64,192,111249,1,8,0:0:0:0:
448,192,111249,1,0,0:0:0:50:Hihat.wav
192,192,111516,1,2,0:0:0:0:
448,192,111516,128,4,111783:0:0:0:0:
64,192,111783,1,8,0:0:0:0:
320,192,111783,128,0,112049:0:0:0:50:Hihat.wav
192,192,112049,128,2,112316:0:0:0:0:
64,192,112316,128,8,112583:0:0:0:0:
448,192,112316,1,0,0:0:0:50:Hihat.wav
448,192,112583,1,2,0:0:0:0:
320,192,112716,1,2,0:0:0:0:
64,192,112849,1,8,0:0:0:0:
192,192,112849,1,0,0:0:0:50:Hihat.wav
448,192,112983,128,2,113383:0:0:0:0:
64,192,113249,1,2,0:0:0:0:
192,192,113383,1,8,0:0:0:0:
320,192,113383,1,0,0:0:0:50:Hihat.wav
64,192,113649,128,2,113916:0:0:0:0:
192,192,113916,128,8,114183:0:0:0:0:
320,192,113916,1,0,0:0:0:50:Hihat.wav
448,192,114183,128,2,114449:0:0:0:0:
64,192,114449,1,8,0:0:0:0:
192,192,114449,1,0,0:0:0:50:Hihat.wav
320,192,114583,128,0,114849:0:0:0:0:
192,192,114849,1,2,0:0:0:0:
320,192,114983,1,8,0:0:0:0:
448,192,114983,1,0,0:0:0:50:Hihat.wav
64,192,115116,128,2,115383:0:0:0:0:
448,192,115383,1,2,0:0:0:0:
192,192,115516,1,8,0:0:0:0:
320,192,115516,1,0,0:0:0:50:Hihat.wav
64,192,115783,1,2,0:0:0:0:
448,192,115783,1,4,0:0:0:0:
192,192,115916,1,0,0:0:0:0:
320,192,116049,1,8,0:0:0:0:
448,192,116049,1,0,0:0:0:50:Hihat.wav
192,192,116183,1,0,0:0:0:0:
64,192,116316,128,2,116583:0:0:0:0:
320,192,116583,1,8,0:0:0:0:
448,192,116583,128,0,116849:0:0:0:50:Hihat.wav
64,192,116849,1,2,0:0:0:0:
192,192,116849,1,4,0:0:0:0:
64,192,117116,1,8,0:0:0:0:
320,192,117116,1,4,0:0:0:0:
192,192,117383,1,4,0:0:0:0:
448,192,117383,1,0,0:0:0:0:
320,192,117649,1,8,0:0:0:0:
448,192,117649,1,4,0:0:0:0:
64,192,117916,1,8,0:0:0:0:
192,192,117916,1,4,0:0:0:0:
192,192,118183,1,8,0:0:0:0:
320,192,118183,1,4,0:0:0:0:
64,192,118449,1,8,0:0:0:0:
448,192,118449,1,4,0:0:0:0:
192,192,118716,1,0,0:0:0:0:
320,192,118983,1,2,0:0:0:0:
448,192,118983,1,0,0:0:0:0:
64,192,119249,1,8,0:0:0:0:
320,192,119516,1,2,0:0:0:0:
192,192,119649,1,2,0:0:0:0:
448,192,119783,1,8,0:0:0:0:
64,192,119916,1,8,0:0:0:0:
320,192,120049,128,2,120583:0:0:0:0:
192,192,120583,128,0,121116:0:0:0:0:
64,192,121116,1,2,0:0:0:0:
448,192,121116,1,4,0:0:0:0:
192,192,121383,1,8,0:0:0:0:
64,192,121516,1,2,0:0:0:0:
320,192,121649,1,8,0:0:0:0:
448,192,121783,1,2,0:0:0:0:
192,192,121916,1,8,0:0:0:0:
320,192,122049,1,2,0:0:0:0:
64,192,122183,1,2,0:0:0:0:
448,192,122183,1,4,0:0:0:0:
192,192,122449,1,8,0:0:0:0:
448,192,122583,1,2,0:0:0:0:
192,192,122716,1,8,0:0:0:0:
320,192,122849,1,2,0:0:0:0:
64,192,122983,1,8,0:0:0:0:
320,192,123116,1,2,0:0:0:0:
192,192,123249,1,2,0:0:0:0:
448,192,123249,1,4,0:0:0:0:
64,192,123516,1,8,0:0:0:0:
192,192,123649,1,2,0:0:0:0:
448,192,123783,1,8,0:0:0:0:
320,192,123916,1,2,0:0:0:0:
64,192,124049,1,8,0:0:0:0:
448,192,124183,1,2,0:0:0:0:
64,192,124316,1,2,0:0:0:0:
192,192,124316,1,4,0:0:0:0:
320,192,124583,1,8,0:0:0:0:
192,192,124716,1,2,0:0:0:0:
448,192,124849,1,8,0:0:0:0:
64,192,124983,1,2,0:0:0:0:
192,192,125116,1,8,0:0:0:0:
320,192,125249,1,2,0:0:0:0:
64,192,125383,1,2,0:0:0:0:
448,192,125383,1,4,0:0:0:0:
320,192,125649,1,8,0:0:0:0:
192,192,125783,1,2,0:0:0:0:
448,192,125916,1,8,0:0:0:0:
64,192,126049,1,2,0:0:0:0:
192,192,126183,1,8,0:0:0:0:
448,192,126316,1,2,0:0:0:0:
64,192,126449,1,2,0:0:0:0:
320,192,126449,1,4,0:0:0:0:
448,192,126716,1,8,0:0:0:0:
320,192,126849,1,2,0:0:0:0:
192,192,126983,1,8,0:0:0:0:
448,192,127116,1,2,0:0:0:0:
64,192,127249,1,8,0:0:0:0:
320,192,127383,1,2,0:0:0:0:
192,192,127516,1,2,0:0:0:0:
448,192,127516,1,4,0:0:0:0:
320,192,127783,1,8,0:0:0:0:
448,192,127916,1,2,0:0:0:0:
192,192,128049,1,8,0:0:0:0:
320,192,128183,1,2,0:0:0:0:
64,192,128316,1,8,0:0:0:0:
192,192,128449,1,8,0:0:0:0:
320,192,128583,1,4,0:0:0:0:
448,192,128583,1,8,0:0:0:0:
64,192,128849,128,4,129649:0:0:0:0:
192,192,128849,128,8,129649:0:0:0:0:
448,192,129649,128,0,131249:0:0:0:0:
64,192,131249,1,8,0:0:0:0:
192,192,131249,1,2,0:0:0:0:
320,192,131783,1,0,0:0:0:0:
64,192,132049,1,0,0:0:0:20:Clap.wav
448,192,132316,1,0,0:0:0:0:
192,192,132583,1,0,0:0:0:20:Clap.wav
64,192,132849,1,0,0:0:0:0:
448,192,133116,1,0,0:0:0:20:Clap.wav
192,192,133383,1,0,0:0:0:0:
320,192,133649,1,0,0:0:0:20:Clap.wav
448,192,133916,1,0,0:0:0:0:
192,192,134183,1,0,0:0:0:20:Clap.wav
320,192,134449,1,0,0:0:0:0:
64,192,134716,1,0,0:0:0:20:Clap.wav
320,192,134983,1,0,0:0:0:0:
448,192,135249,1,0,0:0:0:20:Clap.wav
192,192,135516,1,0,0:0:0:0:
64,192,135783,1,0,0:0:0:20:Clap.wav
320,192,136049,1,0,0:0:0:0:
192,192,136316,1,0,0:0:0:20:Clap.wav
448,192,136583,1,0,0:0:0:0:
320,192,136849,1,0,0:0:0:20:Clap.wav
64,192,137116,1,0,0:0:0:0:
320,192,137383,1,0,0:0:0:20:Clap.wav
192,192,137649,1,0,0:0:0:0:
320,192,137916,1,0,0:0:0:20:Clap.wav
448,192,138183,1,0,0:0:0:0:
192,192,138449,1,0,0:0:0:20:Clap.wav
448,192,138716,1,0,0:0:0:0:
64,192,138983,1,0,0:0:0:20:Clap.wav
320,192,139249,1,0,0:0:0:0:
192,192,139516,1,0,0:0:0:20:Clap.wav
448,192,139783,1,0,0:0:0:0:
64,192,140049,1,0,0:0:0:20:Clap.wav
448,192,140316,1,0,0:0:0:0:
192,192,140449,1,0,0:0:0:0:
320,192,140583,1,0,0:0:0:20:Clap.wav
64,192,140849,1,0,0:0:0:0:
448,192,140983,1,0,0:0:0:0:
192,192,141116,1,0,0:0:0:20:Clap.wav
320,192,141383,128,0,141649:0:0:0:0:
64,192,141649,128,0,141916:0:0:0:20:Clap.wav
448,192,141916,128,0,142183:0:0:0:0:
192,192,142183,128,0,142449:0:0:0:20:Clap.wav
320,192,142449,1,0,0:0:0:0:
64,192,142583,1,0,0:0:0:0:
448,192,142716,1,0,0:0:0:20:Clap.wav
192,192,142849,1,0,0:0:0:0:
320,192,142983,1,0,0:0:0:0:
64,192,143116,1,0,0:0:0:0:
192,192,143249,1,0,0:0:0:20:Clap.wav
320,192,143383,1,0,0:0:0:0:
448,192,143516,128,0,143783:0:0:0:0:
64,192,143783,128,0,144049:0:0:0:20:Clap.wav
320,192,144049,128,0,144316:0:0:0:0:
192,192,144316,128,0,144583:0:0:0:20:Clap.wav
448,192,144583,1,0,0:0:0:0:
64,192,144716,1,0,0:0:0:0:
320,192,144849,1,0,0:0:0:20:Clap.wav
192,192,144983,1,0,0:0:0:0:
64,192,145116,1,0,0:0:0:0:
320,192,145249,1,0,0:0:0:0:
192,192,145383,1,0,0:0:0:20:Clap.wav
448,192,145516,1,0,0:0:0:0:
320,192,145649,128,0,146183:0:0:0:0:
64,192,147249,128,0,147783:0:0:0:0:
320,192,147783,1,4,0:0:0:0:
448,192,147783,1,2,0:0:0:0:
64,192,148049,1,8,0:0:0:0:
192,192,148049,1,0,0:0:0:50:Hihat.wav
320,192,148316,1,2,0:0:0:0:
192,192,148449,1,2,0:0:0:0:
64,192,148583,1,8,0:0:0:0:
448,192,148583,1,0,0:0:0:50:Hihat.wav
192,192,148849,1,2,0:0:0:0:
448,192,148983,1,2,0:0:0:0:
64,192,149116,1,8,0:0:0:0:
320,192,149116,1,0,0:0:0:50:Hihat.wav
192,192,149249,1,2,0:0:0:0:
320,192,149516,1,2,0:0:0:0:
64,192,149649,1,8,0:0:0:0:
448,192,149649,1,0,0:0:0:50:Hihat.wav
320,192,149916,1,2,0:0:0:0:
64,192,150049,1,2,0:0:0:0:
192,192,150183,1,8,0:0:0:0:
448,192,150183,1,0,0:0:0:50:Hihat.wav
192,192,150449,1,2,0:0:0:0:
320,192,150583,1,2,0:0:0:0:
64,192,150716,1,8,0:0:0:0:
448,192,150716,1,0,0:0:0:50:Hihat.wav
320,192,150983,1,2,0:0:0:0:
192,192,151116,1,2,0:0:0:0:
64,192,151249,1,8,0:0:0:0:
320,192,151249,1,0,0:0:0:50:Hihat.wav
448,192,151383,1,2,0:0:0:0:
64,192,151649,1,2,0:0:0:0:
320,192,151783,1,8,0:0:0:0:
448,192,151783,1,0,0:0:0:50:Hihat.wav
64,192,152049,1,4,0:0:0:0:
192,192,152049,1,2,0:0:0:0:
64,192,152316,1,8,0:0:0:0:
448,192,152316,1,0,0:0:0:50:Hihat.wav
320,192,152583,1,2,0:0:0:0:
64,192,152716,1,2,0:0:0:0:
192,192,152849,1,8,0:0:0:0:
448,192,152849,1,0,0:0:0:50:Hihat.wav
320,192,153116,1,2,0:0:0:0:
192,192,153249,1,2,0:0:0:0:
64,192,153383,1,8,0:0:0:0:
448,192,153383,1,0,0:0:0:50:Hihat.wav
320,192,153516,1,2,0:0:0:0:
448,192,153783,1,2,0:0:0:0:
64,192,153916,1,8,0:0:0:0:
192,192,153916,1,0,0:0:0:50:Hihat.wav
320,192,154183,1,2,0:0:0:0:
192,192,154316,1,2,0:0:0:0:
64,192,154449,1,8,0:0:0:0:
448,192,154449,1,0,0:0:0:50:Hihat.wav
320,192,154716,1,2,0:0:0:0:
192,192,154849,1,2,0:0:0:0:
64,192,154983,1,8,0:0:0:0:
448,192,154983,1,0,0:0:0:50:Hihat.wav
320,192,155249,1,2,0:0:0:0:
64,192,155383,1,2,0:0:0:0:
320,192,155516,1,8,0:0:0:0:
448,192,155516,1,0,0:0:0:50:Hihat.wav
192,192,155649,1,2,0:0:0:0:
448,192,155916,1,2,0:0:0:0:
64,192,156049,1,8,0:0:0:0:
192,192,156049,1,0,0:0:0:50:Hihat.wav
320,192,156183,1,8,0:0:0:0:
64,192,156316,1,4,0:0:0:0:
448,192,156316,1,2,0:0:0:0:
192,192,156583,1,8,0:0:0:0:
320,192,156583,1,0,0:0:0:50:Hihat.wav
448,192,156849,1,2,0:0:0:0:
192,192,156983,1,2,0:0:0:0:
64,192,157116,1,8,0:0:0:0:
320,192,157116,1,0,0:0:0:50:Hihat.wav
64,192,157383,1,2,0:0:0:0:
192,192,157516,1,2,0:0:0:0:
320,192,157649,1,8,0:0:0:0:
448,192,157649,1,0,0:0:0:50:Hihat.wav
64,192,157783,1,2,0:0:0:0:
448,192,158049,1,2,0:0:0:0:
192,192,158183,1,8,0:0:0:0:
320,192,158183,1,0,0:0:0:50:Hihat.wav
64,192,158449,1,2,0:0:0:0:
320,192,158583,1,2,0:0:0:0:
192,192,158716,1,8,0:0:0:0:
448,192,158716,1,0,0:0:0:50:Hihat.wav
320,192,158983,1,2,0:0:0:0:
192,192,159116,1,2,0:0:0:0:
64,192,159249,1,8,0:0:0:0:
448,192,159249,1,0,0:0:0:50:Hihat.wav
320,192,159516,1,2,0:0:0:0:
64,192,159649,1,2,0:0:0:0:
320,192,159783,1,8,0:0:0:0:
448,192,159783,1,0,0:0:0:50:Hihat.wav
192,192,159916,1,2,0:0:0:0:
320,192,160183,1,2,0:0:0:0:
64,192,160316,1,8,0:0:0:0:
448,192,160316,1,0,0:0:0:50:Hihat.wav
192,192,160583,1,4,0:0:0:0:
320,192,160583,1,2,0:0:0:0:
64,192,160849,1,8,0:0:0:0:
448,192,160849,1,0,0:0:0:50:Hihat.wav
192,192,161116,1,2,0:0:0:0:
448,192,161249,1,2,0:0:0:0:
64,192,161383,1,8,0:0:0:0:
320,192,161383,1,0,0:0:0:50:Hihat.wav
320,192,161649,1,2,0:0:0:0:
448,192,161649,1,4,0:0:0:0:
64,192,161916,1,8,0:0:0:0:
192,192,161916,1,0,0:0:0:50:Hihat.wav
192,192,162183,1,8,0:0:0:0:
320,192,162183,1,0,0:0:0:50:Hihat.wav
320,192,162449,1,8,0:0:0:0:
448,192,162449,128,0,162716:0:0:0:50:Hihat.wav
64,192,162716,1,2,0:0:0:0:
192,192,162716,1,4,0:0:0:0:
64,192,162983,1,8,0:0:0:0:
448,192,162983,1,0,0:0:0:50:Hihat.wav
320,192,163249,1,2,0:0:0:0:
64,192,163383,1,2,0:0:0:0:
192,192,163516,1,8,0:0:0:0:
448,192,163516,1,0,0:0:0:50:Hihat.wav
64,192,163783,1,2,0:0:0:0:
448,192,163916,1,2,0:0:0:0:
192,192,164049,1,8,0:0:0:0:
320,192,164049,1,0,0:0:0:50:Hihat.wav
64,192,164183,1,2,0:0:0:0:
192,192,164449,1,2,0:0:0:0:
64,192,164583,1,8,0:0:0:0:
448,192,164583,1,0,0:0:0:50:Hihat.wav
320,192,164849,1,2,0:0:0:0:
448,192,164983,1,2,0:0:0:0:
64,192,165116,1,8,0:0:0:0:
192,192,165116,1,0,0:0:0:50:Hihat.wav
192,192,165383,1,2,0:0:0:0:
64,192,165516,1,2,0:0:0:0:
320,192,165649,1,8,0:0:0:0:
448,192,165649,1,0,0:0:0:50:Hihat.wav
192,192,165916,1,2,0:0:0:0:
320,192,166049,1,2,0:0:0:0:
64,192,166183,1,8,0:0:0:0:
448,192,166183,1,0,0:0:0:50:Hihat.wav
192,192,166316,1,2,0:0:0:0:
448,192,166583,1,2,0:0:0:0:
64,192,166716,1,8,0:0:0:0:
320,192,166716,1,0,0:0:0:50:Hihat.wav
192,192,166983,1,2,0:0:0:0:
448,192,166983,1,4,0:0:0:0:
64,192,167249,1,8,0:0:0:0:
320,192,167249,1,0,0:0:0:50:Hihat.wav
192,192,167516,1,2,0:0:0:0:
64,192,167649,1,2,0:0:0:0:
320,192,167783,1,8,0:0:0:0:
448,192,167783,1,0,0:0:0:50:Hihat.wav
192,192,168049,1,2,0:0:0:0:
320,192,168183,1,2,0:0:0:0:
64,192,168316,1,8,0:0:0:0:
448,192,168316,1,0,0:0:0:50:Hihat.wav
192,192,168449,1,2,0:0:0:0:
320,192,168716,1,2,0:0:0:0:
64,192,168849,1,8,0:0:0:0:
448,192,168849,1,0,0:0:0:50:Hihat.wav
448,192,169116,1,2,0:0:0:0:
320,192,169249,1,2,0:0:0:0:
64,192,169383,1,8,0:0:0:0:
192,192,169383,1,0,0:0:0:50:Hihat.wav
448,192,169649,1,2,0:0:0:0:
320,192,169783,1,2,0:0:0:0:
64,192,169916,1,8,0:0:0:0:
192,192,169916,1,0,0:0:0:50:Hihat.wav
448,192,170183,1,2,0:0:0:0:
64,192,170316,1,2,0:0:0:0:
192,192,170449,1,8,0:0:0:0:
320,192,170449,1,0,0:0:0:50:Hihat.wav
448,192,170583,1,2,0:0:0:0:
64,192,170849,1,2,0:0:0:0:
320,192,170983,1,8,0:0:0:0:
448,192,170983,1,0,0:0:0:50:Hihat.wav
192,192,171116,1,8,0:0:0:0:
64,192,171249,1,2,0:0:0:0:
448,192,171249,1,4,0:0:0:0:
64,192,171516,1,8,0:0:0:0:
192,192,171516,1,0,0:0:0:50:Hihat.wav
320,192,171783,1,2,0:0:0:0:
64,192,171916,1,2,0:0:0:0:
192,192,172049,1,8,0:0:0:0:
448,192,172049,1,0,0:0:0:50:Hihat.wav
64,192,172316,1,2,0:0:0:0:
320,192,172449,1,2,0:0:0:0:
64,192,172583,1,8,0:0:0:0:
448,192,172583,1,0,0:0:0:50:Hihat.wav
192,192,172716,1,2,0:0:0:0:
320,192,172983,1,2,0:0:0:0:
64,192,173116,1,8,0:0:0:0:
192,192,173116,1,0,0:0:0:50:Hihat.wav
448,192,173383,1,2,0:0:0:0:
64,192,173516,1,2,0:0:0:0:
192,192,173649,1,8,0:0:0:0:
320,192,173649,1,0,0:0:0:50:Hihat.wav
64,192,173916,1,2,0:0:0:0:
320,192,174049,1,2,0:0:0:0:
192,192,174183,1,8,0:0:0:0:
448,192,174183,1,0,0:0:0:50:Hihat.wav
448,192,174449,1,2,0:0:0:0:
320,192,174583,1,2,0:0:0:0:
64,192,174716,1,8,0:0:0:0:
192,192,174716,1,0,0:0:0:50:Hihat.wav
448,192,174849,1,2,0:0:0:0:
192,192,175116,1,2,0:0:0:0:
64,192,175249,1,8,0:0:0:0:
320,192,175249,1,0,0:0:0:50:Hihat.wav
64,192,175516,1,2,0:0:0:0:
448,192,175516,1,4,0:0:0:0:
192,192,175783,1,8,0:0:0:0:
448,192,175783,1,0,0:0:0:50:Hihat.wav
320,192,176049,1,2,0:0:0:0:
192,192,176183,1,2,0:0:0:0:
64,192,176316,1,8,0:0:0:0:
448,192,176316,1,0,0:0:0:50:Hihat.wav
192,192,176583,1,2,0:0:0:0:
448,192,176716,1,2,0:0:0:0:
64,192,176849,1,8,0:0:0:0:
192,192,176849,1,0,0:0:0:50:Hihat.wav
320,192,176983,1,2,0:0:0:0:
192,192,177249,1,2,0:0:0:0:
64,192,177383,1,8,0:0:0:0:
448,192,177383,1,0,0:0:0:50:Hihat.wav
320,192,177649,1,2,0:0:0:0:
64,192,177783,1,2,0:0:0:0:
192,192,177916,1,8,0:0:0:0:
448,192,177916,1,0,0:0:0:50:Hihat.wav
320,192,178183,1,2,0:0:0:0:
192,192,178316,1,2,0:0:0:0:
64,192,178449,1,8,0:0:0:0:
448,192,178449,1,0,0:0:0:50:Hihat.wav
320,192,178716,1,2,0:0:0:0:
192,192,178849,1,2,0:0:0:0:
320,192,178983,1,8,0:0:0:0:
448,192,178983,1,0,0:0:0:50:Hihat.wav
64,192,179116,1,2,0:0:0:0:
448,192,179383,1,2,0:0:0:0:
192,192,179516,1,8,0:0:0:0:
320,192,179516,1,0,0:0:0:50:Hihat.wav
64,192,179783,1,2,0:0:0:0:
448,192,179783,1,4,0:0:0:0:
64,192,180049,1,8,0:0:0:0:
320,192,180049,1,0,0:0:0:50:Hihat.wav
192,192,180316,1,2,0:0:0:0:
320,192,180449,1,2,0:0:0:0:
64,192,180583,1,8,0:0:0:0:
448,192,180583,1,0,0:0:0:50:Hihat.wav
64,192,180849,1,2,0:0:0:0:
192,192,180849,1,4,0:0:0:0:
320,192,181116,1,8,0:0:0:0:
448,192,181116,1,4,0:0:0:0:
192,192,181383,1,4,0:0:0:0:
320,192,181383,1,0,0:0:0:0:
64,192,181649,1,8,0:0:0:0:
192,192,181649,1,4,0:0:0:0:
320,192,181916,1,8,0:0:0:0:
448,192,181916,1,4,0:0:0:0:
64,192,182183,1,8,0:0:0:0:
192,192,182183,1,4,0:0:0:0:
192,192,182449,1,8,0:0:0:0:
320,192,182449,128,4,182983:0:0:0:0:
64,192,182983,1,2,0:0:0:0:
448,192,182983,1,4,0:0:0:0:
192,192,183249,1,8,0:0:0:0:
320,192,183249,1,0,0:0:0:50:Hihat.wav
64,192,183516,1,0,0:0:0:50:Hihat.wav
192,192,183649,1,2,0:0:0:0:
320,192,183783,1,8,0:0:0:0:
448,192,183783,1,0,0:0:0:50:Hihat.wav
192,192,184049,1,2,0:0:0:0:
448,192,184183,1,2,0:0:0:0:
64,192,184316,1,8,0:0:0:0:
320,192,184316,1,0,0:0:0:50:Hihat.wav
192,192,184449,1,2,0:0:0:0:
320,192,184716,1,2,0:0:0:0:
64,192,184849,1,8,0:0:0:0:
448,192,184849,1,0,0:0:0:50:Hihat.wav
192,192,185116,1,2,0:0:0:0:
64,192,185249,1,2,0:0:0:0:
320,192,185383,1,8,0:0:0:0:
448,192,185383,1,0,0:0:0:50:Hihat.wav
192,192,185649,1,0,0:0:0:50:Hihat.wav
320,192,185783,1,2,0:0:0:0:
64,192,185916,1,8,0:0:0:0:
448,192,185916,1,0,0:0:0:50:Hihat.wav
320,192,186183,1,2,0:0:0:0:
64,192,186316,1,2,0:0:0:0:
192,192,186449,1,8,0:0:0:0:
448,192,186449,1,0,0:0:0:50:Hihat.wav
320,192,186583,1,2,0:0:0:0:
64,192,186849,1,2,0:0:0:0:
192,192,186983,1,8,0:0:0:0:
320,192,186983,1,0,0:0:0:50:Hihat.wav
64,192,187249,1,2,0:0:0:0:
448,192,187249,1,4,0:0:0:0:
64,192,187516,1,8,0:0:0:0:
320,192,187516,1,0,0:0:0:50:Hihat.wav
192,192,187783,1,8,0:0:0:0:
448,192,187783,1,0,0:0:0:50:Hihat.wav
64,192,188049,1,8,0:0:0:0:
192,192,188049,1,0,0:0:0:50:Hihat.wav
64,192,188316,1,8,0:0:0:0:
448,192,188316,1,4,0:0:0:0:
320,192,188583,1,8,0:0:0:0:
448,192,188583,1,0,0:0:0:50:Hihat.wav
192,192,188849,1,8,0:0:0:0:
320,192,188849,1,0,0:0:0:50:Hihat.wav
64,192,189116,128,8,189383:0:0:0:0:
192,192,189116,128,0,189383:0:0:0:50:Hihat.wav
