osu file format v14

[General]
AudioFilename: audio.mp3
AudioLeadIn: 0
PreviewTime: 146983
Countdown: 0
SampleSet: Drum
StackLeniency: 0.7
Mode: 3
LetterboxInBreaks: 0
SpecialStyle: 0
WidescreenStoryboard: 1

[Editor]
Bookmarks: 118151
DistanceSpacing: 1
BeatDivisor: 4
GridSize: 8
TimelineZoom: 2.3

[Metadata]
Title:Doro no Bunzai de Watashi dake no Taisetsu o Ubaou da nante
TitleUnicode:泥の分際で私だけの大切を奪おうだなんて
Artist:TUYU
ArtistUnicode:ツユ
Creator:deta5859
Version:Chicken's Precious
Source:SOUND VOLTEX EXCEED GEAR
Tags:Fresh Chicken Aruel Nabi- Madoka2574 ML-ysg Being low as dirt, taking what's important from me 貴方を不幸に誘いますね ぷす Pusu 礼衣 Rei あじゅん AzyuN おむたつ Omutatsu TUYU-0002 Japanese Rock J-Rock J-Pop Pop sdvx VI Nolstalgia Op.3 konami
BeatmapID:2651311
BeatmapSetID:1242820

[Difficulty]
HPDrainRate:8.5
CircleSize:4
OverallDifficulty:8.5
ApproachRate:5
SliderMultiplier:1.4
SliderTickRate:1

[Events]
//Background and Video events
0,0,"tenshi.png",0,0
//Break Periods
//Storyboard Layer 0 (Background)
//Storyboard Layer 1 (Fail)
//Storyboard Layer 2 (Pass)
//Storyboard Layer 3 (Foreground)
//Storyboard Layer 4 (Overlay)
//Storyboard Sound Samples
Sample,20849,0,"Hihat.wav",50
Sample,21916,0,"Hihat.wav",50
Sample,28849,0,"Hihat.wav",50
Sample,30449,0,"Hihat.wav",50
Sample,30983,0,"Hihat.wav",50
Sample,33116,0,"Hihat.wav",50
Sample,101383,0,"Hihat.wav",50
Sample,109916,0,"Hihat.wav",50
Sample,153116,0,"Hihat.wav",50
Sample,154183,0,"Hihat.wav",50

[TimingPoints]
583,266.666666666667,4,3,1,50,1,0
15516,-100,4,3,1,50,0,1
35783,-100,4,3,1,50,0,0
69916,-100,4,3,1,50,0,1
90183,-100,4,3,1,50,0,0
147783,-100,4,3,1,50,0,1
189383,-100,4,3,1,50,0,0

[HitObjects]
64,192,583,128,0,716:0:0:0:0:
320,192,583,1,0,0:0:0:0:
64,192,849,128,0,983:0:0:0:20:Clap.wav
320,192,849,1,0,0:0:0:0:
448,192,849,1,0,0:0:0:0:
64,192,1116,128,0,1249:0:0:0:0:
320,192,1116,1,0,0:0:0:0:
64,192,1383,128,0,1516:0:0:0:20:Clap.wav
320,192,1383,1,0,0:0:0:0:
448,192,1383,1,0,0:0:0:0:
64,192,1649,128,0,1783:0:0:0:0:
320,192,1649,1,0,0:0:0:0:
64,192,1916,128,0,2049:0:0:0:20:Clap.wav
320,192,1916,1,0,0:0:0:0:
448,192,1916,1,0,0:0:0:0:
64,192,2183,128,0,2316:0:0:0:0:
320,192,2183,1,0,0:0:0:0:
64,192,2449,128,0,2583:0:0:0:20:Clap.wav
320,192,2449,1,0,0:0:0:0:
448,192,2449,1,0,0:0:0:0:
192,192,2716,1,0,0:0:0:0:
320,192,2716,128,0,2849:0:0:0:0:
64,192,2983,1,0,0:0:0:20:Clap.wav
192,192,2983,1,0,0:0:0:0:
320,192,2983,128,0,3116:0:0:0:0:
192,192,3249,1,0,0:0:0:0:
320,192,3249,128,0,3383:0:0:0:0:
64,192,3516,1,0,0:0:0:20:Clap.wav
192,192,3516,1,0,0:0:0:0:
320,192,3516,128,0,3649:0:0:0:0:
192,192,3783,1,0,0:0:0:0:
320,192,3783,128,0,3916:0:0:0:0:
64,192,4049,1,0,0:0:0:20:Clap.wav
192,192,4049,1,0,0:0:0:0:
320,192,4049,128,0,4183:0:0:0:0:
192,192,4316,1,0,0:0:0:0:
320,192,4316,128,0,4449:0:0:0:0:
64,192,4583,1,0,0:0:0:20:Clap.wav
192,192,4583,1,0,0:0:0:0:
320,192,4583,128,0,4716:0:0:0:0:
192,192,4849,128,0,4983:0:0:0:0:
448,192,4849,1,0,0:0:0:0:
192,192,5116,128,0,5249:0:0:0:20:Clap.wav
320,192,5116,1,0,0:0:0:0:
448,192,5116,1,0,0:0:0:0:
192,192,5383,128,0,5516:0:0:0:0:
448,192,5383,1,0,0:0:0:0:
192,192,5649,128,0,5783:0:0:0:20:Clap.wav
320,192,5649,1,0,0:0:0:0:
448,192,5649,1,0,0:0:0:0:
192,192,5916,128,0,6049:0:0:0:0:
448,192,5916,1,0,0:0:0:0:
192,192,6183,128,0,6316:0:0:0:20:Clap.wav
320,192,6183,1,0,0:0:0:0:
448,192,6183,1,0,0:0:0:0:
192,192,6449,128,0,6583:0:0:0:0:
448,192,6449,1,0,0:0:0:0:
192,192,6716,128,0,6849:0:0:0:20:Clap.wav
320,192,6716,1,0,0:0:0:0:
448,192,6716,1,0,0:0:0:0:
64,192,6983,1,0,0:0:0:0:
320,192,6983,128,0,7116:0:0:0:0:
64,192,7249,1,0,0:0:0:20:Clap.wav
192,192,7249,1,0,0:0:0:0:
320,192,7249,128,0,7383:0:0:0:0:
64,192,7516,1,0,0:0:0:0:
320,192,7516,128,0,7649:0:0:0:0:
64,192,7783,1,0,0:0:0:20:Clap.wav
192,192,7783,1,0,0:0:0:0:
320,192,7783,128,0,7916:0:0:0:0:
64,192,8049,1,0,0:0:0:0:
448,192,8049,128,0,8183:0:0:0:0:
64,192,8316,1,0,0:0:0:20:Clap.wav
192,192,8316,1,0,0:0:0:0:
448,192,8316,128,0,8449:0:0:0:0:
64,192,8583,1,0,0:0:0:0:
448,192,8583,128,0,8716:0:0:0:0:
64,192,8849,1,0,0:0:0:20:Clap.wav
192,192,8849,1,0,0:0:0:0:
448,192,8849,128,0,8983:0:0:0:0:
320,192,9116,1,0,0:0:0:0:
448,192,9116,128,0,9383:0:0:0:0:
192,192,9249,128,0,9383:0:0:0:0:
64,192,9383,1,0,0:0:0:20:Clap.wav
320,192,9383,128,0,9649:0:0:0:0:
64,192,9516,128,0,9649:0:0:0:0:
192,192,9649,1,0,0:0:0:0:
448,192,9649,128,0,9916:0:0:0:0:
192,192,9783,128,0,9916:0:0:0:0:
64,192,9916,1,0,0:0:0:20:Clap.wav
320,192,9916,128,0,10183:0:0:0:0:
192,192,10049,128,0,10183:0:0:0:0:
64,192,10183,1,0,0:0:0:0:
448,192,10183,128,0,10449:0:0:0:0:
320,192,10316,128,0,10449:0:0:0:0:
64,192,10449,128,0,10716:0:0:0:20:Clap.wav
192,192,10449,1,0,0:0:0:0:
192,192,10583,128,0,10716:0:0:0:0:
320,192,10716,1,0,0:0:0:0:
448,192,10716,128,0,10983:0:0:0:0:
320,192,10849,128,0,10983:0:0:0:0:
64,192,10983,1,0,0:0:0:20:Clap.wav
192,192,10983,128,0,11249:0:0:0:0:
448,192,11116,128,0,11249:0:0:0:0:
64,192,11249,1,0,0:0:0:0:
320,192,11249,128,0,11516:0:0:0:0:
64,192,11383,128,0,11516:0:0:0:0:
192,192,11516,1,0,0:0:0:20:Clap.wav
448,192,11516,128,0,11783:0:0:0:0:
192,192,11649,128,0,11783:0:0:0:0:
64,192,11783,1,0,0:0:0:0:
320,192,11783,128,0,12049:0:0:0:0:
64,192,11916,128,0,12049:0:0:0:0:
192,192,12049,128,0,12316:0:0:0:20:Clap.wav
448,192,12049,1,0,0:0:0:0:
320,192,12183,128,0,12316:0:0:0:0:
64,192,12316,1,0,0:0:0:0:
448,192,12349,1,0,0:0:0:0:
320,192,12383,128,0,12583:0:0:0:0:
64,192,12449,128,0,12583:0:0:0:0:
192,192,12583,128,0,12849:0:0:0:20:Clap.wav
448,192,12583,1,0,0:0:0:0:
64,192,12716,128,0,12849:0:0:0:0:
320,192,12849,1,0,0:0:0:0:
448,192,12849,128,0,13116:0:0:0:0:
320,192,12983,128,0,13116:0:0:0:0:
64,192,13116,128,0,13383:0:0:0:20:Clap.wav
192,192,13116,1,0,0:0:0:0:
320,192,13249,128,0,13383:0:0:0:0:
192,192,13383,128,0,13649:0:0:0:0:
448,192,13383,1,0,0:0:0:0:
64,192,13516,128,0,13649:0:0:0:0:
320,192,13649,128,0,13916:0:0:0:20:Clap.wav
448,192,13649,1,0,0:0:0:0:
448,192,13783,128,0,13916:0:0:0:0:
64,192,13916,128,0,14183:0:0:0:0:
192,192,13916,1,0,0:0:0:0:
320,192,14049,128,0,14183:0:0:0:0:
192,192,14183,128,0,14449:0:0:0:20:Clap.wav
448,192,14183,1,0,0:0:0:0:
448,192,14316,128,0,14449:0:0:0:0:
64,192,14449,128,0,14716:0:0:0:0:
320,192,14449,1,0,0:0:0:0:
448,192,14716,1,0,0:0:0:0:
320,192,14760,1,0,0:0:0:0:
192,192,14805,1,0,0:0:0:0:
64,192,14849,1,0,0:0:0:0:
448,192,14894,1,0,0:0:0:0:
320,192,14938,1,0,0:0:0:0:
64,192,14983,1,0,0:0:0:0:
192,192,14983,1,0,0:0:0:0:
192,192,15249,1,0,0:0:0:0:
320,192,15249,1,0,0:0:0:0:
64,192,15516,1,2,0:0:0:0:
192,192,15516,1,4,0:0:0:0:
320,192,15516,128,0,15783:0:0:0:0:
448,192,15516,1,0,0:0:0:0:
64,192,15783,1,8,0:0:0:0:
192,192,15783,1,0,0:0:0:50:Hihat.wav
448,192,15783,1,0,0:0:0:0:
192,192,15916,1,0,0:0:0:0:
64,192,16049,128,2,16449:0:0:0:0:
320,192,16049,1,0,0:0:0:50:Hihat.wav
320,192,16183,1,2,0:0:0:0:
192,192,16316,1,8,0:0:0:0:
320,192,16316,1,0,0:0:0:50:Hihat.wav
448,192,16316,1,0,0:0:0:0:
192,192,16449,1,0,0:0:0:0:
448,192,16449,1,0,0:0:0:0:
64,192,16583,1,2,0:0:0:0:
320,192,16583,1,0,0:0:0:50:Hihat.wav
64,192,16716,1,2,0:0:0:0:
192,192,16716,1,0,0:0:0:0:
192,192,16849,1,8,0:0:0:0:
320,192,16849,1,0,0:0:0:50:Hihat.wav
448,192,16849,1,0,0:0:0:0:
64,192,16983,1,2,0:0:0:0:
448,192,16983,1,0,0:0:0:0:
64,192,17116,1,0,0:0:0:50:Hihat.wav
320,192,17116,128,0,17383:0:0:0:0:
192,192,17249,1,2,0:0:0:0:
64,192,17383,1,8,0:0:0:0:
192,192,17383,1,0,0:0:0:50:Hihat.wav
448,192,17383,1,0,0:0:0:0:
64,192,17516,1,0,0:0:0:0:
320,192,17516,1,0,0:0:0:0:
192,192,17649,1,2,0:0:0:0:
448,192,17649,1,0,0:0:0:50:Hihat.wav
320,192,17783,1,2,0:0:0:0:
448,192,17783,1,0,0:0:0:0:
64,192,17916,1,8,0:0:0:0:
192,192,17916,1,0,0:0:0:50:Hihat.wav
320,192,17916,1,0,0:0:0:0:
64,192,18049,1,0,0:0:0:0:
192,192,18049,1,0,0:0:0:0:
320,192,18183,1,2,0:0:0:0:
448,192,18183,128,0,18449:0:0:0:50:Hihat.wav
192,192,18316,1,2,0:0:0:0:
64,192,18449,128,8,18716:0:0:0:0:
192,192,18449,1,0,0:0:0:50:Hihat.wav
320,192,18449,1,0,0:0:0:0:
448,192,18583,1,0,0:0:0:0:
192,192,18716,1,2,0:0:0:0:
448,192,18716,128,0,18983:0:0:0:50:Hihat.wav
64,192,18849,1,2,0:0:0:0:
64,192,18983,1,8,0:0:0:0:
192,192,18983,1,0,0:0:0:50:Hihat.wav
320,192,18983,1,0,0:0:0:0:
320,192,19116,128,2,19383:0:0:0:0:
64,192,19249,1,0,0:0:0:50:Hihat.wav
192,192,19249,1,0,0:0:0:0:
64,192,19383,1,2,0:0:0:0:
448,192,19383,128,0,19783:0:0:0:0:
64,192,19516,1,8,0:0:0:0:
192,192,19516,1,0,0:0:0:50:Hihat.wav
320,192,19516,1,0,0:0:0:0:
320,192,19649,1,0,0:0:0:0:
64,192,19783,1,2,0:0:0:0:
192,192,19783,1,4,0:0:0:0:
320,192,19783,1,0,0:0:0:0:
64,192,20049,128,8,20316:0:0:0:0:
192,192,20049,1,0,0:0:0:50:Hihat.wav
448,192,20049,1,0,0:0:0:0:
320,192,20183,1,0,0:0:0:0:
192,192,20316,1,2,0:0:0:0:
448,192,20316,128,0,20583:0:0:0:50:Hihat.wav
192,192,20449,1,2,0:0:0:0:
64,192,20583,1,8,0:0:0:0:
192,192,20583,1,0,0:0:0:50:Hihat.wav
320,192,20583,1,0,0:0:0:0:
320,192,20716,128,0,20983:0:0:0:0:
448,192,20716,1,0,0:0:0:0:
64,192,20849,1,2,0:0:0:0:
192,192,20983,1,2,0:0:0:0:
448,192,20983,1,0,0:0:0:0:
64,192,21116,1,8,0:0:0:0:
320,192,21116,1,0,0:0:0:50:Hihat.wav
448,192,21116,1,0,0:0:0:0:
64,192,21249,1,2,0:0:0:0:
192,192,21249,1,0,0:0:0:0:
192,192,21383,1,0,0:0:0:50:Hihat.wav
448,192,21383,1,0,0:0:0:0:
448,192,21516,1,2,0:0:0:0:
64,192,21649,1,8,0:0:0:0:
192,192,21649,1,0,0:0:0:50:Hihat.wav
320,192,21649,1,0,0:0:0:0:
192,192,21783,128,0,22049:0:0:0:0:
320,192,21916,1,2,0:0:0:0:
320,192,22049,1,2,0:0:0:0:
448,192,22049,1,0,0:0:0:0:
64,192,22183,1,8,0:0:0:0:
192,192,22183,1,0,0:0:0:50:Hihat.wav
448,192,22183,1,0,0:0:0:0:
64,192,22316,1,0,0:0:0:0:
320,192,22316,1,0,0:0:0:0:
192,192,22449,1,2,0:0:0:0:
320,192,22449,1,0,0:0:0:50:Hihat.wav
192,192,22583,1,2,0:0:0:0:
448,192,22583,1,0,0:0:0:0:
64,192,22716,1,8,0:0:0:0:
320,192,22716,1,0,0:0:0:50:Hihat.wav
448,192,22716,1,0,0:0:0:0:
192,192,22849,1,0,0:0:0:0:
320,192,22849,1,0,0:0:0:0:
192,192,22983,1,2,0:0:0:0:
448,192,22983,128,0,23249:0:0:0:50:Hihat.wav
320,192,23116,1,2,0:0:0:0:
64,192,23249,1,8,0:0:0:0:
192,192,23249,1,0,0:0:0:50:Hihat.wav
320,192,23249,1,0,0:0:0:0:
64,192,23383,128,2,23649:0:0:0:0:
448,192,23383,1,0,0:0:0:0:
192,192,23516,1,0,0:0:0:50:Hihat.wav
320,192,23649,1,2,0:0:0:0:
448,192,23649,1,0,0:0:0:0:
64,192,23783,1,8,0:0:0:0:
192,192,23783,1,0,0:0:0:50:Hihat.wav
320,192,23783,1,0,0:0:0:0:
64,192,23916,1,8,0:0:0:0:
192,192,23916,1,0,0:0:0:0:
448,192,23916,128,0,24316:0:0:0:0:
64,192,24049,1,2,0:0:0:0:
192,192,24049,1,4,0:0:0:0:
320,192,24049,128,0,24316:0:0:0:0:
64,192,24316,1,8,0:0:0:0:
192,192,24316,1,0,0:0:0:50:Hihat.wav
320,192,24449,128,0,24849:0:0:0:0:
448,192,24449,1,0,0:0:0:0:
64,192,24583,1,2,0:0:0:0:
192,192,24583,128,0,24849:0:0:0:50:Hihat.wav
448,192,24716,1,2,0:0:0:0:
64,192,24849,1,8,0:0:0:0:
448,192,24849,1,0,0:0:0:50:Hihat.wav
192,192,24983,1,0,0:0:0:0:
320,192,24983,128,0,25383:0:0:0:0:
64,192,25116,1,2,0:0:0:0:
448,192,25116,128,0,25383:0:0:0:50:Hihat.wav
64,192,25249,1,2,0:0:0:0:
64,192,25383,1,8,0:0:0:0:
192,192,25383,1,0,0:0:0:50:Hihat.wav
320,192,25516,128,2,25916:0:0:0:0:
448,192,25516,1,0,0:0:0:0:
64,192,25649,1,0,0:0:0:50:Hihat.wav
192,192,25649,128,0,25916:0:0:0:0:
448,192,25783,1,2,0:0:0:0:
64,192,25916,1,8,0:0:0:0:
448,192,25916,1,0,0:0:0:50:Hihat.wav
320,192,26049,1,0,0:0:0:0:
448,192,26116,1,0,0:0:0:0:
64,192,26183,1,2,0:0:0:0:
192,192,26183,1,0,0:0:0:50:Hihat.wav
64,192,26316,1,2,0:0:0:0:
320,192,26316,1,0,0:0:0:0:
192,192,26449,1,8,0:0:0:0:
320,192,26449,1,0,0:0:0:50:Hihat.wav
448,192,26449,1,0,0:0:0:0:
64,192,26583,1,0,0:0:0:0:
448,192,26583,1,0,0:0:0:0:
64,192,26716,1,2,0:0:0:0:
192,192,26716,1,0,0:0:0:50:Hihat.wav
192,192,26849,1,2,0:0:0:0:
320,192,26849,1,0,0:0:0:0:
64,192,26983,1,8,0:0:0:0:
320,192,26983,1,0,0:0:0:50:Hihat.wav
448,192,26983,1,0,0:0:0:0:
64,192,27116,1,0,0:0:0:0:
192,192,27116,1,0,0:0:0:0:
192,192,27249,1,2,0:0:0:0:
448,192,27249,1,0,0:0:0:50:Hihat.wav
64,192,27383,1,2,0:0:0:0:
448,192,27383,1,0,0:0:0:0:
64,192,27516,1,8,0:0:0:0:
192,192,27516,1,0,0:0:0:50:Hihat.wav
320,192,27516,1,0,0:0:0:0:
320,192,27649,1,2,0:0:0:0:
448,192,27649,1,0,0:0:0:0:
192,192,27783,1,0,0:0:0:50:Hihat.wav
448,192,27783,1,0,0:0:0:0:
64,192,27916,1,2,0:0:0:0:
192,192,27916,1,0,0:0:0:0:
64,192,28049,1,8,0:0:0:0:
320,192,28049,1,0,0:0:0:50:Hihat.wav
448,192,28049,1,0,0:0:0:0:
192,192,28183,1,0,0:0:0:0:
448,192,28249,128,0,28583:0:0:0:0:
64,192,28316,1,2,0:0:0:0:
192,192,28316,1,4,0:0:0:0:
320,192,28316,1,0,0:0:0:0:
64,192,28583,1,8,0:0:0:0:
192,192,28583,1,0,0:0:0:50:Hihat.wav
320,192,28583,1,0,0:0:0:0:
320,192,28849,1,2,0:0:0:0:
320,192,28983,1,2,0:0:0:0:
64,192,29116,1,8,0:0:0:0:
192,192,29116,1,0,0:0:0:50:Hihat.wav
448,192,29116,1,0,0:0:0:0:
320,192,29249,1,0,0:0:0:0:
64,192,29383,1,2,0:0:0:0:
448,192,29383,1,0,0:0:0:50:Hihat.wav
192,192,29516,1,2,0:0:0:0:
448,192,29516,1,0,0:0:0:0:
64,192,29649,1,8,0:0:0:0:
192,192,29649,1,0,0:0:0:50:Hihat.wav
320,192,29649,128,0,29916:0:0:0:0:
448,192,29783,1,2,0:0:0:0:
64,192,29916,1,0,0:0:0:50:Hihat.wav
192,192,29916,1,0,0:0:0:0:
64,192,30049,1,2,0:0:0:0:
448,192,30049,1,0,0:0:0:0:
192,192,30183,1,8,0:0:0:0:
320,192,30183,1,0,0:0:0:50:Hihat.wav
448,192,30183,1,0,0:0:0:0:
64,192,30316,128,0,30583:0:0:0:0:
320,192,30316,1,0,0:0:0:0:
448,192,30449,1,2,0:0:0:0:
192,192,30583,1,2,0:0:0:0:
448,192,30583,1,0,0:0:0:0:
64,192,30716,1,8,0:0:0:0:
192,192,30716,128,0,30983:0:0:0:50:Hihat.wav
320,192,30716,1,0,0:0:0:0:
448,192,30849,1,0,0:0:0:0:
320,192,30983,1,2,0:0:0:0:
320,192,31116,1,2,0:0:0:0:
64,192,31249,1,8,0:0:0:0:
192,192,31249,1,0,0:0:0:50:Hihat.wav
448,192,31249,1,0,0:0:0:0:
320,192,31383,1,0,0:0:0:0:
64,192,31516,1,2,0:0:0:0:
448,192,31516,1,0,0:0:0:50:Hihat.wav
64,192,31649,1,2,0:0:0:0:
320,192,31649,1,0,0:0:0:0:
192,192,31783,128,8,32049:0:0:0:0:
320,192,31783,1,0,0:0:0:50:Hihat.wav
448,192,31783,1,0,0:0:0:0:
64,192,31916,1,2,0:0:0:0:
320,192,32049,1,0,0:0:0:50:Hihat.wav
448,192,32049,1,0,0:0:0:0:
64,192,32183,1,2,0:0:0:0:
448,192,32183,1,0,0:0:0:0:
64,192,32316,1,8,0:0:0:0:
192,192,32316,1,0,0:0:0:50:Hihat.wav
320,192,32316,1,0,0:0:0:0:
192,192,32449,1,0,0:0:0:0:
448,192,32449,128,0,32716:0:0:0:0:
64,192,32583,1,2,0:0:0:0:
192,192,32583,1,4,0:0:0:0:
320,192,32583,1,0,0:0:0:0:
64,192,32716,1,0,0:0:0:0:
320,192,32716,1,0,0:0:0:0:
192,192,32849,1,8,0:0:0:0:
320,192,32849,128,0,33116:0:0:0:50:Hihat.wav
448,192,32849,1,0,0:0:0:0:
64,192,32983,1,0,0:0:0:0:
192,192,33116,1,2,0:0:0:0:
192,192,33249,1,2,0:0:0:0:
64,192,33383,1,8,0:0:0:0:
320,192,33383,1,0,0:0:0:50:Hihat.wav
448,192,33383,1,0,0:0:0:0:
64,192,33516,128,0,33583:0:0:0:0:
192,192,33516,128,0,33583:0:0:0:0:
320,192,33649,128,2,33716:0:0:0:0:
448,192,33649,128,4,33716:0:0:0:0:
320,192,33783,1,2,0:0:0:0:
448,192,33783,1,0,0:0:0:0:
64,192,33916,1,8,0:0:0:0:
192,192,33916,1,4,0:0:0:0:
320,192,33916,1,0,0:0:0:0:
64,192,34049,128,2,34116:0:0:0:0:
192,192,34049,128,0,34116:0:0:0:0:
192,192,34183,1,8,0:0:0:0:
320,192,34183,128,4,34249:0:0:0:0:
448,192,34183,128,0,34249:0:0:0:0:
320,192,34316,1,2,0:0:0:0:
448,192,34316,1,0,0:0:0:0:
64,192,34449,1,8,0:0:0:0:
192,192,34449,1,4,0:0:0:0:
320,192,34449,1,0,0:0:0:0:
64,192,34583,128,2,34649:0:0:0:0:
192,192,34583,128,0,34649:0:0:0:0:
64,192,34716,1,8,0:0:0:0:
320,192,34716,128,4,34783:0:0:0:0:
448,192,34716,128,0,34783:0:0:0:0:
320,192,34849,1,2,0:0:0:0:
448,192,34849,1,0,0:0:0:0:
64,192,34983,1,8,0:0:0:0:
192,192,34983,1,4,0:0:0:0:
448,192,34983,1,0,0:0:0:0:
64,192,35116,128,2,35183:0:0:0:0:
192,192,35116,128,0,35183:0:0:0:0:
64,192,35249,1,8,0:0:0:0:
320,192,35249,128,4,35316:0:0:0:0:
448,192,35249,128,0,35316:0:0:0:0:
320,192,35383,1,2,0:0:0:0:
448,192,35383,1,0,0:0:0:0:
64,192,35516,1,8,0:0:0:0:
192,192,35516,1,0,0:0:0:0:
64,192,35649,128,0,35716:0:0:0:0:
192,192,35649,128,0,35716:0:0:0:0:
64,192,35783,1,2,0:0:0:0:
448,192,35783,128,0,36583:0:0:0:0:
320,192,36849,1,2,0:0:0:0:
448,192,36849,128,0,37916:0:0:0:0:
320,192,37116,128,0,37249:0:0:0:0:
192,192,37249,128,0,37383:0:0:0:0:
64,192,37383,128,0,37516:0:0:0:0:
192,192,37516,128,0,37649:0:0:0:0:
320,192,37649,128,0,37916:0:0:0:0:
64,192,37916,128,2,38983:0:0:0:0:
192,192,37916,1,0,0:0:0:0:
192,192,38183,128,0,38316:0:0:0:0:
320,192,38316,128,0,38449:0:0:0:0:
448,192,38449,128,0,38583:0:0:0:0:
320,192,38583,128,0,38716:0:0:0:0:
192,192,38716,128,0,38983:0:0:0:0:
320,192,38983,1,2,0:0:0:0:
448,192,38983,128,0,40049:0:0:0:0:
320,192,39249,128,0,39383:0:0:0:0:
192,192,39383,128,0,39516:0:0:0:0:
64,192,39516,128,0,39649:0:0:0:30:Ride.wav
192,192,39649,128,0,39783:0:0:0:0:
320,192,39783,128,0,40316:0:0:0:0:
64,192,40049,128,2,41116:0:0:0:0:
192,192,40049,1,0,0:0:0:0:
192,192,40316,128,0,40449:0:0:0:0:
448,192,40449,128,0,40583:0:0:0:0:
320,192,40583,128,0,40849:0:0:0:30:Ride.wav
448,192,40849,128,0,41049:0:0:0:0:
192,192,40983,1,0,0:0:0:0:
320,192,41049,1,0,0:0:0:0:
192,192,41116,1,2,0:0:0:0:
448,192,41116,128,0,42183:0:0:0:0:
320,192,41383,128,0,41649:0:0:0:0:
64,192,41649,128,0,41916:0:0:0:30:Ride.wav
192,192,41916,128,0,42183:0:0:0:0:
64,192,42183,128,2,43205:0:0:0:0:
320,192,42183,128,0,42449:0:0:0:0:
448,192,42449,128,0,42716:0:0:0:0:
320,192,42716,128,0,42983:0:0:0:30:Ride.wav
192,192,42983,128,0,43116:0:0:0:0:
448,192,43116,1,0,0:0:0:0:
320,192,43160,1,0,0:0:0:0:
192,192,43205,1,0,0:0:0:0:
64,192,43249,1,2,0:0:0:0:
320,192,43249,1,4,0:0:0:0:
448,192,43249,1,0,0:0:0:0:
64,192,44316,1,2,0:0:0:0:
320,192,44316,1,4,0:0:0:0:
448,192,44316,1,0,0:0:0:0:
64,192,44449,1,0,0:0:0:0:
320,192,44583,1,0,0:0:0:0:
192,192,44716,1,0,0:0:0:0:
64,192,44849,1,8,0:0:0:0:
192,192,44849,1,0,0:0:0:0:
320,192,44849,1,0,0:0:0:0:
448,192,44849,1,0,0:0:0:0:
448,192,45116,1,0,0:0:0:0:
192,192,45383,1,2,0:0:0:0:
320,192,45383,1,0,0:0:0:0:
64,192,45649,1,2,0:0:0:0:
192,192,45649,1,0,0:0:0:0:
320,192,45649,1,0,0:0:0:0:
64,192,45916,1,8,0:0:0:0:
192,192,45916,1,0,0:0:0:0:
320,192,45916,1,0,0:0:0:0:
448,192,45916,1,0,0:0:0:0:
192,192,46183,1,0,0:0:0:0:
64,192,46449,1,2,0:0:0:0:
320,192,46449,1,0,0:0:0:0:
448,192,46449,1,0,0:0:0:0:
448,192,46583,1,0,0:0:0:0:
192,192,46716,1,0,0:0:0:0:
320,192,46849,1,0,0:0:0:0:
64,192,46983,1,8,0:0:0:0:
192,192,46983,1,0,0:0:0:0:
320,192,46983,1,0,0:0:0:0:
448,192,46983,1,0,0:0:0:0:
64,192,47249,1,0,0:0:0:0:
192,192,47516,1,2,0:0:0:0:
320,192,47516,1,0,0:0:0:0:
192,192,47783,1,2,0:0:0:0:
320,192,47783,1,0,0:0:0:0:
448,192,47783,1,0,0:0:0:0:
64,192,48049,1,8,0:0:0:0:
192,192,48049,1,0,0:0:0:0:
320,192,48049,1,0,0:0:0:0:
448,192,48049,1,0,0:0:0:0:
192,192,48316,1,0,0:0:0:0:
64,192,48583,1,2,0:0:0:0:
320,192,48583,1,0,0:0:0:0:
448,192,48583,1,0,0:0:0:0:
448,192,48716,1,0,0:0:0:0:
64,192,48849,1,0,0:0:0:0:
320,192,48983,1,0,0:0:0:0:
64,192,49116,1,8,0:0:0:0:
192,192,49116,1,0,0:0:0:0:
320,192,49116,1,0,0:0:0:0:
448,192,49116,1,0,0:0:0:0:
64,192,49383,1,0,0:0:0:0:
192,192,49649,1,2,0:0:0:0:
320,192,49649,1,0,0:0:0:0:
64,192,49916,1,2,0:0:0:0:
192,192,49916,1,0,0:0:0:0:
320,192,49916,1,0,0:0:0:0:
64,192,50183,1,8,0:0:0:0:
192,192,50183,1,0,0:0:0:0:
320,192,50183,1,0,0:0:0:0:
448,192,50183,1,0,0:0:0:0:
320,192,50449,1,0,0:0:0:0:
64,192,50716,1,2,0:0:0:0:
320,192,50716,1,0,0:0:0:0:
448,192,50716,1,0,0:0:0:0:
64,192,50849,1,0,0:0:0:0:
320,192,50983,1,0,0:0:0:0:
192,192,51116,1,0,0:0:0:0:
64,192,51249,1,8,0:0:0:0:
192,192,51249,1,0,0:0:0:0:
320,192,51249,1,0,0:0:0:0:
448,192,51249,1,0,0:0:0:0:
320,192,51516,1,0,0:0:0:0:
448,192,51649,1,0,0:0:0:0:
320,192,51694,1,0,0:0:0:0:
448,192,51738,1,0,0:0:0:0:
64,192,51783,1,2,0:0:0:0:
192,192,51783,1,0,0:0:0:0:
192,192,52049,1,2,0:0:0:0:
320,192,52049,1,0,0:0:0:0:
448,192,52049,1,0,0:0:0:0:
64,192,52316,1,8,0:0:0:0:
192,192,52316,1,0,0:0:0:0:
320,192,52316,1,0,0:0:0:0:
448,192,52316,1,0,0:0:0:0:
192,192,52583,1,0,0:0:0:0:
64,192,52849,1,2,0:0:0:0:
320,192,52849,1,4,0:0:0:0:
448,192,52849,1,0,0:0:0:0:
320,192,52983,1,0,0:0:0:0:
320,192,53116,1,0,0:0:0:0:
192,192,53249,1,0,0:0:0:0:
64,192,53383,1,8,0:0:0:0:
192,192,53383,1,0,0:0:0:0:
320,192,53383,1,0,0:0:0:0:
448,192,53383,1,0,0:0:0:0:
320,192,53649,1,0,0:0:0:0:
64,192,53783,1,0,0:0:0:0:
192,192,53916,1,2,0:0:0:0:
320,192,53916,1,0,0:0:0:0:
64,192,54183,1,2,0:0:0:0:
192,192,54183,1,0,0:0:0:0:
320,192,54183,1,0,0:0:0:0:
64,192,54449,1,8,0:0:0:0:
192,192,54449,1,0,0:0:0:0:
320,192,54449,1,0,0:0:0:0:
448,192,54449,1,0,0:0:0:0:
448,192,54583,1,0,0:0:0:0:
320,192,54716,1,0,0:0:0:0:
192,192,54849,1,0,0:0:0:0:
64,192,54983,1,2,0:0:0:0:
320,192,54983,1,0,0:0:0:0:
448,192,54983,1,0,0:0:0:0:
448,192,55116,1,0,0:0:0:0:
448,192,55249,1,2,0:0:0:0:
192,192,55383,1,0,0:0:0:0:
64,192,55516,1,8,0:0:0:0:
192,192,55516,1,0,0:0:0:0:
320,192,55516,1,0,0:0:0:0:
448,192,55516,1,0,0:0:0:0:
320,192,55783,1,0,0:0:0:0:
448,192,55916,1,0,0:0:0:0:
192,192,56049,1,2,0:0:0:0:
320,192,56049,1,0,0:0:0:0:
64,192,56316,1,2,0:0:0:0:
192,192,56316,1,0,0:0:0:0:
320,192,56316,1,0,0:0:0:0:
64,192,56583,1,8,0:0:0:0:
192,192,56583,1,0,0:0:0:0:
320,192,56583,1,0,0:0:0:0:
448,192,56583,1,0,0:0:0:0:
448,192,56716,1,0,0:0:0:0:
192,192,56849,1,0,0:0:0:0:
320,192,56983,1,0,0:0:0:0:
64,192,57116,1,2,0:0:0:0:
320,192,57116,1,0,0:0:0:0:
448,192,57116,1,0,0:0:0:0:
64,192,57249,1,0,0:0:0:0:
64,192,57383,1,0,0:0:0:0:
192,192,57516,1,0,0:0:0:0:
64,192,57649,1,8,0:0:0:0:
192,192,57649,1,0,0:0:0:0:
320,192,57649,1,0,0:0:0:0:
448,192,57649,1,0,0:0:0:0:
448,192,57783,1,0,0:0:0:0:
64,192,57916,1,0,0:0:0:0:
448,192,58049,1,0,0:0:0:0:
192,192,58183,1,2,0:0:0:0:
320,192,58183,1,0,0:0:0:0:
64,192,58449,1,2,0:0:0:0:
192,192,58449,1,0,0:0:0:0:
320,192,58449,1,0,0:0:0:0:
64,192,58716,1,8,0:0:0:0:
192,192,58716,1,0,0:0:0:0:
320,192,58716,1,0,0:0:0:0:
448,192,58716,1,0,0:0:0:0:
448,192,58849,1,0,0:0:0:0:
64,192,58983,1,0,0:0:0:0:
192,192,59116,1,0,0:0:0:0:
64,192,59249,1,2,0:0:0:0:
320,192,59249,1,0,0:0:0:0:
448,192,59249,1,0,0:0:0:0:
320,192,59383,1,0,0:0:0:0:
320,192,59516,1,0,0:0:0:0:
192,192,59649,1,0,0:0:0:0:
64,192,59783,1,8,0:0:0:0:
192,192,59783,1,0,0:0:0:0:
320,192,59783,1,0,0:0:0:0:
448,192,59783,1,0,0:0:0:0:
448,192,60049,128,0,60583:0:0:0:0:
192,192,60316,1,2,0:0:0:0:
320,192,60316,1,0,0:0:0:50:Hihat.wav
64,192,60583,128,2,60783:0:0:0:0:
192,192,60583,1,0,0:0:0:50:Hihat.wav
320,192,60583,1,0,0:0:0:0:
64,192,60849,1,8,0:0:0:0:
192,192,60849,1,0,0:0:0:50:Hihat.wav
320,192,60849,1,0,0:0:0:0:
448,192,60849,1,0,0:0:0:0:
64,192,61116,1,8,0:0:0:0:
192,192,61116,1,0,0:0:0:0:
320,192,61116,1,0,0:0:0:0:
448,192,61116,1,0,0:0:0:0:
64,192,61249,1,8,0:0:0:0:
192,192,61249,1,0,0:0:0:0:
320,192,61249,1,0,0:0:0:0:
448,192,61249,1,0,0:0:0:0:
64,192,61383,1,2,0:0:0:0:
192,192,61383,1,4,0:0:0:0:
320,192,61383,1,0,0:0:0:0:
448,192,61383,1,0,0:0:0:0:
64,192,61649,1,8,0:0:0:0:
320,192,61649,1,0,0:0:0:50:Hihat.wav
448,192,61649,1,0,0:0:0:0:
192,192,61783,1,2,0:0:0:0:
64,192,61916,1,8,0:0:0:0:
320,192,61916,1,0,0:0:0:50:Hihat.wav
448,192,61916,1,0,0:0:0:0:
320,192,62049,1,2,0:0:0:0:
64,192,62183,1,8,0:0:0:0:
192,192,62183,1,0,0:0:0:50:Hihat.wav
448,192,62183,1,0,0:0:0:0:
320,192,62316,1,2,0:0:0:0:
64,192,62449,1,2,0:0:0:0:
192,192,62449,1,4,0:0:0:0:
320,192,62449,1,0,0:0:0:0:
448,192,62449,1,0,0:0:0:0:
64,192,62583,1,0,0:0:0:0:
192,192,62716,1,8,0:0:0:0:
320,192,62716,1,0,0:0:0:50:Hihat.wav
448,192,62716,1,0,0:0:0:0:
64,192,62849,1,2,0:0:0:0:
192,192,62983,1,8,0:0:0:0:
320,192,62983,1,0,0:0:0:50:Hihat.wav
448,192,62983,1,0,0:0:0:0:
448,192,63116,1,2,0:0:0:0:
64,192,63249,1,8,0:0:0:0:
192,192,63249,1,0,0:0:0:50:Hihat.wav
320,192,63249,1,0,0:0:0:0:
448,192,63383,1,2,0:0:0:0:
64,192,63516,1,2,0:0:0:0:
192,192,63516,1,4,0:0:0:0:
320,192,63516,1,0,0:0:0:0:
448,192,63516,1,0,0:0:0:0:
320,192,63649,1,0,0:0:0:0:
64,192,63783,1,8,0:0:0:0:
192,192,63783,1,0,0:0:0:50:Hihat.wav
448,192,63783,1,0,0:0:0:0:
320,192,63916,1,2,0:0:0:0:
64,192,64049,1,8,0:0:0:0:
192,192,64049,1,0,0:0:0:50:Hihat.wav
448,192,64049,1,0,0:0:0:0:
192,192,64183,1,2,0:0:0:0:
64,192,64316,1,8,0:0:0:0:
320,192,64316,1,0,0:0:0:50:Hihat.wav
448,192,64316,1,0,0:0:0:0:
192,192,64449,1,2,0:0:0:0:
64,192,64583,1,2,0:0:0:0:
192,192,64583,1,4,0:0:0:0:
320,192,64583,1,0,0:0:0:0:
448,192,64583,1,0,0:0:0:0:
448,192,64716,1,0,0:0:0:0:
64,192,64849,1,8,0:0:0:0:
192,192,64849,1,0,0:0:0:50:Hihat.wav
320,192,64849,1,0,0:0:0:0:
448,192,64983,1,2,0:0:0:0:
64,192,65116,1,8,0:0:0:0:
192,192,65116,1,0,0:0:0:50:Hihat.wav
320,192,65116,1,0,0:0:0:0:
64,192,65249,1,2,0:0:0:0:
192,192,65383,1,8,0:0:0:0:
320,192,65383,1,0,0:0:0:50:Hihat.wav
448,192,65383,1,0,0:0:0:0:
64,192,65516,1,2,0:0:0:0:
64,192,65649,1,2,0:0:0:0:
192,192,65649,1,4,0:0:0:0:
320,192,65649,1,0,0:0:0:0:
448,192,65649,1,0,0:0:0:0:
320,192,65783,1,0,0:0:0:0:
64,192,65916,1,8,0:0:0:0:
192,192,65916,1,0,0:0:0:50:Hihat.wav
448,192,65916,1,0,0:0:0:0:
320,192,66049,1,2,0:0:0:0:
64,192,66183,1,8,0:0:0:0:
192,192,66183,1,0,0:0:0:50:Hihat.wav
448,192,66183,1,0,0:0:0:0:
192,192,66316,1,2,0:0:0:0:
64,192,66449,1,8,0:0:0:0:
320,192,66449,1,0,0:0:0:50:Hihat.wav
448,192,66449,1,0,0:0:0:0:
192,192,66583,1,2,0:0:0:0:
64,192,66716,1,2,0:0:0:0:
192,192,66716,1,4,0:0:0:0:
320,192,66716,1,0,0:0:0:0:
448,192,66716,1,0,0:0:0:0:
448,192,66849,1,0,0:0:0:0:
64,192,66983,1,8,0:0:0:0:
192,192,66983,1,0,0:0:0:50:Hihat.wav
320,192,66983,1,0,0:0:0:0:
448,192,67116,1,2,0:0:0:0:
64,192,67249,1,8,0:0:0:0:
192,192,67249,1,0,0:0:0:50:Hihat.wav
320,192,67249,1,0,0:0:0:0:
192,192,67383,1,2,0:0:0:0:
64,192,67516,1,8,0:0:0:0:
320,192,67516,1,0,0:0:0:50:Hihat.wav
448,192,67516,1,0,0:0:0:0:
192,192,67649,1,2,0:0:0:0:
64,192,67783,1,2,0:0:0:0:
192,192,67783,1,4,0:0:0:0:
320,192,67783,1,0,0:0:0:0:
448,192,67783,1,0,0:0:0:0:
320,192,67916,1,0,0:0:0:0:
64,192,68049,1,8,0:0:0:0:
192,192,68049,1,0,0:0:0:50:Hihat.wav
448,192,68049,1,0,0:0:0:0:
320,192,68183,1,2,0:0:0:0:
64,192,68316,1,8,0:0:0:0:
192,192,68316,1,0,0:0:0:50:Hihat.wav
448,192,68316,1,0,0:0:0:0:
64,192,68449,1,2,0:0:0:0:
64,192,68583,1,8,0:0:0:0:
192,192,68583,1,0,0:0:0:50:Hihat.wav
448,192,68583,1,0,0:0:0:0:
320,192,68716,1,8,0:0:0:0:
448,192,68716,1,0,0:0:0:0:
64,192,68783,1,8,0:0:0:0:
192,192,68783,1,0,0:0:0:0:
320,192,68849,1,4,0:0:0:0:
448,192,68849,1,8,0:0:0:0:
192,192,68983,1,2,0:0:0:0:
64,192,69049,1,2,0:0:0:0:
192,192,69116,1,4,0:0:0:0:
320,192,69116,1,8,0:0:0:0:
448,192,69116,1,0,0:0:0:0:
64,192,69249,1,2,0:0:0:0:
192,192,69316,1,2,0:0:0:0:
64,192,69383,1,8,0:0:0:0:
320,192,69383,1,4,0:0:0:0:
448,192,69383,1,0,0:0:0:0:
192,192,69649,128,0,69916:0:0:0:0:
64,192,69916,1,4,0:0:0:0:
320,192,69916,1,2,0:0:0:0:
448,192,69916,1,0,0:0:0:0:
64,192,70183,1,8,0:0:0:0:
192,192,70183,1,0,0:0:0:50:Hihat.wav
320,192,70183,1,0,0:0:0:0:
448,192,70183,1,0,0:0:0:0:
192,192,70316,1,0,0:0:0:0:
64,192,70449,1,2,0:0:0:0:
320,192,70449,1,0,0:0:0:50:Hihat.wav
192,192,70583,1,2,0:0:0:0:
320,192,70583,1,0,0:0:0:0:
64,192,70716,1,8,0:0:0:0:
192,192,70716,1,0,0:0:0:50:Hihat.wav
320,192,70716,1,0,0:0:0:0:
448,192,70716,1,0,0:0:0:0:
64,192,70849,1,0,0:0:0:0:
192,192,70983,1,2,0:0:0:0:
448,192,70983,1,0,0:0:0:50:Hihat.wav
320,192,71116,1,2,0:0:0:0:
448,192,71116,1,0,0:0:0:0:
64,192,71249,1,8,0:0:0:0:
192,192,71249,1,0,0:0:0:50:Hihat.wav
320,192,71249,1,0,0:0:0:0:
448,192,71249,1,0,0:0:0:0:
64,192,71383,1,2,0:0:0:0:
192,192,71383,1,0,0:0:0:0:
64,192,71516,1,0,0:0:0:50:Hihat.wav
320,192,71516,1,0,0:0:0:0:
192,192,71649,1,2,0:0:0:0:
448,192,71649,1,0,0:0:0:0:
64,192,71783,1,8,0:0:0:0:
192,192,71783,1,0,0:0:0:50:Hihat.wav
320,192,71783,1,0,0:0:0:0:
448,192,71783,1,0,0:0:0:0:
320,192,71916,1,0,0:0:0:0:
64,192,72049,1,2,0:0:0:0:
192,192,72049,1,0,0:0:0:50:Hihat.wav
64,192,72183,1,2,0:0:0:0:
320,192,72183,1,0,0:0:0:0:
64,192,72316,1,8,0:0:0:0:
192,192,72316,1,0,0:0:0:50:Hihat.wav
320,192,72316,1,0,0:0:0:0:
448,192,72316,1,0,0:0:0:0:
64,192,72449,1,0,0:0:0:0:
448,192,72449,1,0,0:0:0:0:
192,192,72583,1,2,0:0:0:0:
320,192,72583,1,0,0:0:0:50:Hihat.wav
448,192,72583,1,0,0:0:0:0:
64,192,72716,1,2,0:0:0:0:
320,192,72716,1,0,0:0:0:0:
64,192,72849,1,8,0:0:0:0:
192,192,72849,1,0,0:0:0:50:Hihat.wav
320,192,72849,1,0,0:0:0:0:
448,192,72849,1,0,0:0:0:0:
192,192,72983,1,0,0:0:0:0:
448,192,72983,1,0,0:0:0:0:
64,192,73116,1,2,0:0:0:0:
192,192,73116,1,0,0:0:0:50:Hihat.wav
320,192,73116,1,0,0:0:0:0:
64,192,73249,1,2,0:0:0:0:
448,192,73249,1,0,0:0:0:0:
64,192,73383,1,8,0:0:0:0:
192,192,73383,1,0,0:0:0:50:Hihat.wav
320,192,73383,1,0,0:0:0:0:
448,192,73383,1,0,0:0:0:0:
192,192,73516,1,2,0:0:0:0:
320,192,73516,1,0,0:0:0:0:
64,192,73649,1,0,0:0:0:50:Hihat.wav
320,192,73649,1,0,0:0:0:0:
448,192,73649,1,0,0:0:0:0:
64,192,73783,1,2,0:0:0:0:
192,192,73783,1,0,0:0:0:0:
64,192,73916,1,8,0:0:0:0:
192,192,73916,1,0,0:0:0:50:Hihat.wav
320,192,73916,1,0,0:0:0:0:
448,192,73916,1,0,0:0:0:0:
320,192,74049,1,0,0:0:0:0:
448,192,74049,1,0,0:0:0:0:
64,192,74183,1,4,0:0:0:0:
192,192,74183,1,2,0:0:0:0:
320,192,74183,1,0,0:0:0:0:
448,192,74183,1,0,0:0:0:0:
64,192,74449,1,8,0:0:0:0:
192,192,74449,1,0,0:0:0:50:Hihat.wav
320,192,74449,1,0,0:0:0:0:
448,192,74449,1,0,0:0:0:0:
192,192,74583,1,0,0:0:0:0:
64,192,74716,1,2,0:0:0:0:
448,192,74716,1,0,0:0:0:50:Hihat.wav
320,192,74849,1,2,0:0:0:0:
448,192,74849,1,0,0:0:0:0:
64,192,74983,1,8,0:0:0:0:
192,192,74983,1,0,0:0:0:50:Hihat.wav
320,192,74983,1,0,0:0:0:0:
448,192,74983,1,0,0:0:0:0:
64,192,75116,1,0,0:0:0:0:
192,192,75249,1,2,0:0:0:0:
320,192,75249,1,0,0:0:0:50:Hihat.wav
192,192,75383,1,2,0:0:0:0:
448,192,75383,1,0,0:0:0:0:
64,192,75516,1,8,0:0:0:0:
192,192,75516,1,0,0:0:0:50:Hihat.wav
320,192,75516,1,0,0:0:0:0:
448,192,75516,1,0,0:0:0:0:
64,192,75649,1,2,0:0:0:0:
320,192,75649,1,0,0:0:0:0:
192,192,75783,1,0,0:0:0:50:Hihat.wav
448,192,75783,1,0,0:0:0:0:
64,192,75916,1,2,0:0:0:0:
320,192,75916,1,0,0:0:0:0:
64,192,76049,1,8,0:0:0:0:
192,192,76049,1,0,0:0:0:50:Hihat.wav
320,192,76049,1,0,0:0:0:0:
448,192,76049,1,0,0:0:0:0:
448,192,76183,1,0,0:0:0:0:
64,192,76316,1,2,0:0:0:0:
320,192,76316,1,0,0:0:0:50:Hihat.wav
192,192,76449,1,2,0:0:0:0:
320,192,76449,1,0,0:0:0:0:
64,192,76583,1,8,0:0:0:0:
192,192,76583,1,0,0:0:0:50:Hihat.wav
320,192,76583,1,0,0:0:0:0:
448,192,76583,1,0,0:0:0:0:
64,192,76716,1,0,0:0:0:0:
320,192,76849,1,2,0:0:0:0:
448,192,76849,1,0,0:0:0:50:Hihat.wav
192,192,76983,1,2,0:0:0:0:
448,192,76983,1,0,0:0:0:0:
64,192,77116,1,8,0:0:0:0:
192,192,77116,1,0,0:0:0:50:Hihat.wav
320,192,77116,1,0,0:0:0:0:
448,192,77116,1,0,0:0:0:0:
320,192,77249,1,0,0:0:0:0:
64,192,77383,1,2,0:0:0:0:
192,192,77383,1,0,0:0:0:50:Hihat.wav
64,192,77516,1,2,0:0:0:0:
448,192,77516,1,0,0:0:0:0:
64,192,77649,1,8,0:0:0:0:
192,192,77649,1,0,0:0:0:50:Hihat.wav
320,192,77649,1,0,0:0:0:0:
448,192,77649,1,0,0:0:0:0:
192,192,77783,1,2,0:0:0:0:
320,192,77783,1,0,0:0:0:0:
448,192,77916,1,0,0:0:0:50:Hihat.wav
64,192,78049,1,2,0:0:0:0:
192,192,78049,1,0,0:0:0:0:
64,192,78183,1,8,0:0:0:0:
192,192,78183,1,0,0:0:0:50:Hihat.wav
320,192,78183,1,0,0:0:0:0:
448,192,78183,1,0,0:0:0:0:
64,192,78316,1,8,0:0:0:0:
192,192,78316,1,0,0:0:0:0:
320,192,78316,1,0,0:0:0:0:
448,192,78316,1,0,0:0:0:0:
64,192,78449,1,4,0:0:0:0:
192,192,78449,1,2,0:0:0:0:
320,192,78449,1,0,0:0:0:0:
448,192,78449,1,0,0:0:0:0:
64,192,78716,1,8,0:0:0:0:
192,192,78716,1,0,0:0:0:50:Hihat.wav
320,192,78716,1,0,0:0:0:0:
448,192,78716,1,0,0:0:0:0:
192,192,78849,1,0,0:0:0:0:
320,192,78983,1,2,0:0:0:0:
448,192,78983,1,0,0:0:0:50:Hihat.wav
64,192,79116,1,2,0:0:0:0:
320,192,79116,1,0,0:0:0:0:
64,192,79249,1,8,0:0:0:0:
192,192,79249,1,0,0:0:0:50:Hihat.wav
320,192,79249,1,0,0:0:0:0:
448,192,79249,1,0,0:0:0:0:
192,192,79383,1,0,0:0:0:0:
64,192,79516,1,2,0:0:0:0:
320,192,79516,1,0,0:0:0:50:Hihat.wav
64,192,79649,1,2,0:0:0:0:
192,192,79649,1,0,0:0:0:0:
64,192,79783,1,8,0:0:0:0:
192,192,79783,1,0,0:0:0:50:Hihat.wav
320,192,79783,1,0,0:0:0:0:
448,192,79783,1,0,0:0:0:0:
320,192,79916,1,2,0:0:0:0:
448,192,79916,1,0,0:0:0:0:
192,192,80049,1,0,0:0:0:50:Hihat.wav
64,192,80183,1,2,0:0:0:0:
448,192,80183,1,0,0:0:0:0:
64,192,80316,1,8,0:0:0:0:
192,192,80316,1,0,0:0:0:50:Hihat.wav
320,192,80316,1,0,0:0:0:0:
448,192,80316,1,0,0:0:0:0:
320,192,80449,1,0,0:0:0:0:
192,192,80583,1,2,0:0:0:0:
448,192,80583,1,0,0:0:0:50:Hihat.wav
64,192,80716,1,2,0:0:0:0:
192,192,80716,1,0,0:0:0:0:
64,192,80849,1,8,0:0:0:0:
192,192,80849,1,0,0:0:0:50:Hihat.wav
320,192,80849,1,0,0:0:0:0:
448,192,80849,1,0,0:0:0:0:
320,192,80983,1,0,0:0:0:0:
64,192,81116,1,2,0:0:0:0:
448,192,81116,1,0,0:0:0:50:Hihat.wav
320,192,81249,1,2,0:0:0:0:
448,192,81249,1,0,0:0:0:0:
64,192,81383,1,8,0:0:0:0:
192,192,81383,1,0,0:0:0:50:Hihat.wav
320,192,81383,1,0,0:0:0:0:
448,192,81383,1,0,0:0:0:0:
192,192,81516,1,0,0:0:0:0:
64,192,81649,1,2,0:0:0:0:
320,192,81649,1,0,0:0:0:50:Hihat.wav
192,192,81783,1,2,0:0:0:0:
320,192,81783,1,0,0:0:0:0:
64,192,81916,1,8,0:0:0:0:
192,192,81916,1,0,0:0:0:50:Hihat.wav
320,192,81916,1,0,0:0:0:0:
448,192,81916,1,0,0:0:0:0:
64,192,82049,1,2,0:0:0:0:
448,192,82049,1,0,0:0:0:0:
192,192,82183,1,0,0:0:0:50:Hihat.wav
320,192,82183,1,0,0:0:0:0:
192,192,82316,1,2,0:0:0:0:
448,192,82316,1,0,0:0:0:0:
64,192,82449,1,8,0:0:0:0:
192,192,82449,1,0,0:0:0:50:Hihat.wav
320,192,82449,1,0,0:0:0:0:
448,192,82449,1,0,0:0:0:0:
320,192,82583,1,0,0:0:0:0:
64,192,82716,1,4,0:0:0:0:
192,192,82716,1,2,0:0:0:0:
320,192,82716,1,0,0:0:0:0:
448,192,82716,1,0,0:0:0:0:
64,192,82983,1,8,0:0:0:0:
192,192,82983,1,0,0:0:0:50:Hihat.wav
320,192,82983,1,0,0:0:0:0:
448,192,82983,1,0,0:0:0:0:
64,192,83116,1,0,0:0:0:0:
192,192,83249,1,2,0:0:0:0:
448,192,83249,1,0,0:0:0:50:Hihat.wav
320,192,83383,1,2,0:0:0:0:
448,192,83383,1,0,0:0:0:0:
64,192,83516,1,8,0:0:0:0:
192,192,83516,1,0,0:0:0:50:Hihat.wav
320,192,83516,1,0,0:0:0:0:
448,192,83516,1,0,0:0:0:0:
64,192,83649,1,0,0:0:0:0:
192,192,83783,1,2,0:0:0:0:
448,192,83783,1,0,0:0:0:50:Hihat.wav
64,192,83916,1,2,0:0:0:0:
192,192,83916,1,0,0:0:0:0:
64,192,84049,1,8,0:0:0:0:
192,192,84049,1,0,0:0:0:50:Hihat.wav
320,192,84049,1,0,0:0:0:0:
448,192,84049,1,0,0:0:0:0:
320,192,84183,1,2,0:0:0:0:
448,192,84183,1,0,0:0:0:0:
64,192,84316,1,0,0:0:0:50:Hihat.wav
192,192,84316,1,0,0:0:0:0:
64,192,84449,1,2,0:0:0:0:
320,192,84449,1,0,0:0:0:0:
64,192,84583,1,8,0:0:0:0:
192,192,84583,1,0,0:0:0:50:Hihat.wav
320,192,84583,1,0,0:0:0:0:
448,192,84583,1,0,0:0:0:0:
448,192,84716,1,0,0:0:0:0:
192,192,84849,1,2,0:0:0:0:
320,192,84849,1,0,0:0:0:50:Hihat.wav
64,192,84983,1,2,0:0:0:0:
320,192,84983,1,0,0:0:0:0:
64,192,85116,1,8,0:0:0:0:
192,192,85116,1,0,0:0:0:50:Hihat.wav
320,192,85116,1,0,0:0:0:0:
448,192,85116,1,0,0:0:0:0:
192,192,85249,1,0,0:0:0:0:
64,192,85383,1,2,0:0:0:0:
448,192,85383,1,0,0:0:0:50:Hihat.wav
64,192,85516,1,2,0:0:0:0:
320,192,85516,1,0,0:0:0:0:
64,192,85649,1,8,0:0:0:0:
192,192,85649,1,0,0:0:0:50:Hihat.wav
320,192,85649,1,0,0:0:0:0:
448,192,85649,1,0,0:0:0:0:
448,192,85783,1,0,0:0:0:0:
64,192,85916,1,2,0:0:0:0:
320,192,85916,1,0,0:0:0:50:Hihat.wav
192,192,86049,1,2,0:0:0:0:
320,192,86049,1,0,0:0:0:0:
64,192,86183,1,8,0:0:0:0:
192,192,86183,1,0,0:0:0:50:Hihat.wav
320,192,86183,1,0,0:0:0:0:
448,192,86183,1,0,0:0:0:0:
64,192,86316,1,2,0:0:0:0:
448,192,86316,1,0,0:0:0:0:
320,192,86449,1,0,0:0:0:50:Hihat.wav
448,192,86449,1,0,0:0:0:0:
64,192,86583,1,2,0:0:0:0:
192,192,86583,1,0,0:0:0:0:
64,192,86716,1,8,0:0:0:0:
192,192,86716,1,0,0:0:0:50:Hihat.wav
320,192,86716,1,0,0:0:0:0:
448,192,86716,1,0,0:0:0:0:
320,192,86849,1,0,0:0:0:0:
64,192,86983,1,4,0:0:0:0:
192,192,86983,1,2,0:0:0:0:
320,192,86983,1,0,0:0:0:0:
448,192,86983,1,0,0:0:0:0:
64,192,87249,1,8,0:0:0:0:
192,192,87249,1,0,0:0:0:50:Hihat.wav
320,192,87249,1,0,0:0:0:0:
448,192,87249,1,0,0:0:0:0:
64,192,87383,1,0,0:0:0:0:
320,192,87516,1,2,0:0:0:0:
448,192,87516,1,0,0:0:0:50:Hihat.wav
192,192,87649,1,2,0:0:0:0:
320,192,87649,1,0,0:0:0:0:
64,192,87783,1,8,0:0:0:0:
192,192,87783,1,0,0:0:0:50:Hihat.wav
320,192,87783,1,0,0:0:0:0:
448,192,87783,1,0,0:0:0:0:
448,192,87916,1,0,0:0:0:0:
64,192,88049,128,4,88183:0:0:0:0:
192,192,88049,128,2,88183:0:0:0:0:
320,192,88049,1,0,0:0:0:0:
320,192,88183,1,2,0:0:0:0:
64,192,88316,1,8,0:0:0:0:
192,192,88316,1,4,0:0:0:0:
320,192,88316,128,0,88449:0:0:0:0:
448,192,88316,128,0,88449:0:0:0:0:
64,192,88449,1,2,0:0:0:0:
64,192,88583,128,4,88716:0:0:0:0:
192,192,88583,128,8,88716:0:0:0:0:
448,192,88583,1,0,0:0:0:0:
448,192,88716,1,2,0:0:0:0:
64,192,88849,1,4,0:0:0:0:
192,192,88849,1,8,0:0:0:0:
320,192,88849,128,0,88983:0:0:0:0:
448,192,88849,128,0,88983:0:0:0:0:
192,192,88983,1,2,0:0:0:0:
64,192,89116,128,4,89249:0:0:0:0:
320,192,89116,128,8,89249:0:0:0:0:
448,192,89116,1,0,0:0:0:0:
448,192,89249,1,2,0:0:0:0:
64,192,89383,1,4,0:0:0:0:
192,192,89383,128,8,89516:0:0:0:0:
320,192,89383,1,0,0:0:0:0:
448,192,89383,128,0,89516:0:0:0:0:
64,192,89516,1,2,0:0:0:0:
64,192,89649,128,4,89783:0:0:0:0:
320,192,89649,128,8,89783:0:0:0:0:
448,192,89649,1,0,0:0:0:0:
448,192,89783,1,2,0:0:0:0:
64,192,89916,1,8,0:0:0:0:
192,192,89916,1,0,0:0:0:0:
320,192,89916,1,0,0:0:0:0:
192,192,90049,1,0,0:0:0:0:
64,192,90183,128,2,91249:0:0:0:0:
448,192,90183,1,0,0:0:0:0:
320,192,91249,1,2,0:0:0:0:
448,192,91249,128,0,92316:0:0:0:0:
320,192,91516,128,0,91649:0:0:0:0:
192,192,91649,128,0,91783:0:0:0:0:
64,192,91783,128,0,91916:0:0:0:0:
192,192,91916,128,0,92049:0:0:0:0:
320,192,92049,128,0,92316:0:0:0:0:
64,192,92316,128,2,93383:0:0:0:0:
192,192,92316,1,0,0:0:0:0:
192,192,92583,128,0,92716:0:0:0:0:
320,192,92716,128,0,92849:0:0:0:0:
448,192,92849,128,0,92983:0:0:0:0:
320,192,92983,128,0,93116:0:0:0:0:
192,192,93116,128,0,93383:0:0:0:0:
320,192,93383,1,2,0:0:0:0:
448,192,93383,128,0,94449:0:0:0:0:
320,192,93649,128,0,93783:0:0:0:0:
192,192,93783,128,0,93916:0:0:0:0:
64,192,93916,128,0,94049:0:0:0:30:Ride.wav
192,192,94049,128,0,94183:0:0:0:0:
320,192,94183,128,0,94716:0:0:0:0:
64,192,94449,128,2,95516:0:0:0:0:
192,192,94449,1,0,0:0:0:0:
192,192,94716,128,0,94849:0:0:0:0:
448,192,94849,128,0,94983:0:0:0:0:
320,192,94983,128,0,95249:0:0:0:30:Ride.wav
448,192,95249,128,0,95449:0:0:0:0:
192,192,95383,1,0,0:0:0:0:
320,192,95449,1,0,0:0:0:0:
192,192,95516,1,2,0:0:0:0:
448,192,95516,128,0,96583:0:0:0:0:
320,192,95783,128,0,96049:0:0:0:0:
64,192,96049,128,0,96316:0:0:0:30:Ride.wav
192,192,96316,128,0,96583:0:0:0:0:
64,192,96583,128,2,97605:0:0:0:0:
320,192,96583,128,0,96849:0:0:0:0:
448,192,96849,128,0,97116:0:0:0:0:
320,192,97116,128,0,97383:0:0:0:30:Ride.wav
192,192,97383,128,0,97516:0:0:0:0:
448,192,97516,1,0,0:0:0:0:
320,192,97560,1,0,0:0:0:0:
192,192,97605,1,0,0:0:0:0:
64,192,97649,1,2,0:0:0:0:
320,192,97649,1,4,0:0:0:0:
448,192,97649,1,0,0:0:0:0:
320,192,98183,1,0,0:0:0:0:
448,192,98183,1,0,0:0:0:0:
64,192,98316,1,0,0:0:0:0:
192,192,98316,1,0,0:0:0:0:
192,192,98716,1,2,0:0:0:0:
448,192,98716,1,4,0:0:0:0:
64,192,98805,1,0,0:0:0:0:
320,192,98805,1,0,0:0:0:0:
192,192,98894,1,0,0:0:0:0:
64,192,98983,1,8,0:0:0:0:
320,192,98983,1,0,0:0:0:50:Hihat.wav
448,192,98983,1,0,0:0:0:0:
192,192,99071,1,0,0:0:0:0:
320,192,99160,1,0,0:0:0:0:
448,192,99160,1,0,0:0:0:0:
64,192,99249,1,2,0:0:0:0:
192,192,99249,1,0,0:0:0:50:Hihat.wav
320,192,99338,1,0,0:0:0:0:
448,192,99338,1,0,0:0:0:0:
64,192,99427,1,0,0:0:0:0:
192,192,99516,1,8,0:0:0:0:
320,192,99516,1,0,0:0:0:50:Hihat.wav
448,192,99516,1,0,0:0:0:0:
64,192,99605,1,0,0:0:0:0:
192,192,99694,1,0,0:0:0:0:
448,192,99694,1,0,0:0:0:0:
64,192,99783,1,2,0:0:0:0:
320,192,99783,1,0,0:0:0:50:Hihat.wav
192,192,99871,1,0,0:0:0:0:
448,192,99871,1,0,0:0:0:0:
320,192,99960,1,0,0:0:0:0:
64,192,100049,1,8,0:0:0:0:
192,192,100049,1,0,0:0:0:50:Hihat.wav
448,192,100049,1,0,0:0:0:0:
320,192,100138,1,0,0:0:0:0:
64,192,100227,1,0,0:0:0:0:
192,192,100227,1,0,0:0:0:0:
320,192,100316,128,0,100583:0:0:0:50:Hihat.wav
448,192,100316,1,0,0:0:0:0:
192,192,100449,1,2,0:0:0:0:
64,192,100583,1,8,0:0:0:0:
192,192,100583,1,0,0:0:0:50:Hihat.wav
448,192,100583,128,0,100849:0:0:0:0:
320,192,100716,1,0,0:0:0:0:
64,192,100849,1,2,0:0:0:0:
192,192,100849,128,0,100983:0:0:0:50:Hihat.wav
320,192,100983,1,2,0:0:0:0:
448,192,100983,128,0,101116:0:0:0:0:
64,192,101116,128,8,101249:0:0:0:0:
192,192,101116,1,0,0:0:0:50:Hihat.wav
320,192,101116,1,0,0:0:0:0:
448,192,101249,128,0,101516:0:0:0:0:
192,192,101383,1,2,0:0:0:0:
64,192,101516,128,2,101649:0:0:0:0:
320,192,101516,1,0,0:0:0:0:
192,192,101649,128,8,101783:0:0:0:0:
320,192,101649,1,0,0:0:0:50:Hihat.wav
448,192,101649,1,0,0:0:0:0:
448,192,101783,128,0,101916:0:0:0:0:
64,192,101916,1,2,0:0:0:0:
192,192,101916,128,0,102049:0:0:0:50:Hihat.wav
320,192,102049,128,2,102183:0:0:0:0:
448,192,102049,1,0,0:0:0:0:
64,192,102183,128,8,102316:0:0:0:0:
192,192,102183,1,0,0:0:0:50:Hihat.wav
448,192,102183,1,0,0:0:0:0:
320,192,102316,128,2,102583:0:0:0:0:
448,192,102449,1,0,0:0:0:50:Hihat.wav
64,192,102583,1,2,0:0:0:0:
192,192,102583,128,0,102716:0:0:0:0:
64,192,102716,128,8,102916:0:0:0:0:
320,192,102716,1,0,0:0:0:50:Hihat.wav
448,192,102716,1,0,0:0:0:0:
64,192,102983,1,2,0:0:0:0:
192,192,102983,1,4,0:0:0:0:
448,192,102983,1,0,0:0:0:0:
192,192,103116,1,0,0:0:0:0:
64,192,103249,1,8,0:0:0:0:
320,192,103249,1,0,0:0:0:50:Hihat.wav
448,192,103249,1,0,0:0:0:0:
320,192,103383,1,0,0:0:0:0:
64,192,103516,1,2,0:0:0:0:
192,192,103516,1,0,0:0:0:50:Hihat.wav
64,192,103649,1,2,0:0:0:0:
192,192,103783,1,8,0:0:0:0:
320,192,103783,1,0,0:0:0:50:Hihat.wav
448,192,103783,1,0,0:0:0:0:
448,192,103916,1,0,0:0:0:0:
64,192,104049,1,2,0:0:0:0:
192,192,104049,1,0,0:0:0:50:Hihat.wav
192,192,104183,1,2,0:0:0:0:
64,192,104316,1,8,0:0:0:0:
320,192,104316,1,0,0:0:0:50:Hihat.wav
448,192,104316,1,0,0:0:0:0:
320,192,104449,1,2,0:0:0:0:
64,192,104583,1,0,0:0:0:50:Hihat.wav
448,192,104583,1,0,0:0:0:0:
64,192,104716,1,2,0:0:0:0:
192,192,104849,1,8,0:0:0:0:
448,192,104849,1,0,0:0:0:50:Hihat.wav
320,192,104849,1,0,0:0:0:0:
448,192,104983,1,0,0:0:0:0:
64,192,105116,1,2,0:0:0:0:
320,192,105116,128,0,105383:0:0:0:50:Hihat.wav
192,192,105249,1,2,0:0:0:0:
64,192,105383,128,8,105516:0:0:0:0:
192,192,105383,1,0,0:0:0:50:Hihat.wav
448,192,105383,1,0,0:0:0:0:
448,192,105516,128,0,105649:0:0:0:0:
192,192,105649,128,2,105783:0:0:0:0:
320,192,105649,1,0,0:0:0:50:Hihat.wav
64,192,105783,1,2,0:0:0:0:
320,192,105783,128,0,105916:0:0:0:0:
64,192,105916,128,8,106049:0:0:0:0:
192,192,105916,1,0,0:0:0:50:Hihat.wav
448,192,105916,1,0,0:0:0:0:
448,192,106049,128,0,106183:0:0:0:0:
64,192,106183,1,2,0:0:0:0:
320,192,106183,128,0,106316:0:0:0:50:Hihat.wav
192,192,106316,128,2,106449:0:0:0:0:
448,192,106316,1,0,0:0:0:0:
64,192,106449,128,8,106583:0:0:0:0:
320,192,106449,1,0,0:0:0:50:Hihat.wav
448,192,106449,1,0,0:0:0:0:
320,192,106583,128,2,106983:0:0:0:0:
192,192,106716,1,0,0:0:0:50:Hihat.wav
64,192,106849,1,2,0:0:0:0:
64,192,106983,1,8,0:0:0:0:
192,192,106983,1,0,0:0:0:50:Hihat.wav
448,192,106983,1,0,0:0:0:0:
192,192,107116,1,8,0:0:0:0:
320,192,107116,1,0,0:0:0:0:
448,192,107116,1,0,0:0:0:0:
64,192,107249,128,2,107316:0:0:0:0:
448,192,107249,1,4,0:0:0:0:
64,192,107383,128,0,107449:0:0:0:0:
320,192,107383,1,0,0:0:0:0:
64,192,107516,128,8,107583:0:0:0:0:
320,192,107516,1,0,0:0:0:50:Hihat.wav
448,192,107516,1,0,0:0:0:0:
64,192,107649,128,0,107716:0:0:0:0:
64,192,107783,128,2,107916:0:0:0:0:
448,192,107783,1,0,0:0:0:50:Hihat.wav
192,192,107916,128,2,108049:0:0:0:0:
320,192,107916,1,0,0:0:0:0:
64,192,108049,1,8,0:0:0:0:
320,192,108049,1,0,0:0:0:50:Hihat.wav
448,192,108049,1,0,0:0:0:0:
448,192,108183,128,0,108383:0:0:0:0:
64,192,108316,1,2,0:0:0:0:
192,192,108316,1,0,0:0:0:50:Hihat.wav
320,192,108449,1,2,0:0:0:0:
448,192,108449,128,0,108516:0:0:0:0:
64,192,108583,1,8,0:0:0:0:
192,192,108583,1,0,0:0:0:50:Hihat.wav
448,192,108583,128,0,108649:0:0:0:0:
192,192,108716,128,2,108783:0:0:0:0:
192,192,108849,128,0,108916:0:0:0:50:Hihat.wav
448,192,108849,1,0,0:0:0:0:
64,192,108983,1,2,0:0:0:0:
192,192,108983,128,0,109249:0:0:0:0:
320,192,108983,1,0,0:0:0:0:
64,192,109116,1,8,0:0:0:0:
320,192,109116,1,0,0:0:0:50:Hihat.wav
448,192,109116,1,0,0:0:0:0:
64,192,109383,1,2,0:0:0:0:
448,192,109383,128,0,109649:0:0:0:50:Hihat.wav
192,192,109516,1,2,0:0:0:0:
320,192,109516,1,0,0:0:0:0:
64,192,109649,1,8,0:0:0:0:
192,192,109649,1,0,0:0:0:50:Hihat.wav
320,192,109649,1,0,0:0:0:0:
448,192,109738,1,0,0:0:0:0:
64,192,109827,1,0,0:0:0:0:
320,192,109827,1,0,0:0:0:0:
192,192,109916,128,2,110183:0:0:0:0:
320,192,110049,1,2,0:0:0:0:
448,192,110049,1,0,0:0:0:0:
64,192,110183,1,8,0:0:0:0:
320,192,110183,1,0,0:0:0:50:Hihat.wav
448,192,110183,1,0,0:0:0:0:
64,192,110316,128,0,110583:0:0:0:0:
320,192,110449,1,2,0:0:0:0:
448,192,110449,1,0,0:0:0:50:Hihat.wav
192,192,110583,1,2,0:0:0:0:
448,192,110583,1,0,0:0:0:0:
320,192,110627,1,0,0:0:0:0:
64,192,110716,1,8,0:0:0:0:
192,192,110716,1,0,0:0:0:50:Hihat.wav
448,192,110716,1,0,0:0:0:0:
320,192,110849,128,2,111249:0:0:0:0:
64,192,110983,1,0,0:0:0:50:Hihat.wav
192,192,111116,1,2,0:0:0:0:
448,192,111116,1,0,0:0:0:0:
64,192,111249,1,8,0:0:0:0:
192,192,111249,1,0,0:0:0:50:Hihat.wav
448,192,111249,1,0,0:0:0:0:
320,192,111383,1,0,0:0:0:0:
64,192,111516,1,2,0:0:0:0:
192,192,111516,1,4,0:0:0:0:
448,192,111516,1,0,0:0:0:0:
320,192,111605,1,0,0:0:0:0:
192,192,111694,1,0,0:0:0:0:
64,192,111783,1,8,0:0:0:0:
320,192,111783,1,0,0:0:0:50:Hihat.wav
448,192,111783,1,0,0:0:0:0:
192,192,111871,1,0,0:0:0:0:
64,192,111960,1,0,0:0:0:0:
320,192,111960,1,0,0:0:0:0:
192,192,112049,1,2,0:0:0:0:
448,192,112049,1,0,0:0:0:50:Hihat.wav
64,192,112138,1,0,0:0:0:0:
320,192,112138,1,0,0:0:0:0:
192,192,112227,1,0,0:0:0:0:
64,192,112316,1,8,0:0:0:0:
320,192,112316,1,0,0:0:0:50:Hihat.wav
448,192,112316,1,0,0:0:0:0:
192,192,112405,1,0,0:0:0:0:
320,192,112494,1,0,0:0:0:0:
448,192,112494,1,0,0:0:0:0:
64,192,112583,1,2,0:0:0:0:
192,192,112583,128,0,112983:0:0:0:50:Hihat.wav
320,192,112716,1,2,0:0:0:0:
448,192,112716,1,0,0:0:0:0:
64,192,112849,1,8,0:0:0:0:
320,192,112849,1,0,0:0:0:50:Hihat.wav
448,192,112849,1,0,0:0:0:0:
64,192,112983,128,2,113383:0:0:0:0:
320,192,113116,1,0,0:0:0:50:Hihat.wav
192,192,113249,1,2,0:0:0:0:
448,192,113249,1,0,0:0:0:0:
192,192,113383,1,8,0:0:0:0:
320,192,113383,1,0,0:0:0:50:Hihat.wav
448,192,113383,128,0,113649:0:0:0:0:
64,192,113649,128,2,113916:0:0:0:0:
192,192,113649,1,0,0:0:0:50:Hihat.wav
320,192,113783,1,2,0:0:0:0:
448,192,113783,1,0,0:0:0:0:
192,192,113916,1,8,0:0:0:0:
320,192,113916,128,0,114183:0:0:0:50:Hihat.wav
448,192,113916,1,0,0:0:0:0:
192,192,114183,128,2,114449:0:0:0:0:
448,192,114183,1,0,0:0:0:50:Hihat.wav
64,192,114316,1,2,0:0:0:0:
320,192,114316,1,0,0:0:0:0:
64,192,114449,1,8,0:0:0:0:
320,192,114449,1,0,0:0:0:50:Hihat.wav
448,192,114449,1,0,0:0:0:0:
448,192,114583,128,0,114849:0:0:0:0:
64,192,114716,1,2,0:0:0:0:
192,192,114716,1,0,0:0:0:50:Hihat.wav
192,192,114849,128,2,114983:0:0:0:0:
320,192,114849,1,0,0:0:0:0:
64,192,114983,1,8,0:0:0:0:
320,192,114983,128,0,115116:0:0:0:50:Hihat.wav
448,192,114983,1,0,0:0:0:0:
64,192,115116,128,2,115516:0:0:0:0:
192,192,115249,1,0,0:0:0:50:Hihat.wav
320,192,115383,1,2,0:0:0:0:
448,192,115383,1,0,0:0:0:0:
192,192,115516,128,8,115783:0:0:0:0:
320,192,115516,1,0,0:0:0:50:Hihat.wav
448,192,115516,1,0,0:0:0:0:
64,192,115649,1,0,0:0:0:0:
64,192,115783,1,2,0:0:0:0:
320,192,115783,128,4,115916:0:0:0:0:
448,192,115783,1,0,0:0:0:0:
448,192,115916,128,0,116049:0:0:0:0:
64,192,116049,1,8,0:0:0:0:
192,192,116049,128,0,116183:0:0:0:50:Hihat.wav
320,192,116049,1,0,0:0:0:0:
320,192,116183,128,0,116316:0:0:0:0:
64,192,116316,1,2,0:0:0:0:
448,192,116316,1,0,0:0:0:50:Hihat.wav
192,192,116405,1,0,0:0:0:0:
320,192,116405,1,0,0:0:0:0:
448,192,116494,1,0,0:0:0:0:
64,192,116583,1,8,0:0:0:0:
192,192,116583,1,0,0:0:0:50:Hihat.wav
320,192,116671,1,0,0:0:0:0:
448,192,116671,1,0,0:0:0:0:
192,192,116760,1,0,0:0:0:0:
64,192,116849,1,2,0:0:0:0:
320,192,116849,128,4,116983:0:0:0:0:
448,192,116849,128,0,116983:0:0:0:0:
192,192,116983,1,2,0:0:0:0:
64,192,117116,128,8,117249:0:0:0:0:
192,192,117116,128,4,117249:0:0:0:0:
448,192,117116,1,0,0:0:0:0:
320,192,117249,1,2,0:0:0:0:
192,192,117383,1,4,0:0:0:0:
320,192,117383,128,0,117516:0:0:0:0:
448,192,117383,128,0,117516:0:0:0:0:
64,192,117516,1,2,0:0:0:0:
64,192,117649,128,8,117783:0:0:0:0:
192,192,117649,128,4,117783:0:0:0:0:
320,192,117649,1,0,0:0:0:0:
448,192,117783,1,2,0:0:0:0:
64,192,117916,128,8,118049:0:0:0:0:
192,192,117916,128,4,118049:0:0:0:0:
448,192,117916,1,0,0:0:0:0:
320,192,118049,1,2,0:0:0:0:
64,192,118183,1,8,0:0:0:0:
320,192,118183,128,4,118316:0:0:0:0:
448,192,118183,128,0,118316:0:0:0:0:
192,192,118316,1,2,0:0:0:0:
64,192,118449,128,8,118583:0:0:0:0:
192,192,118449,128,4,118583:0:0:0:0:
320,192,118449,1,0,0:0:0:0:
448,192,118583,1,0,0:0:0:0:
448,192,118716,128,0,118849:0:0:0:0:
64,192,118983,128,2,119783:0:0:0:0:
192,192,118983,1,0,0:0:0:0:
192,192,119249,1,8,0:0:0:0:
320,192,119249,1,0,0:0:0:0:
448,192,119249,1,0,0:0:0:0:
320,192,119516,1,2,0:0:0:0:
448,192,119516,1,0,0:0:0:0:
320,192,119649,1,2,0:0:0:0:
448,192,119649,1,0,0:0:0:0:
192,192,119783,1,8,0:0:0:0:
320,192,119783,1,0,0:0:0:0:
448,192,119783,1,0,0:0:0:0:
192,192,119916,1,8,0:0:0:0:
320,192,119916,1,0,0:0:0:0:
448,192,119916,1,0,0:0:0:0:
64,192,120049,1,2,0:0:0:0:
192,192,120049,1,0,0:0:0:0:
64,192,121116,1,2,0:0:0:0:
192,192,121116,1,4,0:0:0:0:
320,192,121116,1,0,0:0:0:0:
448,192,121116,1,0,0:0:0:0:
64,192,121383,1,8,0:0:0:0:
192,192,121383,1,0,0:0:0:50:Hihat.wav
448,192,121383,1,0,0:0:0:0:
320,192,121516,1,2,0:0:0:0:
64,192,121649,1,8,0:0:0:0:
192,192,121649,1,0,0:0:0:50:Hihat.wav
448,192,121649,1,0,0:0:0:0:
192,192,121783,1,2,0:0:0:0:
64,192,121916,1,8,0:0:0:0:
320,192,121916,1,0,0:0:0:50:Hihat.wav
448,192,121916,1,0,0:0:0:0:
192,192,122049,1,2,0:0:0:0:
64,192,122183,1,2,0:0:0:0:
192,192,122183,1,4,0:0:0:0:
320,192,122183,1,0,0:0:0:0:
448,192,122183,1,0,0:0:0:0:
448,192,122316,1,0,0:0:0:0:
64,192,122449,1,8,0:0:0:0:
192,192,122449,1,0,0:0:0:50:Hihat.wav
320,192,122449,1,0,0:0:0:0:
448,192,122583,1,2,0:0:0:0:
64,192,122716,1,8,0:0:0:0:
192,192,122716,1,0,0:0:0:50:Hihat.wav
320,192,122716,1,0,0:0:0:0:
64,192,122849,1,2,0:0:0:0:
192,192,122983,1,8,0:0:0:0:
320,192,122983,1,0,0:0:0:50:Hihat.wav
448,192,122983,1,0,0:0:0:0:
64,192,123116,1,2,0:0:0:0:
64,192,123249,1,2,0:0:0:0:
192,192,123249,1,4,0:0:0:0:
320,192,123249,1,0,0:0:0:0:
448,192,123249,1,0,0:0:0:0:
192,192,123383,1,0,0:0:0:0:
64,192,123516,1,8,0:0:0:0:
320,192,123516,1,0,0:0:0:50:Hihat.wav
448,192,123516,1,0,0:0:0:0:
192,192,123649,1,2,0:0:0:0:
64,192,123783,1,8,0:0:0:0:
320,192,123783,1,0,0:0:0:50:Hihat.wav
448,192,123783,1,0,0:0:0:0:
320,192,123916,1,2,0:0:0:0:
64,192,124049,1,8,0:0:0:0:
192,192,124049,1,0,0:0:0:50:Hihat.wav
448,192,124049,1,0,0:0:0:0:
320,192,124183,1,2,0:0:0:0:
64,192,124316,1,2,0:0:0:0:
192,192,124316,1,4,0:0:0:0:
320,192,124316,1,0,0:0:0:0:
448,192,124316,1,0,0:0:0:0:
64,192,124449,1,0,0:0:0:0:
192,192,124583,1,8,0:0:0:0:
320,192,124583,1,0,0:0:0:50:Hihat.wav
448,192,124583,1,0,0:0:0:0:
64,192,124716,1,2,0:0:0:0:
192,192,124849,1,8,0:0:0:0:
320,192,124849,1,0,0:0:0:50:Hihat.wav
448,192,124849,1,0,0:0:0:0:
448,192,124983,1,2,0:0:0:0:
64,192,125116,1,8,0:0:0:0:
192,192,125116,1,0,0:0:0:50:Hihat.wav
320,192,125116,1,0,0:0:0:0:
448,192,125249,1,2,0:0:0:0:
64,192,125383,1,2,0:0:0:0:
192,192,125383,1,4,0:0:0:0:
320,192,125383,1,0,0:0:0:0:
448,192,125383,1,0,0:0:0:0:
192,192,125516,1,0,0:0:0:0:
64,192,125649,1,8,0:0:0:0:
320,192,125649,1,0,0:0:0:50:Hihat.wav
448,192,125649,1,0,0:0:0:0:
192,192,125783,1,2,0:0:0:0:
64,192,125916,1,8,0:0:0:0:
320,192,125916,1,0,0:0:0:50:Hihat.wav
448,192,125916,1,0,0:0:0:0:
448,192,126049,1,2,0:0:0:0:
64,192,126183,1,8,0:0:0:0:
192,192,126183,1,0,0:0:0:50:Hihat.wav
320,192,126183,1,0,0:0:0:0:
448,192,126316,1,2,0:0:0:0:
64,192,126449,1,2,0:0:0:0:
192,192,126449,1,4,0:0:0:0:
320,192,126449,1,0,0:0:0:0:
448,192,126449,1,0,0:0:0:0:
64,192,126583,1,0,0:0:0:0:
192,192,126716,1,8,0:0:0:0:
320,192,126716,1,0,0:0:0:50:Hihat.wav
448,192,126716,1,0,0:0:0:0:
64,192,126849,1,2,0:0:0:0:
192,192,126983,1,8,0:0:0:0:
320,192,126983,1,0,0:0:0:50:Hihat.wav
448,192,126983,1,0,0:0:0:0:
320,192,127116,1,2,0:0:0:0:
64,192,127249,1,8,0:0:0:0:
192,192,127249,1,0,0:0:0:50:Hihat.wav
448,192,127249,1,0,0:0:0:0:
320,192,127383,1,2,0:0:0:0:
64,192,127516,1,2,0:0:0:0:
192,192,127516,1,4,0:0:0:0:
320,192,127516,1,0,0:0:0:0:
448,192,127516,1,0,0:0:0:0:
192,192,127649,1,0,0:0:0:0:
64,192,127783,1,8,0:0:0:0:
320,192,127783,1,0,0:0:0:50:Hihat.wav
448,192,127783,1,0,0:0:0:0:
192,192,127916,1,2,0:0:0:0:
64,192,128049,1,8,0:0:0:0:
320,192,128049,1,0,0:0:0:50:Hihat.wav
448,192,128049,1,0,0:0:0:0:
320,192,128183,1,2,0:0:0:0:
64,192,128316,1,8,0:0:0:0:
192,192,128316,1,0,0:0:0:50:Hihat.wav
448,192,128316,1,0,0:0:0:0:
320,192,128449,1,8,0:0:0:0:
448,192,128449,1,0,0:0:0:0:
64,192,128516,1,8,0:0:0:0:
192,192,128516,1,0,0:0:0:0:
320,192,128583,1,4,0:0:0:0:
448,192,128583,1,8,0:0:0:0:
64,192,128849,1,4,0:0:0:0:
192,192,128849,1,8,0:0:0:0:
448,192,128849,128,0,129649:0:0:0:0:
64,192,131249,1,8,0:0:0:0:
192,192,131249,1,2,0:0:0:0:
320,192,131249,1,0,0:0:0:0:
448,192,131249,1,0,0:0:0:0:
64,192,131783,128,0,131916:0:0:0:0:
320,192,131783,1,0,0:0:0:0:
64,192,132049,128,0,132183:0:0:0:20:Clap.wav
320,192,132049,1,0,0:0:0:0:
448,192,132049,1,0,0:0:0:0:
64,192,132316,128,0,132449:0:0:0:0:
320,192,132316,1,0,0:0:0:0:
64,192,132583,128,0,132716:0:0:0:20:Clap.wav
320,192,132583,1,0,0:0:0:0:
448,192,132583,1,0,0:0:0:0:
64,192,132849,128,0,132983:0:0:0:0:
320,192,132849,1,0,0:0:0:0:
64,192,133116,128,0,133249:0:0:0:20:Clap.wav
320,192,133116,1,0,0:0:0:0:
448,192,133116,1,0,0:0:0:0:
64,192,133383,128,0,133516:0:0:0:0:
320,192,133383,1,0,0:0:0:0:
64,192,133649,128,0,133783:0:0:0:20:Clap.wav
320,192,133649,1,0,0:0:0:0:
448,192,133649,1,0,0:0:0:0:
192,192,133916,1,0,0:0:0:0:
320,192,133916,128,0,134049:0:0:0:0:
64,192,134183,1,0,0:0:0:20:Clap.wav
192,192,134183,1,0,0:0:0:0:
320,192,134183,128,0,134316:0:0:0:0:
192,192,134449,1,0,0:0:0:0:
320,192,134449,128,0,134583:0:0:0:0:
64,192,134716,1,0,0:0:0:20:Clap.wav
192,192,134716,1,0,0:0:0:0:
320,192,134716,128,0,134849:0:0:0:0:
192,192,134983,1,0,0:0:0:0:
320,192,134983,128,0,135116:0:0:0:0:
64,192,135249,1,0,0:0:0:20:Clap.wav
192,192,135249,1,0,0:0:0:0:
320,192,135249,128,0,135383:0:0:0:0:
192,192,135516,1,0,0:0:0:0:
320,192,135516,128,0,135649:0:0:0:0:
64,192,135783,1,0,0:0:0:20:Clap.wav
192,192,135783,1,0,0:0:0:0:
320,192,135783,128,0,135916:0:0:0:0:
192,192,136049,128,0,136183:0:0:0:0:
448,192,136049,1,0,0:0:0:0:
192,192,136316,128,0,136449:0:0:0:20:Clap.wav
320,192,136316,1,0,0:0:0:0:
448,192,136316,1,0,0:0:0:0:
192,192,136583,128,0,136716:0:0:0:0:
448,192,136583,1,0,0:0:0:0:
192,192,136849,128,0,136983:0:0:0:20:Clap.wav
320,192,136849,1,0,0:0:0:0:
448,192,136849,1,0,0:0:0:0:
192,192,137116,128,0,137249:0:0:0:0:
448,192,137116,1,0,0:0:0:0:
192,192,137383,128,0,137516:0:0:0:20:Clap.wav
320,192,137383,1,0,0:0:0:0:
448,192,137383,1,0,0:0:0:0:
192,192,137649,128,0,137783:0:0:0:0:
448,192,137649,1,0,0:0:0:0:
192,192,137916,128,0,138049:0:0:0:20:Clap.wav
320,192,137916,1,0,0:0:0:0:
448,192,137916,1,0,0:0:0:0:
64,192,138183,1,0,0:0:0:0:
320,192,138183,128,0,138316:0:0:0:0:
64,192,138449,1,0,0:0:0:20:Clap.wav
192,192,138449,1,0,0:0:0:0:
320,192,138449,128,0,138583:0:0:0:0:
64,192,138716,1,0,0:0:0:0:
320,192,138716,128,0,138849:0:0:0:0:
64,192,138983,1,0,0:0:0:20:Clap.wav
192,192,138983,1,0,0:0:0:0:
320,192,138983,128,0,139116:0:0:0:0:
64,192,139249,1,0,0:0:0:0:
448,192,139249,128,0,139383:0:0:0:0:
64,192,139516,1,0,0:0:0:20:Clap.wav
192,192,139516,1,0,0:0:0:0:
448,192,139516,128,0,139649:0:0:0:0:
64,192,139783,1,0,0:0:0:0:
448,192,139783,128,0,139916:0:0:0:0:
64,192,140049,1,0,0:0:0:20:Clap.wav
192,192,140049,1,0,0:0:0:0:
448,192,140049,128,0,140183:0:0:0:0:
320,192,140316,1,0,0:0:0:0:
448,192,140316,128,0,140583:0:0:0:0:
192,192,140449,128,0,140583:0:0:0:0:
64,192,140583,1,0,0:0:0:20:Clap.wav
320,192,140583,128,0,140849:0:0:0:0:
64,192,140716,128,0,140849:0:0:0:0:
192,192,140849,1,0,0:0:0:0:
448,192,140849,128,0,141116:0:0:0:0:
192,192,140983,128,0,141116:0:0:0:0:
64,192,141116,1,0,0:0:0:20:Clap.wav
320,192,141116,128,0,141383:0:0:0:0:
192,192,141249,128,0,141383:0:0:0:0:
64,192,141383,1,0,0:0:0:0:
448,192,141383,128,0,141649:0:0:0:0:
320,192,141516,128,0,141649:0:0:0:0:
64,192,141649,128,0,141916:0:0:0:20:Clap.wav
192,192,141649,1,0,0:0:0:0:
192,192,141783,128,0,141916:0:0:0:0:
320,192,141916,1,0,0:0:0:0:
448,192,141916,128,0,142183:0:0:0:0:
320,192,142049,128,0,142183:0:0:0:0:
64,192,142183,1,0,0:0:0:20:Clap.wav
192,192,142183,128,0,142449:0:0:0:0:
448,192,142316,128,0,142449:0:0:0:0:
64,192,142449,1,0,0:0:0:0:
320,192,142449,128,0,142716:0:0:0:0:
64,192,142583,128,0,142716:0:0:0:0:
192,192,142716,1,0,0:0:0:20:Clap.wav
448,192,142716,128,0,142983:0:0:0:0:
192,192,142849,128,0,142983:0:0:0:0:
64,192,142983,1,0,0:0:0:0:
320,192,142983,128,0,143249:0:0:0:0:
64,192,143116,128,0,143249:0:0:0:0:
192,192,143249,128,0,143516:0:0:0:20:Clap.wav
448,192,143249,1,0,0:0:0:0:
320,192,143383,128,0,143516:0:0:0:0:
64,192,143516,1,0,0:0:0:0:
448,192,143549,1,0,0:0:0:0:
320,192,143583,128,0,143783:0:0:0:0:
64,192,143649,128,0,143783:0:0:0:0:
192,192,143783,128,0,144049:0:0:0:20:Clap.wav
448,192,143783,1,0,0:0:0:0:
64,192,143916,128,0,144049:0:0:0:0:
320,192,144049,1,0,0:0:0:0:
448,192,144049,128,0,144316:0:0:0:0:
320,192,144183,128,0,144316:0:0:0:0:
64,192,144316,128,0,144583:0:0:0:20:Clap.wav
192,192,144316,1,0,0:0:0:0:
320,192,144449,128,0,144583:0:0:0:0:
192,192,144583,128,0,144849:0:0:0:0:
448,192,144583,1,0,0:0:0:0:
64,192,144716,128,0,144849:0:0:0:0:
320,192,144849,128,0,145116:0:0:0:20:Clap.wav
448,192,144849,1,0,0:0:0:0:
448,192,144983,128,0,145116:0:0:0:0:
64,192,145116,128,0,145383:0:0:0:0:
192,192,145116,1,0,0:0:0:0:
320,192,145249,128,0,145383:0:0:0:0:
192,192,145383,128,0,145649:0:0:0:20:Clap.wav
448,192,145383,1,0,0:0:0:0:
448,192,145516,128,0,145649:0:0:0:0:
64,192,145649,128,0,145916:0:0:0:0:
320,192,145649,1,0,0:0:0:0:
448,192,145916,1,0,0:0:0:0:
320,192,145960,1,0,0:0:0:0:
192,192,146005,1,0,0:0:0:0:
64,192,146049,1,0,0:0:0:0:
448,192,146094,1,0,0:0:0:0:
320,192,146138,1,0,0:0:0:0:
64,192,146183,1,0,0:0:0:0:
192,192,146183,1,0,0:0:0:0:
192,192,146449,1,0,0:0:0:0:
320,192,146449,1,0,0:0:0:0:
64,192,146983,1,0,0:0:0:0:
192,192,146983,1,0,0:0:0:0:
192,192,147249,1,0,0:0:0:0:
320,192,147249,1,0,0:0:0:0:
320,192,147516,1,0,0:0:0:0:
448,192,147516,1,0,0:0:0:0:
64,192,147783,1,4,0:0:0:0:
192,192,147783,128,2,148049:0:0:0:0:
320,192,147783,1,0,0:0:0:0:
448,192,147783,1,0,0:0:0:0:
64,192,148049,1,8,0:0:0:0:
320,192,148049,1,0,0:0:0:50:Hihat.wav
448,192,148049,1,0,0:0:0:0:
320,192,148183,1,0,0:0:0:0:
192,192,148316,1,2,0:0:0:0:
448,192,148316,128,0,148716:0:0:0:50:Hihat.wav
192,192,148449,1,2,0:0:0:0:
64,192,148583,1,8,0:0:0:0:
192,192,148583,1,0,0:0:0:50:Hihat.wav
320,192,148583,1,0,0:0:0:0:
64,192,148716,1,0,0:0:0:0:
320,192,148716,1,0,0:0:0:0:
192,192,148849,1,2,0:0:0:0:
448,192,148849,1,0,0:0:0:50:Hihat.wav
320,192,148983,1,2,0:0:0:0:
448,192,148983,1,0,0:0:0:0:
64,192,149116,1,8,0:0:0:0:
192,192,149116,1,0,0:0:0:50:Hihat.wav
320,192,149116,1,0,0:0:0:0:
64,192,149249,1,2,0:0:0:0:
448,192,149249,1,0,0:0:0:0:
192,192,149383,128,0,149649:0:0:0:50:Hihat.wav
448,192,149383,1,0,0:0:0:0:
320,192,149516,1,2,0:0:0:0:
64,192,149649,1,8,0:0:0:0:
320,192,149649,1,0,0:0:0:50:Hihat.wav
448,192,149649,1,0,0:0:0:0:
192,192,149783,1,0,0:0:0:0:
448,192,149783,1,0,0:0:0:0:
64,192,149916,1,2,0:0:0:0:
320,192,149916,1,0,0:0:0:50:Hihat.wav
64,192,150049,1,2,0:0:0:0:
192,192,150049,1,0,0:0:0:0:
192,192,150183,1,8,0:0:0:0:
320,192,150183,1,0,0:0:0:50:Hihat.wav
448,192,150183,1,0,0:0:0:0:
320,192,150316,1,0,0:0:0:0:
448,192,150316,1,0,0:0:0:0:
64,192,150449,128,2,150716:0:0:0:0:
192,192,150449,1,0,0:0:0:50:Hihat.wav
320,192,150583,1,2,0:0:0:0:
192,192,150716,1,8,0:0:0:0:
320,192,150716,1,0,0:0:0:50:Hihat.wav
448,192,150716,128,0,150983:0:0:0:0:
64,192,150849,1,0,0:0:0:0:
64,192,150983,128,2,151249:0:0:0:0:
320,192,150983,1,0,0:0:0:50:Hihat.wav
448,192,151116,1,2,0:0:0:0:
192,192,151249,1,8,0:0:0:0:
320,192,151249,1,0,0:0:0:50:Hihat.wav
448,192,151249,1,0,0:0:0:0:
192,192,151383,128,2,151649:0:0:0:0:
320,192,151516,1,0,0:0:0:50:Hihat.wav
448,192,151516,1,0,0:0:0:0:
64,192,151649,128,2,152049:0:0:0:0:
448,192,151649,1,0,0:0:0:0:
320,192,151783,1,8,0:0:0:0:
448,192,151783,1,0,0:0:0:50:Hihat.wav
192,192,151916,1,0,0:0:0:0:
192,192,152049,1,4,0:0:0:0:
320,192,152049,1,2,0:0:0:0:
448,192,152049,1,0,0:0:0:0:
64,192,152316,1,8,0:0:0:0:
320,192,152316,1,0,0:0:0:50:Hihat.wav
448,192,152316,128,0,152583:0:0:0:0:
192,192,152449,1,0,0:0:0:0:
64,192,152583,128,2,152849:0:0:0:0:
320,192,152583,1,0,0:0:0:50:Hihat.wav
320,192,152716,1,2,0:0:0:0:
192,192,152849,1,8,0:0:0:0:
320,192,152849,1,0,0:0:0:50:Hihat.wav
448,192,152849,1,0,0:0:0:0:
64,192,152983,1,0,0:0:0:0:
192,192,152983,128,0,153249:0:0:0:0:
448,192,153116,1,2,0:0:0:0:
64,192,153249,1,2,0:0:0:0:
320,192,153249,1,0,0:0:0:0:
64,192,153383,1,8,0:0:0:0:
192,192,153383,1,0,0:0:0:50:Hihat.wav
448,192,153383,1,0,0:0:0:0:
320,192,153516,1,2,0:0:0:0:
448,192,153516,1,0,0:0:0:0:
64,192,153649,1,0,0:0:0:50:Hihat.wav
320,192,153649,1,0,0:0:0:0:
64,192,153783,1,2,0:0:0:0:
192,192,153916,1,8,0:0:0:0:
320,192,153916,1,0,0:0:0:50:Hihat.wav
448,192,153916,1,0,0:0:0:0:
320,192,154049,128,0,154316:0:0:0:0:
192,192,154183,1,2,0:0:0:0:
64,192,154316,1,2,0:0:0:0:
192,192,154316,1,0,0:0:0:0:
64,192,154449,1,8,0:0:0:0:
320,192,154449,1,0,0:0:0:50:Hihat.wav
448,192,154449,1,0,0:0:0:0:
192,192,154583,1,0,0:0:0:0:
448,192,154583,1,0,0:0:0:0:
192,192,154716,1,2,0:0:0:0:
320,192,154716,1,0,0:0:0:50:Hihat.wav
64,192,154849,1,2,0:0:0:0:
320,192,154849,1,0,0:0:0:0:
64,192,154983,1,8,0:0:0:0:
192,192,154983,1,0,0:0:0:50:Hihat.wav
448,192,154983,1,0,0:0:0:0:
192,192,155116,1,0,0:0:0:0:
320,192,155116,1,0,0:0:0:0:
64,192,155249,128,2,155516:0:0:0:0:
320,192,155249,1,0,0:0:0:50:Hihat.wav
192,192,155383,1,2,0:0:0:0:
192,192,155516,1,8,0:0:0:0:
320,192,155516,1,0,0:0:0:50:Hihat.wav
448,192,155516,1,0,0:0:0:0:
64,192,155649,1,2,0:0:0:0:
448,192,155649,128,0,155916:0:0:0:0:
192,192,155783,1,0,0:0:0:50:Hihat.wav
64,192,155916,1,2,0:0:0:0:
320,192,155916,1,0,0:0:0:0:
192,192,156049,1,8,0:0:0:0:
320,192,156049,1,0,0:0:0:50:Hihat.wav
448,192,156049,1,0,0:0:0:0:
64,192,156183,128,8,156583:0:0:0:0:
320,192,156183,1,0,0:0:0:0:
448,192,156183,1,0,0:0:0:0:
192,192,156316,128,4,156583:0:0:0:0:
320,192,156316,1,2,0:0:0:0:
448,192,156316,1,0,0:0:0:0:
320,192,156583,1,8,0:0:0:0:
448,192,156583,1,0,0:0:0:50:Hihat.wav
64,192,156716,1,0,0:0:0:0:
192,192,156716,128,0,157116:0:0:0:0:
320,192,156849,128,2,157116:0:0:0:0:
448,192,156849,1,0,0:0:0:50:Hihat.wav
64,192,156983,1,2,0:0:0:0:
64,192,157116,1,8,0:0:0:0:
448,192,157116,1,0,0:0:0:50:Hihat.wav
192,192,157249,128,0,157649:0:0:0:0:
320,192,157249,1,0,0:0:0:0:
64,192,157383,128,2,157649:0:0:0:0:
448,192,157383,1,0,0:0:0:50:Hihat.wav
448,192,157516,1,2,0:0:0:0:
320,192,157649,1,8,0:0:0:0:
448,192,157649,1,0,0:0:0:50:Hihat.wav
64,192,157783,1,2,0:0:0:0:
192,192,157783,128,0,158183:0:0:0:0:
320,192,157916,128,0,158183:0:0:0:50:Hihat.wav
448,192,157916,1,0,0:0:0:0:
64,192,158049,1,2,0:0:0:0:
64,192,158183,1,8,0:0:0:0:
448,192,158183,1,0,0:0:0:50:Hihat.wav
192,192,158316,1,0,0:0:0:0:
64,192,158383,1,0,0:0:0:0:
320,192,158449,1,2,0:0:0:0:
448,192,158449,1,0,0:0:0:50:Hihat.wav
192,192,158583,1,2,0:0:0:0:
448,192,158583,1,0,0:0:0:0:
64,192,158716,1,8,0:0:0:0:
192,192,158716,1,0,0:0:0:50:Hihat.wav
320,192,158716,1,0,0:0:0:0:
64,192,158849,1,0,0:0:0:0:
448,192,158849,1,0,0:0:0:0:
320,192,158983,1,2,0:0:0:0:
448,192,158983,1,0,0:0:0:50:Hihat.wav
192,192,159116,1,2,0:0:0:0:
320,192,159116,1,0,0:0:0:0:
64,192,159249,1,8,0:0:0:0:
192,192,159249,1,0,0:0:0:50:Hihat.wav
448,192,159249,1,0,0:0:0:0:
320,192,159383,1,0,0:0:0:0:
448,192,159383,1,0,0:0:0:0:
64,192,159516,1,2,0:0:0:0:
320,192,159516,1,0,0:0:0:50:Hihat.wav
64,192,159649,1,2,0:0:0:0:
448,192,159649,1,0,0:0:0:0:
192,192,159783,1,8,0:0:0:0:
320,192,159783,1,0,0:0:0:50:Hihat.wav
448,192,159783,1,0,0:0:0:0:
64,192,159916,1,2,0:0:0:0:
192,192,159916,1,0,0:0:0:0:
64,192,160049,1,0,0:0:0:50:Hihat.wav
320,192,160049,1,0,0:0:0:0:
320,192,160183,1,2,0:0:0:0:
448,192,160183,1,0,0:0:0:0:
64,192,160316,1,8,0:0:0:0:
192,192,160316,1,0,0:0:0:50:Hihat.wav
448,192,160316,1,0,0:0:0:0:
320,192,160449,1,0,0:0:0:0:
64,192,160516,128,0,160849:0:0:0:0:
192,192,160583,1,4,0:0:0:0:
320,192,160583,1,2,0:0:0:0:
448,192,160583,1,0,0:0:0:0:
192,192,160849,1,8,0:0:0:0:
320,192,160849,1,0,0:0:0:50:Hihat.wav
448,192,160849,1,0,0:0:0:0:
64,192,160983,1,0,0:0:0:0:
448,192,160983,1,0,0:0:0:0:
192,192,161116,1,2,0:0:0:0:
320,192,161116,1,0,0:0:0:50:Hihat.wav
192,192,161249,1,2,0:0:0:0:
64,192,161383,1,8,0:0:0:0:
320,192,161383,1,0,0:0:0:50:Hihat.wav
448,192,161383,1,0,0:0:0:0:
192,192,161516,1,0,0:0:0:0:
320,192,161516,1,0,0:0:0:0:
64,192,161649,1,2,0:0:0:0:
192,192,161649,1,4,0:0:0:0:
448,192,161649,1,0,0:0:0:0:
448,192,161783,1,2,0:0:0:0:
64,192,161916,1,8,0:0:0:0:
192,192,161916,1,0,0:0:0:50:Hihat.wav
320,192,161916,1,0,0:0:0:0:
192,192,162049,1,2,0:0:0:0:
64,192,162183,1,8,0:0:0:0:
320,192,162183,1,0,0:0:0:50:Hihat.wav
448,192,162183,1,0,0:0:0:0:
320,192,162316,1,2,0:0:0:0:
64,192,162449,1,8,0:0:0:0:
448,192,162449,1,0,0:0:0:50:Hihat.wav
192,192,162516,1,8,0:0:0:0:
320,192,162516,1,0,0:0:0:0:
64,192,162583,1,8,0:0:0:0:
448,192,162583,1,0,0:0:0:0:
192,192,162649,1,8,0:0:0:0:
320,192,162649,1,0,0:0:0:0:
64,192,162716,1,2,0:0:0:0:
448,192,162716,1,4,0:0:0:0:
64,192,162983,1,8,0:0:0:0:
192,192,162983,1,0,0:0:0:50:Hihat.wav
320,192,162983,1,0,0:0:0:0:
448,192,162983,1,0,0:0:0:0:
320,192,163116,1,0,0:0:0:0:
192,192,163249,1,2,0:0:0:0:
448,192,163249,1,0,0:0:0:50:Hihat.wav
192,192,163383,1,2,0:0:0:0:
320,192,163383,1,0,0:0:0:0:
64,192,163516,1,8,0:0:0:0:
192,192,163516,1,0,0:0:0:50:Hihat.wav
320,192,163516,1,0,0:0:0:0:
448,192,163516,1,0,0:0:0:0:
448,192,163649,1,0,0:0:0:0:
64,192,163783,1,2,0:0:0:0:
320,192,163783,1,0,0:0:0:50:Hihat.wav
64,192,163916,1,2,0:0:0:0:
192,192,163916,1,0,0:0:0:0:
64,192,164049,1,8,0:0:0:0:
192,192,164049,1,0,0:0:0:50:Hihat.wav
320,192,164049,1,0,0:0:0:0:
448,192,164049,1,0,0:0:0:0:
320,192,164183,1,2,0:0:0:0:
448,192,164183,1,0,0:0:0:0:
192,192,164316,1,0,0:0:0:50:Hihat.wav
448,192,164316,1,0,0:0:0:0:
64,192,164449,1,2,0:0:0:0:
320,192,164449,1,0,0:0:0:0:
64,192,164583,1,8,0:0:0:0:
192,192,164583,1,0,0:0:0:50:Hihat.wav
320,192,164583,1,0,0:0:0:0:
448,192,164583,1,0,0:0:0:0:
192,192,164716,1,0,0:0:0:0:
320,192,164849,1,2,0:0:0:0:
448,192,164849,1,0,0:0:0:50:Hihat.wav
192,192,164983,1,2,0:0:0:0:
448,192,164983,1,0,0:0:0:0:
64,192,165116,1,8,0:0:0:0:
192,192,165116,1,0,0:0:0:50:Hihat.wav
320,192,165116,1,0,0:0:0:0:
448,192,165116,1,0,0:0:0:0:
64,192,165249,1,0,0:0:0:0:
448,192,165249,1,0,0:0:0:0:
64,192,165383,1,2,0:0:0:0:
192,192,165383,1,0,0:0:0:50:Hihat.wav
320,192,165383,1,0,0:0:0:0:
192,192,165516,1,2,0:0:0:0:
448,192,165516,1,0,0:0:0:0:
64,192,165649,1,8,0:0:0:0:
192,192,165649,1,0,0:0:0:50:Hihat.wav
320,192,165649,1,0,0:0:0:0:
448,192,165649,1,0,0:0:0:0:
64,192,165783,1,0,0:0:0:0:
320,192,165783,1,0,0:0:0:0:
192,192,165916,1,2,0:0:0:0:
320,192,165916,1,0,0:0:0:50:Hihat.wav
448,192,165916,1,0,0:0:0:0:
64,192,166049,1,2,0:0:0:0:
448,192,166049,1,0,0:0:0:0:
64,192,166183,1,8,0:0:0:0:
192,192,166183,1,0,0:0:0:50:Hihat.wav
320,192,166183,1,0,0:0:0:0:
448,192,166183,1,0,0:0:0:0:
192,192,166316,1,2,0:0:0:0:
320,192,166316,1,0,0:0:0:0:
64,192,166449,1,0,0:0:0:50:Hihat.wav
192,192,166449,1,0,0:0:0:0:
448,192,166449,1,0,0:0:0:0:
320,192,166583,1,2,0:0:0:0:
448,192,166583,1,0,0:0:0:0:
64,192,166716,1,8,0:0:0:0:
192,192,166716,1,0,0:0:0:50:Hihat.wav
320,192,166716,1,0,0:0:0:0:
448,192,166716,1,0,0:0:0:0:
64,192,166849,1,0,0:0:0:0:
192,192,166849,1,0,0:0:0:0:
64,192,166983,1,2,0:0:0:0:
192,192,166983,1,4,0:0:0:0:
320,192,166983,1,0,0:0:0:0:
448,192,166983,1,0,0:0:0:0:
64,192,167249,1,8,0:0:0:0:
192,192,167249,1,0,0:0:0:50:Hihat.wav
320,192,167249,1,0,0:0:0:0:
448,192,167249,1,0,0:0:0:0:
320,192,167383,1,0,0:0:0:0:
64,192,167516,1,2,0:0:0:0:
448,192,167516,1,0,0:0:0:50:Hihat.wav
64,192,167649,1,2,0:0:0:0:
192,192,167649,1,0,0:0:0:0:
64,192,167783,1,8,0:0:0:0:
192,192,167783,1,0,0:0:0:50:Hihat.wav
320,192,167783,1,0,0:0:0:0:
448,192,167783,1,0,0:0:0:0:
448,192,167916,1,0,0:0:0:0:
192,192,168049,1,2,0:0:0:0:
320,192,168049,1,0,0:0:0:50:Hihat.wav
64,192,168183,1,2,0:0:0:0:
320,192,168183,1,0,0:0:0:0:
64,192,168316,1,8,0:0:0:0:
192,192,168316,1,0,0:0:0:50:Hihat.wav
320,192,168316,1,0,0:0:0:0:
448,192,168316,1,0,0:0:0:0:
192,192,168449,1,2,0:0:0:0:
448,192,168449,1,0,0:0:0:0:
64,192,168583,1,0,0:0:0:50:Hihat.wav
320,192,168583,1,0,0:0:0:0:
192,192,168716,1,2,0:0:0:0:
448,192,168716,1,0,0:0:0:0:
64,192,168849,1,8,0:0:0:0:
192,192,168849,1,0,0:0:0:50:Hihat.wav
320,192,168849,1,0,0:0:0:0:
448,192,168849,1,0,0:0:0:0:
64,192,168983,1,0,0:0:0:0:
192,192,169116,1,2,0:0:0:0:
448,192,169116,1,0,0:0:0:50:Hihat.wav
192,192,169249,1,2,0:0:0:0:
320,192,169249,1,0,0:0:0:0:
64,192,169383,1,8,0:0:0:0:
192,192,169383,1,0,0:0:0:50:Hihat.wav
320,192,169383,1,0,0:0:0:0:
448,192,169383,1,0,0:0:0:0:
448,192,169516,1,0,0:0:0:0:
64,192,169649,1,2,0:0:0:0:
192,192,169649,1,0,0:0:0:50:Hihat.wav
64,192,169783,1,2,0:0:0:0:
320,192,169783,1,0,0:0:0:0:
64,192,169916,1,8,0:0:0:0:
192,192,169916,1,0,0:0:0:50:Hihat.wav
320,192,169916,1,0,0:0:0:0:
448,192,169916,1,0,0:0:0:0:
192,192,170049,1,0,0:0:0:0:
320,192,170183,1,2,0:0:0:0:
448,192,170183,1,0,0:0:0:50:Hihat.wav
64,192,170316,1,2,0:0:0:0:
448,192,170316,1,0,0:0:0:0:
64,192,170449,1,8,0:0:0:0:
192,192,170449,1,0,0:0:0:50:Hihat.wav
320,192,170449,1,0,0:0:0:0:
448,192,170449,1,0,0:0:0:0:
192,192,170583,1,2,0:0:0:0:
320,192,170583,1,0,0:0:0:0:
64,192,170716,1,0,0:0:0:50:Hihat.wav
320,192,170849,1,2,0:0:0:0:
448,192,170849,1,0,0:0:0:0:
64,192,170983,1,8,0:0:0:0:
192,192,170983,1,0,0:0:0:50:Hihat.wav
320,192,170983,1,0,0:0:0:0:
448,192,170983,1,0,0:0:0:0:
64,192,171116,1,8,0:0:0:0:
192,192,171116,1,0,0:0:0:0:
320,192,171116,1,0,0:0:0:0:
448,192,171116,1,0,0:0:0:0:
64,192,171249,1,2,0:0:0:0:
192,192,171249,1,4,0:0:0:0:
320,192,171249,1,0,0:0:0:0:
448,192,171249,1,0,0:0:0:0:
64,192,171516,1,8,0:0:0:0:
192,192,171516,1,0,0:0:0:50:Hihat.wav
320,192,171516,1,0,0:0:0:0:
448,192,171516,1,0,0:0:0:0:
320,192,171649,1,0,0:0:0:0:
64,192,171783,1,2,0:0:0:0:
192,192,171783,1,0,0:0:0:50:Hihat.wav
192,192,171916,1,2,0:0:0:0:
448,192,171916,1,0,0:0:0:0:
64,192,172049,1,8,0:0:0:0:
192,192,172049,1,0,0:0:0:50:Hihat.wav
320,192,172049,1,0,0:0:0:0:
448,192,172049,1,0,0:0:0:0:
320,192,172183,1,0,0:0:0:0:
192,192,172316,1,2,0:0:0:0:
448,192,172316,1,0,0:0:0:50:Hihat.wav
320,192,172449,1,2,0:0:0:0:
448,192,172449,1,0,0:0:0:0:
64,192,172583,1,8,0:0:0:0:
192,192,172583,1,0,0:0:0:50:Hihat.wav
320,192,172583,1,0,0:0:0:0:
448,192,172583,1,0,0:0:0:0:
64,192,172716,1,2,0:0:0:0:
192,192,172716,1,0,0:0:0:0:
320,192,172849,1,0,0:0:0:50:Hihat.wav
64,192,172983,1,2,0:0:0:0:
448,192,172983,1,0,0:0:0:0:
64,192,173116,1,8,0:0:0:0:
192,192,173116,1,0,0:0:0:50:Hihat.wav
320,192,173116,1,0,0:0:0:0:
448,192,173116,1,0,0:0:0:0:
192,192,173249,1,0,0:0:0:0:
64,192,173383,1,2,0:0:0:0:
320,192,173383,1,0,0:0:0:50:Hihat.wav
320,192,173516,1,2,0:0:0:0:
448,192,173516,1,0,0:0:0:0:
64,192,173649,1,8,0:0:0:0:
192,192,173649,1,0,0:0:0:50:Hihat.wav
320,192,173649,1,0,0:0:0:0:
448,192,173649,1,0,0:0:0:0:
192,192,173783,1,0,0:0:0:0:
64,192,173916,1,2,0:0:0:0:
448,192,173916,1,0,0:0:0:50:Hihat.wav
64,192,174049,1,2,0:0:0:0:
192,192,174049,1,0,0:0:0:0:
64,192,174183,1,8,0:0:0:0:
192,192,174183,1,0,0:0:0:50:Hihat.wav
320,192,174183,1,0,0:0:0:0:
448,192,174183,1,0,0:0:0:0:
320,192,174316,1,0,0:0:0:0:
192,192,174449,1,2,0:0:0:0:
448,192,174449,1,0,0:0:0:50:Hihat.wav
192,192,174583,1,2,0:0:0:0:
320,192,174583,1,0,0:0:0:0:
64,192,174716,1,8,0:0:0:0:
192,192,174716,1,0,0:0:0:50:Hihat.wav
320,192,174716,1,0,0:0:0:0:
448,192,174716,1,0,0:0:0:0:
64,192,174849,1,2,0:0:0:0:
448,192,174849,1,0,0:0:0:0:
192,192,174983,1,0,0:0:0:50:Hihat.wav
320,192,174983,1,0,0:0:0:0:
64,192,175116,1,2,0:0:0:0:
320,192,175116,1,0,0:0:0:0:
64,192,175249,1,8,0:0:0:0:
192,192,175249,1,0,0:0:0:50:Hihat.wav
320,192,175249,1,0,0:0:0:0:
448,192,175249,1,0,0:0:0:0:
192,192,175383,1,0,0:0:0:0:
64,192,175516,1,2,0:0:0:0:
192,192,175516,1,4,0:0:0:0:
320,192,175516,1,0,0:0:0:0:
448,192,175516,1,0,0:0:0:0:
64,192,175783,1,8,0:0:0:0:
192,192,175783,1,0,0:0:0:50:Hihat.wav
320,192,175783,1,0,0:0:0:0:
448,192,175783,1,0,0:0:0:0:
448,192,175916,1,0,0:0:0:0:
64,192,176049,1,2,0:0:0:0:
320,192,176049,1,0,0:0:0:50:Hihat.wav
64,192,176183,1,2,0:0:0:0:
192,192,176183,1,0,0:0:0:0:
64,192,176316,1,8,0:0:0:0:
192,192,176316,1,0,0:0:0:50:Hihat.wav
320,192,176316,1,0,0:0:0:0:
448,192,176316,1,0,0:0:0:0:
448,192,176449,1,0,0:0:0:0:
64,192,176583,1,2,0:0:0:0:
320,192,176583,1,0,0:0:0:50:Hihat.wav
320,192,176716,1,2,0:0:0:0:
448,192,176716,1,0,0:0:0:0:
64,192,176849,1,8,0:0:0:0:
192,192,176849,1,0,0:0:0:50:Hihat.wav
320,192,176849,1,0,0:0:0:0:
448,192,176849,1,0,0:0:0:0:
64,192,176983,1,2,0:0:0:0:
192,192,176983,1,0,0:0:0:0:
320,192,177116,1,0,0:0:0:50:Hihat.wav
448,192,177116,1,0,0:0:0:0:
192,192,177249,1,2,0:0:0:0:
448,192,177249,1,0,0:0:0:0:
64,192,177383,1,8,0:0:0:0:
192,192,177383,1,0,0:0:0:50:Hihat.wav
320,192,177383,1,0,0:0:0:0:
448,192,177383,1,0,0:0:0:0:
64,192,177516,1,0,0:0:0:0:
192,192,177649,1,2,0:0:0:0:
320,192,177649,1,0,0:0:0:50:Hihat.wav
192,192,177783,1,2,0:0:0:0:
448,192,177783,1,0,0:0:0:0:
64,192,177916,1,8,0:0:0:0:
192,192,177916,1,0,0:0:0:50:Hihat.wav
320,192,177916,1,0,0:0:0:0:
448,192,177916,1,0,0:0:0:0:
320,192,178049,1,0,0:0:0:0:
64,192,178183,1,2,0:0:0:0:
448,192,178183,1,0,0:0:0:50:Hihat.wav
192,192,178316,1,2,0:0:0:0:
448,192,178316,1,0,0:0:0:0:
64,192,178449,1,8,0:0:0:0:
192,192,178449,1,0,0:0:0:50:Hihat.wav
320,192,178449,1,0,0:0:0:0:
448,192,178449,1,0,0:0:0:0:
64,192,178583,1,0,0:0:0:0:
192,192,178716,1,2,0:0:0:0:
448,192,178716,1,0,0:0:0:50:Hihat.wav
192,192,178849,1,2,0:0:0:0:
320,192,178849,1,0,0:0:0:0:
64,192,178983,1,8,0:0:0:0:
192,192,178983,1,0,0:0:0:50:Hihat.wav
320,192,178983,1,0,0:0:0:0:
448,192,178983,1,0,0:0:0:0:
64,192,179116,1,2,0:0:0:0:
448,192,179116,1,0,0:0:0:0:
64,192,179249,1,0,0:0:0:50:Hihat.wav
192,192,179249,1,0,0:0:0:0:
320,192,179383,1,2,0:0:0:0:
448,192,179383,1,0,0:0:0:0:
64,192,179516,1,8,0:0:0:0:
192,192,179516,1,0,0:0:0:50:Hihat.wav
320,192,179516,1,0,0:0:0:0:
448,192,179516,1,0,0:0:0:0:
192,192,179649,1,0,0:0:0:0:
64,192,179783,1,2,0:0:0:0:
192,192,179783,1,4,0:0:0:0:
320,192,179783,1,0,0:0:0:0:
448,192,179783,1,0,0:0:0:0:
64,192,180049,1,8,0:0:0:0:
192,192,180049,1,0,0:0:0:50:Hihat.wav
320,192,180049,1,0,0:0:0:0:
448,192,180049,1,0,0:0:0:0:
448,192,180183,1,0,0:0:0:0:
64,192,180316,1,2,0:0:0:0:
192,192,180316,1,0,0:0:0:50:Hihat.wav
192,192,180449,1,2,0:0:0:0:
320,192,180449,1,0,0:0:0:0:
64,192,180583,1,8,0:0:0:0:
192,192,180583,1,0,0:0:0:50:Hihat.wav
320,192,180583,1,0,0:0:0:0:
448,192,180583,1,0,0:0:0:0:
64,192,180716,1,0,0:0:0:0:
192,192,180849,1,2,0:0:0:0:
320,192,180849,128,4,180983:0:0:0:0:
448,192,180849,128,0,180983:0:0:0:0:
192,192,180983,1,2,0:0:0:0:
64,192,181116,128,8,181249:0:0:0:0:
192,192,181116,128,4,181249:0:0:0:0:
320,192,181116,1,0,0:0:0:0:
448,192,181116,1,0,0:0:0:0:
448,192,181249,1,2,0:0:0:0:
64,192,181383,1,4,0:0:0:0:
320,192,181383,128,0,181516:0:0:0:0:
448,192,181383,128,0,181516:0:0:0:0:
64,192,181516,1,2,0:0:0:0:
64,192,181649,128,8,181783:0:0:0:0:
192,192,181649,128,4,181783:0:0:0:0:
320,192,181649,1,0,0:0:0:0:
448,192,181649,1,0,0:0:0:0:
320,192,181783,1,2,0:0:0:0:
64,192,181916,1,8,0:0:0:0:
192,192,181916,128,4,182049:0:0:0:0:
448,192,181916,128,0,182049:0:0:0:0:
64,192,182049,1,2,0:0:0:0:
64,192,182183,128,8,182316:0:0:0:0:
192,192,182183,1,4,0:0:0:0:
320,192,182183,128,0,182316:0:0:0:0:
448,192,182183,1,0,0:0:0:0:
448,192,182316,1,2,0:0:0:0:
64,192,182449,1,8,0:0:0:0:
192,192,182449,128,4,182583:0:0:0:0:
448,192,182449,128,0,182583:0:0:0:0:
64,192,182583,1,2,0:0:0:0:
192,192,182716,1,0,0:0:0:0:
320,192,182849,1,0,0:0:0:0:
64,192,182983,128,2,183516:0:0:0:0:
192,192,182983,1,4,0:0:0:0:
448,192,182983,1,0,0:0:0:0:
320,192,183116,1,0,0:0:0:0:
192,192,183249,1,8,0:0:0:0:
320,192,183249,1,0,0:0:0:50:Hihat.wav
448,192,183249,1,0,0:0:0:0:
192,192,183383,1,0,0:0:0:0:
320,192,183516,1,0,0:0:0:50:Hihat.wav
448,192,183516,1,0,0:0:0:0:
192,192,183649,1,2,0:0:0:0:
64,192,183783,1,8,0:0:0:0:
320,192,183783,128,0,184049:0:0:0:50:Hihat.wav
448,192,183783,1,0,0:0:0:0:
192,192,183916,1,0,0:0:0:0:
64,192,184049,1,2,0:0:0:0:
448,192,184049,128,0,184316:0:0:0:50:Hihat.wav
192,192,184183,1,2,0:0:0:0:
320,192,184183,1,0,0:0:0:0:
64,192,184316,1,8,0:0:0:0:
192,192,184316,128,0,184583:0:0:0:50:Hihat.wav
320,192,184316,1,0,0:0:0:0:
448,192,184449,1,2,0:0:0:0:
64,192,184583,128,0,184849:0:0:0:50:Hihat.wav
320,192,184583,1,0,0:0:0:0:
192,192,184716,1,2,0:0:0:0:
448,192,184716,1,0,0:0:0:0:
192,192,184849,1,8,0:0:0:0:
320,192,184849,128,0,185116:0:0:0:50:Hihat.wav
448,192,184849,1,0,0:0:0:0:
64,192,184983,1,0,0:0:0:0:
192,192,185116,1,2,0:0:0:0:
448,192,185116,128,0,185383:0:0:0:50:Hihat.wav
64,192,185249,1,2,0:0:0:0:
192,192,185249,1,0,0:0:0:0:
64,192,185383,1,8,0:0:0:0:
192,192,185383,1,0,0:0:0:50:Hihat.wav
320,192,185383,1,0,0:0:0:0:
64,192,185516,128,0,185783:0:0:0:0:
320,192,185649,1,0,0:0:0:50:Hihat.wav
448,192,185649,1,0,0:0:0:0:
320,192,185783,1,2,0:0:0:0:
448,192,185783,1,0,0:0:0:0:
64,192,185916,1,8,0:0:0:0:
192,192,185916,1,0,0:0:0:50:Hihat.wav
448,192,185916,1,0,0:0:0:0:
64,192,186049,1,0,0:0:0:0:
320,192,186049,1,0,0:0:0:0:
192,192,186183,1,2,0:0:0:0:
448,192,186183,128,0,186449:0:0:0:50:Hihat.wav
64,192,186316,1,2,0:0:0:0:
320,192,186316,1,0,0:0:0:0:
64,192,186449,1,8,0:0:0:0:
192,192,186449,1,0,0:0:0:50:Hihat.wav
320,192,186449,1,0,0:0:0:0:
192,192,186583,1,2,0:0:0:0:
448,192,186583,1,0,0:0:0:0:
64,192,186716,1,0,0:0:0:50:Hihat.wav
320,192,186716,128,0,186983:0:0:0:0:
64,192,186849,1,2,0:0:0:0:
448,192,186849,1,0,0:0:0:0:
64,192,186983,1,8,0:0:0:0:
192,192,186983,128,0,187249:0:0:0:50:Hihat.wav
448,192,186983,1,0,0:0:0:0:
320,192,187116,1,0,0:0:0:0:
64,192,187249,1,2,0:0:0:0:
320,192,187249,1,4,0:0:0:0:
448,192,187249,1,0,0:0:0:0:
192,192,187383,1,0,0:0:0:0:
64,192,187516,1,8,0:0:0:0:
192,192,187516,1,0,0:0:0:50:Hihat.wav
320,192,187516,1,0,0:0:0:0:
448,192,187516,1,0,0:0:0:0:
448,192,187649,1,2,0:0:0:0:
64,192,187783,1,8,0:0:0:0:
192,192,187783,1,0,0:0:0:50:Hihat.wav
320,192,187783,1,0,0:0:0:0:
448,192,187783,1,0,0:0:0:0:
64,192,187916,1,2,0:0:0:0:
192,192,187916,1,0,0:0:0:0:
64,192,188049,1,8,0:0:0:0:
192,192,188049,1,0,0:0:0:50:Hihat.wav
320,192,188049,1,0,0:0:0:0:
448,192,188049,1,0,0:0:0:0:
320,192,188183,1,2,0:0:0:0:
448,192,188183,1,0,0:0:0:0:
64,192,188316,1,8,0:0:0:0:
192,192,188316,1,4,0:0:0:0:
320,192,188316,1,0,0:0:0:0:
448,192,188316,1,0,0:0:0:0:
64,192,188449,1,2,0:0:0:0:
64,192,188583,1,8,0:0:0:0:
192,192,188583,1,0,0:0:0:50:Hihat.wav
320,192,188583,1,0,0:0:0:0:
448,192,188583,1,0,0:0:0:0:
320,192,188716,1,2,0:0:0:0:
448,192,188716,1,0,0:0:0:0:
64,192,188849,1,8,0:0:0:0:
192,192,188849,1,0,0:0:0:50:Hihat.wav
320,192,188849,1,0,0:0:0:0:
448,192,188849,1,0,0:0:0:0:
64,192,188983,1,2,0:0:0:0:
192,192,188983,1,0,0:0:0:0:
64,192,189116,1,8,0:0:0:0:
448,192,189116,1,0,0:0:0:50:Hihat.wav
192,192,189183,1,8,0:0:0:0:
320,192,189183,1,0,0:0:0:0:
64,192,189249,1,8,0:0:0:0:
448,192,189249,1,0,0:0:0:0:
192,192,189316,1,8,0:0:0:0:
320,192,189316,1,0,0:0:0:0:
