osu file format v14

[General]
AudioFilename: audio.mp3
AudioLeadIn: 0
PreviewTime: 17179
Countdown: 0
SampleSet: Soft
StackLeniency: 0.7
Mode: 0
LetterboxInBreaks: 0
WidescreenStoryboard: 1

[Editor]
Bookmarks: 2898,3155,3283,95846,96487,132513
DistanceSpacing: 1
BeatDivisor: 4
GridSize: 32
TimelineZoom: 1.7

[Metadata]
Title:Dorei Janai nara Nan Desu ka?
TitleUnicode:奴隷じゃないなら何ですか?
Artist:TUYU
ArtistUnicode:ツユ
Creator:Woood13
Version:Normal
Source:
Tags:ぷす 礼衣 おむたつ Tsuyu Pusu Rei Omutatsu Miro AyunZ What if this isn't is not a slave japanese rock jrock 2nd album jpop pop
BeatmapID:3131402
BeatmapSetID:1519920

[Difficulty]
HPDrainRate:3.5
CircleSize:3.4
OverallDifficulty:4
ApproachRate:5.5
SliderMultiplier:1.4
SliderTickRate:1

[Events]
//Background and Video events
0,0,"dorei_na_atashi_ne.jpg",0,0
Video,-440,"video.mp4"
//Break Periods
//Storyboard Layer 0 (Background)
//Storyboard Layer 1 (Fail)
//Storyboard Layer 2 (Pass)
//Storyboard Layer 3 (Foreground)
//Storyboard Layer 4 (Overlay)
//Storyboard Sound Samples

[TimingPoints]
463,512.820512820513,4,2,1,50,1,0
463,-90.9090909090909,4,2,1,50,0,0
4565,-90.9090909090909,4,2,1,60,0,0
17129,512.820512820513,4,2,1,80,1,0
17129,-90.9090909090909,4,2,1,80,0,0
36359,-111.111111111111,4,2,1,75,0,0
37641,-90.9090909090909,4,2,1,65,0,0
49949,-90.9090909090909,4,2,1,50,0,0
60205,-90.9090909090909,4,2,1,80,0,0
79435,-111.111111111111,4,2,1,75,0,0
80718,-90.9090909090909,4,2,1,65,0,0
103282,-90.9090909090909,4,2,1,70,0,1
111487,-90.9090909090909,4,2,1,60,0,0
134564,-111.111111111111,4,2,1,50,0,0
135590,512.820512820513,4,2,1,80,1,0
135590,-90.9090909090909,4,2,1,80,0,0
154820,-111.111111111111,4,2,1,70,0,0
156102,-111.111111111111,4,2,1,50,0,0

[Colours]
Combo1 : 31,92,129
Combo2 : 73,141,82
Combo3 : 233,124,44

[HitObjects]
501,358,463,6,0,P|455:346|350:327,1,154.000004699707,2|2,1:2|1:2,2:0:0:0:
308,178,1488,2,0,P|226:194|143:204,1,154.000004699707,2|2,1:2|1:2,2:0:0:0:
25,285,2514,6,0,B|-16:220|-16:220|17:150,1,154.000004699707,2|2,1:2|1:2,2:0:0:0:
168,123,3539,2,0,P|158:59|124:29,1,77.0000023498536,2|0,1:2|1:2,2:0:0:0:
93,0,4052,1,2,1:2:0:0:
240,43,4565,6,0,P|278:48|315:56,1,77.0000023498536,6|2,1:2|2:0,2:0:0:0:
380,14,5078,2,0,P|434:5|476:-4,1,77.0000023498536,10|2,2:0|2:0,2:0:0:0:
481,29,5463,2,0,B|520:68|520:68|511:136,1,115.50000352478,2|2,1:2|1:2,2:0:0:0:
438,149,6104,2,0,P|488:168|509:240,1,115.50000352478,10|0,2:0|0:0,2:0:0:0:
495,256,6616,6,0,P|470:261|415:276,1,77.0000023498536,2|2,1:2|0:0,2:0:0:0:
367,330,7129,2,0,P|331:319|292:313,1,77.0000023498536,10|2,2:0|0:0,2:0:0:0:
221,282,7642,2,0,P|215:258|200:214,1,38.5000011749268,2|2,1:2|0:0,0:0:0:0:
233,213,7898,2,0,P|247:184|240:131,1,77.0000023498536,10|8,2:0|2:0,2:0:0:0:
116,52,8668,6,0,P|151:46|214:31,1,77.0000023498536,6|2,1:2|0:0,2:0:0:0:
259,71,9180,2,0,P|294:76|364:85,1,77.0000023498536,2|0,1:2|2:0,2:0:0:0:
401,42,9693,2,0,B|440:48|440:48|471:99,1,77.0000023498536,2|2,1:2|2:0,0:0:0:0:
442,155,10206,2,0,P|447:182|459:223,1,38.5000011749268,2|2,1:2|2:0,0:0:0:0:
428,225,10463,6,0,P|424:271|417:322,1,77.0000023498536,2|0,2:0|1:2,2:0:0:0:
377,365,10975,1,2,2:0:0:0:
305,333,11232,2,0,P|262:326|200:320,1,77.0000023498536,2|2,1:2|2:0,0:0:0:0:
170,372,11745,2,0,P|148:319|176:266,1,115.50000352478,2|2,1:2|2:0,2:0:0:0:
200,244,12257,2,0,P|205:208|217:159,1,77.0000023498536,2|2,1:2|2:0,2:0:0:0:
163,110,12770,6,0,P|156:71|149:34,1,77.0000023498536,2|2,1:2|2:0,2:0:0:0:
218,0,13283,2,0,P|262:-2|325:36,1,115.50000352478,2|0,1:2|2:0,2:0:0:0:
353,56,13796,2,0,P|390:56|426:31,1,77.0000023498536,2|2,1:2|2:0,0:0:0:0:
492,68,14309,2,0,P|486:89|481:135,1,38.5000011749268,2|2,1:2|2:0,0:0:0:0:
452,128,14565,6,0,P|460:176|468:236,1,77.0000023498536,2|0,2:0|1:2,2:0:0:0:
413,262,15078,2,0,P|374:274|344:333,1,77.0000023498536,2|2,2:0|1:2,0:0:0:0:
287,344,15591,1,2,2:0:0:0:
218,310,15847,2,0,P|212:285|188:193,1,115.50000352478,2|2,1:2|2:0,2:0:0:0:
212,167,16360,1,2,1:2:0:0:
169,102,16616,1,2,2:0:0:0:
290,5,17129,6,0,B|338:14|338:14|356:28|356:28|402:37,1,115.50000352478,2|2,1:2|2:0,0:0:0:0:
435,25,17641,1,10,2:0:0:0:
502,63,17898,1,2,2:0:0:0:
483,137,18154,2,0,P|477:178|474:230,1,77.0000023498536,2|2,1:2|2:0,0:0:0:0:
415,262,18667,2,0,P|420:303|424:355,1,77.0000023498536,10|2,2:0|2:0,2:0:0:0:
358,380,19180,6,0,P|299:376|268:304,1,115.50000352478,2|2,1:2|2:0,2:0:0:0:
237,308,19693,2,0,P|186:297|140:288,1,77.0000023498536,10|2,2:0|2:0,0:0:0:0:
172,215,20205,2,0,P|223:204|269:195,1,77.0000023498536,2|2,1:2|2:0,2:0:0:0:
281,130,20718,1,10,2:0:0:0:
156,39,21231,6,0,P|97:46|60:134,1,154.000004699707,2|8,1:2|2:0,2:0:0:0:
113,268,22257,2,0,P|148:259|219:249,1,77.0000023498536,0|2,1:2|2:0,2:0:0:0:
246,302,22770,1,10,2:0:0:0:
318,275,23026,1,2,2:0:0:0:
330,198,23282,6,0,P|335:153|379:44,1,154.000004699707,2|8,1:2|2:0,2:0:0:0:
445,23,24052,2,0,B|488:21|488:21|526:58,1,77.0000023498536,2|0,2:0|1:2,2:0:0:0:
509,121,24564,1,10,2:0:0:0:
461,181,24821,2,0,P|463:233|476:266,1,77.0000023498536,10|10,2:0|2:0,2:0:0:0:
430,321,25334,6,0,P|374:330|323:287,1,115.50000352478,6|2,1:2|2:0,0:0:0:0:
296,275,25846,1,10,2:0:0:0:
231,318,26103,1,2,2:0:0:0:
152,288,26359,2,0,L|134:197,1,77.0000023498536,2|2,1:2|2:0,0:0:0:0:
199,166,26872,2,0,L|217:75,1,77.0000023498536,10|2,2:0|2:0,2:0:0:0:
196,15,27385,6,0,P|255:19|286:91,1,115.50000352478,2|2,1:2|2:0,2:0:0:0:
314,87,27898,2,0,L|405:105,1,77.0000023498536,10|2,2:0|2:0,0:0:0:0:
442,157,28411,2,0,L|424:248,1,77.0000023498536,2|2,1:2|2:0,2:0:0:0:
370,284,28923,1,10,2:0:0:0:
233,212,29436,6,0,B|181:225|181:225|157:254|157:254|83:273,1,154.000004699707,2|8,1:2|2:0,2:0:0:0:
47,329,30205,1,2,2:0:0:0:
0,268,30462,2,0,P|-1:231|36:188,1,77.0000023498536,0|0,1:2|2:0,0:0:0:0:
84,155,30975,1,10,2:0:0:0:
194,48,31487,6,0,P|253:38|298:19,1,77.0000023498536,2|0,1:2|2:0,2:0:0:0:
347,18,32000,2,0,P|447:23|490:72,1,154.000004699707,10|2,2:0|1:2,2:0:0:0:
508,131,32769,1,2,2:0:0:0:
459,191,33026,2,0,L|357:213,1,77.0000023498536,10|2,2:0|2:0,2:0:0:0:
326,259,33539,5,2,1:2:0:0:
219,147,34052,2,0,P|172:155|135:202,1,77.0000023498536,2|2,1:2|2:0,0:0:0:0:
137,248,34564,1,2,1:2:0:0:
259,341,35077,2,0,P|299:344|355:359,1,77.0000023498536,0|2,1:2|2:0,0:0:0:0:
397,307,35590,6,0,B|438:311|438:311|486:276,1,77.0000023498536,2|0,1:2|0:0,2:0:0:0:
490,259,35975,1,2,1:2:0:0:
452,192,36359,2,0,P|407:177|371:49,1,188.999994232178,2|0,1:2|2:0,2:0:0:0:
222,2,37641,6,0,L|60:29,1,154.000004699707,6|0,1:2|1:2,2:0:0:0:
12,79,38411,1,10,2:0:0:0:
53,143,38667,2,0,P|64:182|72:218,1,77.0000023498536,2|10,1:2|2:0,2:0:0:0:
139,253,39180,2,0,P|127:292|120:328,1,77.0000023498536,10|10,1:2|2:0,0:0:0:0:
183,371,39693,6,0,P|257:368|306:287,1,154.000004699707,2|0,1:2|1:2,2:0:0:0:
359,255,40462,1,10,2:0:0:0:
424,294,40718,2,0,P|465:300|512:313,2,77.0000023498536,2|10|10,1:2|2:0|2:0,2:0:0:0:
334,168,41744,6,0,P|394:149|414:53,1,154.000004699707,2|10,1:2|2:0,0:0:0:0:
279,2,42770,2,0,P|237:13|194:21,1,77.0000023498536,2|0,1:2|0:0,0:0:0:0:
150,74,43282,1,10,2:0:0:0:
7,15,43795,6,0,P|18:63|25:109,1,77.0000023498536,2|2,1:2|2:0,2:0:0:0:
72,149,44308,1,10,2:0:0:0:
192,245,44821,2,0,P|206:162|226:81,1,154.000004699707,0|10,1:2|2:0,0:0:0:0:
285,49,45590,1,2,2:0:0:0:
345,96,45846,6,0,P|401:100|445:187,1,154.000004699707,2|10,1:2|2:0,0:0:0:0:
368,312,46872,2,0,P|334:318|287:330,1,77.0000023498536,2|0,1:2|0:0,0:0:0:0:
224,291,47385,1,10,2:0:0:0:
93,373,47898,6,0,B|99:334|99:334|66:275,1,77.0000023498536,2|2,1:2|2:0,2:0:0:0:
18,255,48411,2,0,B|12:216|12:216|45:157,1,77.0000023498536,10|2,2:0|2:0,0:0:0:0:
90,135,48923,2,0,P|166:123|251:94,1,154.000004699707,2|8,1:2|2:0,2:0:0:0:
357,0,49949,6,0,L|463:22,1,77.0000023498536,2|2,1:2|2:0,2:0:0:0:
495,59,50462,1,2,1:2:0:0:
436,201,50975,2,0,P|432:178|349:140,1,115.50000352478,2|2,1:2|2:0,2:0:0:0:
326,158,51487,2,0,L|233:185,1,77.0000023498536,0|2,1:2|2:0,0:0:0:0:
205,241,52000,6,0,P|132:230|44:222,1,154.000004699707,2|0,1:2|1:2,0:0:0:0:
3,83,53026,2,0,B|24:52|24:52|72:42,1,77.0000023498536,0|0,1:2|2:0,2:0:0:0:
134,72,53539,1,0,1:2:0:0:
260,160,54052,6,0,L|291:316,1,154.000004699707,2|2,1:2|1:2,2:0:0:0:
436,360,55077,2,0,P|480:349|507:310,1,77.0000023498536,2|0,1:2|0:0,0:0:0:0:
489,250,55590,1,2,1:2:0:0:
418,113,56103,6,0,P|411:76|317:24,1,154.000004699707,2|0,1:2|1:2,0:0:0:0:
255,70,56872,1,2,2:0:0:0:
189,28,57129,2,0,P|126:20|35:2,1,154.000004699707,2|2,1:2|1:2,2:0:0:0:
4,153,58154,6,0,P|23:135|86:130,1,77.0000023498536,2|0,1:2|1:2,0:0:0:0:
144,100,58667,2,0,P|169:107|204:159,1,77.0000023498536,2|2,1:2|1:2,0:0:0:0:
259,195,59180,2,0,L|384:221,1,115.50000352478,2|0,1:2|1:2,0:0:0:0:
406,200,59693,1,2,1:2:0:0:
499,77,60205,6,0,P|439:70|387:109,1,115.50000352478,2|2,1:2|2:0,0:0:0:0:
368,129,60717,1,10,2:0:0:0:
306,176,60974,1,2,2:0:0:0:
242,132,61230,2,0,P|233:94|223:34,1,77.0000023498536,2|2,1:2|2:0,0:0:0:0:
153,30,61744,2,0,P|146:67|137:105,1,77.0000023498536,10|2,2:0|2:0,2:0:0:0:
94,169,62256,6,0,P|35:174|4:245,1,115.50000352478,2|2,1:2|2:0,2:0:0:0:
22,251,62769,2,0,L|48:341,1,77.0000023498536,10|2,2:0|2:0,0:0:0:0:
111,362,63282,2,0,L|201:336,1,77.0000023498536,2|2,1:2|2:0,2:0:0:0:
231,279,63794,1,10,2:0:0:0:
332,178,64308,6,0,P|391:185|428:273,1,154.000004699707,2|8,1:2|2:0,2:0:0:0:
325,376,65333,2,0,L|219:357,1,77.0000023498536,0|2,1:2|2:0,2:0:0:0:
175,384,65846,1,10,2:0:0:0:
114,335,66103,1,2,2:0:0:0:
157,271,66359,6,0,P|141:199|100:104,1,154.000004699707,2|8,1:2|2:0,2:0:0:0:
149,57,67128,2,0,P|189:56|230:92,1,77.0000023498536,2|0,2:0|1:2,2:0:0:0:
292,99,67640,1,10,2:0:0:0:
359,61,67897,2,0,L|434:47,1,77.0000023498536,10|10,2:0|2:0,2:0:0:0:
494,95,68410,6,0,P|477:148|473:209,1,115.50000352478,6|2,1:2|2:0,0:0:0:0:
490,241,68922,1,10,2:0:0:0:
447,305,69179,1,2,2:0:0:0:
376,275,69436,2,0,P|348:252|294:251,1,77.0000023498536,2|2,1:2|2:0,0:0:0:0:
245,202,69949,2,0,P|211:215|185:263,1,77.0000023498536,10|2,2:0|2:0,2:0:0:0:
159,319,70461,6,0,L|18:353,1,115.50000352478,2|2,1:2|2:0,2:0:0:0:
13,326,70974,2,0,B|-10:294|-10:294|6:248,1,77.0000023498536,10|2,2:0|2:0,0:0:0:0:
67,216,71487,2,0,B|79:180|79:180|56:148,1,77.0000023498536,2|2,1:2|2:0,2:0:0:0:
0,95,71999,1,10,2:0:0:0:
123,2,72513,6,0,P|195:-7|254:69,1,154.000004699707,2|8,1:2|2:0,2:0:0:0:
308,96,73281,1,2,2:0:0:0:
376,60,73539,2,0,L|460:42,1,77.0000023498536,0|0,1:2|2:0,0:0:0:0:
505,99,74051,1,10,2:0:0:0:
420,227,74564,6,0,B|368:245|368:245|339:269|339:269|278:289,1,154.000004699707,2|10,1:2|2:0,2:0:0:0:
224,341,75333,2,0,P|186:341|143:306,1,77.0000023498536,2|2,2:0|1:2,2:0:0:0:
100,265,75845,1,2,2:0:0:0:
150,206,76102,2,0,L|234:182,1,77.0000023498536,10|2,2:0|2:0,2:0:0:0:
285,138,76615,5,2,1:2:0:0:
392,27,77129,2,0,P|439:35|474:79,1,77.0000023498536,2|2,1:2|2:0,0:0:0:0:
487,124,77640,1,2,1:2:0:0:
382,237,78154,2,0,L|363:329,1,77.0000023498536,0|2,1:2|2:0,0:0:0:0:
312,368,78667,6,0,B|274:373|274:373|227:339,1,77.0000023498536,2|0,1:2|0:0,2:0:0:0:
217,320,79051,1,2,1:2:0:0:
127,251,79435,2,0,B|18:291|18:291|52:281|99:299,1,188.999994232178,2|0,1:2|2:0,2:0:0:0:
193,181,80718,6,0,P|203:103|219:25,1,154.000004699707,14|0,2:0|1:2,2:0:0:0:
293,10,81488,1,10,2:0:0:0:
358,50,81744,2,0,P|393:55|428:86,1,77.0000023498536,2|10,1:2|2:0,2:0:0:0:
493,114,82257,2,0,P|506:146|496:192,1,77.0000023498536,10|10,1:2|2:0,0:0:0:0:
450,246,82770,6,0,P|371:250|320:322,1,154.000004699707,2|0,1:2|1:2,2:0:0:0:
278,365,83539,1,10,2:0:0:0:
209,329,83795,2,0,L|123:316,2,77.0000023498536,2|10|10,1:2|2:0|2:0,2:0:0:0:
199,174,84821,6,0,B|256:168|256:168|286:148|286:148|346:143,1,154.000004699707,2|10,1:2|2:0,0:0:0:0:
274,6,85847,2,0,P|232:17|211:46,1,77.0000023498536,2|0,1:2|0:0,0:0:0:0:
161,100,86359,1,10,2:0:0:0:
28,22,86872,6,0,P|39:70|46:116,1,77.0000023498536,2|2,1:2|2:0,2:0:0:0:
96,153,87385,1,10,2:0:0:0:
24,289,87898,2,0,P|107:320|181:272,1,154.000004699707,0|10,1:2|2:0,0:0:0:0:
208,232,88667,1,2,2:0:0:0:
282,249,88923,6,0,P|338:253|382:340,1,154.000004699707,2|10,1:2|2:0,0:0:0:0:
494,224,89949,2,0,L|515:137,1,77.0000023498536,2|0,1:2|0:0,0:0:0:0:
478,79,90462,1,10,2:0:0:0:
343,4,90975,6,0,P|307:13|265:16,1,77.0000023498536,2|2,1:2|2:0,2:0:0:0:
226,81,91487,2,0,P|187:83|150:93,1,77.0000023498536,10|2,2:0|2:0,0:0:0:0:
86,50,92000,2,0,P|23:82|27:186,1,154.000004699707,2|8,1:2|2:0,2:0:0:0:
103,282,93026,6,0,L|209:304,1,77.0000023498536,2|0,1:2|0:0,0:0:0:0:
246,260,93539,1,2,1:2:0:0:
376,341,94052,2,0,P|435:338|463:273,1,115.50000352478,2|2,1:2|2:0,2:0:0:0:
492,268,94564,2,0,L|514:162,1,77.0000023498536,2|2,1:2|2:0,2:0:0:0:
467,126,95077,6,0,B|429:88|429:88|311:117,1,154.000004699707,2|0,1:2|1:2,0:0:0:0:
182,72,96103,2,0,P|136:64|98:53,1,77.0000023498536,0|0,1:2|2:0,2:0:0:0:
45,8,96616,1,0,1:2:0:0:
187,78,97129,6,0,P|206:152|217:228,1,154.000004699707,2|2,1:2|1:2,2:0:0:0:
144,364,98154,2,0,B|105:363|105:363|67:324,1,77.0000023498536,2|0,1:2|0:0,0:0:0:0:
46,265,98667,1,2,1:2:0:0:
198,243,99180,6,0,P|235:241|307:321,1,154.000004699707,2|0,1:2|1:2,0:0:0:0:
362,374,99949,1,2,2:0:0:0:
427,333,100206,2,0,L|454:173,1,154.000004699707,2|2,1:2|1:2,2:0:0:0:
394,38,101231,6,0,B|355:34|355:34|313:62,1,77.0000023498536,2|0,1:2|1:2,0:0:0:0:
247,43,101744,2,0,B|224:74|224:74|227:125,1,77.0000023498536,2|2,1:2|1:2,0:0:0:0:
188,179,102257,6,0,P|194:246|204:309,1,115.50000352478,2|0,1:2|1:2,0:0:0:0:
187,329,102770,1,2,1:2:0:0:
21,276,103282,6,0,P|16:222|8:172,1,77.0000023498536,6|2,1:2|2:0,2:0:0:0:
66,143,103795,2,0,P|62:104|57:66,1,77.0000023498536,10|2,2:0|2:0,0:0:0:0:
107,7,104308,1,2,1:2:0:0:
165,56,104564,2,0,B|201:65|201:65|244:39,1,77.0000023498536,2|10,2:0|2:0,0:0:0:0:
300,3,105077,6,0,P|353:2|400:97,1,154.000004699707,2|2,2:0|2:0,2:0:0:0:
437,149,105846,2,0,P|477:156|514:166,1,77.0000023498536,10|2,2:0|2:0,2:0:0:0:
499,241,106359,2,0,P|461:231|423:224,1,77.0000023498536,2|2,1:2|2:0,2:0:0:0:
354,258,106872,1,10,2:0:0:0:
237,358,107385,6,0,B|180:346|180:346|156:324|156:324|87:308,1,154.000004699707,2|10,1:2|2:0,0:0:0:0:
28,269,108154,1,2,2:0:0:0:
65,201,108411,2,0,L|84:86,1,115.50000352478,2|2,1:2|2:0,0:0:0:0:
111,59,108923,2,0,B|147:56|147:56|202:96,1,77.0000023498536,10|2,2:0|2:0,0:0:0:0:
244,122,109436,6,0,P|297:120|351:18,1,154.000004699707,0|10,1:2|2:0,0:0:0:0:
419,5,110205,1,2,2:0:0:0:
477,55,110462,2,0,L|491:155,1,77.0000023498536,2|2,1:2|2:0,0:0:0:0:
451,199,110975,1,10,2:0:0:0:
355,319,111487,6,0,P|321:325|265:284,1,77.0000023498536,6|2,1:2|2:0,2:0:0:0:
249,239,112000,2,0,P|215:233|148:277,1,115.50000352478,10|0,2:0|2:0,2:0:0:0:
124,303,112513,2,0,B|23:320,1,77.0000023498536,2|2,1:2|2:0,0:0:0:0:
23,242,113025,2,0,P|46:237|89:226,1,38.5000011749268,10|2,2:0|2:0,0:0:0:0:
84,203,113282,6,0,B|92:164|92:164|54:118,1,77.0000023498536,2|0,2:0|1:2,2:0:0:0:
101,65,113794,1,2,2:0:0:0:
177,76,114051,2,0,L|279:99,1,77.0000023498536,10|2,2:0|2:0,0:0:0:0:
316,134,114564,2,0,L|448:118,1,115.50000352478,2|2,1:2|2:0,2:0:0:0:
460,96,115077,2,0,P|496:113|511:165,1,77.0000023498536,10|2,2:0|2:0,2:0:0:0:
482,215,115589,6,0,P|474:253|468:291,1,77.0000023498536,2|2,1:2|2:0,2:0:0:0:
396,320,116103,2,0,P|389:281|376:203,1,115.50000352478,10|0,2:0|2:0,2:0:0:0:
345,183,116615,2,0,P|308:183|272:208,1,77.0000023498536,2|2,1:2|2:0,0:0:0:0:
239,272,117128,2,0,P|212:277|185:284,1,38.5000011749268,10|2,2:0|2:0,0:0:0:0:
165,294,117384,6,0,P|131:292|80:286,1,77.0000023498536,2|0,2:0|1:2,2:0:0:0:
34,228,117898,2,0,P|35:194|42:143,1,77.0000023498536,2|10,2:0|2:0,2:0:0:0:
5,82,118411,1,2,2:0:0:0:
61,30,118667,2,0,P|101:19|169:71,1,115.50000352478,2|2,1:2|2:0,2:0:0:0:
182,87,119180,1,10,2:0:0:0:
253,59,119436,1,2,2:0:0:0:
308,113,119693,6,0,L|384:124,1,77.0000023498536,6|2,1:2|2:0,2:0:0:0:
447,80,120206,2,0,B|469:134|469:134|435:191,1,115.50000352478,10|0,2:0|2:0,2:0:0:0:
408,205,120719,2,0,B|307:222,1,77.0000023498536,2|2,1:2|2:0,0:0:0:0:
269,261,121231,2,0,P|246:256|203:245,1,38.5000011749268,10|2,2:0|2:0,0:0:0:0:
196,269,121488,6,0,P|148:279|121:313,1,77.0000023498536,2|0,2:0|1:2,2:0:0:0:
69,346,122000,1,2,2:0:0:0:
14,292,122257,2,0,L|-2:211,1,77.0000023498536,10|2,2:0|2:0,0:0:0:0:
34,148,122770,2,0,P|76:112|147:122,1,115.50000352478,2|2,1:2|2:0,2:0:0:0:
170,102,123282,2,0,P|206:119|221:171,1,77.0000023498536,10|2,2:0|2:0,2:0:0:0:
287,191,123795,6,0,P|321:182|378:173,1,77.0000023498536,2|2,1:2|2:0,2:0:0:0:
424,221,124309,2,0,P|480:231|515:297,1,115.50000352478,10|0,2:0|2:0,2:0:0:0:
498,312,124821,2,0,P|460:317|410:329,1,77.0000023498536,2|2,1:2|2:0,0:0:0:0:
360,371,125334,2,0,P|341:367|322:364,1,38.5000011749268,10|2,2:0|2:0,0:0:0:0:
293,338,125590,6,0,B|258:320|258:320|210:328,1,77.0000023498536,2|0,2:0|1:2,2:0:0:0:
153,363,126103,2,0,B|115:369|115:369|80:351,1,77.0000023498536,2|10,2:0|2:0,2:0:0:0:
12,314,126617,1,2,2:0:0:0:
54,250,126872,2,0,L|73:129,1,115.50000352478,2|2,1:2|2:0,2:0:0:0:
58,99,127386,1,10,2:0:0:0:
104,37,127642,1,2,2:0:0:0:
291,171,128411,6,0,B|334:168|334:168|367:134,1,77.0000023498536,6|2,1:2|2:0,0:0:0:0:
406,84,128923,1,10,2:0:0:0:
315,12,129308,2,0,P|246:28|229:86,1,115.50000352478,2|2,1:2|1:2,2:0:0:0:
179,123,129949,6,0,L|201:246,1,115.50000352478,8|0,2:0|2:0,2:0:0:0:
232,257,130462,2,0,L|324:274,1,77.0000023498536,2|2,1:2|2:0,2:0:0:0:
358,329,130975,2,0,L|450:312,1,77.0000023498536,10|2,2:0|2:0,0:0:0:0:
489,262,131487,2,0,P|496:237|504:211,1,38.5000011749268,2|2,1:2|2:0,0:0:0:0:
479,187,131744,2,0,P|462:141|422:118,1,77.0000023498536,10|10,2:0|2:0,2:0:0:0:
295,72,132513,6,0,L|203:55,1,77.0000023498536,2|2,1:2|2:0,2:0:0:0:
169,0,133026,2,0,L|77:17,1,77.0000023498536,10|2,2:0|2:0,0:0:0:0:
38,67,133538,2,0,P|31:92|23:118,1,38.5000011749268,2|2,1:2|2:0,0:0:0:0:
48,142,133795,2,0,P|65:188|105:211,1,77.0000023498536,10|10,2:0|2:0,2:0:0:0:
202,305,134564,6,0,P|291:315|377:363,1,188.999994232178,0|0,1:2|2:0,2:0:0:0:
444,325,135590,6,0,P|447:270|379:224,1,115.50000352478,2|2,1:2|2:0,0:0:0:0:
373,210,136102,1,10,2:0:0:0:
331,144,136359,1,2,2:0:0:0:
388,92,136615,2,0,L|477:107,1,77.0000023498536,2|2,1:2|2:0,0:0:0:0:
468,27,137128,2,0,L|379:12,1,77.0000023498536,10|2,2:0|2:0,2:0:0:0:
323,49,137641,6,0,P|264:53|233:125,1,115.50000352478,2|2,1:2|2:0,2:0:0:0:
218,131,138154,2,0,B|187:151|187:151|121:151,1,77.0000023498536,10|2,2:0|2:0,0:0:0:0:
116,80,138666,2,0,B|85:60|85:60|19:60,1,77.0000023498536,2|2,1:2|2:0,2:0:0:0:
1,124,139179,1,10,2:0:0:0:
79,256,139692,6,0,P|151:272|176:341,1,154.000004699707,2|8,1:2|2:0,2:0:0:0:
326,307,140718,2,0,L|351:205,1,77.0000023498536,0|2,1:2|2:0,2:0:0:0:
420,219,141231,1,10,2:0:0:0:
459,153,141487,1,2,2:0:0:0:
425,83,141743,6,0,B|368:95|368:95|344:115|344:115|265:133,1,154.000004699707,2|8,1:2|2:0,2:0:0:0:
225,74,142513,2,0,L|137:58,1,77.0000023498536,2|0,2:0|1:2,2:0:0:0:
96,2,143025,1,10,2:0:0:0:
39,54,143282,2,0,P|15:102|35:152,1,77.0000023498536,10|10,2:0|2:0,2:0:0:0:
70,180,143795,6,0,L|210:158,1,115.50000352478,6|2,1:2|2:0,0:0:0:0:
216,141,144307,1,10,2:0:0:0:
281,182,144564,1,2,2:0:0:0:
235,243,144820,2,0,B|226:281|226:281|249:328,1,77.0000023498536,2|2,1:2|2:0,0:0:0:0:
303,362,145333,2,0,B|341:371|341:371|388:348,1,77.0000023498536,10|2,2:0|2:0,2:0:0:0:
432,302,145846,6,0,P|441:246|403:205,1,115.50000352478,2|2,1:2|2:0,2:0:0:0:
374,180,146359,2,0,L|359:96,1,77.0000023498536,10|2,2:0|2:0,0:0:0:0:
288,77,146872,2,0,L|273:161,1,77.0000023498536,2|2,1:2|2:0,2:0:0:0:
209,193,147384,1,10,2:0:0:0:
141,54,147897,6,0,P|58:51|14:127,1,154.000004699707,2|8,1:2|2:0,2:0:0:0:
50,171,148666,1,2,2:0:0:0:
11,237,148923,2,0,L|0:320,1,77.0000023498536,0|0,1:2|2:0,0:0:0:0:
51,371,149436,1,10,2:0:0:0:
181,289,149948,6,0,P|241:293|299:212,1,154.000004699707,2|10,1:2|2:0,2:0:0:0:
342,162,150718,2,0,L|428:178,1,77.0000023498536,2|2,2:0|1:2,2:0:0:0:
477,224,151230,1,2,2:0:0:0:
510,154,151487,2,0,P|505:118|442:83,1,77.0000023498536,10|2,2:0|2:0,2:0:0:0:
439,22,152000,5,2,1:2:0:0:
302,93,152513,2,0,L|226:107,1,77.0000023498536,2|2,1:2|2:0,0:0:0:0:
154,78,153025,1,2,1:2:0:0:
55,196,153538,2,0,L|130:210,1,77.0000023498536,0|2,1:2|2:0,0:0:0:0:
184,265,154051,6,0,B|225:270|225:270|271:238,1,77.0000023498536,2|0,1:2|0:0,0:0:0:0:
275,215,154436,1,0,1:2:0:0:
355,264,154820,2,0,B|381:273|403:277|403:277|463:348|463:348|488:353|512:359,1,188.999994232178,2|0,1:2|2:0,2:0:0:0:
479,235,156102,6,0,P|452:150|503:56,1,188.999994232178,6|2,1:2|2:0,2:0:0:0:
438,11,157128,2,0,P|405:24|368:24,1,62.9999980773926,0|2,1:2|2:0,0:0:0:0:
316,70,157641,2,0,P|283:57|246:57,1,62.9999980773926,0|2,2:0|2:0,0:0:0:0:
194,11,158154,6,0,L|9:51,1,188.999994232178,6|2,1:2|2:0,2:0:0:0:
0,130,159179,2,0,P|4:165|29:199,2,62.9999980773926,0|2|0,1:2|1:2|1:2,0:0:0:0:
94,213,160205,1,0,1:2:0:0:
