osu file format v14

[General]
AudioFilename: audio.mp3
AudioLeadIn: 0
PreviewTime: 17179
Countdown: 0
SampleSet: Soft
StackLeniency: 0.7
Mode: 0
LetterboxInBreaks: 0
WidescreenStoryboard: 1

[Editor]
Bookmarks: 73667,74693,132513
DistanceSpacing: 1
BeatDivisor: 4
GridSize: 32
TimelineZoom: 1.7

[Metadata]
Title:Dorei Janai nara Nan Desu ka?
TitleUnicode:奴隷じゃないなら何ですか?
Artist:TUYU
ArtistUnicode:ツユ
Creator:Woood13
Version:Hard
Source:
Tags:ぷす 礼衣 おむたつ Tsuyu Pusu Rei Omutatsu Miro AyunZ What if this isn't is not a slave japanese rock jrock 2nd album jpop pop
BeatmapID:3130358
BeatmapSetID:1519920

[Difficulty]
HPDrainRate:4.5
CircleSize:3.6
OverallDifficulty:6
ApproachRate:7.8
SliderMultiplier:1.4
SliderTickRate:1

[Events]
//Background and Video events
0,0,"dorei_na_atashi_ne.jpg",0,0
Video,-440,"video.mp4"
//Break Periods
//Storyboard Layer 0 (Background)
//Storyboard Layer 1 (Fail)
//Storyboard Layer 2 (Pass)
//Storyboard Layer 3 (Foreground)
//Storyboard Layer 4 (Overlay)
//Storyboard Sound Samples

[TimingPoints]
463,512.820512820513,4,2,1,50,1,0
4565,-83.3333333333333,4,2,1,60,0,0
17129,512.820512820513,4,2,1,80,1,0
17129,-76.9230769230769,4,2,1,80,0,0
36359,-153.846153846154,4,2,1,75,0,0
37129,-153.846153846154,4,2,1,5,0,0
37641,-83.3333333333333,4,2,1,65,0,0
49949,-83.3333333333333,4,2,1,50,0,0
60205,-76.9230769230769,4,2,1,80,0,0
79435,-133.333333333333,4,2,1,75,0,0
80205,-133.333333333333,4,2,1,5,0,0
80718,-83.3333333333333,4,2,1,65,0,0
103282,-76.9230769230769,4,2,1,70,0,1
111487,-76.9230769230769,4,2,1,60,0,0
127385,-76.9230769230769,4,2,1,50,0,0
127898,-76.9230769230769,4,2,1,60,0,0
132000,-76.9230769230769,4,2,1,50,0,0
134564,-153.846153846154,4,2,1,50,0,0
135589,-100,4,2,1,80,0,0
135590,512.820512820513,4,2,1,80,1,0
135590,-71.4285714285714,4,2,1,80,0,0
154820,-153.846153846153,4,2,1,70,0,0
156102,-153.846153846153,4,2,1,50,0,0

[Colours]
Combo1 : 31,92,129
Combo2 : 73,141,82
Combo3 : 233,124,44

[HitObjects]
323,299,463,6,0,P|385:313|489:339,1,140,2|2,1:2|1:2,2:0:0:0:
414,198,1488,2,0,P|352:184|248:158,1,140,2|2,1:2|1:2,2:0:0:0:
168,253,2514,6,0,P|92:248|67:180,1,140,2|2,1:2|1:2,2:0:0:0:
135,75,3539,2,0,P|172:68|223:57,1,70,2|0,1:2|1:2,2:0:0:0:
259,12,4052,2,0,P|296:18|347:30,1,70,2|0,1:2|0:0,2:0:0:0:
393,76,4565,6,0,P|421:69|447:33,1,41.9999987182618,6|2,1:2|2:0,2:0:0:0:
455,27,4821,1,2,2:0:0:0:
510,90,5078,2,0,P|502:145|506:200,1,83.9999974365235,10|2,2:0|2:0,2:0:0:0:
472,202,5463,2,0,P|418:227|398:288,1,125.999996154785,2|2,1:2|1:2,2:0:0:0:
331,338,6104,2,0,P|266:348|213:358,1,83.9999974365235,10|2,2:0|2:0,2:0:0:0:
218,331,6488,1,2,2:0:0:0:
218,331,6616,6,0,P|153:320|100:311,1,83.9999974365235,2|2,1:2|2:0,2:0:0:0:
59,354,7129,1,10,2:0:0:0:
9,285,7386,2,0,B|4:263|4:263|20:221,1,41.9999987182618,2|8,2:0|2:0,0:0:0:0:
39,214,7642,2,0,P|77:213|122:162,1,83.9999974365235,2|10,1:2|2:0,0:0:0:0:
156,114,8155,1,8,2:0:0:0:
156,114,8668,6,0,P|195:105|253:89,1,83.9999974365235,6|2,1:2|2:0,2:0:0:0:
301,148,9180,2,0,P|340:156|398:173,1,83.9999974365235,2|2,1:2|2:0,2:0:0:0:
459,133,9693,2,0,B|469:92|469:92|424:36,1,83.9999974365235,2|2,1:2|2:0,0:0:0:0:
369,18,10206,2,0,P|345:14|317:5,1,41.9999987182618,2|2,1:2|2:0,0:0:0:0:
287,20,10463,1,2,2:0:0:0:
232,83,10719,5,0,1:2:0:0:
163,34,10975,2,0,P|120:44|51:57,1,83.9999974365235,2|2,2:0|1:2,2:0:0:0:
30,124,11488,2,0,P|71:132|111:142,1,83.9999974365235,2|2,2:0|1:2,0:0:0:0:
174,190,12001,2,0,P|181:210|171:253,1,41.9999987182618,2|2,2:0|2:0,0:0:0:0:
161,266,12257,1,2,1:2:0:0:
210,333,12514,1,2,2:0:0:0:
281,289,12770,6,0,B|323:284|323:284|374:326,1,83.9999974365235,2|2,1:2|2:0,2:0:0:0:
419,364,13283,2,0,B|461:369|461:369|512:327,1,83.9999974365235,2|2,1:2|2:0,2:0:0:0:
511,260,13796,2,0,P|475:251|418:227,1,83.9999974365235,2|2,1:2|2:0,0:0:0:0:
373,172,14309,2,0,B|372:150|372:150|413:109,1,41.9999987182618,2|2,1:2|2:0,0:0:0:0:
422,115,14565,1,2,2:0:0:0:
384,40,14821,5,0,1:2:0:0:
308,78,15078,2,0,P|267:84|221:92,1,83.9999974365235,2|2,2:0|1:2,0:0:0:0:
157,42,15591,2,0,P|116:35|70:27,1,83.9999974365235,2|2,2:0|1:2,0:0:0:0:
9,81,16104,2,0,P|9:106|28:140,1,41.9999987182618,2|2,2:0|2:0,0:0:0:0:
42,153,16360,1,2,1:2:0:0:
23,234,16616,1,2,2:0:0:0:
109,350,17129,6,0,P|154:354|223:367,1,90.9999958343508,2|2,1:2|2:0,0:0:0:0:
264,326,17513,1,2,2:0:0:0:
271,328,17641,2,0,P|318:308|330:249,1,90.9999958343508,10|2,2:0|2:0,2:0:0:0:
373,186,18154,2,0,P|418:182|487:169,1,90.9999958343508,2|2,1:2|2:0,0:0:0:0:
512,269,18667,1,10,2:0:0:0:
463,174,18923,2,0,B|455:153|455:153|459:117,1,45.4999979171754,2|2,2:0|2:0,0:0:0:0:
498,110,19180,6,0,P|490:65|486:19,1,90.9999958343508,2|2,1:2|2:0,2:0:0:0:
412,0,19564,1,2,2:0:0:0:
405,5,19693,2,0,B|361:-3|361:-3|305:36,1,90.9999958343508,10|2,2:0|2:0,0:0:0:0:
258,112,20205,2,0,P|210:118|146:136,1,90.9999958343508,2|2,1:2|2:0,2:0:0:0:
151,34,20590,1,2,2:0:0:0:
160,37,20718,2,0,P|207:30|272:13,1,90.9999958343508,10|2,2:0|2:0,2:0:0:0:
151,34,21231,6,0,P|112:44|85:120,1,90.9999958343508,2|0,1:2|2:0,2:0:0:0:
46,150,21616,1,0,2:0:0:0:
52,156,21744,2,0,P|63:181|82:252,1,90.9999958343508,8|0,2:0|2:0,2:0:0:0:
172,300,22257,1,0,1:2:0:0:
244,228,22513,2,0,P|286:219|318:165,2,90.9999958343508,2|10|2,2:0|2:0|2:0,0:0:0:0:
172,300,23282,6,0,B|140:311|134:333|134:333|142:318|182:313,1,90.9999958343508,2|0,1:2|2:0,2:0:0:0:
255,384,23795,1,8,2:0:0:0:
324,310,24052,2,0,L|445:288,1,90.9999958343508,2|0,2:0|1:2,2:0:0:0:
483,333,24436,1,2,2:0:0:0:
490,328,24564,2,0,P|493:302|501:269,1,45.4999979171754,10|10,2:0|2:0,0:0:0:0:
454,219,24821,2,0,P|458:196|460:174,1,45.4999979171754,10|0,2:0|2:0,2:0:0:0:
510,116,25077,1,10,2:0:0:0:
408,39,25334,6,0,P|363:44|317:47,1,90.9999958343508,6|2,1:2|2:0,0:0:0:0:
252,11,25718,1,2,2:0:0:0:
246,8,25846,2,0,B|200:8|200:8|144:62,1,90.9999958343508,10|2,2:0|2:0,2:0:0:0:
146,152,26359,2,0,P|191:156|260:169,1,90.9999958343508,2|2,1:2|2:0,0:0:0:0:
355,241,26872,1,10,2:0:0:0:
265,320,27128,2,0,P|232:326|196:337,1,45.4999979171754,2|2,2:0|2:0,0:0:0:0:
270,312,27385,6,0,P|311:310|347:365,1,90.9999958343508,2|2,1:2|2:0,2:0:0:0:
411,379,27769,1,2,2:0:0:0:
418,373,27898,2,0,B|510:352,1,90.9999958343508,10|2,2:0|2:0,0:0:0:0:
512,255,28410,2,0,P|520:219|482:155,1,90.9999958343508,2|2,1:2|2:0,2:0:0:0:
445,112,28795,1,2,2:0:0:0:
439,107,28923,2,0,P|431:71|469:7,1,90.9999958343508,10|2,2:0|2:0,2:0:0:0:
445,112,29436,6,0,P|403:122|339:137,1,90.9999958343508,2|0,1:2|2:0,2:0:0:0:
270,188,29821,1,0,2:0:0:0:
263,193,29949,2,0,P|221:183|157:168,1,90.9999958343508,8|2,2:0|2:0,2:0:0:0:
101,83,30462,2,0,P|143:73|207:58,1,90.9999958343508,0|0,1:2|2:0,2:0:0:0:
250,13,30975,1,10,2:0:0:0:
174,172,31231,1,2,2:0:0:0:
89,93,31487,6,0,P|81:145|63:201,1,90.9999958343508,2|0,1:2|2:0,2:0:0:0:
147,301,32000,1,10,2:0:0:0:
211,260,32257,2,0,B|239:255|239:255|271:235|271:235|295:230,1,90.9999958343508,2|2,2:0|1:2,2:0:0:0:
351,285,32641,1,0,0:0:0:0:
358,282,32769,2,0,P|390:289|436:298,1,45.4999979171754,2|0,2:0|2:0,0:0:0:0:
468,250,33026,2,0,P|490:245|512:240,1,45.4999979171754,10|0,2:0|0:0,2:0:0:0:
411,140,33539,6,0,P|337:115|329:92,1,90.9999958343508,2|0,1:2|2:0,2:0:0:0:
239,43,34052,2,0,L|220:-21,2,45.4999979171754,2|2|2,1:2|2:0|2:0,0:0:0:0:
197,129,34564,2,0,P|152:137|118:200,1,90.9999958343508,2|2,1:2|2:0,2:0:0:0:
95,200,34949,2,0,P|95:245|152:289,1,90.9999958343508,2|2,2:0|2:0,2:0:0:0:
157,309,35334,2,0,P|182:316|220:323,1,45.4999979171754,2|2,2:0|2:0,0:0:0:0:
234,348,35590,6,0,P|281:335|339:334,1,90.9999958343508,2|2,1:2|2:0,2:0:0:0:
362,360,35975,1,2,1:2:0:0:
479,266,36231,1,2,2:0:0:0:
479,266,36359,2,0,P|479:207|409:164,1,136.499993751526,2|0,1:2|2:0,2:0:0:0:
173,88,37641,6,0,P|213:82|292:69,1,83.9999974365235,6|2,1:2|2:0,2:0:0:0:
278,50,38026,2,0,P|319:44|361:37,1,83.9999974365235,10|2,2:0|2:0,2:0:0:0:
391,52,38411,1,10,2:0:0:0:
449,121,38667,2,0,B|458:140|458:140|461:193,1,41.9999987182618,2|2,1:2|2:0,2:0:0:0:
442,198,38923,1,10,2:0:0:0:
377,252,39180,2,0,P|335:245|294:239,1,83.9999974365235,10|10,1:2|2:0,0:0:0:0:
262,264,39564,1,10,2:0:0:0:
262,264,39693,6,0,P|218:271|186:324,1,83.9999974365235,2|2,1:2|2:0,2:0:0:0:
175,339,40077,1,10,2:0:0:0:
175,339,40205,1,0,1:2:0:0:
100,377,40462,1,10,2:0:0:0:
33,325,40718,2,0,P|26:296|11:218,1,83.9999974365235,2|10,1:2|2:0,2:0:0:0:
36,208,41103,1,2,2:0:0:0:
36,208,41231,1,10,2:0:0:0:
32,35,41744,6,0,P|72:45|122:50,1,83.9999974365235,2|0,1:2|0:0,0:0:0:0:
176,106,42257,1,10,2:0:0:0:
400,0,42770,5,2,1:2:0:0:
400,0,42898,1,2,0:0:0:0:
332,42,43282,2,0,P|296:64|291:116,1,83.9999974365235,10|0,2:0|0:0,0:0:0:0:
343,165,43795,6,0,P|382:156|446:146,1,83.9999974365235,2|2,1:2|2:0,2:0:0:0:
487,100,44308,2,0,P|489:75|498:43,2,41.9999987182618,10|2|2,2:0|2:0|2:0,0:0:0:0:
505,128,44693,2,0,P|512:173|472:214,1,83.9999974365235,2|2,2:0|2:0,2:0:0:0:
415,285,45334,2,0,P|373:292|332:301,1,83.9999974365235,10|2,2:0|2:0,0:0:0:0:
300,284,45718,1,2,2:0:0:0:
300,284,45846,6,0,P|260:277|227:230,1,83.9999974365235,2|0,1:2|0:0,0:0:0:0:
213,168,46359,1,10,2:0:0:0:
382,60,46872,5,2,1:2:0:0:
382,60,47000,1,2,0:0:0:0:
309,16,47385,2,0,B|284:22|284:22|258:41|258:41|196:62,1,83.9999974365235,10|0,2:0|0:0,0:0:0:0:
168,102,47898,6,0,P|125:110|94:169,1,83.9999974365235,2|2,1:2|2:0,2:0:0:0:
40,202,48411,1,10,2:0:0:0:
100,267,48667,1,2,2:0:0:0:
159,206,48923,2,0,P|200:213|261:228,1,83.9999974365235,2|0,1:2|0:0,2:0:0:0:
277,200,49308,1,0,2:0:0:0:
277,200,49436,2,0,P|302:196|336:187,1,41.9999987182618,8|0,2:0|2:0,2:0:0:0:
352,167,49693,1,2,2:0:0:0:
422,216,49949,6,0,B|463:212|463:212|511:237,1,83.9999974365235,2|2,1:2|2:0,2:0:0:0:
512,308,50462,1,2,1:2:0:0:
413,123,50975,2,0,P|366:138|352:189,1,83.9999974365235,2|2,1:2|2:0,2:0:0:0:
306,234,51487,2,0,P|300:276|290:325,1,83.9999974365235,0|2,1:2|2:0,0:0:0:0:
264,352,51872,1,2,2:0:0:0:
264,352,52000,6,0,P|183:325|174:236,1,167.999994873047,2|0,1:2|1:2,0:0:0:0:
259,110,53026,2,0,P|302:100|352:88,1,83.9999974365235,0|0,1:2|2:0,2:0:0:0:
394,26,53539,1,0,1:2:0:0:
340,91,53795,1,2,2:0:0:0:
285,26,54052,6,0,P|241:16|192:4,1,83.9999974365235,2|2,1:2|2:0,2:0:0:0:
164,22,54436,1,2,2:0:0:0:
164,22,54564,2,0,P|136:32|96:85,1,83.9999974365235,2|2,1:2|2:0,2:0:0:0:
52,143,55077,2,0,L|63:234,1,83.9999974365235,2|0,1:2|0:0,0:0:0:0:
119,287,55590,1,2,1:2:0:0:
253,185,56103,5,2,1:2:0:0:
253,185,56231,2,0,B|301:199|301:199|321:225|321:225|380:250,1,125.999996154785,2|0,2:0|1:2,2:0:0:0:
417,304,56872,1,2,2:0:0:0:
479,247,57129,2,0,L|464:155,1,83.9999974365235,2|2,1:2|2:0,2:0:0:0:
406,104,57641,2,0,L|391:12,1,83.9999974365235,2|2,1:2|2:0,2:0:0:0:
401,111,58154,6,0,P|367:135|326:138,1,83.9999974365235,2|0,1:2|1:2,0:0:0:0:
253,185,58667,2,0,P|211:179|181:151,1,83.9999974365235,2|2,1:2|1:2,0:0:0:0:
118,94,59180,2,0,P|91:99|60:106,3,41.9999987182618,2|0|2|0,1:2|1:2|1:2|1:2,0:0:0:0:
39,83,59693,1,2,1:2:0:0:
58,255,60205,6,0,P|97:284|161:269,1,90.9999958343508,2|2,1:2|2:0,0:0:0:0:
197,234,60589,1,2,2:0:0:0:
204,237,60718,2,0,P|254:226|320:206,1,90.9999958343508,10|2,2:0|2:0,2:0:0:0:
354,294,61231,2,0,P|404:305|470:325,1,90.9999958343508,2|2,1:2|2:0,0:0:0:0:
512,247,61743,1,10,2:0:0:0:
444,180,62000,2,0,L|390:196,1,45.4999979171754,2|2,2:0|2:0,0:0:0:0:
356,179,62256,6,0,P|334:137|349:91,1,90.9999958343508,2|2,1:2|2:0,2:0:0:0:
405,49,62640,1,2,2:0:0:0:
412,51,62769,2,0,P|453:43|504:30,1,90.9999958343508,10|2,2:0|2:0,0:0:0:0:
341,0,63282,2,0,B|295:-7|295:-7|243:32,1,90.9999958343508,2|2,1:2|2:0,2:0:0:0:
217,86,63667,1,2,2:0:0:0:
222,93,63795,2,0,B|257:119|257:119|303:112,1,90.9999958343508,10|2,2:0|2:0,2:0:0:0:
176,3,64307,6,0,P|131:14|87:24,1,90.9999958343508,2|0,1:2|2:0,2:0:0:0:
31,74,64692,1,0,2:0:0:0:
24,79,64820,2,0,P|16:117|64:174,1,90.9999958343508,8|0,2:0|2:0,2:0:0:0:
111,251,65333,1,0,1:2:0:0:
199,194,65590,2,0,B|227:200|227:200|259:226|259:226|279:231,2,90.9999958343508,2|10|2,2:0|2:0|2:0,0:0:0:0:
111,251,66359,6,0,P|102:309|146:344,1,90.9999958343508,2|0,1:2|2:0,2:0:0:0:
197,384,66872,1,8,2:0:0:0:
270,327,67129,2,0,L|391:305,1,90.9999958343508,2|0,2:0|1:2,2:0:0:0:
422,366,67512,1,2,2:0:0:0:
422,366,67641,2,0,B|443:378|443:378|480:378,1,45.4999979171754,10|10,2:0|2:0,0:0:0:0:
512,317,67898,2,0,B|517:293|517:293|507:257,1,45.4999979171754,10|0,2:0|2:0,2:0:0:0:
453,225,68153,1,10,2:0:0:0:
511,14,68411,6,0,P|501:58|493:103,1,90.9999958343508,6|2,1:2|2:0,0:0:0:0:
429,144,68795,1,2,2:0:0:0:
422,149,68923,2,0,P|375:143|341:87,1,90.9999958343508,10|2,2:0|2:0,2:0:0:0:
275,28,69436,2,0,P|228:34|194:90,1,90.9999958343508,2|2,1:2|2:0,0:0:0:0:
133,149,69948,1,10,2:0:0:0:
53,86,70205,2,0,P|46:63|34:27,1,45.4999979171754,2|2,2:0|2:0,0:0:0:0:
59,96,70461,6,0,P|49:150|43:202,1,90.9999958343508,2|2,1:2|2:0,2:0:0:0:
83,251,70845,1,2,2:0:0:0:
89,256,70974,2,0,P|140:266|190:277,1,90.9999958343508,10|2,2:0|2:0,0:0:0:0:
259,352,71487,2,0,P|310:341|360:331,1,90.9999958343508,2|2,1:2|2:0,2:0:0:0:
421,304,71872,1,2,2:0:0:0:
427,299,72000,2,0,P|391:260|333:262,1,90.9999958343508,10|2,2:0|2:0,2:0:0:0:
271,154,72513,6,0,P|310:144|337:68,1,90.9999958343508,2|0,1:2|2:0,2:0:0:0:
312,35,72898,1,0,2:0:0:0:
307,30,73026,2,0,P|261:20|194:-6,1,90.9999958343508,8|2,2:0|2:0,2:0:0:0:
145,80,73539,2,0,P|101:89|58:104,1,90.9999958343508,0|0,1:2|2:0,2:0:0:0:
110,4,74052,1,10,2:0:0:0:
223,131,74308,1,2,2:0:0:0:
137,175,74564,6,0,P|139:129|151:86,1,90.9999958343508,2|0,1:2|2:0,2:0:0:0:
63,271,75076,1,10,2:0:0:0:
150,346,75333,2,0,P|193:349|239:301,1,90.9999958343508,2|2,2:0|1:2,2:0:0:0:
289,272,75717,1,0,0:0:0:0:
296,278,75846,2,0,P|324:285|362:294,1,45.4999979171754,2|0,2:0|2:0,0:0:0:0:
399,336,76103,2,0,P|440:327|493:315,1,90.9999958343508,10|2,2:0|2:0,2:0:0:0:
512,196,76615,6,0,P|473:186|413:169,1,90.9999958343508,2|0,1:2|2:0,2:0:0:0:
350,51,77128,2,0,B|353:27|353:27|386:9,2,45.4999979171754,2|2|2,1:2|2:0|2:0,0:0:0:0:
319,136,77641,2,0,P|271:158|227:139,1,90.9999958343508,2|2,1:2|2:0,2:0:0:0:
190,147,78026,2,0,P|166:99|183:55,1,90.9999958343508,2|2,2:0|2:0,2:0:0:0:
154,25,78410,2,0,P|129:19|97:10,1,45.4999979171754,2|2,2:0|2:0,0:0:0:0:
67,30,78666,6,0,B|50:38|32:46|32:46|14:75|49:122,1,90.9999958343508,2|2,1:2|2:0,2:0:0:0:
8,134,79051,1,2,1:2:0:0:
79,234,79307,1,2,2:0:0:0:
79,234,79435,2,0,B|138:248|138:248|163:271|163:271|232:288,1,157.500006008148,2|0,1:2|2:0,2:0:0:0:
392,358,80718,6,0,P|432:352|460:307,1,83.9999974365235,14|2,2:0|2:0,2:0:0:0:
490,292,81103,2,0,P|497:252|506:201,1,83.9999974365235,10|2,2:0|2:0,2:0:0:0:
488,170,81488,1,10,2:0:0:0:
410,201,81744,2,0,B|339:186,1,41.9999987182618,2|2,1:2|2:0,2:0:0:0:
335,167,82000,1,10,2:0:0:0:
273,224,82257,2,0,P|230:232|187:243,1,83.9999974365235,10|10,1:2|2:0,0:0:0:0:
160,269,82641,1,10,2:0:0:0:
160,269,82770,6,0,P|125:271|81:241,1,83.9999974365235,2|2,1:2|2:0,2:0:0:0:
68,212,83154,1,10,2:0:0:0:
68,212,83282,1,0,1:2:0:0:
124,149,83539,1,10,2:0:0:0:
82,76,83795,2,0,L|-5:89,1,83.9999974365235,2|10,1:2|2:0,2:0:0:0:
89,68,84308,1,10,2:0:0:0:
207,149,84821,6,0,P|251:157|279:187,1,83.9999974365235,2|0,1:2|0:0,0:0:0:0:
317,258,85334,1,10,2:0:0:0:
483,76,85847,5,2,1:2:0:0:
483,76,85975,1,2,0:0:0:0:
442,145,86359,2,0,P|436:190|429:234,1,83.9999974365235,10|0,2:0|0:0,0:0:0:0:
466,304,86872,6,0,B|427:317|427:317|364:291,1,83.9999974365235,2|2,1:2|2:0,2:0:0:0:
317,258,87385,2,0,L|300:183,2,41.9999987182618,10|0|2,2:0|0:0|2:0,0:0:0:0:
299,292,87770,2,0,P|269:315|211:307,1,83.9999974365235,2|2,2:0|2:0,2:0:0:0:
132,249,88411,2,0,P|125:207|114:150,1,83.9999974365235,10|2,2:0|2:0,0:0:0:0:
144,135,88795,1,2,2:0:0:0:
144,135,88923,6,0,B|180:115|180:115|239:127,1,83.9999974365235,2|0,1:2|0:0,0:0:0:0:
292,169,89436,1,10,2:0:0:0:
489,19,89949,5,2,1:2:0:0:
489,19,90077,1,2,0:0:0:0:
427,69,90462,2,0,P|381:85|364:126,1,83.9999974365235,10|0,2:0|0:0,0:0:0:0:
410,185,90975,6,0,P|415:228|426:279,1,83.9999974365235,2|2,1:2|2:0,2:0:0:0:
377,338,91488,1,10,2:0:0:0:
307,290,91744,1,2,2:0:0:0:
234,332,92000,2,0,B|212:326|212:326|188:305|188:305|158:297,1,83.9999974365235,2|0,1:2|0:0,2:0:0:0:
130,275,92385,1,0,2:0:0:0:
130,275,92513,2,0,P|105:279|57:338,1,83.9999974365235,8|2,2:0|2:0,2:0:0:0:
13,247,93026,6,0,P|6:201|-9:128,1,83.9999974365235,2|0,1:2|0:0,0:0:0:0:
52,107,93539,1,2,1:2:0:0:
154,0,94052,2,0,P|211:18|256:20,1,83.9999974365235,2|2,1:2|2:0,2:0:0:0:
310,44,94564,2,0,P|354:54|375:94,1,83.9999974365235,2|2,1:2|2:0,2:0:0:0:
412,112,94949,1,2,2:0:0:0:
412,112,95077,6,0,P|424:199|440:283,1,167.999994873047,2|0,1:2|1:2,0:0:0:0:
317,368,96103,2,0,P|273:366|244:332,1,83.9999974365235,0|0,1:2|2:0,2:0:0:0:
184,291,96616,1,0,1:2:0:0:
236,225,96872,1,2,2:0:0:0:
184,291,97129,6,0,P|140:301|91:313,1,83.9999974365235,2|2,1:2|2:0,2:0:0:0:
68,295,97513,1,2,2:0:0:0:
68,295,97641,2,0,P|51:262|68:208,1,83.9999974365235,2|2,1:2|2:0,2:0:0:0:
124,162,98154,2,0,P|141:129|124:75,1,83.9999974365235,2|0,1:2|0:0,0:0:0:0:
76,21,98667,1,2,1:2:0:0:
221,114,99180,5,2,1:2:0:0:
221,114,99308,2,0,B|257:123|284:130|284:130|313:168|260:198,1,125.999996154785,2|0,2:0|1:2,2:0:0:0:
332,249,99949,1,2,2:0:0:0:
400,199,100206,2,0,L|496:176,1,83.9999974365235,2|2,1:2|2:0,2:0:0:0:
332,249,100718,2,0,L|309:345,1,83.9999974365235,2|2,1:2|2:0,2:0:0:0:
328,241,101231,6,0,B|288:229|288:229|241:249,1,83.9999974365235,2|0,1:2|1:2,0:0:0:0:
197,312,101744,2,0,B|158:328|158:328|118:316,1,83.9999974365235,2|2,1:2|1:2,0:0:0:0:
47,270,102257,2,0,P|42:247|32:211,3,41.9999987182618,2|0|2|0,1:2|1:2|1:2|1:2,0:0:0:0:
51,189,102770,1,2,1:2:0:0:
108,121,103026,2,0,P|112:100|117:80,1,41.9999987182618,0|0,2:0|2:0,0:0:0:0:
149,57,103282,6,0,P|198:54|232:11,1,90.9999958343508,6|2,1:2|2:0,2:0:0:0:
296,0,103667,1,2,2:0:0:0:
302,4,103795,2,0,P|328:11|362:20,1,45.4999979171754,10|2,2:0|2:0,0:0:0:0:
396,73,104052,1,2,2:0:0:0:
493,0,104308,6,0,P|499:40|513:95,1,90.9999958343508,2|2,1:2|2:0,0:0:0:0:
462,153,104693,1,2,2:0:0:0:
457,157,104821,2,0,P|452:187|445:220,1,45.4999979171754,10|2,2:0|2:0,2:0:0:0:
503,260,105077,1,2,2:0:0:0:
396,371,105334,5,2,1:2:0:0:
298,264,105590,1,2,2:0:0:0:
298,264,105718,1,2,2:0:0:0:
298,264,105846,2,0,P|261:272|196:286,1,90.9999958343508,10|2,2:0|2:0,2:0:0:0:
150,334,106231,1,2,2:0:0:0:
142,333,106359,5,2,1:2:0:0:
48,218,106616,1,2,2:0:0:0:
48,218,106744,1,2,2:0:0:0:
48,218,106872,2,0,P|76:182|127:171,1,90.9999958343508,10|2,2:0|2:0,2:0:0:0:
166,114,107257,1,2,2:0:0:0:
173,117,107385,6,0,P|198:113|260:98,1,45.4999979171754,2|2,1:2|2:0,0:0:0:0:
281,62,107641,1,0,0:0:0:0:
289,56,107770,1,0,0:0:0:0:
298,49,107898,2,0,P|342:41|378:-9,1,90.9999958343508,10|2,2:0|2:0,2:0:0:0:
512,90,108411,6,0,L|491:199,1,90.9999958343508,2|2,1:2|2:0,0:0:0:0:
408,277,108923,1,10,2:0:0:0:
408,277,109052,1,2,2:0:0:0:
408,277,109180,2,0,P|403:248|394:153,1,90.9999958343508,2|0,2:0|1:2,2:0:0:0:
398,360,109693,6,0,B|366:357|366:357|335:329,1,45.4999979171754,2|2,2:0|2:0,0:0:0:0:
294,297,109949,2,0,P|250:290|192:283,1,90.9999958343508,10|2,2:0|2:0,0:0:0:0:
143,334,110334,1,2,2:0:0:0:
143,334,110462,5,2,1:2:0:0:
37,265,110718,1,2,2:0:0:0:
37,265,110846,1,2,2:0:0:0:
37,265,110975,1,10,2:0:0:0:
135,170,111231,1,2,2:0:0:0:
44,14,111487,6,0,P|57:57|68:102,1,90.9999958343508,6|2,1:2|2:0,2:0:0:0:
201,111,112000,2,0,P|188:68|177:24,1,90.9999958343508,10|2,2:0|2:0,2:0:0:0:
270,207,112513,2,0,P|309:195|322:123,1,90.9999958343508,2|2,1:2|2:0,0:0:0:0:
409,65,113026,2,0,P|433:61|461:52,1,45.4999979171754,10|2,2:0|2:0,0:0:0:0:
510,7,113283,1,2,2:0:0:0:
401,73,113539,5,0,1:2:0:0:
465,149,113795,2,0,P|475:194|442:242,1,90.9999958343508,2|10,2:0|2:0,2:0:0:0:
415,324,114308,2,0,P|375:344|331:333,1,90.9999958343508,2|2,2:0|1:2,0:0:0:0:
257,266,114821,2,0,P|251:242|236:196,1,45.4999979171754,2|2,2:0|2:0,0:0:0:0:
283,157,115077,1,10,2:0:0:0:
188,94,115334,1,2,2:0:0:0:
125,190,115590,6,0,P|81:207|58:258,1,90.9999958343508,2|2,1:2|2:0,2:0:0:0:
108,335,116103,2,0,B|210:358,1,90.9999958343508,10|2,2:0|2:0,2:0:0:0:
264,268,116616,2,0,B|352:247,1,90.9999958343508,2|2,1:2|2:0,0:0:0:0:
441,328,117129,2,0,P|460:307|456:251,1,45.4999979171754,10|2,2:0|2:0,0:0:0:0:
461,217,117385,1,2,2:0:0:0:
360,161,117641,5,0,1:2:0:0:
417,90,117898,2,0,B|435:-4,1,90.9999958343508,2|10,2:0|2:0,2:0:0:0:
360,161,118411,2,0,B|266:179,1,90.9999958343508,2|2,2:0|1:2,0:0:0:0:
188,135,118924,2,0,P|161:131|120:122,1,45.4999979171754,2|2,2:0|2:0,0:0:0:0:
77,164,119180,1,10,2:0:0:0:
0,92,119436,1,2,2:0:0:0:
86,11,119693,6,0,P|132:19|200:29,1,90.9999958343508,6|2,1:2|2:0,2:0:0:0:
267,101,120205,2,0,P|313:92|381:83,1,90.9999958343508,10|2,2:0|2:0,2:0:0:0:
512,49,120719,2,0,P|477:21|432:23,1,90.9999958343508,2|2,1:2|2:0,0:0:0:0:
502,142,121232,2,0,P|504:164|512:197,1,45.4999979171754,10|2,2:0|2:0,0:0:0:0:
480,256,121487,1,2,2:0:0:0:
401,177,121745,5,0,1:2:0:0:
333,253,122001,2,0,P|294:263|228:280,1,90.9999958343508,2|10,2:0|2:0,2:0:0:0:
156,364,122513,2,0,P|111:352|67:341,1,90.9999958343508,2|2,2:0|1:2,0:0:0:0:
164,360,123027,2,0,B|176:342|176:342|168:302,1,45.4999979171754,2|2,2:0|2:0,0:0:0:0:
119,261,123283,1,10,2:0:0:0:
194,158,123540,1,2,2:0:0:0:
33,94,123796,6,0,L|11:-8,1,90.9999958343508,2|2,1:2|2:0,2:0:0:0:
42,100,124308,2,0,P|100:110|121:150,1,90.9999958343508,10|2,2:0|2:0,2:0:0:0:
256,204,124821,2,0,P|225:236|181:238,1,90.9999958343508,2|2,1:2|2:0,0:0:0:0:
262,198,125335,2,0,P|265:168|277:121,1,45.4999979171754,10|2,2:0|2:0,0:0:0:0:
316,90,125591,1,2,2:0:0:0:
230,17,125847,5,0,1:2:0:0:
316,90,126104,2,0,P|359:78|420:53,1,90.9999958343508,2|10,2:0|2:0,2:0:0:0:
479,206,126616,2,0,P|501:167|493:124,1,90.9999958343508,2|2,2:0|1:2,0:0:0:0:
392,252,127130,2,0,P|363:260|323:270,1,45.4999979171754,2|2,2:0|2:0,0:0:0:0:
297,317,127386,1,10,2:0:0:0:
181,238,127642,1,2,2:0:0:0:
65,353,128411,6,0,P|55:307|15:234,1,90.9999958343508,6|2,1:2|2:0,0:0:0:0:
84,207,128795,1,2,2:0:0:0:
84,207,128923,1,10,2:0:0:0:
8,115,129180,1,2,2:0:0:0:
8,115,129308,2,0,B|59:98|59:98|79:77|79:77|134:56,1,136.499993751526,2|2,1:2|1:2,2:0:0:0:
182,2,129821,1,2,2:0:0:0:
188,5,129949,6,0,P|249:17|267:59,1,90.9999958343508,8|2,2:0|2:0,2:0:0:0:
293,78,130334,1,0,2:0:0:0:
293,78,130462,2,0,L|383:95,2,90.9999958343508,2|2|10,1:2|2:0|2:0,2:0:0:0:
177,144,131231,1,2,2:0:0:0:
292,223,131487,1,2,1:2:0:0:
292,223,131616,1,2,2:0:0:0:
292,223,131744,2,0,B|317:223|336:203|336:203|313:211|287:200,1,90.9999958343508,10|10,2:0|2:0,2:0:0:0:
296,348,132513,6,0,L|386:331,2,90.9999958343508,2|2|10,1:2|2:0|2:0,2:0:0:0:
180,282,133282,1,2,2:0:0:0:
295,203,133538,1,2,1:2:0:0:
295,203,133667,1,2,2:0:0:0:
295,203,133795,2,0,B|320:203|339:223|339:223|316:215|290:226,1,90.9999958343508,10|10,2:0|2:0,2:0:0:0:
180,282,134564,6,0,L|44:302,1,136.499993751526,0|0,1:2|2:0,2:0:0:0:
11,229,135590,6,0,B|-16:190|-16:190|3:129,1,97.9999970092774,2|2,1:2|2:0,0:0:0:0:
51,83,135974,1,2,2:0:0:0:
58,79,136102,2,0,P|106:71|155:62,1,97.9999970092774,10|2,2:0|2:0,2:0:0:0:
246,139,136615,2,0,P|294:146|343:156,1,97.9999970092774,2|2,1:2|2:0,0:0:0:0:
433,96,137128,1,10,2:0:0:0:
364,0,137384,2,0,B|358:25|358:25|374:64,1,48.9999985046387,2|2,2:0|2:0,0:0:0:0:
433,96,137641,6,0,P|437:145|446:194,1,97.9999970092774,2|2,1:2|2:0,2:0:0:0:
500,252,138025,1,2,2:0:0:0:
496,258,138154,2,0,P|487:306|483:355,1,97.9999970092774,10|2,2:0|2:0,0:0:0:0:
360,170,138666,2,0,P|407:163|445:192,1,97.9999970092774,2|2,1:2|2:0,2:0:0:0:
405,260,139051,1,2,2:0:0:0:
399,267,139179,2,0,P|349:283|283:305,1,97.9999970092774,10|2,2:0|2:0,2:0:0:0:
195,356,139692,6,0,P|145:339|79:318,1,97.9999970092774,2|0,1:2|2:0,2:0:0:0:
32,363,140077,1,0,2:0:0:0:
25,360,140205,2,0,P|13:312|50:261,1,97.9999970092774,8|0,2:0|2:0,2:0:0:0:
120,178,140718,1,0,1:2:0:0:
32,96,140974,2,0,L|12:-2,2,97.9999970092774,2|10|2,2:0|2:0|2:0,0:0:0:0:
120,178,141743,6,0,P|186:156|199:125,1,97.9999970092774,2|0,1:2|2:0,2:0:0:0:
245,24,142256,1,8,2:0:0:0:
342,101,142513,2,0,L|463:123,1,97.9999970092774,2|0,2:0|1:2,2:0:0:0:
512,100,142897,1,2,2:0:0:0:
512,100,143025,2,0,B|517:126|517:126|501:159,1,48.9999985046387,10|10,2:0|2:0,0:0:0:0:
451,202,143282,2,0,B|446:228|446:228|462:261,1,48.9999985046387,10|0,2:0|2:0,2:0:0:0:
512,304,143538,1,10,2:0:0:0:
400,363,143795,6,0,L|299:376,1,97.9999970092774,6|2,1:2|2:0,0:0:0:0:
242,331,144179,1,2,2:0:0:0:
237,327,144307,2,0,B|213:284|213:284|235:228,1,97.9999970092774,10|2,2:0|2:0,2:0:0:0:
330,166,144820,2,0,P|376:155|401:109,1,97.9999970092774,2|2,1:2|2:0,0:0:0:0:
331,0,145333,1,10,2:0:0:0:
238,74,145590,2,0,P|264:81|295:93,1,48.9999985046387,2|2,2:0|2:0,0:0:0:0:
229,67,145846,6,0,P|179:82|153:147,1,97.9999970092774,2|2,1:2|2:0,2:0:0:0:
102,174,146230,1,2,2:0:0:0:
107,180,146359,2,0,P|119:229|130:282,1,97.9999970092774,10|2,2:0|2:0,0:0:0:0:
224,356,146871,2,0,P|268:345|326:333,1,97.9999970092774,2|2,1:2|2:0,2:0:0:0:
378,285,147256,1,2,2:0:0:0:
385,280,147384,2,0,P|431:283|465:331,1,97.9999970092774,10|2,2:0|2:0,2:0:0:0:
303,255,147897,6,0,B|274:218|274:218|291:154,1,97.9999970092774,2|0,1:2|2:0,2:0:0:0:
407,93,148410,2,0,B|436:130|436:130|419:194,1,97.9999970092774,8|2,2:0|2:0,2:0:0:0:
276,36,148923,1,0,1:2:0:0:
203,130,149179,1,0,2:0:0:0:
203,130,149307,1,0,0:0:0:0:
203,130,149436,2,0,L|107:153,1,97.9999970092774,10|2,2:0|2:0,2:0:0:0:
34,76,149948,6,0,P|-5:110|7:163,1,97.9999970092774,2|0,1:2|2:0,2:0:0:0:
50,295,150461,1,10,2:0:0:0:
157,230,150718,2,0,L|253:207,1,97.9999970092774,2|2,2:0|1:2,2:0:0:0:
322,243,151102,1,0,0:0:0:0:
330,249,151230,2,0,L|391:263,1,48.9999985046387,2|0,2:0|2:0,0:0:0:0:
448,292,151487,2,0,B|458:270|458:270|450:233,1,48.9999985046387,10|0,2:0|0:0,2:0:0:0:
449,109,152000,6,0,P|375:134|365:160,1,97.9999970092774,2|0,1:2|2:0,2:0:0:0:
213,80,152513,2,0,P|185:84|135:93,2,48.9999985046387,2|2|2,1:2|2:0|2:0,0:0:0:0:
304,13,153025,2,0,P|295:63|294:117,1,97.9999970092774,2|2,1:2|2:0,2:0:0:0:
305,189,153410,2,0,P|255:180|201:179,1,97.9999970092774,2|2,2:0|2:0,2:0:0:0:
139,227,153795,1,2,2:0:0:0:
139,227,153923,1,2,2:0:0:0:
139,227,154051,6,0,P|131:280|183:322,1,97.9999970092774,2|2,1:2|2:0,0:0:0:0:
197,381,154436,1,0,1:2:0:0:
328,315,154692,1,2,2:0:0:0:
328,315,154820,2,0,P|405:303|483:289,1,136.499993751526,2|0,1:2|2:0,2:0:0:0:
512,138,156102,6,0,P|478:131|406:114,1,90.9999958343508,6|0,1:2|2:0,2:0:0:0:
362,68,156872,1,2,2:0:0:0:
301,116,157128,2,0,P|282:121|270:126,3,22.7499989585877,0|0|2|0,1:2|2:0|2:0|2:0,0:0:0:0:
212,84,157641,2,0,P|201:87|190:90,3,22.7499989585877,0|0|2|0,2:0|2:0|2:0|2:0,0:0:0:0:
136,145,158154,6,0,P|89:134|67:82,1,90.9999958343508,6|0,1:2|2:0,2:0:0:0:
89,24,158923,1,2,2:0:0:0:
67,99,159179,2,0,P|50:136|37:156,2,45.4999979171754,0|2|0,1:2|1:2|1:2,0:0:0:0:
159,221,160205,1,0,1:2:0:0:
