osu file format v14

[General]
AudioFilename: audio.mp3
AudioLeadIn: 0
PreviewTime: 17179
Countdown: 0
SampleSet: Soft
StackLeniency: 0.7
Mode: 0
LetterboxInBreaks: 0
WidescreenStoryboard: 0

[Editor]
DistanceSpacing: 1.1
BeatDivisor: 3
GridSize: 32
TimelineZoom: 1.7

[Metadata]
Title:Dorei Janai nara Nan Desu ka?
TitleUnicode:奴隷じゃないなら何ですか?
Artist:TUYU
ArtistUnicode:ツユ
Creator:Woood13
Version:Condemned
Source:
Tags:ぷす 礼衣 おむたつ Tsuyu Pusu Rei Omutatsu Miro AyunZ What if this isn't is not a slave japanese rock jrock 2nd album jpop pop
BeatmapID:3110914
BeatmapSetID:1519920

[Difficulty]
HPDrainRate:5.4
CircleSize:4.2
OverallDifficulty:8.8
ApproachRate:9.1
SliderMultiplier:1.64
SliderTickRate:1

[Events]
//Background and Video events
0,0,"dorei_na_atashi_ne.jpg",0,0
Video,-440,"video.mp4"
//Break Periods
//Storyboard Layer 0 (Background)
//Storyboard Layer 1 (Fail)
//Storyboard Layer 2 (Pass)
//Storyboard Layer 3 (Foreground)
//Storyboard Layer 4 (Overlay)
//Storyboard Sound Samples

[TimingPoints]
463,512.820512820513,4,2,1,50,1,0
975,-76.9230769230769,4,2,1,50,0,0
4052,-232.558139534884,4,2,1,50,0,0
4565,-66.6666666666667,4,2,1,60,0,0
8155,-135.135135135135,4,2,1,60,0,0
8667,-71.4285714285714,4,2,1,60,0,0
16360,-90.9090909090909,4,2,1,60,0,0
17129,512.820512820513,4,2,1,80,1,0
17129,-62.5,4,2,1,80,0,0
36359,-188.679245283019,4,2,1,75,0,0
37129,-188.679245283019,4,2,1,5,0,0
37641,-76.9230769230769,4,2,1,65,0,0
39436,-66.6666666666667,4,2,1,65,0,0
39693,-76.9230769230769,4,2,1,65,0,0
49949,-83.3333333333333,4,2,1,50,0,0
60205,-62.5,4,2,1,80,0,0
76103,-83.3333333333333,4,2,1,80,0,0
76615,-62.5,4,2,1,80,0,0
79435,-188.679245283019,4,2,1,75,0,0
80205,-188.679245283019,4,2,1,5,0,0
80718,-76.9230769230769,4,2,1,65,0,0
93026,-83.3333333333333,4,2,1,65,0,0
103282,-62.5,4,2,1,70,0,1
111487,-66.6666666666667,4,2,1,60,0,0
127385,-83.3333333333333,4,2,1,50,0,0
127898,-66.6666666666667,4,2,1,60,0,0
132000,-133.333333333333,4,2,1,50,0,0
132513,-66.6666666666667,4,2,1,50,0,0
134052,-133.333333333333,4,2,1,50,0,0
135590,512.820512820513,4,2,1,50,1,0
135590,-58.8235294117647,4,2,1,80,0,0
151487,-100,4,2,1,80,0,0
152000,-58.8235294117647,4,2,1,80,0,0
154820,-250,4,2,1,70,0,0
156102,-166.666666666667,4,2,1,50,0,0

[Colours]
Combo1 : 31,92,129
Combo2 : 73,141,82
Combo3 : 233,124,44

[HitObjects]
74,337,463,6,0,P|130:324|201:308,1,123,2|0,1:2|2:0,2:0:0:0:
241,255,976,1,2,1:2:0:0:
382,63,1489,6,0,B|363:14|408:-17|408:-17|386:14|400:58,1,159.899992680359,2|0,1:2|2:0,2:0:0:0:
435,112,2002,2,0,P|495:87|486:39,1,106.599995120239,2|0,1:2|2:0,2:0:0:0:
291,165,2515,6,0,P|224:150|98:137,1,159.899992680359,2|0,1:2|2:0,2:0:0:0:
63,106,3027,6,0,P|40:118|2:131,1,53.2999975601197,2|0,1:2|2:0,2:0:0:0:
45,225,3284,2,0,P|68:213|106:200,1,53.2999975601197,0|0,1:2|2:0,2:0:0:0:
240,68,3540,6,0,P|265:78|332:84,1,53.2999975601197,2|0,1:2|2:0,2:0:0:0:
255,264,3797,2,0,P|230:254|163:248,1,53.2999975601197,0|0,1:2|2:0,2:0:0:0:
397,47,4053,6,0,P|413:68|408:109,1,52.8900008070374,2|0,1:2|2:0,2:0:0:0:
364,168,4566,6,0,P|334:162|273:146,1,61.5000023460389,6|2,1:2|2:0,2:0:0:0:
204,248,4822,1,2,2:0:0:0:
169,177,4950,1,2,2:0:0:0:
329,260,5079,6,0,B|379:274|379:274|399:290|399:290|465:311,1,123.000004692078,10|2,2:0|2:0,2:0:0:0:
501,264,5463,2,0,P|509:204|455:165,1,123.000004692078,2|2,1:2|2:0,2:0:0:0:
329,260,5848,1,2,1:2:0:0:
266,219,5976,1,2,2:0:0:0:
303,154,6104,6,0,P|333:161|364:168,1,61.5000023460389,10|0,2:0|2:0,2:0:0:0:
238,43,6361,1,2,2:0:0:0:
302,11,6489,1,2,2:0:0:0:
169,177,6617,6,0,P|110:161|33:159,1,123.000004692078,2|2,1:2|2:0,2:0:0:0:
0,109,7002,1,0,2:0:0:0:
103,37,7130,2,0,P|133:34|173:22,1,61.5000023460389,10|0,2:0|2:0,2:0:0:0:
303,154,7386,1,2,2:0:0:0:
330,85,7515,5,8,2:0:0:0:
169,177,7643,1,2,1:2:0:0:
222,242,7771,1,2,2:0:0:0:
222,242,7899,2,0,P|254:246|308:263,1,61.5000023460389,10|0,2:0|2:0,2:0:0:0:
370,327,8156,2,0,P|402:331|456:348,1,60.6800014814453,8|0,2:0|2:0,2:0:0:0:
400,100,8668,6,0,B|404:137|410:169|410:169|399:144|373:124,1,114.799996496582,6|2,1:2|2:0,2:0:0:0:
330,85,9053,1,0,2:0:0:0:
330,85,9181,2,0,P|300:79|249:66,1,57.3999982482911,2|0,1:2|2:0,2:0:0:0:
169,177,9438,2,0,P|139:183|88:196,1,57.3999982482911,2|0,2:0|2:0,2:0:0:0:
282,253,9694,5,2,1:2:0:0:
154,98,9950,1,2,2:0:0:0:
72,303,10207,5,2,1:2:0:0:
137,338,10335,1,2,2:0:0:0:
182,278,10463,2,0,P|156:269|114:250,1,57.3999982482911,2|0,2:0|2:0,2:0:0:0:
242,377,10720,1,0,1:2:0:0:
332,311,10976,6,0,P|387:304|421:238,2,114.799996496582,2|2|2,2:0|1:2|2:0,2:0:0:0:
282,253,11617,1,0,2:0:0:0:
337,156,11745,6,0,P|382:167|463:180,1,114.799996496582,2|2,1:2|2:0,2:0:0:0:
511,131,12130,1,2,2:0:0:0:
422,1,12258,2,0,P|395:9|367:16,1,57.3999982482911,2|0,1:2|2:0,2:0:0:0:
387,90,12515,2,0,P|414:81|442:74,1,57.3999982482911,2|0,2:0|2:0,2:0:0:0:
330,160,12771,6,0,P|267:160|233:88,1,114.799996496582,2|2,1:2|2:0,2:0:0:0:
267,59,13156,1,0,2:0:0:0:
267,59,13284,2,0,P|271:26|282:-12,1,57.3999982482911,2|0,1:2|2:0,2:0:0:0:
116,149,13540,2,0,P|111:116|101:78,1,57.3999982482911,2|0,2:0|2:0,2:0:0:0:
251,236,13797,5,2,1:2:0:0:
98,86,14053,1,2,2:0:0:0:
256,240,14309,1,2,1:2:0:0:
300,174,14438,5,2,2:0:0:0:
183,270,14566,2,0,B|143:281|143:281|121:297|121:297|57:314,1,114.799996496582,2|0,2:0|1:2,2:0:0:0:
233,67,15079,5,2,2:0:0:0:
290,117,15335,2,0,P|294:147|304:193,1,57.3999982482911,2|0,1:2|2:0,2:0:0:0:
419,286,15592,1,2,2:0:0:0:
389,353,15720,1,0,2:0:0:0:
263,251,15848,6,0,P|339:237|412:221,1,114.799996496582,2|2,1:2|2:0,2:0:0:0:
439,186,16233,1,2,2:0:0:0:
360,78,16361,6,0,P|297:99|294:155,1,90.2000027526856,2|2,1:2|2:0,2:0:0:0:
183,270,17130,5,2,1:2:0:0:
132,212,17258,1,2,2:0:0:0:
183,152,17386,1,2,2:0:0:0:
248,209,17514,5,2,2:0:0:0:
130,324,17642,2,0,P|93:309|20:308,1,65.6,10|0,2:0|2:0,2:0:0:0:
313,148,17899,5,2,2:0:0:0:
364,208,18027,1,2,2:0:0:0:
313,266,18155,1,2,1:2:0:0:
248,209,18283,5,2,2:0:0:0:
364,90,18412,2,0,P|401:105|474:106,1,65.6,2|0,2:0|2:0,2:0:0:0:
245,345,18668,6,0,B|260:262|224:303|243:204,1,131.2,10|2,2:0|2:0,2:0:0:0:
109,134,19053,1,2,2:0:0:0:
172,87,19181,6,0,P|177:122|189:177,1,65.6,2|0,1:2|2:0,2:0:0:0:
61,273,19437,1,2,2:0:0:0:
0,222,19565,1,2,2:0:0:0:
38,155,19694,1,10,2:0:0:0:
245,345,19950,6,0,P|286:354|328:383,1,65.6,2|2,2:0|2:0,2:0:0:0:
422,192,20206,2,0,P|356:185|312:257,1,131.2,2|2,1:2|2:0,2:0:0:0:
255,268,20591,1,2,2:0:0:0:
389,361,20719,2,0,P|419:350|464:339,1,65.6,10|0,2:0|2:0,2:0:0:0:
498,287,20976,1,2,2:0:0:0:
421,63,21232,6,0,B|417:115|417:115|427:138|427:138|419:210,1,131.2,2|0,1:2|2:0,2:0:0:0:
384,259,21617,1,0,2:0:0:0:
266,129,21745,2,0,P|299:123|357:101,1,65.6,8|0,2:0|2:0,2:0:0:0:
191,252,22001,2,0,P|224:258|282:280,1,65.6,0|0,2:0|2:0,2:0:0:0:
117,75,22258,6,0,B|95:85|70:93|70:93|33:138|109:197,1,131.2,0|2,1:2|2:0,2:0:0:0:
72,239,22642,1,0,2:0:0:0:
186,159,22771,2,0,P|199:120|166:56,1,65.6,10|0,2:0|2:0,2:0:0:0:
76,166,23027,1,2,2:0:0:0:
191,252,23155,1,0,2:0:0:0:
139,308,23283,6,0,P|60:332|43:408,1,131.2,2|0,1:2|2:0,2:0:0:0:
186,159,23796,2,0,P|258:175|305:180,1,65.6,8|0,2:0|2:0,2:0:0:0:
310,227,24053,6,0,B|341:173|341:173|307:111,1,131.2,2|0,2:0|1:2,2:0:0:0:
191,252,24565,1,10,2:0:0:0:
291,333,24693,1,10,2:0:0:0:
222,373,24822,2,0,P|188:376|153:384,1,65.6,10|0,2:0|2:0,2:0:0:0:
310,227,25078,2,0,P|344:224|379:216,1,65.6,10|0,2:0|2:0,2:0:0:0:
212,96,25334,5,6,1:2:0:0:
282,73,25463,1,2,2:0:0:0:
282,0,25591,1,2,2:0:0:0:
203,92,25719,5,2,2:0:0:0:
313,164,25847,2,0,P|320:197|306:231,1,65.6,10|0,2:0|2:0,2:0:0:0:
207,286,26103,5,2,2:0:0:0:
277,309,26231,1,2,2:0:0:0:
277,382,26360,1,2,1:2:0:0:
198,290,26488,5,2,2:0:0:0:
309,226,26616,2,0,P|319:195|312:163,1,65.6,2|0,2:0|2:0,2:0:0:0:
69,54,26873,6,0,B|120:67|120:67|143:89|143:89|201:109,1,131.2,10|2,2:0|2:0,2:0:0:0:
309,226,27258,1,2,2:0:0:0:
198,290,27386,6,0,P|190:258|180:226,1,65.6,2|0,1:2|2:0,2:0:0:0:
345,4,27642,1,2,2:0:0:0:
406,55,27770,1,2,2:0:0:0:
368,122,27899,1,10,2:0:0:0:
188,105,28155,6,0,P|220:99|252:90,1,65.6,2|2,2:0|2:0,2:0:0:0:
434,244,28411,2,0,P|469:187|423:116,1,131.2,2|2,1:2|2:0,2:0:0:0:
299,281,28796,1,2,2:0:0:0:
357,329,28924,2,0,P|387:320|433:312,1,65.6,10|0,2:0|2:0,2:0:0:0:
303,203,29181,1,2,2:0:0:0:
194,344,29437,6,0,B|113:336|159:303|71:291,1,131.2,2|0,1:2|2:0,2:0:0:0:
28,229,29822,1,0,2:0:0:0:
28,229,29950,2,0,P|70:214|93:184,1,65.6,8|0,2:0|2:0,2:0:0:0:
206,66,30206,1,2,2:0:0:0:
127,50,30377,6,0,P|137:86|152:179,1,131.2,2|0,2:0|2:0,2:0:0:0:
205,235,30719,1,0,2:0:0:0:
345,63,30976,6,0,P|417:64|449:137,1,131.2,10|2,2:0|2:0,2:0:0:0:
500,163,31360,1,0,2:0:0:0:
416,236,31487,6,0,P|377:241|334:255,1,65.6,2|0,1:2|2:0,2:0:0:0:
448,108,31745,1,0,2:0:0:0:
500,163,32001,6,0,P|505:201|519:245,1,65.6,10|0,2:0|2:0,2:0:0:0:
357,127,32258,2,0,P|351:88|338:45,1,65.6,2|0,2:0|2:0,2:0:0:0:
500,0,32514,6,0,P|453:43|461:134,1,131.2,2|2,1:2|2:0,2:0:0:0:
351,248,32899,1,0,2:0:0:0:
278,175,33027,2,0,B|263:136|284:107|284:107|274:142|304:184,1,131.2,10|2,2:0|2:0,2:0:0:0:
488,358,33540,6,0,P|428:331|352:322,1,131.2,2|0,1:2|2:0,2:0:0:0:
104,166,34053,1,2,1:2:0:0:
150,108,34181,1,2,2:0:0:0:
203,160,34309,2,0,P|191:194|191:279,1,65.6,2|0,2:0|2:0,2:0:0:0:
252,365,34565,6,0,P|293:324|390:337,1,131.2,2|2,1:2|2:0,2:0:0:0:
355,127,34950,2,0,P|409:146|438:240,1,131.2,2|2,2:0|2:0,2:0:0:0:
424,281,35335,1,2,2:0:0:0:
300,180,35463,1,2,2:0:0:0:
355,127,35591,6,0,P|385:121|435:104,1,65.6,2|2,1:2|2:0,2:0:0:0:
205,296,35847,2,0,P|174:301|124:318,1,65.6,2|2,2:0|1:2,2:0:0:0:
302,72,36104,1,2,2:0:0:0:
232,35,36232,1,2,2:0:0:0:
300,180,36360,6,0,P|311:233|318:318,1,130.380000198944,2|0,1:2|2:0,2:0:0:0:
317,308,37642,6,0,P|270:322|215:280,1,106.599995120239,6|2,1:2|2:0,2:0:0:0:
172,232,38027,2,0,P|141:227|91:210,2,53.2999975601197,10|0|2,2:0|1:2|2:0,2:0:0:0:
235,155,38412,1,10,2:0:0:0:
140,355,38668,6,0,P|138:323|119:283,1,53.2999975601197,2|2,1:2|2:0,2:0:0:0:
235,154,38924,2,0,P|235:181|243:206,1,53.2999975601197,10|2,2:0|2:0,2:0:0:0:
140,123,39181,1,10,1:2:0:0:
168,57,39309,1,2,2:0:0:0:
140,123,39437,2,0,P|145:136|147:151,1,30.7500011730195,10|0,2:0|2:0,2:0:0:0:
241,68,39564,2,0,P|243:52|248:38,1,30.7500011730195,10|0,2:0|2:0,2:0:0:0:
310,240,39694,6,0,P|332:230|382:219,2,53.2999975601197,2|2|2,1:2|2:0|2:0,2:0:0:0:
243,206,40078,1,10,2:0:0:0:
399,295,40206,1,0,1:2:0:0:
241,377,40335,1,2,2:0:0:0:
274,304,40463,5,10,2:0:0:0:
332,362,40591,1,2,2:0:0:0:
332,362,40719,6,0,L|437:382,1,106.599995120239,2|10,1:2|2:0,2:0:0:0:
502,347,41104,2,0,P|506:319|465:270,2,53.2999975601197,2|10|2,2:0|2:0|2:0,2:0:0:0:
437,382,41488,1,2,2:0:0:0:
399,295,41617,1,2,2:0:0:0:
333,363,41745,5,2,1:2:0:0:
333,363,41873,2,0,L|228:383,1,106.599995120239,2|0,2:0|2:0,2:0:0:0:
165,342,42258,1,10,2:0:0:0:
165,342,42386,2,0,P|161:314|202:265,1,53.2999975601197,2|0,2:0|2:0,2:0:0:0:
72,163,42642,1,0,2:0:0:0:
62,244,42771,5,2,1:2:0:0:
62,244,42899,2,0,P|87:233|179:207,1,106.599995120239,2|0,2:0|2:0,2:0:0:0:
220,162,43283,1,10,2:0:0:0:
220,162,43412,2,0,P|245:173|337:199,1,106.599995120239,2|0,2:0|2:0,2:0:0:0:
369,250,43796,6,0,P|341:265|282:252,1,53.2999975601197,2|0,1:2|2:0,2:0:0:0:
346,125,44053,2,0,P|372:141|391:199,1,53.2999975601197,2|0,2:0|2:0,2:0:0:0:
269,1,44309,1,10,2:0:0:0:
335,49,44437,1,2,2:0:0:0:
275,101,44565,1,2,2:0:0:0:
335,49,44693,6,0,P|382:42|411:28,1,53.2999975601197,2|0,2:0|1:2,2:0:0:0:
479,136,44949,2,0,P|453:128|371:193,1,106.599995120239,2|0,2:0|2:0,2:0:0:0:
335,49,45334,5,10,2:0:0:0:
335,49,45463,1,2,2:0:0:0:
275,101,45591,1,2,2:0:0:0:
219,159,45719,5,2,2:0:0:0:
152,128,45847,1,2,1:2:0:0:
152,128,45976,2,0,P|92:105|80:64,1,106.599995120239,2|0,2:0|2:0,2:0:0:0:
23,26,46360,1,10,2:0:0:0:
23,26,46488,1,2,2:0:0:0:
291,189,46873,5,2,1:2:0:0:
291,189,47001,2,0,B|358:207|319:224|388:251,1,106.599995120239,2|0,2:0|2:0,2:0:0:0:
440,213,47386,1,10,2:0:0:0:
440,213,47514,1,2,2:0:0:0:
209,340,47899,6,0,P|126:360|79:390,2,106.599995120239,2|2|10,1:2|2:0|2:0,2:0:0:0:
291,189,48668,2,0,B|307:210|307:210|296:251,1,53.2999975601197,2|0,2:0|2:0,2:0:0:0:
215,163,48924,6,0,P|225:109|227:-12,1,159.899992680359,2|0,1:2|2:0,2:0:0:0:
128,72,49437,2,0,P|141:108|200:121,1,53.2999975601197,8|0,2:0|2:0,2:0:0:0:
215,163,49694,2,0,P|253:169|294:124,1,53.2999975601197,2|0,2:0|2:0,2:0:0:0:
378,76,49950,6,0,P|432:66|483:52,1,98.3999969970704,2|2,1:2|2:0,2:0:0:0:
481,59,50335,1,2,2:0:0:0:
485,66,50463,2,0,P|474:96|482:138,2,49.1999984985352,2|0|2,1:2|2:0|2:0,2:0:0:0:
419,158,50847,1,2,2:0:0:0:
424,162,50976,6,0,P|438:213|441:272,1,98.3999969970704,2|2,1:2|2:0,2:0:0:0:
408,324,51360,1,2,2:0:0:0:
293,213,51617,2,0,P|321:224|370:222,1,49.1999984985352,2|2,2:0|2:0,2:0:0:0:
247,384,51873,1,2,2:0:0:0:
197,328,52001,5,2,1:2:0:0:
197,328,52130,2,0,B|257:313|226:299|287:285,1,98.3999969970704,2|0,2:0|2:0,2:0:0:0:
339,226,52514,1,0,1:2:0:0:
245,145,52899,1,0,2:0:0:0:
239,148,53027,6,0,P|187:140|135:123,2,98.3999969970704,0|0|0,1:2|2:0|1:2,2:0:0:0:
331,32,53796,1,2,2:0:0:0:
265,0,54053,6,0,P|217:11|184:67,1,98.3999969970704,2|2,1:2|2:0,2:0:0:0:
318,159,54437,1,2,2:0:0:0:
325,155,54565,2,0,P|328:130|335:107,1,49.1999984985352,2|2,1:2|2:0,2:0:0:0:
239,148,54822,1,2,2:0:0:0:
243,156,54950,2,0,P|239:180|232:203,1,49.1999984985352,2|2,2:0|1:2,2:0:0:0:
116,314,55206,6,0,P|68:322|19:332,1,98.3999969970704,2|2,2:0|2:0,2:0:0:0:
158,161,55591,1,2,1:2:0:0:
101,211,55719,1,2,2:0:0:0:
101,211,55847,2,0,P|73:204|19:197,1,49.1999984985352,2|2,2:0|2:0,2:0:0:0:
192,340,56104,5,2,1:2:0:0:
197,334,56232,2,0,P|244:323|298:309,1,98.3999969970704,2|2,2:0|2:0,2:0:0:0:
297,306,56617,1,0,1:2:0:0:
424,134,56873,2,0,P|450:144|499:146,1,49.1999984985352,2|0,2:0|2:0,2:0:0:0:
382,198,57130,6,0,P|349:160|366:96,1,98.3999969970704,2|2,1:2|2:0,2:0:0:0:
349,109,57642,2,0,P|378:68|444:70,1,98.3999969970704,2|2,1:2|2:0,2:0:0:0:
227,195,58155,5,2,1:2:0:0:
158,161,58412,1,0,1:2:0:0:
280,141,58668,5,2,1:2:0:0:
102,212,58924,1,2,1:2:0:0:
203,0,59181,5,2,1:2:0:0:
208,8,59309,1,0,1:2:0:0:
206,17,59437,1,2,1:2:0:0:
209,26,59565,1,0,1:2:0:0:
212,94,59694,6,0,P|212:115|214:133,6,24.5999992492676,2|0|0|0|0|0|0,1:2|2:0|2:0|2:0|2:0|2:0|2:0,2:0:0:0:
224,308,60206,5,2,1:2:0:0:
173,250,60334,1,2,2:0:0:0:
224,308,60462,1,2,2:0:0:0:
223,196,60590,5,2,2:0:0:0:
167,354,60718,2,0,P|134:360|104:373,1,65.6,10|0,2:0|2:0,2:0:0:0:
305,197,60975,5,2,2:0:0:0:
356,255,61103,1,2,2:0:0:0:
305,197,61231,1,2,1:2:0:0:
306,309,61359,5,2,2:0:0:0:
362,151,61487,2,0,P|395:145|425:132,1,65.6,2|0,2:0|2:0,2:0:0:0:
249,0,61744,6,0,P|262:65|268:138,1,131.2,10|2,2:0|2:0,2:0:0:0:
229,313,62129,1,2,2:0:0:0:
173,250,62257,6,0,P|207:242|253:212,1,65.6,2|0,1:2|2:0,2:0:0:0:
357,367,62513,1,2,2:0:0:0:
418,318,62641,1,2,2:0:0:0:
376,252,62770,1,10,2:0:0:0:
158,344,63026,6,0,P|117:353|75:382,1,65.6,2|2,2:0|2:0,2:0:0:0:
112,184,63283,2,0,B|159:196|159:196|183:214|183:214|248:231,1,131.2,2|2,1:2|2:0,2:0:0:0:
290,180,63667,1,2,2:0:0:0:
208,82,63795,2,0,P|177:93|145:100,1,65.6,10|0,2:0|2:0,2:0:0:0:
233,227,64052,1,2,2:0:0:0:
425,163,64309,6,0,P|456:90|415:32,1,131.2,2|0,1:2|2:0,2:0:0:0:
367,11,64693,1,0,2:0:0:0:
290,180,64821,2,0,P|323:186|381:208,1,65.6,8|0,2:0|2:0,2:0:0:0:
208,82,65077,2,0,P|241:76|299:54,1,65.6,0|0,2:0|2:0,2:0:0:0:
112,184,65334,6,0,B|82:162|77:132|77:132|83:164|57:200,1,131.2,0|2,1:2|2:0,2:0:0:0:
100,260,65718,1,0,2:0:0:0:
226,164,65847,2,0,P|257:173|289:179,1,65.6,10|0,2:0|2:0,2:0:0:0:
218,300,66103,1,2,2:0:0:0:
178,236,66231,1,0,2:0:0:0:
311,292,66360,6,0,P|390:316|407:392,1,131.2,2|0,1:2|2:0,2:0:0:0:
487,181,66872,2,0,P|454:199|423:195,1,65.6,8|0,2:0|2:0,2:0:0:0:
292,183,67129,6,0,P|289:114|269:33,1,131.2,2|0,2:0|1:2,2:0:0:0:
366,156,67642,1,10,2:0:0:0:
250,260,67771,1,10,2:0:0:0:
324,304,67898,6,0,P|355:294|387:291,1,65.6,10|0,2:0|2:0,2:0:0:0:
292,183,68155,2,0,P|259:178|228:168,1,65.6,10|0,2:0|2:0,2:0:0:0:
133,347,68411,5,6,1:2:0:0:
190,303,68539,1,2,2:0:0:0:
166,235,68666,1,2,2:0:0:0:
106,282,68794,1,2,2:0:0:0:
106,282,68923,2,0,P|77:289|34:305,1,65.6,10|0,2:0|0:0,0:0:0:0:
349,227,69180,5,2,2:0:0:0:
292,183,69308,1,2,2:0:0:0:
316,115,69436,1,2,1:2:0:0:
376,162,69564,1,2,2:0:0:0:
376,162,69693,2,0,P|405:169|448:185,1,65.6,2|0,2:0|0:0,0:0:0:0:
104,146,69949,6,0,P|147:91|232:109,1,131.2,10|2,2:0|2:0,2:0:0:0:
292,183,70334,1,2,2:0:0:0:
232,240,70462,6,0,P|220:206|196:154,1,65.6,2|0,1:2|2:0,2:0:0:0:
311,56,70718,1,2,2:0:0:0:
243,22,70846,1,2,2:0:0:0:
205,90,70975,1,10,2:0:0:0:
386,204,71231,6,0,P|416:192|448:184,1,65.6,2|2,2:0|2:0,2:0:0:0:
308,320,71488,2,0,P|245:298|235:234,1,131.2,2|2,1:2|2:0,2:0:0:0:
283,178,71872,1,2,2:0:0:0:
386,290,72001,2,0,P|417:299|449:305,1,65.6,10|0,2:0|2:0,2:0:0:0:
402,370,72257,1,2,2:0:0:0:
307,52,72514,6,0,B|304:101|304:101|287:125|287:125|282:178,1,131.2,2|0,1:2|2:0,2:0:0:0:
232,240,72898,1,0,2:0:0:0:
232,240,73026,2,0,P|188:236|160:198,1,65.6,8|0,2:0|2:0,2:0:0:0:
87,59,73282,1,2,2:0:0:0:
70,148,73454,6,0,P|131:125|195:108,1,131.2,2|0,2:0|2:0,2:0:0:0:
220,35,73795,1,0,2:0:0:0:
431,180,74052,6,0,P|367:185|318:144,1,131.2,10|2,2:0|2:0,2:0:0:0:
311,68,74436,1,0,2:0:0:0:
478,250,74565,6,0,P|439:255|396:269,1,65.6,2|0,1:2|2:0,2:0:0:0:
318,144,74821,1,0,2:0:0:0:
382,104,75077,6,0,P|420:99|464:85,1,65.6,10|0,2:0|2:0,2:0:0:0:
277,205,75334,2,0,P|244:208|212:218,1,65.6,2|0,2:0|2:0,2:0:0:0:
385,334,75590,6,0,P|340:291|347:228,1,131.2,2|2,1:2|2:0,2:0:0:0:
414,263,75975,1,0,2:0:0:0:
297,358,76104,2,0,P|233:366|185:391,1,98.3999969970704,10|2,2:0|2:0,2:0:0:0:
114,63,76616,6,0,P|180:65|210:149,1,131.2,2|0,1:2|2:0,2:0:0:0:
112,301,77129,1,2,1:2:0:0:
57,258,77257,1,2,2:0:0:0:
99,203,77385,2,0,P|132:216|217:221,1,65.6,2|0,2:0|2:0,2:0:0:0:
284,354,77642,6,0,P|299:295|315:201,1,131.2,2|2,1:2|2:0,2:0:0:0:
406,384,78027,2,0,P|417:319|434:256,1,131.2,2|2,2:0|2:0,2:0:0:0:
434,256,78411,1,2,2:0:0:0:
336,145,78539,1,2,2:0:0:0:
311,225,78667,6,0,P|342:215|374:208,1,65.6,2|2,1:2|2:0,2:0:0:0:
448,105,78924,2,0,P|479:95|511:90,1,65.6,2|2,2:0|1:2,2:0:0:0:
434,256,79180,1,2,2:0:0:0:
336,145,79308,1,2,2:0:0:0:
311,225,79436,6,0,P|246:238|185:259,1,130.380000198944,2|0,1:2|2:0,2:0:0:0:
47,90,80719,6,0,B|87:99|87:99|105:111|105:111|162:126,1,106.599995120239,14|2,2:0|2:0,2:0:0:0:
9,216,81104,2,0,P|8:195|-24:127,2,53.2999975601197,10|0|2,2:0|1:2|2:0,2:0:0:0:
62,262,81487,1,10,2:0:0:0:
147,122,81745,6,0,P|174:113|219:103,1,53.2999975601197,2|2,1:2|2:0,2:0:0:0:
182,31,82001,2,0,P|154:39|110:50,1,53.2999975601197,10|2,2:0|2:0,2:0:0:0:
233,212,82258,1,10,1:2:0:0:
281,152,82386,1,2,2:0:0:0:
305,234,82514,6,0,P|323:240|352:247,1,26.6499987800599,10|0,2:0|2:0,2:0:0:0:
223,98,82642,2,0,P|204:104|176:111,1,26.6499987800599,10|0,2:0|2:0,2:0:0:0:
281,152,82771,6,0,P|303:142|354:133,2,53.2999975601197,2|2|2,1:2|2:0|2:0,2:0:0:0:
233,212,83155,1,10,2:0:0:0:
168,170,83283,5,0,1:2:0:0:
305,234,83412,1,2,2:0:0:0:
305,234,83540,5,10,2:0:0:0:
189,351,83668,1,2,2:0:0:0:
144,297,83796,2,0,P|166:287|217:278,1,53.2999975601197,2|0,1:2|2:0,2:0:0:0:
282,350,84053,2,0,P|306:339|332:332,1,53.2999975601197,10|2,2:0|2:0,2:0:0:0:
387,290,84309,1,10,2:0:0:0:
392,4,84822,5,2,1:2:0:0:
333,42,84950,2,0,P|281:51|248:100,1,106.599995120239,2|0,2:0|2:0,2:0:0:0:
205,148,85335,1,10,2:0:0:0:
205,148,85463,2,0,B|226:165|226:165|281:163,1,53.2999975601197,2|0,2:0|2:0,2:0:0:0:
308,206,85719,1,0,2:0:0:0:
389,139,85846,5,2,1:2:0:0:
389,139,85976,2,0,P|440:150|514:159,1,106.599995120239,2|0,2:0|2:0,2:0:0:0:
512,230,86360,1,10,2:0:0:0:
512,230,86488,2,0,P|459:237|407:248,1,106.599995120239,2|0,2:0|2:0,2:0:0:0:
308,206,86873,6,0,P|303:233|292:261,1,53.2999975601197,2|0,1:2|2:0,2:0:0:0:
378,364,87130,2,0,P|368:339|363:312,1,53.2999975601197,2|0,2:0|2:0,2:0:0:0:
407,248,87386,1,10,2:0:0:0:
262,384,87642,1,2,2:0:0:0:
199,340,87770,6,0,P|176:333|121:323,1,53.2999975601197,2|0,2:0|1:2,2:0:0:0:
165,257,88026,2,0,P|191:262|216:269,1,53.2999975601197,2|0,2:0|2:0,2:0:0:0:
113,149,88282,1,2,2:0:0:0:
80,219,88411,1,10,2:0:0:0:
80,219,88540,1,2,2:0:0:0:
186,169,88668,5,2,2:0:0:0:
88,68,88796,1,2,2:0:0:0:
141,12,88924,5,2,1:2:0:0:
141,12,89053,2,0,P|191:12|253:-3,1,106.599995120239,2|0,2:0|2:0,2:0:0:0:
311,42,89437,1,10,2:0:0:0:
311,42,89565,1,2,2:0:0:0:
428,173,89949,5,2,1:2:0:0:
428,173,90078,2,0,P|481:171|514:115,1,106.599995120239,2|0,2:0|2:0,2:0:0:0:
488,68,90463,1,10,2:0:0:0:
488,68,90591,1,2,2:0:0:0:
356,259,90976,6,0,P|376:349|379:405,2,106.599995120239,2|2|10,1:2|2:0|2:0,2:0:0:0:
323,88,91745,2,0,P|354:101|407:110,1,53.2999975601197,2|0,2:0|2:0,2:0:0:0:
322,170,92001,6,0,P|240:217|172:173,1,159.899992680359,2|0,1:2|2:0,2:0:0:0:
157,126,92514,2,0,P|160:100|170:61,1,53.2999975601197,8|0,2:0|2:0,2:0:0:0:
34,205,92771,2,0,P|30:179|21:140,1,53.2999975601197,2|0,2:0|2:0,2:0:0:0:
142,274,93027,5,2,1:2:0:0:
142,274,93155,2,0,P|186:279|227:330,1,98.3999969970704,2|2,2:0|2:0,2:0:0:0:
176,372,93540,2,0,P|144:376|111:403,2,49.1999984985352,2|0|2,1:2|2:0|2:0,2:0:0:0:
277,267,93924,1,2,2:0:0:0:
282,261,94053,6,0,P|330:255|377:240,1,98.3999969970704,2|2,1:2|2:0,2:0:0:0:
440,278,94437,1,2,2:0:0:0:
490,210,94564,2,0,P|481:186|479:162,2,49.1999984985352,2|2|2,1:2|2:0|2:0,2:0:0:0:
398,55,94950,1,2,2:0:0:0:
331,103,95078,5,2,1:2:0:0:
331,103,95206,2,0,P|367:135|419:137,1,98.3999969970704,2|0,2:0|2:0,2:0:0:0:
470,85,95591,1,0,1:2:0:0:
287,248,95976,1,0,2:0:0:0:
281,251,96104,6,0,P|231:238|176:230,2,98.3999969970704,0|0|0,1:2|2:0|1:2,2:0:0:0:
353,308,96873,1,2,2:0:0:0:
332,99,97130,6,0,P|284:110|251:166,1,98.3999969970704,2|2,1:2|2:0,2:0:0:0:
184,230,97514,1,2,2:0:0:0:
184,230,97642,2,0,P|181:205|174:182,1,49.1999984985352,2|2,1:2|2:0,2:0:0:0:
281,251,97899,1,2,2:0:0:0:
231,303,98027,1,2,2:0:0:0:
231,303,98155,1,2,1:2:0:0:
254,147,98283,6,0,P|243:99|236:50,1,98.3999969970704,2|2,2:0|2:0,2:0:0:0:
240,42,98668,1,2,1:2:0:0:
157,130,98796,1,2,2:0:0:0:
157,130,98924,2,0,P|160:155|167:178,1,49.1999984985352,2|2,2:0|2:0,2:0:0:0:
74,83,99181,5,2,1:2:0:0:
67,79,99309,2,0,P|19:91|1:150,1,98.3999969970704,2|2,2:0|2:0,2:0:0:0:
44,197,99694,1,0,1:2:0:0:
189,37,99950,2,0,P|215:47|264:49,1,49.1999984985352,2|0,2:0|2:0,2:0:0:0:
406,184,100205,6,0,P|435:149|422:93,1,98.3999969970704,2|2,1:2|2:0,2:0:0:0:
384,44,100591,1,0,2:0:0:0:
304,220,100718,2,0,P|275:185|288:129,1,98.3999969970704,2|2,1:2|2:0,2:0:0:0:
304,220,101232,5,2,1:2:0:0:
444,309,101487,1,0,1:2:0:0:
480,247,101745,5,2,1:2:0:0:
297,376,102001,1,2,1:2:0:0:
293,297,102258,5,2,1:2:0:0:
301,302,102386,1,0,1:2:0:0:
309,306,102514,1,2,1:2:0:0:
318,308,102642,1,0,1:2:0:0:
368,366,102771,6,0,P|378:362|392:361,6,24.5999992492676,2|0|0|0|0|0|0,1:2|2:0|2:0|2:0|2:0|2:0|2:0,2:0:0:0:
480,247,103283,6,0,P|467:184|454:111,1,131.2,6|2,1:2|2:0,2:0:0:0:
494,53,103668,1,2,2:0:0:0:
370,197,103796,1,10,2:0:0:0:
333,135,103924,1,2,2:0:0:0:
392,97,104053,2,0,P|426:109|487:126,1,65.6,2|2,2:0|2:0,2:0:0:0:
182,5,104309,5,2,1:2:0:0:
302,67,104437,1,2,2:0:0:0:
332,2,104565,5,2,2:0:0:0:
182,130,104694,1,2,2:0:0:0:
267,197,104822,2,0,P|257:131|249:84,1,65.6,10|2,2:0|2:0,2:0:0:0:
182,268,105078,6,0,B|174:254|143:238|110:252|110:252|164:208|213:243|180:257|231:293|274:279,1,262.4,2|2,2:0|2:0,2:0:0:0:
332,319,105719,1,2,2:0:0:0:
430,208,105847,6,0,B|413:169|359:195|338:244|413:291,1,131.2,10|2,2:0|2:0,2:0:0:0:
332,319,106232,1,2,2:0:0:0:
398,375,106360,2,0,P|430:378|462:384,1,65.6,2|0,1:2|2:0,2:0:0:0:
383,266,106617,1,2,2:0:0:0:
298,383,106745,1,2,2:0:0:0:
235,347,106873,6,0,P|202:352|170:356,1,65.6,10|0,2:0|2:0,2:0:0:0:
257,207,107130,1,2,2:0:0:0:
257,207,107258,1,2,2:0:0:0:
273,279,107386,5,2,1:2:0:0:
144,168,107514,1,2,2:0:0:0:
120,240,107642,5,2,2:0:0:0:
234,100,107771,1,2,2:0:0:0:
150,65,107899,6,0,P|148:32|143:-12,1,65.6,10|2,2:0|2:0,2:0:0:0:
322,155,108155,1,2,2:0:0:0:
257,207,108283,1,2,2:0:0:0:
322,155,108412,1,2,1:2:0:0:
233,28,108582,5,2,2:0:0:0:
229,34,108668,2,0,P|232:66|233:99,1,65.6,2|2,2:0|2:0,2:0:0:0:
352,229,108924,1,10,2:0:0:0:
322,155,109053,1,2,2:0:0:0:
194,254,109181,6,0,P|89:293|46:379,1,196.8,2|2,2:0|2:0,2:0:0:0:
54,368,109694,1,2,2:0:0:0:
65,360,109822,1,2,2:0:0:0:
78,337,109950,1,10,2:0:0:0:
70,298,110078,1,2,2:0:0:0:
33,267,110206,2,0,P|17:239|6:156,1,65.6,2|2,2:0|2:0,2:0:0:0:
95,27,110463,5,2,1:2:0:0:
162,50,110591,1,2,2:0:0:0:
45,142,110719,5,2,2:0:0:0:
31,72,110847,1,2,2:0:0:0:
169,127,110976,5,10,2:0:0:0:
115,174,111104,1,2,2:0:0:0:
95,27,111232,6,0,P|129:23|191:-4,1,65.6,2|0,2:0|2:0,2:0:0:0:
386,106,111488,6,0,P|336:101|274:173,1,123.000004692078,6|2,1:2|2:0,2:0:0:0:
236,196,111873,1,0,2:0:0:0:
310,277,112001,2,0,P|367:285|439:316,1,123.000004692078,10|2,2:0|2:0,2:0:0:0:
459,243,112386,1,0,2:0:0:0:
311,367,112514,5,2,1:2:0:0:
466,241,112771,2,0,P|471:209|489:129,1,61.5000023460389,2|0,2:0|2:0,2:0:0:0:
440,57,113027,5,10,2:0:0:0:
404,122,113155,1,2,2:0:0:0:
440,57,113283,2,0,P|434:21|431:-17,1,61.5000023460389,2|0,2:0|2:0,2:0:0:0:
477,180,113540,5,0,1:2:0:0:
342,75,113796,2,0,P|287:90|186:101,2,123.000004692078,2|10|2,2:0|2:0|2:0,2:0:0:0:
404,122,114437,1,0,2:0:0:0:
316,261,114565,6,0,P|303:212|366:148,1,123.000004692078,2|2,1:2|2:0,2:0:0:0:
404,122,114950,1,2,2:0:0:0:
308,11,115078,2,0,P|281:19|247:25,1,61.5000023460389,10|0,2:0|2:0,2:0:0:0:
222,99,115335,2,0,P|252:104|281:112,1,61.5000023460389,2|0,2:0|2:0,2:0:0:0:
420,194,115591,6,0,P|428:266|439:323,1,123.000004692078,2|2,1:2|2:0,2:0:0:0:
386,361,115976,1,0,2:0:0:0:
316,261,116104,2,0,P|256:260|210:325,1,123.000004692078,10|2,2:0|2:0,2:0:0:0:
262,359,116487,1,0,2:0:0:0:
316,261,116617,5,2,1:2:0:0:
165,362,116872,2,0,P|134:368|53:386,1,61.5000023460389,2|0,2:0|2:0,2:0:0:0:
153,257,117130,5,10,2:0:0:0:
214,302,117258,1,2,2:0:0:0:
153,257,117386,2,0,P|122:250|92:244,1,61.5000023460389,2|0,2:0|2:0,2:0:0:0:
165,362,117642,5,0,1:2:0:0:
233,226,117899,2,0,P|219:170|212:69,2,123.000004692078,2|10|2,2:0|2:0|2:0,2:0:0:0:
214,302,118539,1,0,2:0:0:0:
298,181,118668,6,0,P|325:189|366:198,1,61.5000023460389,2|0,1:2|2:0,2:0:0:0:
445,325,118924,1,2,2:0:0:0:
445,325,119053,1,2,2:0:0:0:
450,246,119181,2,0,B|409:258|409:258|388:276|388:276|302:303,1,123.000004692078,10|2,2:0|2:0,2:0:0:0:
212,104,119694,6,0,P|266:86|309:66,1,61.5000023460389,6|0,1:2|2:0,2:0:0:0:
393,144,119950,2,0,P|421:133|451:124,1,61.5000023460389,2|0,2:0|2:0,2:0:0:0:
508,50,120206,2,0,P|453:47|405:-21,1,123.000004692078,10|2,2:0|2:0,2:0:0:0:
296,159,120590,1,0,2:0:0:0:
270,84,120718,5,2,1:2:0:0:
450,246,120975,2,0,P|455:277|473:358,1,61.5000023460389,2|0,2:0|2:0,2:0:0:0:
393,144,121231,5,10,2:0:0:0:
356,218,121359,1,2,2:0:0:0:
393,144,121487,2,0,P|387:108|384:70,1,61.5000023460389,2|0,2:0|2:0,2:0:0:0:
312,10,121744,5,0,1:2:0:0:
312,10,122000,2,0,B|284:16|263:19|263:19|227:62|301:109,2,123.000004692078,2|10|2,2:0|2:0|2:0,2:0:0:0:
384,83,122641,1,0,2:0:0:0:
302,183,122771,6,0,P|219:199|149:233,1,123.000004692078,2|2,1:2|2:0,2:0:0:0:
123,164,123154,1,2,2:0:0:0:
209,70,123282,2,0,P|236:78|270:84,1,61.5000023460389,10|0,2:0|2:0,2:0:0:0:
157,17,123540,1,2,2:0:0:0:
307,185,123795,6,0,P|366:180|411:233,1,123.000004692078,2|2,1:2|2:0,2:0:0:0:
449,281,124180,1,0,2:0:0:0:
379,342,124308,2,0,B|336:351|336:351|315:369|315:369|251:384,1,123.000004692078,10|2,2:0|2:0,2:0:0:0:
200,333,124693,1,0,2:0:0:0:
244,272,124821,5,2,1:2:0:0:
384,346,125078,2,0,P|417:353|444:358,1,61.5000023460389,2|0,2:0|2:0,2:0:0:0:
297,187,125334,5,10,2:0:0:0:
329,267,125462,1,2,2:0:0:0:
297,187,125590,2,0,L|236:174,1,61.5000023460389,2|0,2:0|2:0,2:0:0:0:
200,333,125846,5,0,1:2:0:0:
297,187,126104,2,0,P|326:134|305:74,2,123.000004692078,2|10|2,2:0|2:0|2:0,2:0:0:0:
253,249,126745,1,0,2:0:0:0:
169,181,126872,6,0,P|198:174|228:165,1,61.5000023460389,2|0,1:2|2:0,2:0:0:0:
325,274,127130,1,2,2:0:0:0:
325,274,127257,1,2,2:0:0:0:
383,220,127386,2,0,P|441:237|501:250,1,98.3999969970704,10|2,2:0|2:0,2:0:0:0:
477,245,128412,5,6,1:2:0:0:
512,184,128540,1,2,2:0:0:0:
457,133,128668,1,2,2:0:0:0:
457,133,128796,1,2,2:0:0:0:
505,61,128924,6,0,P|507:24|515:-22,1,61.5000023460389,10|2,2:0|2:0,2:0:0:0:
370,142,129181,1,2,2:0:0:0:
319,85,129309,2,0,P|333:18|391:1,1,123.000004692078,2|2,1:2|2:0,2:0:0:0:
457,133,129694,1,2,1:2:0:0:
505,61,129822,1,2,2:0:0:0:
370,142,129950,6,0,B|298:162|345:181|261:205,1,123.000004692078,8|2,2:0|2:0,2:0:0:0:
200,166,130335,1,0,2:0:0:0:
139,257,130463,2,0,P|150:311|157:388,1,123.000004692078,2|2,1:2|2:0,2:0:0:0:
266,203,130976,1,10,2:0:0:0:
200,166,131232,5,2,2:0:0:0:
313,331,131359,1,8,0:0:0:0:
313,331,131488,1,2,1:2:0:0:
249,366,131616,5,2,2:0:0:0:
350,187,131745,2,0,P|380:195|410:199,1,61.5000023460389,10|0,2:0|2:0,2:0:0:0:
400,273,132001,2,0,P|370:265|339:260,1,61.5000023460389,10|0,2:0|2:0,2:0:0:0:
55,133,132514,6,0,P|66:79|73:2,1,123.000004692078,2|2,1:2|2:0,2:0:0:0:
182,187,133027,1,10,2:0:0:0:
116,224,133283,5,2,2:0:0:0:
229,59,133411,1,8,0:0:0:0:
229,59,133540,1,2,1:2:0:0:
162,21,133668,5,2,2:0:0:0:
266,203,133796,2,0,P|296:195|326:190,1,61.5000023460389,10|0,2:0|2:0,2:0:0:0:
316,117,134053,2,0,P|286:124|255:129,1,61.5000023460389,10|0,2:0|2:0,2:0:0:0:
363,29,134565,6,0,P|443:49|505:139,1,184.500007038117,0|0,1:2|2:0,2:0:0:0:
210,321,135591,5,2,1:2:0:0:
145,220,135719,1,2,2:0:0:0:
145,297,135847,5,2,2:0:0:0:
202,174,135975,1,2,2:0:0:0:
145,297,136103,2,0,P|106:307|51:351,1,69.700001329422,10|0,2:0|2:0,2:0:0:0:
298,217,136360,5,2,2:0:0:0:
363,318,136488,1,2,2:0:0:0:
371,247,136616,5,2,1:2:0:0:
306,364,136744,1,2,2:0:0:0:
370,247,136872,2,0,P|403:238|434:221,1,69.700001329422,2|0,2:0|2:0,2:0:0:0:
248,78,137129,6,0,B|219:93|190:106|190:106|164:152|217:185,1,139.400002658844,10|2,2:0|2:0,2:0:0:0:
225,247,137514,1,2,2:0:0:0:
298,217,137642,6,0,P|303:182|315:127,1,69.700001329422,2|0,1:2|2:0,2:0:0:0:
145,297,137898,1,2,2:0:0:0:
121,227,138026,1,2,2:0:0:0:
244,343,138155,1,10,2:0:0:0:
244,343,138411,6,0,P|285:352|327:381,1,69.700001329422,2|2,2:0|2:0,2:0:0:0:
431,179,138667,2,0,B|367:208|280:219,1,139.400002658844,2|2,1:2|2:0,2:0:0:0:
440,352,139052,1,2,2:0:0:0:
497,296,139180,2,0,P|463:287|431:276,1,69.700001329422,10|0,2:0|2:0,2:0:0:0:
309,365,139437,1,2,2:0:0:0:
509,96,139693,6,0,P|446:112|430:178,1,139.400002658844,2|0,1:2|2:0,2:0:0:0:
346,278,140078,1,0,2:0:0:0:
297,216,140206,2,0,P|289:183|265:126,1,69.700001329422,8|0,2:0|2:0,2:0:0:0:
324,25,140462,2,0,P|331:57|355:114,1,69.700001329422,0|0,2:0|2:0,2:0:0:0:
226,248,140719,6,0,P|151:220|164:124,1,139.400002658844,0|2,1:2|2:0,2:0:0:0:
171,95,141103,1,0,2:0:0:0:
67,212,141232,2,0,P|67:247|56:289,1,69.700001329422,10|0,2:0|2:0,2:0:0:0:
71,137,141488,5,2,2:0:0:0:
226,248,141616,1,0,2:0:0:0:
187,313,141744,6,0,P|108:337|91:413,1,139.400002658844,2|0,1:2|2:0,2:0:0:0:
226,248,142257,2,0,P|298:264|345:269,1,69.700001329422,8|0,2:0|2:0,2:0:0:0:
356,218,142514,6,0,B|369:174|341:144|341:144|354:170|336:229,1,139.400002658844,2|0,2:0|1:2,2:0:0:0:
276,167,143026,1,10,2:0:0:0:
375,51,143154,1,10,2:0:0:0:
320,6,143283,2,0,P|285:13|251:15,1,69.700001329422,10|0,2:0|2:0,2:0:0:0:
356,218,143539,2,0,P|390:210|425:207,1,69.700001329422,10|0,2:0|2:0,2:0:0:0:
113,18,143795,5,6,1:2:0:0:
234,85,143924,1,2,2:0:0:0:
251,14,144052,5,2,2:0:0:0:
95,118,144180,1,2,2:0:0:0:
158,177,144308,2,0,P|164:138|168:109,1,69.700001329422,10|0,2:0|2:0,2:0:0:0:
319,324,144564,5,2,2:0:0:0:
200,259,144693,1,2,2:0:0:0:
183,330,144820,5,2,1:2:0:0:
339,226,144949,1,2,2:0:0:0:
276,167,145077,2,0,P|269:205|266:235,1,69.700001329422,2|0,2:0|2:0,2:0:0:0:
355,384,145334,6,0,B|447:367|400:346|480:330,1,139.400002658844,10|2,2:0|2:0,2:0:0:0:
512,264,145719,1,2,2:0:0:0:
404,204,145847,6,0,P|373:219|314:224,1,69.700001329422,2|0,1:2|2:0,2:0:0:0:
175,312,146103,1,2,2:0:0:0:
114,261,146231,1,2,2:0:0:0:
152,194,146360,1,10,2:0:0:0:
355,384,146616,6,0,P|324:369|265:364,1,69.700001329422,2|2,2:0|2:0,2:0:0:0:
157,187,146873,2,0,P|231:173|299:140,1,139.400002658844,2|2,1:2|2:0,2:0:0:0:
338,225,147257,1,2,2:0:0:0:
240,290,147385,2,0,P|205:296|174:311,1,69.700001329422,10|0,2:0|2:0,2:0:0:0:
114,261,147642,1,2,2:0:0:0:
184,90,147898,6,0,P|263:99|279:191,1,139.400002658844,2|0,1:2|2:0,2:0:0:0:
338,225,148283,1,0,2:0:0:0:
412,129,148411,2,0,P|416:93|434:40,1,69.700001329422,8|0,2:0|2:0,2:0:0:0:
288,146,148667,1,2,2:0:0:0:
413,220,148838,6,0,P|474:217|503:116,1,139.400002658844,2|0,2:0|2:0,2:0:0:0:
425,60,149180,1,0,2:0:0:0:
512,155,149437,6,0,P|451:158|422:259,1,139.400002658844,10|2,2:0|2:0,2:0:0:0:
380,283,149821,1,0,2:0:0:0:
269,210,149948,6,0,P|307:219|341:224,1,69.700001329422,2|0,1:2|2:0,2:0:0:0:
183,383,150206,1,0,2:0:0:0:
131,318,150462,6,0,P|165:312|199:303,1,69.700001329422,10|0,2:0|2:0,2:0:0:0:
298,382,150719,2,0,P|332:376|366:367,1,69.700001329422,2|0,2:0|2:0,2:0:0:0:
149,94,150975,6,0,P|179:159|187:250,1,139.400002658844,2|2,1:2|2:0,2:0:0:0:
199,303,151360,1,0,2:0:0:0:
195,230,151488,2,0,P|196:176|216:121,1,82,10|2,2:0|2:0,2:0:0:0:
390,27,152001,6,0,P|316:34|279:112,1,139.400002658844,2|0,1:2|2:0,2:0:0:0:
441,208,152514,1,2,1:2:0:0:
463,140,152642,1,2,2:0:0:0:
347,214,152770,2,0,P|354:249|361:288,1,69.700001329422,2|0,2:0|2:0,2:0:0:0:
280,83,153026,6,0,P|309:100|360:96,1,69.700001329422,2|0,1:2|2:0,2:0:0:0:
187,228,153283,1,2,2:0:0:0:
137,166,153410,6,0,P|166:149|217:153,1,69.700001329422,2|0,2:0|1:2,2:0:0:0:
360,282,153667,1,2,2:0:0:0:
294,333,153796,6,0,P|288:298|280:264,1,69.700001329422,2|2,2:0|2:0,2:0:0:0:
164,31,154052,5,2,1:2:0:0:
280,114,154180,1,2,2:0:0:0:
307,42,154308,5,2,2:0:0:0:
137,166,154437,1,0,1:2:0:0:
281,265,154565,1,2,2:0:0:0:
255,188,154693,5,2,2:0:0:0:
192,234,154821,2,0,L|88:259,1,98.4,2|0,1:2|2:0,2:0:0:0:
307,42,156103,6,0,P|375:59|411:67,1,98.3999969970704,6|0,1:2|2:0,2:0:0:0:
460,108,156873,1,2,2:0:0:0:
276,256,157129,5,0,1:2:0:0:
290,256,157257,1,0,2:0:0:0:
304,253,157385,1,2,2:0:0:0:
317,246,157514,1,0,2:0:0:0:
387,267,157642,5,0,2:0:0:0:
405,267,157770,1,0,2:0:0:0:
423,270,157898,1,2,2:0:0:0:
441,280,158025,1,0,2:0:0:0:
486,191,158155,6,0,P|493:154|443:102,1,98.3999969970704,6|0,1:2|2:0,2:0:0:0:
402,65,158924,1,2,2:0:0:0:
290,147,159180,5,0,1:2:0:0:
248,87,159437,1,2,1:2:0:0:
307,42,159693,1,0,1:2:0:0:
257,324,160206,1,0,1:2:0:0:
