osu file format v14

[General]
AudioFilename: audio.mp3
AudioLeadIn: 0
PreviewTime: 17139
Countdown: 0
SampleSet: Normal
StackLeniency: 0.7
Mode: 1
LetterboxInBreaks: 0
WidescreenStoryboard: 0

[Editor]
Bookmarks: 4570,17134,37646,60210,80723,103287,111492,156108
DistanceSpacing: 1
BeatDivisor: 4
GridSize: 32
TimelineZoom: 1.3

[Metadata]
Title:Dorei Janai nara Nan Desu ka?
TitleUnicode:奴隷じゃないなら何ですか?
Artist:TUYU
ArtistUnicode:ツユ
Creator:Faputa
Version:Oni
Source:
Tags:ぷす 礼衣 おむたつ Tsuyu Pusu Rei Omutatsu AzyuN miro What if this isn't a slave? Jpop J-pop pop Japanese Jrock J-rock rock 2nd album 貴方を不幸に誘いますね i'll i will put you in misery is not
BeatmapID:3510408
BeatmapSetID:1716912

[Difficulty]
HPDrainRate:5.5
CircleSize:2
OverallDifficulty:5
ApproachRate:10
SliderMultiplier:1.4
SliderTickRate:1

[Events]
//Background and Video events
0,0,"E806UZvVUAAjCsY.jpg",0,0
Video,-390,"tuyu.mp4"
//Break Periods
//Storyboard Layer 0 (Background)
//Storyboard Layer 1 (Fail)
//Storyboard Layer 2 (Pass)
//Storyboard Layer 3 (Foreground)
//Storyboard Layer 4 (Overlay)
//Storyboard Sound Samples

[TimingPoints]
473,512.820512820513,4,1,0,65,1,0
4511,-97.5609756097561,4,1,0,80,0,0
8678,-100,4,1,0,80,0,0
14831,512.820512820513,5,1,0,80,1,0
17139,512.820512820513,4,1,0,80,1,0
17139,-95.2380952380952,4,1,0,80,0,1
37139,-100,4,1,0,80,0,0
49831,-100,4,1,0,70,0,0
60087,-100,4,1,0,80,0,0
60215,-95.2380952380952,4,1,0,80,0,1
80215,-97.5609756097561,4,1,0,80,0,0
92908,-97.5609756097561,4,1,0,70,0,0
103164,-97.5609756097561,4,1,0,80,0,0
125856,512.820512820513,5,1,0,80,1,8
125856,-97.5609756097561,5,1,0,80,0,0
125857,512.820512820513,5,1,0,80,1,0
125857,-97.5609756097561,5,1,0,80,0,0
128421,512.820512820513,4,1,0,80,1,0
128421,-97.5609756097561,4,1,0,80,0,0
132523,-95.2380952380952,4,1,0,80,0,0
135601,512.820512820513,4,1,0,80,1,0
135601,-90.9090909090909,4,1,0,80,0,1
155601,-97.5609756097561,4,1,0,80,0,0
160344,-97.5609756097561,4,1,0,40,0,0
161242,-97.5609756097561,4,1,0,30,0,0
162267,-97.5609756097561,4,1,0,20,0,0
163293,-97.5609756097561,4,1,0,10,0,0

[HitObjects]
256,192,473,5,0,0:0:0:0:
256,192,985,1,0,0:0:0:0:
256,192,1498,1,8,0:0:0:0:
256,192,2011,1,8,0:0:0:0:
256,192,2524,1,0,0:0:0:0:
256,192,3037,1,8,0:0:0:0:
256,192,3293,1,8,0:0:0:0:
256,192,3549,1,0,0:0:0:0:
256,192,3806,1,0,0:0:0:0:
256,192,4062,1,8,0:0:0:0:
256,192,4319,1,8,0:0:0:0:
256,192,4575,1,4,0:0:0:0:
256,192,5088,1,8,0:0:0:0:
256,192,5344,1,0,0:0:0:0:
256,192,5473,1,8,0:0:0:0:
256,192,5729,1,8,0:0:0:0:
256,192,5857,1,0,0:0:0:0:
256,192,6114,1,8,0:0:0:0:
256,192,6370,1,8,0:0:0:0:
256,192,6498,1,8,0:0:0:0:
256,192,6626,1,0,0:0:0:0:
256,192,6883,1,0,0:0:0:0:
256,192,7139,1,8,0:0:0:0:
256,192,7396,1,0,0:0:0:0:
256,192,7652,1,8,0:0:0:0:
256,192,7780,1,8,0:0:0:0:
256,192,7908,1,0,0:0:0:0:
256,192,8165,1,8,0:0:0:0:
256,192,8678,1,4,0:0:0:0:
256,192,8934,1,8,0:0:0:0:
256,192,9190,1,0,0:0:0:0:
256,192,9447,1,8,0:0:0:0:
256,192,9703,1,0,0:0:0:0:
256,192,9960,1,8,0:0:0:0:
256,192,10216,1,0,0:0:0:0:
256,192,10344,1,0,0:0:0:0:
256,192,10473,1,8,0:0:0:0:
256,192,10985,1,0,0:0:0:0:
256,192,11242,1,8,0:0:0:0:
256,192,11498,1,8,0:0:0:0:
256,192,11755,1,8,0:0:0:0:
256,192,12011,1,0,0:0:0:0:
256,192,12139,1,0,0:0:0:0:
256,192,12267,1,8,0:0:0:0:
256,192,12524,1,0,0:0:0:0:
256,192,12780,1,8,0:0:0:0:
256,192,13037,1,0,0:0:0:0:
256,192,13293,1,8,0:0:0:0:
256,192,13549,1,0,0:0:0:0:
256,192,13806,1,8,0:0:0:0:
256,192,14062,1,0,0:0:0:0:
256,192,14319,1,8,0:0:0:0:
256,192,14447,1,8,0:0:0:0:
256,192,14575,1,0,0:0:0:0:
256,192,15088,1,0,0:0:0:0:
256,192,15344,1,8,0:0:0:0:
256,192,15601,1,8,0:0:0:0:
256,192,15857,1,0,0:0:0:0:
256,192,16114,1,8,0:0:0:0:
256,192,16242,1,8,0:0:0:0:
256,192,16370,1,0,0:0:0:0:
256,192,16626,1,8,0:0:0:0:
256,192,17139,1,4,0:0:0:0:
256,192,17396,1,8,0:0:0:0:
256,192,17524,1,8,0:0:0:0:
256,192,17652,1,8,0:0:0:0:
256,192,17908,1,0,0:0:0:0:
256,192,18165,1,8,0:0:0:0:
256,192,18293,1,8,0:0:0:0:
256,192,18421,1,8,0:0:0:0:
256,192,18678,1,8,0:0:0:0:
256,192,18934,1,0,0:0:0:0:
256,192,19062,1,0,0:0:0:0:
256,192,19190,1,8,0:0:0:0:
256,192,19447,1,8,0:0:0:0:
256,192,19575,1,8,0:0:0:0:
256,192,19703,1,8,0:0:0:0:
256,192,19960,1,0,0:0:0:0:
256,192,20216,1,8,0:0:0:0:
256,192,20472,1,0,0:0:0:0:
256,192,20601,1,0,0:0:0:0:
256,192,20729,1,8,0:0:0:0:
256,192,20857,1,8,0:0:0:0:
256,192,20985,1,0,0:0:0:0:
256,192,21242,1,8,0:0:0:0:
256,192,21755,1,8,0:0:0:0:
256,192,22011,1,0,0:0:0:0:
256,192,22139,1,0,0:0:0:0:
256,192,22267,1,0,0:0:0:0:
256,192,22524,1,8,0:0:0:0:
256,192,22780,1,8,0:0:0:0:
256,192,22908,1,8,0:0:0:0:
256,192,23037,1,0,0:0:0:0:
256,192,23293,1,8,0:0:0:0:
256,192,23806,1,8,0:0:0:0:
256,192,24062,1,0,0:0:0:0:
256,192,24318,1,8,0:0:0:0:
256,192,24447,1,8,0:0:0:0:
256,192,24575,1,0,0:0:0:0:
256,192,24703,1,0,0:0:0:0:
256,192,24831,1,8,0:0:0:0:
256,192,25088,1,8,0:0:0:0:
256,192,25344,1,4,0:0:0:0:
256,192,25601,1,8,0:0:0:0:
256,192,25729,1,8,0:0:0:0:
256,192,25857,1,8,0:0:0:0:
256,192,26114,1,0,0:0:0:0:
256,192,26370,1,8,0:0:0:0:
256,192,26498,1,8,0:0:0:0:
256,192,26626,1,8,0:0:0:0:
256,192,26883,1,8,0:0:0:0:
256,192,27139,1,0,0:0:0:0:
256,192,27267,1,0,0:0:0:0:
256,192,27396,1,8,0:0:0:0:
256,192,27652,1,8,0:0:0:0:
256,192,27780,1,8,0:0:0:0:
256,192,27908,1,8,0:0:0:0:
256,192,28165,1,0,0:0:0:0:
256,192,28421,1,8,0:0:0:0:
256,192,28678,1,0,0:0:0:0:
256,192,28805,1,0,0:0:0:0:
256,192,28934,1,8,0:0:0:0:
256,192,29062,1,8,0:0:0:0:
256,192,29190,1,0,0:0:0:0:
256,192,29447,1,8,0:0:0:0:
256,192,29960,1,8,0:0:0:0:
256,192,30216,1,8,0:0:0:0:
256,192,30408,1,0,0:0:0:0:
256,192,30985,1,0,0:0:0:0:
256,192,31242,1,8,0:0:0:0:
256,192,31369,1,8,0:0:0:0:
256,192,31498,1,8,0:0:0:0:
256,192,31755,1,0,0:0:0:0:
256,192,32011,1,8,0:0:0:0:
256,192,32267,1,0,0:0:0:0:
256,192,32396,1,0,0:0:0:0:
256,192,32524,1,8,0:0:0:0:
256,192,32780,1,8,0:0:0:0:
256,192,33037,1,0,0:0:0:0:
256,192,33293,1,8,0:0:0:0:
256,192,33421,1,8,0:0:0:0:
256,192,33549,1,8,0:0:0:0:
256,192,34062,1,8,0:0:0:0:
256,192,34190,1,8,0:0:0:0:
256,192,34319,1,8,0:0:0:0:
256,192,34575,1,8,0:0:0:0:
256,192,34831,1,0,0:0:0:0:
256,192,34960,1,8,0:0:0:0:
256,192,35216,1,8,0:0:0:0:
256,192,35344,1,0,0:0:0:0:
256,192,35601,1,8,0:0:0:0:
256,192,35729,1,8,0:0:0:0:
256,192,35857,1,0,0:0:0:0:
256,192,35985,1,0,0:0:0:0:
256,192,36114,1,8,0:0:0:0:
256,192,36241,1,8,0:0:0:0:
256,192,36370,1,0,0:0:0:0:
256,192,36498,1,0,0:0:0:0:
256,192,37652,1,12,0:0:0:0:
256,192,38036,1,8,0:0:0:0:
256,192,38164,1,0,0:0:0:0:
256,192,38421,1,8,0:0:0:0:
256,192,38677,1,0,0:0:0:0:
256,192,38805,1,0,0:0:0:0:
256,192,38933,1,0,0:0:0:0:
256,192,39062,1,0,0:0:0:0:
256,192,39190,1,8,0:0:0:0:
256,192,39446,1,8,0:0:0:0:
256,192,39703,1,0,0:0:0:0:
256,192,40087,1,8,0:0:0:0:
256,192,40215,1,0,0:0:0:0:
256,192,40472,1,8,0:0:0:0:
256,192,40600,1,8,0:0:0:0:
256,192,40728,1,8,0:0:0:0:
256,192,40985,1,0,0:0:0:0:
256,192,41241,1,8,0:0:0:0:
256,192,41497,1,8,0:0:0:0:
256,192,41754,1,4,0:0:0:0:
256,192,42267,1,8,0:0:0:0:
256,192,42395,1,8,0:0:0:0:
256,192,42780,1,0,0:0:0:0:
256,192,42908,1,0,0:0:0:0:
256,192,43292,1,8,0:0:0:0:
256,192,43421,1,8,0:0:0:0:
256,192,43805,1,0,0:0:0:0:
256,192,44062,1,0,0:0:0:0:
256,192,44318,1,8,0:0:0:0:
256,192,44574,1,0,0:0:0:0:
256,192,44703,1,8,0:0:0:0:
256,192,44959,1,8,0:0:0:0:
256,192,45215,1,0,0:0:0:0:
256,192,45344,1,8,0:0:0:0:
256,192,45600,1,8,0:0:0:0:
256,192,45728,1,8,0:0:0:0:
256,192,45856,1,0,0:0:0:0:
256,192,46113,1,8,0:0:0:0:
256,192,46369,1,0,0:0:0:0:
256,192,46497,1,0,0:0:0:0:
256,192,46882,1,8,0:0:0:0:
256,192,47010,1,8,0:0:0:0:
256,192,47395,1,8,0:0:0:0:
256,192,47523,1,0,0:0:0:0:
256,192,47908,1,8,0:0:0:0:
256,192,48164,1,8,0:0:0:0:
256,192,48421,1,0,0:0:0:0:
256,192,48677,1,8,0:0:0:0:
256,192,48933,1,0,0:0:0:0:
256,192,49190,1,8,0:0:0:0:
256,192,49318,1,8,0:0:0:0:
256,192,49446,1,0,0:0:0:0:
256,192,49703,1,0,0:0:0:0:
256,192,49959,1,8,0:0:0:0:
256,192,50344,1,0,0:0:0:0:
256,192,50472,1,8,0:0:0:0:
256,192,50728,1,0,0:0:0:0:
256,192,50985,1,8,0:0:0:0:
256,192,51241,1,0,0:0:0:0:
256,192,51369,1,8,0:0:0:0:
256,192,51626,1,0,0:0:0:0:
256,192,51754,1,8,0:0:0:0:
256,192,52010,1,0,0:0:0:0:
256,192,52139,1,0,0:0:0:0:
256,192,53036,1,0,0:0:0:0:
256,192,53292,1,0,0:0:0:0:
256,192,53549,1,8,0:0:0:0:
256,192,53805,1,8,0:0:0:0:
256,192,54062,1,0,0:0:0:0:
256,192,54318,1,8,0:0:0:0:
256,192,54574,1,0,0:0:0:0:
256,192,54703,1,8,0:0:0:0:
256,192,54959,1,8,0:0:0:0:
256,192,55215,1,8,0:0:0:0:
256,192,55472,1,0,0:0:0:0:
256,192,55600,1,8,0:0:0:0:
256,192,55856,1,8,0:0:0:0:
256,192,56113,1,0,0:0:0:0:
256,192,56241,1,0,0:0:0:0:
256,192,56497,1,8,0:0:0:0:
256,192,56882,1,0,0:0:0:0:
256,192,57139,1,8,0:0:0:0:
256,192,57395,1,0,0:0:0:0:
256,192,57651,1,8,0:0:0:0:
256,192,57908,1,8,0:0:0:0:
256,192,58164,1,0,0:0:0:0:
256,192,58421,1,0,0:0:0:0:
256,192,58677,1,8,0:0:0:0:
256,192,58933,1,0,0:0:0:0:
256,192,59190,1,8,0:0:0:0:
256,192,59318,1,8,0:0:0:0:
256,192,59446,1,0,0:0:0:0:
256,192,59574,1,0,0:0:0:0:
256,192,59703,1,8,0:0:0:0:
256,192,60215,1,4,0:0:0:0:
256,192,60472,1,8,0:0:0:0:
256,192,60600,1,8,0:0:0:0:
256,192,60728,1,8,0:0:0:0:
256,192,60984,1,0,0:0:0:0:
256,192,61241,1,8,0:0:0:0:
256,192,61369,1,8,0:0:0:0:
256,192,61497,1,8,0:0:0:0:
256,192,61754,1,8,0:0:0:0:
256,192,62010,1,0,0:0:0:0:
256,192,62138,1,0,0:0:0:0:
256,192,62266,1,8,0:0:0:0:
256,192,62523,1,8,0:0:0:0:
256,192,62651,1,8,0:0:0:0:
256,192,62779,1,8,0:0:0:0:
256,192,63036,1,0,0:0:0:0:
256,192,63292,1,8,0:0:0:0:
256,192,63548,1,0,0:0:0:0:
256,192,63677,1,0,0:0:0:0:
256,192,63805,1,8,0:0:0:0:
256,192,63933,1,8,0:0:0:0:
256,192,64061,1,0,0:0:0:0:
256,192,64318,1,8,0:0:0:0:
256,192,64831,1,8,0:0:0:0:
256,192,65087,1,0,0:0:0:0:
256,192,65215,1,0,0:0:0:0:
256,192,65343,1,0,0:0:0:0:
256,192,65600,1,8,0:0:0:0:
256,192,65856,1,8,0:0:0:0:
256,192,65984,1,8,0:0:0:0:
256,192,66113,1,0,0:0:0:0:
256,192,66369,1,8,0:0:0:0:
256,192,66882,1,8,0:0:0:0:
256,192,67138,1,0,0:0:0:0:
256,192,67394,1,8,0:0:0:0:
256,192,67523,1,8,0:0:0:0:
256,192,67651,1,0,0:0:0:0:
256,192,67779,1,0,0:0:0:0:
256,192,67907,1,8,0:0:0:0:
256,192,68164,1,8,0:0:0:0:
256,192,68420,1,4,0:0:0:0:
256,192,68677,1,8,0:0:0:0:
256,192,68805,1,8,0:0:0:0:
256,192,68933,1,8,0:0:0:0:
256,192,69190,1,0,0:0:0:0:
256,192,69318,1,0,0:0:0:0:
256,192,69446,1,8,0:0:0:0:
256,192,69702,1,0,0:0:0:0:
256,192,69959,1,8,0:0:0:0:
256,192,70087,1,8,0:0:0:0:
256,192,70215,1,0,0:0:0:0:
256,192,70472,1,8,0:0:0:0:
256,192,70728,1,8,0:0:0:0:
256,192,70856,1,8,0:0:0:0:
256,192,70984,1,8,0:0:0:0:
256,192,71241,1,0,0:0:0:0:
256,192,71497,1,8,0:0:0:0:
256,192,71754,1,0,0:0:0:0:
256,192,71881,1,0,0:0:0:0:
256,192,72010,1,8,0:0:0:0:
256,192,72138,1,8,0:0:0:0:
256,192,72266,1,0,0:0:0:0:
256,192,72523,1,8,0:0:0:0:
256,192,73036,1,8,0:0:0:0:
256,192,73292,1,8,0:0:0:0:
256,192,73484,1,0,0:0:0:0:
256,192,74061,1,0,0:0:0:0:
256,192,74318,1,8,0:0:0:0:
256,192,74446,1,8,0:0:0:0:
256,192,74574,1,8,0:0:0:0:
256,192,74831,1,0,0:0:0:0:
256,192,75087,1,8,0:0:0:0:
256,192,75343,1,0,0:0:0:0:
256,192,75472,1,0,0:0:0:0:
256,192,75600,1,8,0:0:0:0:
256,192,75856,1,8,0:0:0:0:
256,192,76113,1,0,0:0:0:0:
256,192,76369,1,8,0:0:0:0:
256,192,76497,1,8,0:0:0:0:
256,192,76625,1,8,0:0:0:0:
256,192,77138,1,8,0:0:0:0:
256,192,77266,1,8,0:0:0:0:
256,192,77395,1,8,0:0:0:0:
256,192,77651,1,8,0:0:0:0:
256,192,77907,1,0,0:0:0:0:
256,192,78036,1,8,0:0:0:0:
256,192,78292,1,8,0:0:0:0:
256,192,78420,1,0,0:0:0:0:
256,192,78677,1,8,0:0:0:0:
256,192,78805,1,8,0:0:0:0:
256,192,78933,1,0,0:0:0:0:
256,192,79061,1,0,0:0:0:0:
256,192,79190,1,8,0:0:0:0:
256,192,79317,1,8,0:0:0:0:
256,192,79446,1,0,0:0:0:0:
256,192,79574,1,0,0:0:0:0:
256,192,80728,1,12,0:0:0:0:
256,192,81112,1,8,0:0:0:0:
256,192,81240,1,0,0:0:0:0:
256,192,81497,1,8,0:0:0:0:
256,192,81753,1,0,0:0:0:0:
256,192,81881,1,0,0:0:0:0:
256,192,82009,1,0,0:0:0:0:
256,192,82138,1,0,0:0:0:0:
256,192,82266,1,8,0:0:0:0:
256,192,82522,1,8,0:0:0:0:
256,192,82779,1,0,0:0:0:0:
256,192,83163,1,8,0:0:0:0:
256,192,83291,1,0,0:0:0:0:
256,192,83548,1,8,0:0:0:0:
256,192,83676,1,8,0:0:0:0:
256,192,83804,1,8,0:0:0:0:
256,192,84061,1,0,0:0:0:0:
256,192,84317,1,8,0:0:0:0:
256,192,84573,1,8,0:0:0:0:
256,192,84830,1,0,0:0:0:0:
256,192,84959,1,0,0:0:0:0:
256,192,85343,1,8,0:0:0:0:
256,192,85471,1,8,0:0:0:0:
256,192,85856,1,0,0:0:0:0:
256,192,85984,1,0,0:0:0:0:
256,192,86368,1,8,0:0:0:0:
256,192,86497,1,8,0:0:0:0:
256,192,86881,1,0,0:0:0:0:
256,192,87138,1,0,0:0:0:0:
256,192,87394,1,8,0:0:0:0:
256,192,87650,1,0,0:0:0:0:
256,192,87779,1,8,0:0:0:0:
256,192,88035,1,8,0:0:0:0:
256,192,88291,1,0,0:0:0:0:
256,192,88420,1,8,0:0:0:0:
256,192,88676,1,8,0:0:0:0:
256,192,88804,1,8,0:0:0:0:
256,192,88932,1,0,0:0:0:0:
256,192,89189,1,8,0:0:0:0:
256,192,89445,1,0,0:0:0:0:
256,192,89573,1,0,0:0:0:0:
256,192,89958,1,8,0:0:0:0:
256,192,90086,1,8,0:0:0:0:
256,192,90471,1,8,0:0:0:0:
256,192,90599,1,0,0:0:0:0:
256,192,90984,1,8,0:0:0:0:
256,192,91240,1,8,0:0:0:0:
256,192,91497,1,0,0:0:0:0:
256,192,91753,1,8,0:0:0:0:
256,192,92009,1,0,0:0:0:0:
256,192,92266,1,8,0:0:0:0:
256,192,92394,1,8,0:0:0:0:
256,192,92522,1,0,0:0:0:0:
256,192,92779,1,0,0:0:0:0:
256,192,93035,1,8,0:0:0:0:
256,192,93164,1,8,0:0:0:0:
256,192,93292,1,0,0:0:0:0:
256,192,93548,1,8,0:0:0:0:
256,192,93804,1,0,0:0:0:0:
256,192,93933,1,8,0:0:0:0:
256,192,94190,1,0,0:0:0:0:
256,192,94445,1,8,0:0:0:0:
256,192,94574,1,0,0:0:0:0:
256,192,94830,1,8,0:0:0:0:
256,192,95086,1,0,0:0:0:0:
256,192,95215,1,0,0:0:0:0:
256,192,96112,1,0,0:0:0:0:
256,192,96368,1,0,0:0:0:0:
256,192,96625,1,8,0:0:0:0:
256,192,96797,1,8,0:0:0:0:
256,192,96968,1,8,0:0:0:0:
256,192,97138,1,0,0:0:0:0:
256,192,97394,1,8,0:0:0:0:
256,192,97650,1,0,0:0:0:0:
256,192,97779,1,0,0:0:0:0:
256,192,97908,1,8,0:0:0:0:
256,192,98164,1,0,0:0:0:0:
256,192,98292,1,8,0:0:0:0:
256,192,98549,1,8,0:0:0:0:
256,192,98676,1,0,0:0:0:0:
256,192,98933,1,8,0:0:0:0:
256,192,99189,1,0,0:0:0:0:
256,192,99317,1,0,0:0:0:0:
256,192,99573,1,8,0:0:0:0:
256,192,99958,1,0,0:0:0:0:
256,192,100215,1,8,0:0:0:0:
256,192,100471,1,0,0:0:0:0:
256,192,100727,1,8,0:0:0:0:
256,192,100984,1,8,0:0:0:0:
256,192,101240,1,0,0:0:0:0:
256,192,101497,1,0,0:0:0:0:
256,192,101753,1,8,0:0:0:0:
256,192,102009,1,0,0:0:0:0:
256,192,102266,1,8,0:0:0:0:
256,192,102394,1,8,0:0:0:0:
256,192,102522,1,0,0:0:0:0:
256,192,102650,1,0,0:0:0:0:
256,192,102779,1,8,0:0:0:0:
256,192,103292,1,12,0:0:0:0:
256,192,103549,1,0,0:0:0:0:
256,192,103805,1,8,0:0:0:0:
256,192,103933,1,8,0:0:0:0:
256,192,104062,1,8,0:0:0:0:
256,192,104318,1,0,0:0:0:0:
256,192,104574,1,8,0:0:0:0:
256,192,104703,1,8,0:0:0:0:
256,192,104831,1,0,0:0:0:0:
256,192,104959,1,0,0:0:0:0:
256,192,105087,1,8,0:0:0:0:
256,192,105600,1,0,0:0:0:0:
256,192,105728,1,0,0:0:0:0:
256,192,105856,1,8,0:0:0:0:
256,192,106113,1,8,0:0:0:0:
256,192,106241,1,8,0:0:0:0:
256,192,106369,1,8,0:0:0:0:
256,192,106626,1,0,0:0:0:0:
256,192,106754,1,0,0:0:0:0:
256,192,106882,1,8,0:0:0:0:
256,192,107139,1,0,0:0:0:0:
256,192,107395,1,8,0:0:0:0:
256,192,107523,1,8,0:0:0:0:
256,192,107651,1,8,0:0:0:0:
256,192,107780,1,8,0:0:0:0:
256,192,107908,1,0,0:0:0:0:
256,192,108164,1,0,0:0:0:0:
256,192,108292,1,8,0:0:0:0:
256,192,108549,1,0,0:0:0:0:
256,192,108677,1,8,0:0:0:0:
256,192,108933,1,8,0:0:0:0:
256,192,109062,1,8,0:0:0:0:
256,192,109190,1,8,0:0:0:0:
256,192,109574,1,8,0:0:0:0:
256,192,109703,1,0,0:0:0:0:
256,192,109959,1,8,0:0:0:0:
256,192,110215,1,0,0:0:0:0:
256,192,110472,1,8,0:0:0:0:
256,192,110600,1,8,0:0:0:0:
256,192,110728,1,0,0:0:0:0:
256,192,110856,1,0,0:0:0:0:
256,192,110985,1,8,0:0:0:0:
256,192,111241,1,8,0:0:0:0:
256,192,111497,1,4,0:0:0:0:
256,192,111754,1,8,0:0:0:0:
256,192,112010,1,0,0:0:0:0:
256,192,112267,1,8,0:0:0:0:
256,192,112523,1,0,0:0:0:0:
256,192,112780,1,8,0:0:0:0:
256,192,113036,1,8,0:0:0:0:
256,192,113164,1,8,0:0:0:0:
256,192,113292,1,0,0:0:0:0:
256,192,113805,1,0,0:0:0:0:
256,192,114062,1,8,0:0:0:0:
256,192,114318,1,8,0:0:0:0:
256,192,114574,1,0,0:0:0:0:
256,192,114831,1,8,0:0:0:0:
256,192,114959,1,8,0:0:0:0:
256,192,115087,1,8,0:0:0:0:
256,192,115344,1,0,0:0:0:0:
256,192,115600,1,8,0:0:0:0:
256,192,115856,1,0,0:0:0:0:
256,192,116113,1,8,0:0:0:0:
256,192,116369,1,0,0:0:0:0:
256,192,116626,1,8,0:0:0:0:
256,192,116882,1,0,0:0:0:0:
256,192,117139,1,8,0:0:0:0:
256,192,117267,1,8,0:0:0:0:
256,192,117395,1,0,0:0:0:0:
256,192,117908,1,0,0:0:0:0:
256,192,118164,1,8,0:0:0:0:
256,192,118421,1,8,0:0:0:0:
256,192,118677,1,8,0:0:0:0:
256,192,118933,1,0,0:0:0:0:
256,192,119062,1,0,0:0:0:0:
256,192,119190,1,8,0:0:0:0:
256,192,119446,1,8,0:0:0:0:
256,192,119703,1,4,0:0:0:0:
256,192,119959,1,8,0:0:0:0:
256,192,120215,1,0,0:0:0:0:
256,192,120472,1,8,0:0:0:0:
256,192,120728,1,0,0:0:0:0:
256,192,120985,1,8,0:0:0:0:
256,192,121113,1,8,0:0:0:0:
256,192,121241,1,8,0:0:0:0:
256,192,121369,1,8,0:0:0:0:
256,192,121497,1,0,0:0:0:0:
256,192,122010,1,0,0:0:0:0:
256,192,122267,1,8,0:0:0:0:
256,192,122523,1,0,0:0:0:0:
256,192,122780,1,8,0:0:0:0:
256,192,123036,1,0,0:0:0:0:
256,192,123164,1,0,0:0:0:0:
256,192,123292,1,8,0:0:0:0:
256,192,123549,1,0,0:0:0:0:
256,192,123805,1,8,0:0:0:0:
256,192,124062,1,0,0:0:0:0:
256,192,124318,1,8,0:0:0:0:
256,192,124574,1,0,0:0:0:0:
256,192,124831,1,8,0:0:0:0:
256,192,125087,1,0,0:0:0:0:
256,192,125215,1,0,0:0:0:0:
256,192,125344,1,0,0:0:0:0:
256,192,125472,1,0,0:0:0:0:
256,192,125600,1,8,0:0:0:0:
256,192,126113,1,8,0:0:0:0:
256,192,126369,1,8,0:0:0:0:
256,192,126626,1,0,0:0:0:0:
256,192,126882,1,8,0:0:0:0:
256,192,127139,1,8,0:0:0:0:
256,192,127267,1,8,0:0:0:0:
256,192,127395,1,0,0:0:0:0:
256,192,127651,1,8,0:0:0:0:
256,192,128421,1,4,0:0:0:0:
256,192,128934,1,8,0:0:0:0:
256,192,129190,1,0,0:0:0:0:
256,192,129319,1,8,0:0:0:0:
256,192,129575,1,8,0:0:0:0:
256,192,129703,1,0,0:0:0:0:
256,192,129960,1,8,0:0:0:0:
256,192,130216,1,8,0:0:0:0:
256,192,130344,1,8,0:0:0:0:
256,192,130472,1,0,0:0:0:0:
256,192,130729,1,0,0:0:0:0:
256,192,130985,1,8,0:0:0:0:
256,192,131242,1,0,0:0:0:0:
256,192,131498,1,8,0:0:0:0:
256,192,131626,1,8,0:0:0:0:
256,192,131754,1,0,0:0:0:0:
256,192,132011,1,8,0:0:0:0:
256,192,132523,1,4,0:0:0:0:
256,192,132779,1,8,0:0:0:0:
256,192,133036,1,8,0:0:0:0:
256,192,133292,1,0,0:0:0:0:
256,192,133421,1,0,0:0:0:0:
256,192,133549,1,8,0:0:0:0:
256,192,133677,1,8,0:0:0:0:
256,192,133805,1,0,0:0:0:0:
256,192,134062,1,8,0:0:0:0:
256,192,134574,1,0,0:0:0:0:
256,192,135601,1,4,0:0:0:0:
256,192,135857,1,8,0:0:0:0:
256,192,135985,1,8,0:0:0:0:
256,192,136113,1,8,0:0:0:0:
256,192,136369,1,0,0:0:0:0:
256,192,136626,1,8,0:0:0:0:
256,192,136754,1,8,0:0:0:0:
256,192,136882,1,8,0:0:0:0:
256,192,137139,1,8,0:0:0:0:
256,192,137395,1,0,0:0:0:0:
256,192,137523,1,0,0:0:0:0:
256,192,137651,1,8,0:0:0:0:
256,192,137908,1,8,0:0:0:0:
256,192,138036,1,8,0:0:0:0:
256,192,138164,1,8,0:0:0:0:
256,192,138421,1,0,0:0:0:0:
256,192,138549,1,0,0:0:0:0:
256,192,138677,1,8,0:0:0:0:
256,192,138933,1,0,0:0:0:0:
256,192,139062,1,0,0:0:0:0:
256,192,139190,1,8,0:0:0:0:
256,192,139318,1,8,0:0:0:0:
256,192,139446,1,0,0:0:0:0:
256,192,139703,1,8,0:0:0:0:
256,192,140216,1,8,0:0:0:0:
256,192,140472,1,0,0:0:0:0:
256,192,140600,1,0,0:0:0:0:
256,192,140728,1,0,0:0:0:0:
256,192,140985,1,8,0:0:0:0:
256,192,141241,1,8,0:0:0:0:
256,192,141369,1,8,0:0:0:0:
256,192,141498,1,0,0:0:0:0:
256,192,141754,1,8,0:0:0:0:
256,192,142267,1,8,0:0:0:0:
256,192,142523,1,0,0:0:0:0:
256,192,142780,1,8,0:0:0:0:
256,192,142908,1,8,0:0:0:0:
256,192,143036,1,0,0:0:0:0:
256,192,143164,1,0,0:0:0:0:
256,192,143292,1,8,0:0:0:0:
256,192,143549,1,8,0:0:0:0:
256,192,143805,1,4,0:0:0:0:
256,192,144062,1,8,0:0:0:0:
256,192,144190,1,8,0:0:0:0:
256,192,144318,1,8,0:0:0:0:
256,192,144575,1,0,0:0:0:0:
256,192,144831,1,8,0:0:0:0:
256,192,144959,1,8,0:0:0:0:
256,192,145087,1,8,0:0:0:0:
256,192,145344,1,8,0:0:0:0:
256,192,145600,1,0,0:0:0:0:
256,192,145728,1,0,0:0:0:0:
256,192,145857,1,8,0:0:0:0:
256,192,146113,1,8,0:0:0:0:
256,192,146241,1,8,0:0:0:0:
256,192,146369,1,8,0:0:0:0:
256,192,146626,1,0,0:0:0:0:
256,192,146754,1,0,0:0:0:0:
256,192,146882,1,8,0:0:0:0:
256,192,147139,1,0,0:0:0:0:
256,192,147266,1,0,0:0:0:0:
256,192,147395,1,8,0:0:0:0:
256,192,147523,1,8,0:0:0:0:
256,192,147651,1,0,0:0:0:0:
256,192,147908,1,8,0:0:0:0:
256,192,148421,1,8,0:0:0:0:
256,192,148677,1,8,0:0:0:0:
256,192,148869,1,0,0:0:0:0:
256,192,149446,1,0,0:0:0:0:
256,192,149703,1,8,0:0:0:0:
256,192,149831,1,8,0:0:0:0:
256,192,149959,1,8,0:0:0:0:
256,192,150216,1,0,0:0:0:0:
256,192,150472,1,8,0:0:0:0:
256,192,150728,1,0,0:0:0:0:
256,192,150857,1,0,0:0:0:0:
256,192,150985,1,8,0:0:0:0:
256,192,151113,1,8,0:0:0:0:
256,192,151242,1,0,0:0:0:0:
256,192,151498,1,8,0:0:0:0:
256,192,151754,1,0,0:0:0:0:
256,192,151882,1,0,0:0:0:0:
256,192,152010,1,8,0:0:0:0:
256,192,152523,1,8,0:0:0:0:
256,192,152651,1,8,0:0:0:0:
256,192,152780,1,8,0:0:0:0:
256,192,153036,1,8,0:0:0:0:
256,192,153292,1,0,0:0:0:0:
256,192,153421,1,8,0:0:0:0:
256,192,153677,1,8,0:0:0:0:
256,192,153805,1,0,0:0:0:0:
256,192,154062,1,8,0:0:0:0:
256,192,154190,1,8,0:0:0:0:
256,192,154318,1,0,0:0:0:0:
256,192,154446,1,0,0:0:0:0:
256,192,154575,1,8,0:0:0:0:
256,192,154702,1,8,0:0:0:0:
256,192,154831,1,0,0:0:0:0:
256,192,154959,1,0,0:0:0:0:
256,192,156114,1,12,0:0:0:0:
256,192,157139,1,0,0:0:0:0:
256,192,157267,1,0,0:0:0:0:
256,192,157395,1,0,0:0:0:0:
256,192,157524,1,0,0:0:0:0:
256,192,157652,1,8,0:0:0:0:
256,192,157908,1,8,0:0:0:0:
256,192,158165,1,0,0:0:0:0:
256,192,159190,1,0,0:0:0:0:
256,192,159447,1,0,0:0:0:0:
256,192,159703,1,8,0:0:0:0:
256,192,160216,1,4,0:0:0:0:
256,192,160472,8,0,164318,0:0:0:0:
