osu file format v14

[General]
AudioFilename: audio.mp3
AudioLeadIn: 0
PreviewTime: 17139
Countdown: 0
SampleSet: Normal
StackLeniency: 0.7
Mode: 1
LetterboxInBreaks: 0
WidescreenStoryboard: 0

[Editor]
Bookmarks: 4570,17134,37646,60210,80723,103287,111492,156108
DistanceSpacing: 1
BeatDivisor: 4
GridSize: 32
TimelineZoom: 0.7999998

[Metadata]
Title:Dorei Janai nara Nan Desu ka?
TitleUnicode:奴隷じゃないなら何ですか?
Artist:TUYU
ArtistUnicode:ツユ
Creator:Faputa
Version:Muzukashii
Source:
Tags:ぷす 礼衣 おむたつ Tsuyu Pusu Rei Omutatsu AzyuN miro What if this isn't a slave? Jpop J-pop pop Japanese Jrock J-rock rock 2nd album 貴方を不幸に誘いますね i'll i will put you in misery is not
BeatmapID:3517556
BeatmapSetID:1716912

[Difficulty]
HPDrainRate:6.5
CircleSize:2
OverallDifficulty:4.5
ApproachRate:10
SliderMultiplier:1.4
SliderTickRate:1

[Events]
//Background and Video events
0,0,"E806UZvVUAAjCsY.jpg",0,0
Video,-390,"tuyu.mp4"
//Break Periods
//Storyboard Layer 0 (Background)
//Storyboard Layer 1 (Fail)
//Storyboard Layer 2 (Pass)
//Storyboard Layer 3 (Foreground)
//Storyboard Layer 4 (Overlay)
//Storyboard Sound Samples

[TimingPoints]
473,512.820512820513,4,1,0,65,1,0
4511,-100,4,1,0,80,0,0
8678,-100,4,1,0,80,0,0
14831,512.820512820513,5,1,0,80,1,0
17139,512.820512820513,4,1,0,80,1,0
17139,-97.5609756097561,4,1,0,80,0,1
37139,-100,4,1,0,80,0,0
49831,-100,4,1,0,70,0,0
60087,-100,4,1,0,80,0,0
60215,-97.5609756097561,4,1,0,80,0,1
80215,-100,4,1,0,80,0,0
92908,-100,4,1,0,70,0,0
103164,-100,4,1,0,80,0,0
125856,512.820512820513,5,1,0,80,1,8
125856,-100,5,1,0,80,0,0
125857,512.820512820513,5,1,0,80,1,0
125857,-100,5,1,0,80,0,0
128421,512.820512820513,4,1,0,80,1,0
128421,-100,4,1,0,80,0,0
132523,-97.5609756097561,4,1,0,80,0,0
135601,512.820512820513,4,1,0,80,1,0
135601,-95.2380952380952,4,1,0,80,0,1
155601,-100,4,1,0,80,0,0
160344,-100,4,1,0,40,0,0
161242,-100,4,1,0,30,0,0
162267,-100,4,1,0,20,0,0
163293,-100,4,1,0,10,0,0

[HitObjects]
256,192,473,5,0,0:0:0:0:
256,192,985,1,0,0:0:0:0:
256,192,1498,1,8,0:0:0:0:
256,192,2011,1,8,0:0:0:0:
256,192,2524,1,0,0:0:0:0:
256,192,3037,1,8,0:0:0:0:
256,192,3293,1,8,0:0:0:0:
256,192,3549,1,0,0:0:0:0:
256,192,3806,1,0,0:0:0:0:
256,192,4062,1,8,0:0:0:0:
256,192,4319,1,8,0:0:0:0:
256,192,4575,1,4,0:0:0:0:
256,192,5088,1,8,0:0:0:0:
256,192,5473,1,0,0:0:0:0:
256,192,5857,1,0,0:0:0:0:
256,192,6114,1,8,0:0:0:0:
256,192,6626,1,0,0:0:0:0:
256,192,6883,1,0,0:0:0:0:
256,192,7139,1,8,0:0:0:0:
256,192,7396,1,0,0:0:0:0:
256,192,7652,1,8,0:0:0:0:
256,192,7780,1,8,0:0:0:0:
256,192,7908,1,8,0:0:0:0:
256,192,8165,1,0,0:0:0:0:
256,192,8678,1,4,0:0:0:0:
256,192,9190,1,0,0:0:0:0:
256,192,9703,1,8,0:0:0:0:
256,192,9960,1,8,0:0:0:0:
256,192,10216,1,0,0:0:0:0:
256,192,10473,1,8,0:0:0:0:
256,192,10985,1,0,0:0:0:0:
256,192,11242,1,8,0:0:0:0:
256,192,11498,1,8,0:0:0:0:
256,192,11755,1,8,0:0:0:0:
256,192,12011,1,0,0:0:0:0:
256,192,12267,1,8,0:0:0:0:
256,192,12780,1,8,0:0:0:0:
256,192,13293,1,0,0:0:0:0:
256,192,13806,1,8,0:0:0:0:
256,192,14062,1,0,0:0:0:0:
256,192,14319,1,8,0:0:0:0:
256,192,14575,1,0,0:0:0:0:
256,192,15088,1,0,0:0:0:0:
256,192,15344,1,8,0:0:0:0:
256,192,15601,1,8,0:0:0:0:
256,192,15857,1,0,0:0:0:0:
256,192,16114,1,8,0:0:0:0:
256,192,16370,1,0,0:0:0:0:
256,192,17139,1,4,0:0:0:0:
256,192,17652,1,8,0:0:0:0:
256,192,17908,1,0,0:0:0:0:
256,192,18165,1,8,0:0:0:0:
256,192,18293,1,8,0:0:0:0:
256,192,18421,1,8,0:0:0:0:
256,192,18678,1,8,0:0:0:0:
256,192,18934,1,0,0:0:0:0:
256,192,19190,1,8,0:0:0:0:
256,192,19703,1,8,0:0:0:0:
256,192,19959,1,0,0:0:0:0:
256,192,20087,1,0,0:0:0:0:
256,192,20215,1,0,0:0:0:0:
256,192,20472,1,8,0:0:0:0:
256,192,20728,1,0,0:0:0:0:
256,192,20985,1,8,0:0:0:0:
256,192,21242,1,8,0:0:0:0:
256,192,21754,1,8,0:0:0:0:
256,192,22267,1,0,0:0:0:0:
256,192,22523,1,0,0:0:0:0:
256,192,22780,1,8,0:0:0:0:
256,192,23037,1,0,0:0:0:0:
256,192,23293,1,8,0:0:0:0:
256,192,23806,1,8,0:0:0:0:
256,192,24062,1,8,0:0:0:0:
256,192,24318,1,0,0:0:0:0:
256,192,24575,1,8,0:0:0:0:
256,192,24703,1,8,0:0:0:0:
256,192,24831,1,8,0:0:0:0:
256,192,25088,1,8,0:0:0:0:
256,192,25344,1,4,0:0:0:0:
256,192,25857,1,8,0:0:0:0:
256,192,26114,1,0,0:0:0:0:
256,192,26370,1,8,0:0:0:0:
256,192,26498,1,8,0:0:0:0:
256,192,26626,1,8,0:0:0:0:
256,192,26883,1,8,0:0:0:0:
256,192,27139,1,0,0:0:0:0:
256,192,27396,1,8,0:0:0:0:
256,192,27908,1,8,0:0:0:0:
256,192,28165,1,0,0:0:0:0:
256,192,28292,1,0,0:0:0:0:
256,192,28421,1,0,0:0:0:0:
256,192,28677,1,8,0:0:0:0:
256,192,28934,1,8,0:0:0:0:
256,192,29190,1,0,0:0:0:0:
256,192,29447,1,8,0:0:0:0:
256,192,30216,1,8,0:0:0:0:
256,192,30408,1,0,0:0:0:0:
256,192,30985,1,0,0:0:0:0:
256,192,31242,1,8,0:0:0:0:
256,192,31498,1,8,0:0:0:0:
256,192,32011,1,8,0:0:0:0:
256,192,32267,1,0,0:0:0:0:
256,192,32524,1,8,0:0:0:0:
256,192,32780,1,8,0:0:0:0:
256,192,33037,1,0,0:0:0:0:
256,192,33293,1,8,0:0:0:0:
256,192,33421,1,8,0:0:0:0:
256,192,33549,1,8,0:0:0:0:
256,192,34062,1,8,0:0:0:0:
256,192,34575,1,8,0:0:0:0:
256,192,34831,1,0,0:0:0:0:
256,192,35087,1,8,0:0:0:0:
256,192,35344,1,8,0:0:0:0:
256,192,35600,1,0,0:0:0:0:
256,192,35857,1,8,0:0:0:0:
256,192,35985,1,0,0:0:0:0:
256,192,36241,1,8,0:0:0:0:
256,192,36370,1,0,0:0:0:0:
256,192,37652,1,12,0:0:0:0:
256,192,38036,1,0,0:0:0:0:
256,192,38421,1,8,0:0:0:0:
256,192,38677,1,0,0:0:0:0:
256,192,38805,1,0,0:0:0:0:
256,192,38933,1,0,0:0:0:0:
256,192,39190,1,8,0:0:0:0:
256,192,39446,1,8,0:0:0:0:
256,192,39703,1,0,0:0:0:0:
256,192,40087,1,8,0:0:0:0:
256,192,40472,1,8,0:0:0:0:
256,192,40728,1,0,0:0:0:0:
256,192,40985,1,0,0:0:0:0:
256,192,41241,1,8,0:0:0:0:
256,192,41497,1,8,0:0:0:0:
256,192,41754,1,4,0:0:0:0:
256,192,42267,1,8,0:0:0:0:
256,192,42780,1,0,0:0:0:0:
256,192,43292,1,8,0:0:0:0:
256,192,43805,1,0,0:0:0:0:
256,192,44062,1,0,0:0:0:0:
256,192,44318,1,8,0:0:0:0:
256,192,44703,1,0,0:0:0:0:
256,192,44959,1,8,0:0:0:0:
256,192,45344,1,8,0:0:0:0:
256,192,45600,1,8,0:0:0:0:
256,192,45856,1,0,0:0:0:0:
256,192,46113,1,8,0:0:0:0:
256,192,46369,1,0,0:0:0:0:
256,192,46882,1,8,0:0:0:0:
256,192,47395,1,0,0:0:0:0:
256,192,47908,1,8,0:0:0:0:
256,192,48164,1,8,0:0:0:0:
256,192,48421,1,0,0:0:0:0:
256,192,48677,1,8,0:0:0:0:
256,192,48933,1,0,0:0:0:0:
256,192,49703,1,0,0:0:0:0:
256,192,49959,1,8,0:0:0:0:
256,192,50472,1,0,0:0:0:0:
256,192,50985,1,8,0:0:0:0:
256,192,51369,1,8,0:0:0:0:
256,192,51754,1,8,0:0:0:0:
256,192,52010,1,0,0:0:0:0:
256,192,53036,1,0,0:0:0:0:
256,192,53292,1,0,0:0:0:0:
256,192,53549,1,8,0:0:0:0:
256,192,54062,1,0,0:0:0:0:
256,192,54574,1,8,0:0:0:0:
256,192,54959,1,0,0:0:0:0:
256,192,55215,1,8,0:0:0:0:
256,192,55600,1,8,0:0:0:0:
256,192,55856,1,8,0:0:0:0:
256,192,56113,1,0,0:0:0:0:
256,192,56497,1,8,0:0:0:0:
256,192,57139,1,8,0:0:0:0:
256,192,57651,1,8,0:0:0:0:
256,192,58164,1,0,0:0:0:0:
256,192,58677,1,8,0:0:0:0:
256,192,58933,1,8,0:0:0:0:
256,192,59190,1,0,0:0:0:0:
256,192,59446,1,0,0:0:0:0:
256,192,59703,1,8,0:0:0:0:
256,192,60215,1,4,0:0:0:0:
256,192,60728,1,8,0:0:0:0:
256,192,60984,1,0,0:0:0:0:
256,192,61241,1,8,0:0:0:0:
256,192,61369,1,8,0:0:0:0:
256,192,61497,1,8,0:0:0:0:
256,192,61754,1,8,0:0:0:0:
256,192,62010,1,0,0:0:0:0:
256,192,62266,1,8,0:0:0:0:
256,192,62779,1,8,0:0:0:0:
256,192,63036,1,0,0:0:0:0:
256,192,63164,1,0,0:0:0:0:
256,192,63292,1,0,0:0:0:0:
256,192,63549,1,8,0:0:0:0:
256,192,63805,1,8,0:0:0:0:
256,192,64061,1,0,0:0:0:0:
256,192,64318,1,8,0:0:0:0:
256,192,64831,1,8,0:0:0:0:
256,192,65343,1,0,0:0:0:0:
256,192,65600,1,0,0:0:0:0:
256,192,65856,1,8,0:0:0:0:
256,192,66113,1,0,0:0:0:0:
256,192,66369,1,8,0:0:0:0:
256,192,66882,1,8,0:0:0:0:
256,192,67139,1,8,0:0:0:0:
256,192,67395,1,0,0:0:0:0:
256,192,67651,1,8,0:0:0:0:
256,192,67780,1,8,0:0:0:0:
256,192,67907,1,8,0:0:0:0:
256,192,68164,1,8,0:0:0:0:
256,192,68420,1,4,0:0:0:0:
256,192,68933,1,8,0:0:0:0:
256,192,69190,1,0,0:0:0:0:
256,192,69446,1,8,0:0:0:0:
256,192,69574,1,8,0:0:0:0:
256,192,69702,1,8,0:0:0:0:
256,192,69959,1,8,0:0:0:0:
256,192,70215,1,0,0:0:0:0:
256,192,70472,1,8,0:0:0:0:
256,192,70984,1,8,0:0:0:0:
256,192,71241,1,0,0:0:0:0:
256,192,71369,1,0,0:0:0:0:
256,192,71497,1,0,0:0:0:0:
256,192,71754,1,8,0:0:0:0:
256,192,72010,1,8,0:0:0:0:
256,192,72266,1,0,0:0:0:0:
256,192,72523,1,8,0:0:0:0:
256,192,73292,1,8,0:0:0:0:
256,192,73484,1,0,0:0:0:0:
256,192,74061,1,0,0:0:0:0:
256,192,74318,1,8,0:0:0:0:
256,192,74574,1,8,0:0:0:0:
256,192,75087,1,8,0:0:0:0:
256,192,75343,1,0,0:0:0:0:
256,192,75600,1,8,0:0:0:0:
256,192,75856,1,8,0:0:0:0:
256,192,76113,1,0,0:0:0:0:
256,192,76369,1,8,0:0:0:0:
256,192,76497,1,8,0:0:0:0:
256,192,76625,1,8,0:0:0:0:
256,192,77139,1,8,0:0:0:0:
256,192,77651,1,8,0:0:0:0:
256,192,77908,1,0,0:0:0:0:
256,192,78164,1,8,0:0:0:0:
256,192,78421,1,8,0:0:0:0:
256,192,78677,1,0,0:0:0:0:
256,192,78933,1,8,0:0:0:0:
256,192,79062,1,0,0:0:0:0:
256,192,79318,1,8,0:0:0:0:
256,192,79446,1,0,0:0:0:0:
256,192,80728,1,12,0:0:0:0:
256,192,81113,1,0,0:0:0:0:
256,192,81497,1,8,0:0:0:0:
256,192,81753,1,0,0:0:0:0:
256,192,81881,1,0,0:0:0:0:
256,192,82009,1,0,0:0:0:0:
256,192,82266,1,8,0:0:0:0:
256,192,82522,1,8,0:0:0:0:
256,192,82779,1,0,0:0:0:0:
256,192,83163,1,8,0:0:0:0:
256,192,83548,1,8,0:0:0:0:
256,192,83804,1,0,0:0:0:0:
256,192,84061,1,0,0:0:0:0:
256,192,84317,1,8,0:0:0:0:
256,192,84830,1,0,0:0:0:0:
256,192,85343,1,8,0:0:0:0:
256,192,85856,1,0,0:0:0:0:
256,192,86368,1,8,0:0:0:0:
256,192,86881,1,0,0:0:0:0:
256,192,87138,1,0,0:0:0:0:
256,192,87394,1,8,0:0:0:0:
256,192,87779,1,0,0:0:0:0:
256,192,88036,1,8,0:0:0:0:
256,192,88420,1,8,0:0:0:0:
256,192,88677,1,8,0:0:0:0:
256,192,88932,1,0,0:0:0:0:
256,192,89189,1,8,0:0:0:0:
256,192,89445,1,0,0:0:0:0:
256,192,89958,1,8,0:0:0:0:
256,192,90471,1,8,0:0:0:0:
256,192,90984,1,8,0:0:0:0:
256,192,91240,1,8,0:0:0:0:
256,192,91497,1,0,0:0:0:0:
256,192,91753,1,8,0:0:0:0:
256,192,92009,1,0,0:0:0:0:
256,192,92779,1,0,0:0:0:0:
256,192,93035,1,8,0:0:0:0:
256,192,93548,1,8,0:0:0:0:
256,192,93933,1,8,0:0:0:0:
256,192,94190,1,0,0:0:0:0:
256,192,94574,1,0,0:0:0:0:
256,192,94830,1,8,0:0:0:0:
256,192,95086,1,0,0:0:0:0:
256,192,96112,1,0,0:0:0:0:
256,192,96368,1,0,0:0:0:0:
256,192,96625,1,8,0:0:0:0:
256,192,97138,1,0,0:0:0:0:
256,192,97650,1,0,0:0:0:0:
256,192,97908,1,8,0:0:0:0:
256,192,98164,1,0,0:0:0:0:
256,192,98549,1,8,0:0:0:0:
256,192,98933,1,8,0:0:0:0:
256,192,99189,1,0,0:0:0:0:
256,192,99573,1,8,0:0:0:0:
256,192,99958,1,0,0:0:0:0:
256,192,100215,1,8,0:0:0:0:
256,192,100727,1,8,0:0:0:0:
256,192,101240,1,0,0:0:0:0:
256,192,101753,1,8,0:0:0:0:
256,192,102009,1,0,0:0:0:0:
256,192,102266,1,8,0:0:0:0:
256,192,102523,1,0,0:0:0:0:
256,192,102779,1,8,0:0:0:0:
256,192,103292,1,12,0:0:0:0:
256,192,103805,1,8,0:0:0:0:
256,192,104062,1,8,0:0:0:0:
256,192,104318,1,0,0:0:0:0:
256,192,104574,1,8,0:0:0:0:
256,192,104831,1,0,0:0:0:0:
256,192,104959,1,0,0:0:0:0:
256,192,105087,1,0,0:0:0:0:
256,192,105600,1,8,0:0:0:0:
256,192,105728,1,8,0:0:0:0:
256,192,105856,1,8,0:0:0:0:
256,192,106113,1,0,0:0:0:0:
256,192,106369,1,0,0:0:0:0:
256,192,106626,1,8,0:0:0:0:
256,192,106754,1,8,0:0:0:0:
256,192,106882,1,8,0:0:0:0:
256,192,107139,1,0,0:0:0:0:
256,192,107395,1,8,0:0:0:0:
256,192,107908,1,0,0:0:0:0:
256,192,108164,1,0,0:0:0:0:
256,192,108421,1,8,0:0:0:0:
256,192,108677,1,0,0:0:0:0:
256,192,108933,1,8,0:0:0:0:
256,192,109062,1,8,0:0:0:0:
256,192,109190,1,8,0:0:0:0:
256,192,109703,1,0,0:0:0:0:
256,192,109831,1,0,0:0:0:0:
256,192,109959,1,0,0:0:0:0:
256,192,110215,1,8,0:0:0:0:
256,192,110472,1,8,0:0:0:0:
256,192,110728,1,0,0:0:0:0:
256,192,110985,1,8,0:0:0:0:
256,192,111497,1,4,0:0:0:0:
256,192,112010,1,8,0:0:0:0:
256,192,112523,1,0,0:0:0:0:
256,192,113036,1,8,0:0:0:0:
256,192,113292,1,0,0:0:0:0:
256,192,113805,1,0,0:0:0:0:
256,192,114062,1,8,0:0:0:0:
256,192,114318,1,8,0:0:0:0:
256,192,114574,1,0,0:0:0:0:
256,192,114831,1,8,0:0:0:0:
256,192,114959,1,8,0:0:0:0:
256,192,115087,1,8,0:0:0:0:
256,192,115600,1,8,0:0:0:0:
256,192,116113,1,0,0:0:0:0:
256,192,116626,1,8,0:0:0:0:
256,192,117139,1,0,0:0:0:0:
256,192,117395,1,8,0:0:0:0:
256,192,117908,1,0,0:0:0:0:
256,192,118164,1,8,0:0:0:0:
256,192,118421,1,8,0:0:0:0:
256,192,118677,1,0,0:0:0:0:
256,192,118933,1,8,0:0:0:0:
256,192,119062,1,8,0:0:0:0:
256,192,119190,1,8,0:0:0:0:
256,192,119703,1,4,0:0:0:0:
256,192,120215,1,8,0:0:0:0:
256,192,120728,1,8,0:0:0:0:
256,192,120985,1,0,0:0:0:0:
256,192,121241,1,8,0:0:0:0:
256,192,121497,1,0,0:0:0:0:
256,192,122010,1,0,0:0:0:0:
256,192,122267,1,8,0:0:0:0:
256,192,122780,1,8,0:0:0:0:
256,192,123036,1,0,0:0:0:0:
256,192,123164,1,0,0:0:0:0:
256,192,123292,1,0,0:0:0:0:
256,192,123549,1,8,0:0:0:0:
256,192,123805,1,8,0:0:0:0:
256,192,124318,1,0,0:0:0:0:
256,192,124831,1,8,0:0:0:0:
256,192,125087,1,0,0:0:0:0:
256,192,125344,1,8,0:0:0:0:
256,192,125600,1,8,0:0:0:0:
256,192,126113,1,8,0:0:0:0:
256,192,126369,1,8,0:0:0:0:
256,192,126626,1,0,0:0:0:0:
256,192,126882,1,8,0:0:0:0:
256,192,127139,1,0,0:0:0:0:
256,192,127267,1,0,0:0:0:0:
256,192,127395,1,0,0:0:0:0:
256,192,127651,1,8,0:0:0:0:
256,192,128421,1,4,0:0:0:0:
256,192,128934,1,8,0:0:0:0:
256,192,129319,1,8,0:0:0:0:
256,192,129703,1,0,0:0:0:0:
256,192,129960,1,8,0:0:0:0:
256,192,130472,1,0,0:0:0:0:
256,192,130729,1,0,0:0:0:0:
256,192,130985,1,8,0:0:0:0:
256,192,131242,1,0,0:0:0:0:
256,192,131498,1,8,0:0:0:0:
256,192,131626,1,8,0:0:0:0:
256,192,131754,1,8,0:0:0:0:
256,192,132010,1,0,0:0:0:0:
256,192,132523,1,4,0:0:0:0:
256,192,132779,1,8,0:0:0:0:
256,192,133036,1,8,0:0:0:0:
256,192,133292,1,0,0:0:0:0:
256,192,133549,1,8,0:0:0:0:
256,192,133677,1,8,0:0:0:0:
256,192,133805,1,8,0:0:0:0:
256,192,134062,1,8,0:0:0:0:
256,192,134574,1,0,0:0:0:0:
256,192,135601,1,4,0:0:0:0:
256,192,136114,1,8,0:0:0:0:
256,192,136370,1,0,0:0:0:0:
256,192,136627,1,8,0:0:0:0:
256,192,136755,1,8,0:0:0:0:
256,192,136883,1,8,0:0:0:0:
256,192,137140,1,8,0:0:0:0:
256,192,137396,1,0,0:0:0:0:
256,192,137652,1,8,0:0:0:0:
256,192,138165,1,8,0:0:0:0:
256,192,138421,1,0,0:0:0:0:
256,192,138549,1,0,0:0:0:0:
256,192,138677,1,0,0:0:0:0:
256,192,138934,1,8,0:0:0:0:
256,192,139190,1,0,0:0:0:0:
256,192,139447,1,8,0:0:0:0:
256,192,139704,1,8,0:0:0:0:
256,192,140216,1,8,0:0:0:0:
256,192,140729,1,0,0:0:0:0:
256,192,140985,1,0,0:0:0:0:
256,192,141242,1,8,0:0:0:0:
256,192,141499,1,0,0:0:0:0:
256,192,141755,1,8,0:0:0:0:
256,192,142268,1,8,0:0:0:0:
256,192,142524,1,8,0:0:0:0:
256,192,142780,1,0,0:0:0:0:
256,192,143037,1,8,0:0:0:0:
256,192,143165,1,8,0:0:0:0:
256,192,143293,1,8,0:0:0:0:
256,192,143550,1,8,0:0:0:0:
256,192,143806,1,4,0:0:0:0:
256,192,144319,1,8,0:0:0:0:
256,192,144576,1,0,0:0:0:0:
256,192,144832,1,8,0:0:0:0:
256,192,144960,1,8,0:0:0:0:
256,192,145088,1,8,0:0:0:0:
256,192,145345,1,8,0:0:0:0:
256,192,145601,1,0,0:0:0:0:
256,192,145858,1,8,0:0:0:0:
256,192,146370,1,8,0:0:0:0:
256,192,146627,1,0,0:0:0:0:
256,192,146754,1,0,0:0:0:0:
256,192,146883,1,0,0:0:0:0:
256,192,147139,1,8,0:0:0:0:
256,192,147396,1,8,0:0:0:0:
256,192,147652,1,0,0:0:0:0:
256,192,147909,1,8,0:0:0:0:
256,192,148678,1,8,0:0:0:0:
256,192,148870,1,0,0:0:0:0:
256,192,149447,1,0,0:0:0:0:
256,192,149704,1,8,0:0:0:0:
256,192,149960,1,8,0:0:0:0:
256,192,150473,1,8,0:0:0:0:
256,192,150729,1,0,0:0:0:0:
256,192,150986,1,8,0:0:0:0:
256,192,151242,1,8,0:0:0:0:
256,192,151499,1,0,0:0:0:0:
256,192,151755,1,8,0:0:0:0:
256,192,151883,1,8,0:0:0:0:
256,192,152011,1,8,0:0:0:0:
256,192,152524,1,8,0:0:0:0:
256,192,153037,1,8,0:0:0:0:
256,192,153293,1,0,0:0:0:0:
256,192,153549,1,8,0:0:0:0:
256,192,153806,1,8,0:0:0:0:
256,192,154062,1,0,0:0:0:0:
256,192,154319,1,8,0:0:0:0:
256,192,154447,1,0,0:0:0:0:
256,192,154703,1,8,0:0:0:0:
256,192,154832,1,0,0:0:0:0:
256,192,156114,1,12,0:0:0:0:
256,192,157139,1,0,0:0:0:0:
256,192,157395,1,0,0:0:0:0:
256,192,157652,1,8,0:0:0:0:
256,192,157908,1,8,0:0:0:0:
256,192,158165,1,0,0:0:0:0:
256,192,159190,1,0,0:0:0:0:
256,192,159447,1,0,0:0:0:0:
256,192,159703,1,8,0:0:0:0:
256,192,160216,1,4,0:0:0:0:
256,192,160472,8,0,164318,0:0:0:0:
