osu file format v14

[General]
AudioFilename: audio.mp3
AudioLeadIn: 0
PreviewTime: 17139
Countdown: 0
SampleSet: Normal
StackLeniency: 0.7
Mode: 1
LetterboxInBreaks: 0
WidescreenStoryboard: 0

[Editor]
Bookmarks: 4570,17134,37646,60210,80723,103287,111492,156108
DistanceSpacing: 1
BeatDivisor: 4
GridSize: 32
TimelineZoom: 0.7999998

[Metadata]
Title:Dorei Janai nara Nan Desu ka?
TitleUnicode:奴隷じゃないなら何ですか?
Artist:TUYU
ArtistUnicode:ツユ
Creator:Faputa
Version:Kantan
Source:
Tags:ぷす 礼衣 おむたつ Tsuyu Pusu Rei Omutatsu AzyuN miro What if this isn't a slave? Jpop J-pop pop Japanese Jrock J-rock rock 2nd album 貴方を不幸に誘いますね i'll i will put you in misery is not
BeatmapID:3517588
BeatmapSetID:1716912

[Difficulty]
HPDrainRate:8.5
CircleSize:2
OverallDifficulty:3
ApproachRate:10
SliderMultiplier:1.4
SliderTickRate:1

[Events]
//Background and Video events
0,0,"E806UZvVUAAjCsY.jpg",0,0
Video,-390,"tuyu.mp4"
//Break Periods
//Storyboard Layer 0 (Background)
//Storyboard Layer 1 (Fail)
//Storyboard Layer 2 (Pass)
//Storyboard Layer 3 (Foreground)
//Storyboard Layer 4 (Overlay)
//Storyboard Sound Samples

[TimingPoints]
473,512.820512820513,4,1,0,65,1,0
4511,-100,4,1,0,80,0,0
8678,-100,4,1,0,80,0,0
14831,512.820512820513,5,1,0,80,1,0
17139,512.820512820513,4,1,0,80,1,0
17139,-100,4,1,0,80,0,1
37139,-100,4,1,0,80,0,0
49831,-100,4,1,0,70,0,0
60087,-100,4,1,0,80,0,0
60215,-100,4,1,0,80,0,1
80215,-100,4,1,0,80,0,0
92908,-100,4,1,0,70,0,0
103164,-100,4,1,0,80,0,0
125856,512.820512820513,5,1,0,80,1,8
125856,-100,5,1,0,80,0,0
125857,512.820512820513,5,1,0,80,1,0
125857,-100,5,1,0,80,0,0
128421,512.820512820513,4,1,0,80,1,0
128421,-100,4,1,0,80,0,0
132523,-100,4,1,0,80,0,0
135601,512.820512820513,4,1,0,80,1,0
135601,-100,4,1,0,80,0,1
155601,-100,4,1,0,80,0,0
160344,-100,4,1,0,40,0,0
161242,-100,4,1,0,30,0,0
162267,-100,4,1,0,20,0,0
163293,-100,4,1,0,10,0,0

[HitObjects]
256,192,473,5,0,0:0:0:0:
256,192,1498,1,0,0:0:0:0:
256,192,2524,1,0,0:0:0:0:
256,192,3037,1,0,0:0:0:0:
256,192,3549,1,8,0:0:0:0:
256,192,4062,1,8,0:0:0:0:
256,192,4575,1,4,0:0:0:0:
256,192,5088,1,8,0:0:0:0:
256,192,6114,1,8,0:0:0:0:
256,192,6626,1,0,0:0:0:0:
256,192,7139,1,8,0:0:0:0:
256,192,7652,1,8,0:0:0:0:
256,192,8165,1,8,0:0:0:0:
256,192,8678,1,4,0:0:0:0:
256,192,10216,1,0,0:0:0:0:
256,192,11242,1,0,0:0:0:0:
256,192,11755,1,8,0:0:0:0:
256,192,12267,1,0,0:0:0:0:
256,192,12780,1,8,0:0:0:0:
256,192,14319,1,8,0:0:0:0:
256,192,15343,1,8,0:0:0:0:
256,192,15856,1,0,0:0:0:0:
256,192,16369,1,8,0:0:0:0:
256,192,17138,1,4,0:0:0:0:
256,192,17651,1,8,0:0:0:0:
256,192,18677,1,8,0:0:0:0:
256,192,19190,1,8,0:0:0:0:
256,192,19703,1,0,0:0:0:0:
256,192,20215,1,8,0:0:0:0:
256,192,20728,1,0,0:0:0:0:
256,192,21241,1,8,0:0:0:0:
256,192,22780,1,8,0:0:0:0:
256,192,23292,1,0,0:0:0:0:
256,192,24318,1,0,0:0:0:0:
256,192,24831,1,8,0:0:0:0:
256,192,25344,1,4,0:0:0:0:
256,192,25856,1,8,0:0:0:0:
256,192,26882,1,8,0:0:0:0:
256,192,27395,1,0,0:0:0:0:
256,192,27908,1,8,0:0:0:0:
256,192,28421,1,0,0:0:0:0:
256,192,28933,1,8,0:0:0:0:
256,192,29446,1,8,0:0:0:0:
256,192,30472,1,0,0:0:0:0:
256,192,31497,1,8,0:0:0:0:
256,192,32010,1,0,0:0:0:0:
256,192,32523,1,8,0:0:0:0:
256,192,33036,1,8,0:0:0:0:
256,192,33549,1,0,0:0:0:0:
256,192,34574,1,8,0:0:0:0:
256,192,35600,1,0,0:0:0:0:
256,192,37651,1,12,0:0:0:0:
256,192,38677,1,0,0:0:0:0:
256,192,39190,1,8,0:0:0:0:
256,192,39703,1,0,0:0:0:0:
256,192,40728,1,8,0:0:0:0:
256,192,41241,1,8,0:0:0:0:
256,192,41754,1,4,0:0:0:0:
256,192,43292,1,8,0:0:0:0:
256,192,43805,1,0,0:0:0:0:
256,192,44831,1,0,0:0:0:0:
256,192,45344,1,8,0:0:0:0:
256,192,45856,1,0,0:0:0:0:
256,192,46882,1,8,0:0:0:0:
256,192,47908,1,8,0:0:0:0:
256,192,48421,1,0,0:0:0:0:
256,192,48933,1,8,0:0:0:0:
256,192,49959,1,0,0:0:0:0:
256,192,50985,1,8,0:0:0:0:
256,192,52010,1,0,0:0:0:0:
256,192,54062,1,0,0:0:0:0:
256,192,55087,1,8,0:0:0:0:
256,192,56113,1,8,0:0:0:0:
256,192,57139,1,8,0:0:0:0:
256,192,57651,1,8,0:0:0:0:
256,192,58164,1,0,0:0:0:0:
256,192,58677,1,0,0:0:0:0:
256,192,59190,1,8,0:0:0:0:
256,192,60215,1,4,0:0:0:0:
256,192,60728,1,8,0:0:0:0:
256,192,61754,1,8,0:0:0:0:
256,192,62267,1,8,0:0:0:0:
256,192,62780,1,0,0:0:0:0:
256,192,63292,1,8,0:0:0:0:
256,192,63805,1,0,0:0:0:0:
256,192,64318,1,8,0:0:0:0:
256,192,65857,1,8,0:0:0:0:
256,192,66369,1,0,0:0:0:0:
256,192,67395,1,0,0:0:0:0:
256,192,67908,1,8,0:0:0:0:
256,192,68421,1,4,0:0:0:0:
256,192,68933,1,8,0:0:0:0:
256,192,69959,1,8,0:0:0:0:
256,192,70472,1,0,0:0:0:0:
256,192,70985,1,8,0:0:0:0:
256,192,71498,1,0,0:0:0:0:
256,192,72010,1,8,0:0:0:0:
256,192,72523,1,8,0:0:0:0:
256,192,73549,1,0,0:0:0:0:
256,192,74574,1,8,0:0:0:0:
256,192,75087,1,0,0:0:0:0:
256,192,75600,1,8,0:0:0:0:
256,192,76113,1,8,0:0:0:0:
256,192,76626,1,0,0:0:0:0:
256,192,77651,1,8,0:0:0:0:
256,192,78677,1,0,0:0:0:0:
256,192,80728,1,12,0:0:0:0:
256,192,81754,1,0,0:0:0:0:
256,192,82267,1,8,0:0:0:0:
256,192,82780,1,0,0:0:0:0:
256,192,83805,1,8,0:0:0:0:
256,192,84318,1,8,0:0:0:0:
256,192,84831,1,0,0:0:0:0:
256,192,85856,1,8,0:0:0:0:
256,192,86882,1,0,0:0:0:0:
256,192,87908,1,0,0:0:0:0:
256,192,88421,1,8,0:0:0:0:
256,192,88933,1,0,0:0:0:0:
256,192,89959,1,8,0:0:0:0:
256,192,90985,1,8,0:0:0:0:
256,192,91498,1,0,0:0:0:0:
256,192,92010,1,8,0:0:0:0:
256,192,93036,1,0,0:0:0:0:
256,192,94062,1,8,0:0:0:0:
256,192,95087,1,0,0:0:0:0:
256,192,97139,1,0,0:0:0:0:
256,192,98164,1,8,0:0:0:0:
256,192,99190,1,8,0:0:0:0:
256,192,100216,1,8,0:0:0:0:
256,192,100728,1,8,0:0:0:0:
256,192,101241,1,0,0:0:0:0:
256,192,101754,1,0,0:0:0:0:
256,192,102267,1,8,0:0:0:0:
256,192,103292,1,12,0:0:0:0:
256,192,104318,1,0,0:0:0:0:
256,192,104831,1,8,0:0:0:0:
256,192,105856,1,8,0:0:0:0:
256,192,106369,1,0,0:0:0:0:
256,192,106882,1,8,0:0:0:0:
256,192,107395,1,8,0:0:0:0:
256,192,108421,1,0,0:0:0:0:
256,192,108933,1,8,0:0:0:0:
256,192,109959,1,8,0:0:0:0:
256,192,110472,1,0,0:0:0:0:
256,192,110985,1,8,0:0:0:0:
256,192,111497,1,4,0:0:0:0:
256,192,113036,1,8,0:0:0:0:
256,192,114062,1,0,0:0:0:0:
256,192,114574,1,8,0:0:0:0:
256,192,115087,1,0,0:0:0:0:
256,192,115600,1,8,0:0:0:0:
256,192,116626,1,8,0:0:0:0:
256,192,117139,1,0,0:0:0:0:
256,192,118164,1,0,0:0:0:0:
256,192,118677,1,8,0:0:0:0:
256,192,119190,1,8,0:0:0:0:
256,192,119703,1,4,0:0:0:0:
256,192,121241,1,8,0:0:0:0:
256,192,122267,1,0,0:0:0:0:
256,192,122780,1,0,0:0:0:0:
256,192,123292,1,8,0:0:0:0:
256,192,123805,1,0,0:0:0:0:
256,192,124831,1,8,0:0:0:0:
256,192,125344,1,0,0:0:0:0:
256,192,126369,1,0,0:0:0:0:
256,192,126882,1,8,0:0:0:0:
256,192,127395,1,0,0:0:0:0:
256,192,128421,1,4,0:0:0:0:
256,192,128934,1,8,0:0:0:0:
256,192,129960,1,8,0:0:0:0:
256,192,130472,1,0,0:0:0:0:
256,192,130985,1,8,0:0:0:0:
256,192,131498,1,8,0:0:0:0:
256,192,132011,1,8,0:0:0:0:
256,192,132523,1,4,0:0:0:0:
256,192,133549,1,8,0:0:0:0:
256,192,134062,1,8,0:0:0:0:
256,192,134574,1,0,0:0:0:0:
256,192,135601,1,4,0:0:0:0:
256,192,136114,1,8,0:0:0:0:
256,192,137140,1,8,0:0:0:0:
256,192,137653,1,8,0:0:0:0:
256,192,138166,1,0,0:0:0:0:
256,192,138678,1,8,0:0:0:0:
256,192,139191,1,0,0:0:0:0:
256,192,139704,1,8,0:0:0:0:
256,192,141243,1,8,0:0:0:0:
256,192,141755,1,0,0:0:0:0:
256,192,142781,1,0,0:0:0:0:
256,192,143294,1,8,0:0:0:0:
256,192,143807,1,4,0:0:0:0:
256,192,144319,1,8,0:0:0:0:
256,192,145345,1,8,0:0:0:0:
256,192,145858,1,0,0:0:0:0:
256,192,146371,1,8,0:0:0:0:
256,192,146884,1,0,0:0:0:0:
256,192,147396,1,8,0:0:0:0:
256,192,147909,1,8,0:0:0:0:
256,192,148935,1,0,0:0:0:0:
256,192,149960,1,8,0:0:0:0:
256,192,150473,1,0,0:0:0:0:
256,192,150986,1,8,0:0:0:0:
256,192,151499,1,8,0:0:0:0:
256,192,152012,1,0,0:0:0:0:
256,192,153037,1,8,0:0:0:0:
256,192,154063,1,0,0:0:0:0:
256,192,156113,1,12,0:0:0:0:
256,192,157139,1,0,0:0:0:0:
256,192,158165,1,8,0:0:0:0:
256,192,159190,1,0,0:0:0:0:
256,192,160216,1,4,0:0:0:0:
256,192,160472,8,0,164318,0:0:0:0:
