osu file format v14

[General]
AudioFilename: audio.mp3
AudioLeadIn: 0
PreviewTime: 17139
Countdown: 0
SampleSet: Normal
StackLeniency: 0.7
Mode: 1
LetterboxInBreaks: 0
WidescreenStoryboard: 1

[Editor]
Bookmarks: 4570,17134,37646,60210,80723,103287,111492,156108
DistanceSpacing: 1
BeatDivisor: 4
GridSize: 32
TimelineZoom: 0.7999998

[Metadata]
Title:Dorei Janai nara Nan Desu ka?
TitleUnicode:奴隷じゃないなら何ですか?
Artist:TUYU
ArtistUnicode:ツユ
Creator:Faputa
Version:Futsuu
Source:
Tags:ぷす 礼衣 おむたつ Tsuyu Pusu Rei Omutatsu AzyuN miro What if this isn't a slave? Jpop J-pop pop Japanese Jrock J-rock rock 2nd album 貴方を不幸に誘いますね i'll i will put you in misery is not
BeatmapID:3517567
BeatmapSetID:1716912

[Difficulty]
HPDrainRate:7.5
CircleSize:2
OverallDifficulty:4
ApproachRate:10
SliderMultiplier:1.4
SliderTickRate:1

[Events]
//Background and Video events
0,0,"E806UZvVUAAjCsY.jpg",0,0
Video,-390,"tuyu.mp4"
//Break Periods
//Storyboard Layer 0 (Background)
//Storyboard Layer 1 (Fail)
//Storyboard Layer 2 (Pass)
//Storyboard Layer 3 (Foreground)
//Storyboard Layer 4 (Overlay)
//Storyboard Sound Samples

[TimingPoints]
473,512.820512820513,4,1,0,80,1,0
4511,-100,4,1,0,65,0,0
8678,-100,4,1,0,80,0,0
14831,512.820512820513,5,1,0,80,1,0
17139,512.820512820513,4,1,0,80,1,0
17139,-100,4,1,0,80,0,1
37139,-100,4,1,0,80,0,0
49831,-100,4,1,0,70,0,0
60087,-100,4,1,0,80,0,0
60215,-100,4,1,0,80,0,1
80215,-100,4,1,0,80,0,0
92908,-100,4,1,0,70,0,0
103164,-100,4,1,0,80,0,0
125856,512.820512820513,5,1,0,80,1,8
125856,-100,5,1,0,80,0,0
125857,512.820512820513,5,1,0,80,1,0
125857,-100,5,1,0,80,0,0
128421,512.820512820513,4,1,0,80,1,0
128421,-100,4,1,0,80,0,0
132523,-100,4,1,0,80,0,0
135601,512.820512820513,4,1,0,80,1,0
135601,-100,4,1,0,80,0,1
155601,-100,4,1,0,80,0,0
160344,-100,4,1,0,40,0,0
161242,-100,4,1,0,30,0,0
162267,-100,4,1,0,20,0,0
163293,-100,4,1,0,10,0,0

[HitObjects]
256,192,473,5,0,0:0:0:0:
256,192,1498,1,0,0:0:0:0:
256,192,2524,1,0,0:0:0:0:
256,192,3037,1,8,0:0:0:0:
256,192,3549,1,0,0:0:0:0:
256,192,4062,1,8,0:0:0:0:
256,192,4575,1,4,0:0:0:0:
256,192,5088,1,8,0:0:0:0:
256,192,5857,1,0,0:0:0:0:
256,192,6114,1,8,0:0:0:0:
256,192,6626,1,0,0:0:0:0:
256,192,7139,1,8,0:0:0:0:
256,192,7396,1,0,0:0:0:0:
256,192,7652,1,8,0:0:0:0:
256,192,7908,1,8,0:0:0:0:
256,192,8165,1,0,0:0:0:0:
256,192,8678,1,4,0:0:0:0:
256,192,9703,1,8,0:0:0:0:
256,192,10216,1,8,0:0:0:0:
256,192,10985,1,0,0:0:0:0:
256,192,11242,1,0,0:0:0:0:
256,192,11498,1,8,0:0:0:0:
256,192,12011,1,0,0:0:0:0:
256,192,12267,1,0,0:0:0:0:
256,192,12780,1,8,0:0:0:0:
256,192,13806,1,0,0:0:0:0:
256,192,14319,1,0,0:0:0:0:
256,192,15087,1,8,0:0:0:0:
256,192,15343,1,8,0:0:0:0:
256,192,15856,1,0,0:0:0:0:
256,192,16113,1,8,0:0:0:0:
256,192,16369,1,0,0:0:0:0:
256,192,17138,1,4,0:0:0:0:
256,192,17651,1,8,0:0:0:0:
256,192,18164,1,0,0:0:0:0:
256,192,18421,1,0,0:0:0:0:
256,192,18677,1,8,0:0:0:0:
256,192,19190,1,8,0:0:0:0:
256,192,19703,1,8,0:0:0:0:
256,192,19959,1,0,0:0:0:0:
256,192,20215,1,8,0:0:0:0:
256,192,20728,1,0,0:0:0:0:
256,192,20985,1,8,0:0:0:0:
256,192,21241,1,8,0:0:0:0:
256,192,22267,1,0,0:0:0:0:
256,192,22780,1,8,0:0:0:0:
256,192,23036,1,0,0:0:0:0:
256,192,23292,1,8,0:0:0:0:
256,192,24062,1,0,0:0:0:0:
256,192,24574,1,8,0:0:0:0:
256,192,24831,1,8,0:0:0:0:
256,192,25344,1,4,0:0:0:0:
256,192,25856,1,8,0:0:0:0:
256,192,26369,1,0,0:0:0:0:
256,192,26626,1,8,0:0:0:0:
256,192,26882,1,8,0:0:0:0:
256,192,27395,1,0,0:0:0:0:
256,192,27908,1,8,0:0:0:0:
256,192,28164,1,0,0:0:0:0:
256,192,28421,1,8,0:0:0:0:
256,192,28677,1,8,0:0:0:0:
256,192,28933,1,0,0:0:0:0:
256,192,29446,1,8,0:0:0:0:
256,192,30472,1,0,0:0:0:0:
256,192,30985,1,8,0:0:0:0:
256,192,31241,1,8,0:0:0:0:
256,192,31497,1,8,0:0:0:0:
256,192,32010,1,0,0:0:0:0:
256,192,32267,1,8,0:0:0:0:
256,192,32523,1,8,0:0:0:0:
256,192,33036,1,0,0:0:0:0:
256,192,33549,1,8,0:0:0:0:
256,192,34062,1,0,0:0:0:0:
256,192,34574,1,8,0:0:0:0:
256,192,35087,1,0,0:0:0:0:
256,192,35344,1,0,0:0:0:0:
256,192,35600,1,8,0:0:0:0:
256,192,35985,1,8,0:0:0:0:
256,192,36369,1,8,0:0:0:0:
256,192,37651,1,12,0:0:0:0:
256,192,38421,1,8,0:0:0:0:
256,192,38677,1,0,0:0:0:0:
256,192,39190,1,8,0:0:0:0:
256,192,39703,1,0,0:0:0:0:
256,192,40472,1,8,0:0:0:0:
256,192,40728,1,0,0:0:0:0:
256,192,40985,1,0,0:0:0:0:
256,192,41241,1,8,0:0:0:0:
256,192,41754,1,4,0:0:0:0:
256,192,42267,1,8,0:0:0:0:
256,192,43292,1,8,0:0:0:0:
256,192,43805,1,0,0:0:0:0:
256,192,44318,1,8,0:0:0:0:
256,192,44831,1,0,0:0:0:0:
256,192,45344,1,8,0:0:0:0:
256,192,45600,1,8,0:0:0:0:
256,192,45856,1,0,0:0:0:0:
256,192,46369,1,8,0:0:0:0:
256,192,47395,1,8,0:0:0:0:
256,192,47908,1,8,0:0:0:0:
256,192,48421,1,0,0:0:0:0:
256,192,48933,1,8,0:0:0:0:
256,192,49959,1,0,0:0:0:0:
256,192,50985,1,8,0:0:0:0:
256,192,51497,1,8,0:0:0:0:
256,192,52010,1,0,0:0:0:0:
256,192,53036,1,0,0:0:0:0:
256,192,53292,1,0,0:0:0:0:
256,192,53549,1,8,0:0:0:0:
256,192,54062,1,0,0:0:0:0:
256,192,55087,1,8,0:0:0:0:
256,192,55600,1,0,0:0:0:0:
256,192,56113,1,8,0:0:0:0:
256,192,57139,1,8,0:0:0:0:
256,192,57651,1,8,0:0:0:0:
256,192,58164,1,0,0:0:0:0:
256,192,58677,1,0,0:0:0:0:
256,192,59190,1,8,0:0:0:0:
256,192,59446,1,8,0:0:0:0:
256,192,59703,1,8,0:0:0:0:
256,192,60215,1,4,0:0:0:0:
256,192,60728,1,8,0:0:0:0:
256,192,61241,1,0,0:0:0:0:
256,192,61497,1,0,0:0:0:0:
256,192,61754,1,8,0:0:0:0:
256,192,62267,1,8,0:0:0:0:
256,192,62780,1,8,0:0:0:0:
256,192,63036,1,0,0:0:0:0:
256,192,63292,1,8,0:0:0:0:
256,192,63805,1,0,0:0:0:0:
256,192,64062,1,8,0:0:0:0:
256,192,64318,1,8,0:0:0:0:
256,192,65344,1,0,0:0:0:0:
256,192,65856,1,8,0:0:0:0:
256,192,66113,1,0,0:0:0:0:
256,192,66369,1,8,0:0:0:0:
256,192,67139,1,0,0:0:0:0:
256,192,67651,1,8,0:0:0:0:
256,192,67908,1,8,0:0:0:0:
256,192,68421,1,4,0:0:0:0:
256,192,68933,1,8,0:0:0:0:
256,192,69446,1,0,0:0:0:0:
256,192,69703,1,8,0:0:0:0:
256,192,69959,1,8,0:0:0:0:
256,192,70472,1,0,0:0:0:0:
256,192,70985,1,8,0:0:0:0:
256,192,71241,1,0,0:0:0:0:
256,192,71497,1,8,0:0:0:0:
256,192,71754,1,8,0:0:0:0:
256,192,72010,1,0,0:0:0:0:
256,192,72523,1,8,0:0:0:0:
256,192,73549,1,0,0:0:0:0:
256,192,74062,1,8,0:0:0:0:
256,192,74318,1,8,0:0:0:0:
256,192,74574,1,8,0:0:0:0:
256,192,75087,1,0,0:0:0:0:
256,192,75344,1,8,0:0:0:0:
256,192,75600,1,8,0:0:0:0:
256,192,76113,1,0,0:0:0:0:
256,192,76626,1,8,0:0:0:0:
256,192,77139,1,0,0:0:0:0:
256,192,77651,1,8,0:0:0:0:
256,192,78164,1,0,0:0:0:0:
256,192,78421,1,0,0:0:0:0:
256,192,78677,1,8,0:0:0:0:
256,192,79062,1,8,0:0:0:0:
256,192,79446,1,8,0:0:0:0:
256,192,80728,1,12,0:0:0:0:
256,192,81497,1,8,0:0:0:0:
256,192,81754,1,0,0:0:0:0:
256,192,82267,1,8,0:0:0:0:
256,192,82780,1,0,0:0:0:0:
256,192,83549,1,8,0:0:0:0:
256,192,83805,1,0,0:0:0:0:
256,192,84062,1,0,0:0:0:0:
256,192,84318,1,8,0:0:0:0:
256,192,84831,1,0,0:0:0:0:
256,192,85344,1,8,0:0:0:0:
256,192,86369,1,8,0:0:0:0:
256,192,86882,1,0,0:0:0:0:
256,192,87395,1,8,0:0:0:0:
256,192,87908,1,0,0:0:0:0:
256,192,88421,1,8,0:0:0:0:
256,192,88677,1,8,0:0:0:0:
256,192,88933,1,0,0:0:0:0:
256,192,89446,1,8,0:0:0:0:
256,192,90472,1,8,0:0:0:0:
256,192,90985,1,8,0:0:0:0:
256,192,91497,1,0,0:0:0:0:
256,192,92010,1,8,0:0:0:0:
256,192,93036,1,0,0:0:0:0:
256,192,94062,1,8,0:0:0:0:
256,192,94574,1,8,0:0:0:0:
256,192,95087,1,0,0:0:0:0:
256,192,96113,1,0,0:0:0:0:
256,192,96369,1,0,0:0:0:0:
256,192,96626,1,8,0:0:0:0:
256,192,97139,1,0,0:0:0:0:
256,192,98164,1,8,0:0:0:0:
256,192,98677,1,0,0:0:0:0:
256,192,99190,1,8,0:0:0:0:
256,192,100215,1,8,0:0:0:0:
256,192,100728,1,8,0:0:0:0:
256,192,101241,1,0,0:0:0:0:
256,192,101754,1,0,0:0:0:0:
256,192,102267,1,8,0:0:0:0:
256,192,102523,1,8,0:0:0:0:
256,192,102780,1,0,0:0:0:0:
256,192,103292,1,12,0:0:0:0:
256,192,103805,1,8,0:0:0:0:
256,192,104318,1,0,0:0:0:0:
256,192,104574,1,8,0:0:0:0:
256,192,104831,1,0,0:0:0:0:
256,192,105087,1,8,0:0:0:0:
256,192,105856,1,8,0:0:0:0:
256,192,106369,1,0,0:0:0:0:
256,192,106626,1,0,0:0:0:0:
256,192,106882,1,8,0:0:0:0:
256,192,107395,1,8,0:0:0:0:
256,192,107908,1,0,0:0:0:0:
256,192,108421,1,8,0:0:0:0:
256,192,108677,1,0,0:0:0:0:
256,192,108933,1,8,0:0:0:0:
256,192,109190,1,8,0:0:0:0:
256,192,109959,1,0,0:0:0:0:
256,192,110215,1,8,0:0:0:0:
256,192,110472,1,0,0:0:0:0:
256,192,110985,1,8,0:0:0:0:
256,192,111497,1,4,0:0:0:0:
256,192,112523,1,0,0:0:0:0:
256,192,113036,1,8,0:0:0:0:
256,192,113805,1,0,0:0:0:0:
256,192,114062,1,8,0:0:0:0:
256,192,114318,1,8,0:0:0:0:
256,192,114831,1,0,0:0:0:0:
256,192,115087,1,8,0:0:0:0:
256,192,115600,1,8,0:0:0:0:
256,192,116626,1,8,0:0:0:0:
256,192,117139,1,0,0:0:0:0:
256,192,117908,1,8,0:0:0:0:
256,192,118164,1,8,0:0:0:0:
256,192,118421,1,0,0:0:0:0:
256,192,118933,1,8,0:0:0:0:
256,192,119190,1,8,0:0:0:0:
256,192,119703,1,4,0:0:0:0:
256,192,120728,1,0,0:0:0:0:
256,192,121241,1,8,0:0:0:0:
256,192,122010,1,0,0:0:0:0:
256,192,122267,1,8,0:0:0:0:
256,192,122523,1,0,0:0:0:0:
256,192,123036,1,8,0:0:0:0:
256,192,123292,1,8,0:0:0:0:
256,192,123805,1,0,0:0:0:0:
256,192,124831,1,8,0:0:0:0:
256,192,125344,1,0,0:0:0:0:
256,192,126113,1,8,0:0:0:0:
256,192,126369,1,0,0:0:0:0:
256,192,126626,1,8,0:0:0:0:
256,192,127139,1,0,0:0:0:0:
256,192,127395,1,0,0:0:0:0:
256,192,127651,1,8,0:0:0:0:
256,192,128421,1,4,0:0:0:0:
256,192,128934,1,8,0:0:0:0:
256,192,129703,1,0,0:0:0:0:
256,192,129960,1,8,0:0:0:0:
256,192,130472,1,0,0:0:0:0:
256,192,130985,1,8,0:0:0:0:
256,192,131242,1,0,0:0:0:0:
256,192,131498,1,8,0:0:0:0:
256,192,131754,1,8,0:0:0:0:
256,192,132011,1,0,0:0:0:0:
256,192,132523,1,4,0:0:0:0:
256,192,133036,1,8,0:0:0:0:
256,192,133292,1,0,0:0:0:0:
256,192,133549,1,8,0:0:0:0:
256,192,133805,1,8,0:0:0:0:
256,192,134062,1,8,0:0:0:0:
256,192,134574,1,0,0:0:0:0:
256,192,135600,1,4,0:0:0:0:
256,192,136113,1,8,0:0:0:0:
256,192,136626,1,0,0:0:0:0:
256,192,136882,1,0,0:0:0:0:
256,192,137139,1,8,0:0:0:0:
256,192,137652,1,8,0:0:0:0:
256,192,138165,1,8,0:0:0:0:
256,192,138421,1,0,0:0:0:0:
256,192,138677,1,8,0:0:0:0:
256,192,139190,1,0,0:0:0:0:
256,192,139447,1,8,0:0:0:0:
256,192,139703,1,8,0:0:0:0:
256,192,140729,1,0,0:0:0:0:
256,192,141241,1,8,0:0:0:0:
256,192,141498,1,0,0:0:0:0:
256,192,141754,1,8,0:0:0:0:
256,192,142524,1,0,0:0:0:0:
256,192,143036,1,8,0:0:0:0:
256,192,143293,1,8,0:0:0:0:
256,192,143806,1,4,0:0:0:0:
256,192,144318,1,8,0:0:0:0:
256,192,144831,1,0,0:0:0:0:
256,192,145088,1,8,0:0:0:0:
256,192,145344,1,8,0:0:0:0:
256,192,145857,1,0,0:0:0:0:
256,192,146370,1,8,0:0:0:0:
256,192,146626,1,0,0:0:0:0:
256,192,146882,1,8,0:0:0:0:
256,192,147139,1,8,0:0:0:0:
256,192,147395,1,0,0:0:0:0:
256,192,147908,1,8,0:0:0:0:
256,192,148934,1,0,0:0:0:0:
256,192,149447,1,8,0:0:0:0:
256,192,149703,1,8,0:0:0:0:
256,192,149959,1,8,0:0:0:0:
256,192,150472,1,0,0:0:0:0:
256,192,150729,1,8,0:0:0:0:
256,192,150985,1,8,0:0:0:0:
256,192,151498,1,0,0:0:0:0:
256,192,152011,1,8,0:0:0:0:
256,192,152524,1,0,0:0:0:0:
256,192,153036,1,8,0:0:0:0:
256,192,153549,1,0,0:0:0:0:
256,192,153806,1,0,0:0:0:0:
256,192,154062,1,8,0:0:0:0:
256,192,154447,1,8,0:0:0:0:
256,192,154831,1,8,0:0:0:0:
256,192,156113,1,12,0:0:0:0:
256,192,157139,1,0,0:0:0:0:
256,192,157395,1,0,0:0:0:0:
256,192,157652,1,8,0:0:0:0:
256,192,158165,1,0,0:0:0:0:
256,192,159190,1,8,0:0:0:0:
256,192,159703,1,8,0:0:0:0:
256,192,160216,1,4,0:0:0:0:
256,192,160472,8,0,164318,0:0:0:0:
