osu file format v14

[General]
AudioFilename: audio.mp3
AudioLeadIn: 0
PreviewTime: 17139
Countdown: 0
SampleSet: Normal
StackLeniency: 0.7
Mode: 1
LetterboxInBreaks: 0
WidescreenStoryboard: 0

[Editor]
Bookmarks: 4570,17134,37646,60210,80723,103287,111492,156108
DistanceSpacing: 1
BeatDivisor: 8
GridSize: 32
TimelineZoom: 1.7

[Metadata]
Title:Dorei Janai nara Nan Desu ka?
TitleUnicode:奴隷じゃないなら何ですか?
Artist:TUYU
ArtistUnicode:ツユ
Creator:Faputa
Version:Dorei Oni
Source:
Tags:ぷす 礼衣 おむたつ Tsuyu Pusu Rei Omutatsu AzyuN miro What if this isn't a slave? Jpop J-pop pop Japanese Jrock J-rock rock 2nd album 貴方を不幸に誘いますね i'll i will put you in misery is not
BeatmapID:3508506
BeatmapSetID:1716912

[Difficulty]
HPDrainRate:6.5
CircleSize:2
OverallDifficulty:5.5
ApproachRate:10
SliderMultiplier:1.4
SliderTickRate:1

[Events]
//Background and Video events
0,0,"E806UZvVUAAjCsY.jpg",0,0
Video,-390,"tuyu.mp4"
//Break Periods
//Storyboard Layer 0 (Background)
//Storyboard Layer 1 (Fail)
//Storyboard Layer 2 (Pass)
//Storyboard Layer 3 (Foreground)
//Storyboard Layer 4 (Overlay)
//Storyboard Sound Samples

[TimingPoints]
473,512.820512820513,4,1,0,65,1,0
473,-100,4,1,0,65,0,0
985,-99.3788819875776,4,1,0,65,0,0
1498,-98.7654320987654,4,1,0,65,0,0
2011,-98.159509202454,4,1,0,65,0,0
2524,-97.5609756097561,4,1,0,65,0,0
3037,-96.969696969697,4,1,0,65,0,0
3293,-96.6767371601208,4,1,0,65,0,0
3549,-96.3855421686747,4,1,0,65,0,0
3806,-96.0960960960961,4,1,0,65,0,0
4062,-95.8083832335329,4,1,0,65,0,0
4319,-95.5223880597015,4,1,0,65,0,0
4511,-95.2380952380952,4,1,0,80,0,0
8678,-90.9090909090909,4,1,0,80,0,0
8934,-91.4454600986879,4,1,0,80,0,0
9190,-91.9881114564754,4,1,0,80,0,0
9447,-92.5373272443772,4,1,0,80,0,0
9703,-93.0930539548722,4,1,0,80,0,0
9960,-93.6555834649194,4,1,0,80,0,0
10216,-94.2249526519613,4,1,0,80,0,0
10344,-94.5121518999305,4,1,0,80,0,0
10473,-94.8011971495176,4,1,0,80,0,0
10985,-95.9752767687044,4,1,0,80,0,0
11114,-96.2732620269373,4,1,0,80,0,0
11242,-96.5731966886982,4,1,0,80,0,0
11498,-97.1787077564157,4,1,0,80,0,0
11626,-97.4843196471847,4,1,0,80,0,0
11755,-97.7917641732049,4,1,0,80,0,0
12011,-98.4127015369112,4,1,0,80,0,0
12139,-98.7261366586929,4,1,0,80,0,0
12267,-99.0415746818042,4,1,0,80,0,0
12524,-97.0873786407767,4,1,0,80,0,0
12652,-94.3396226415094,4,1,0,80,0,0
12780,-90.9090909090909,4,1,0,80,0,0
13037,-91.4634425193422,4,1,0,80,0,0
13293,-92.0245116489228,4,1,0,80,0,0
13549,-92.5925925925926,4,1,0,80,0,0
13806,-93.1677307974319,4,1,0,80,0,0
14062,-93.7499707031342,4,1,0,80,0,0
14319,-94.3396226415094,4,1,0,80,0,0
14447,-94.6371941207589,4,1,0,80,0,0
14575,-94.9367389040313,4,1,0,80,0,0
14831,512.820512820513,5,1,0,80,1,0
14831,-95.6937799043062,5,1,0,80,0,0
15088,-96.1538461538462,4,1,0,80,0,0
15216,-96.4629914909996,4,1,0,80,0,0
15344,-96.774224765879,4,1,0,80,0,0
15601,-97.4025657783878,4,1,0,80,0,0
15729,-97.7199015374272,4,1,0,80,0,0
15857,-98.0392156862745,4,1,0,80,0,0
16114,-98.6842429882379,4,1,0,80,0,0
16242,-99.0099009900991,4,1,0,80,0,0
16370,-99.3377154510876,4,1,0,80,0,0
16498,-99.6678071986071,4,1,0,80,0,0
16626,-100,4,1,0,80,0,0
17139,512.820512820513,4,1,0,80,1,0
17139,-90.9090909090909,4,1,0,80,0,1
37139,-100,4,1,0,80,0,0
49895,-100,4,1,0,70,0,0
58164,-100,4,1,0,70,0,0
58292,-99.3788819875776,4,1,0,70,0,0
58549,-98.159509202454,4,1,0,70,0,0
58677,-97.5609756097561,4,1,0,70,0,0
58933,-96.3855421686747,4,1,0,70,0,0
59062,-95.8083832335329,4,1,0,70,0,0
59190,-95.2380952380952,4,1,0,70,0,0
59318,-94.6745562130178,4,1,0,70,0,0
59446,-94.1176470588235,4,1,0,70,0,0
59574,-93.5672514619883,4,1,0,70,0,0
59703,-93.0232558139535,4,1,0,70,0,0
59767,-92.7536231884058,4,1,0,70,0,0
59831,-92.485549132948,4,1,0,70,0,0
59895,-92.2190201729107,4,1,0,70,0,0
59959,-91.9540229885058,4,1,0,70,0,0
60151,-90.9090909090909,4,1,0,80,0,0
60215,-90.9090909090909,4,1,0,80,0,1
80215,-100,4,1,0,80,0,0
92972,-100,4,1,0,70,0,0
101241,-100,4,1,0,70,0,0
101369,-99.3788819875776,4,1,0,70,0,0
101626,-98.159509202454,4,1,0,70,0,0
101754,-97.5609756097561,4,1,0,70,0,0
102010,-96.3855421686747,4,1,0,70,0,0
102139,-95.8083832335329,4,1,0,70,0,0
102267,-95.2380952380952,4,1,0,70,0,0
102395,-94.6745562130178,4,1,0,70,0,0
102523,-94.1176470588235,4,1,0,70,0,0
102651,-93.5672514619883,4,1,0,70,0,0
102780,-93.0232558139535,4,1,0,70,0,0
103228,-91.9540229885058,4,1,0,80,0,0
103292,-90.9090909090909,4,1,0,80,0,0
111497,-86.9565217391304,4,1,0,80,0,0
111754,-87.4457617662645,4,1,0,80,0,0
112010,-87.9406154611914,4,1,0,80,0,0
112267,-88.4410235456537,4,1,0,80,0,0
112523,-88.9471591611571,4,1,0,80,0,0
112780,-89.459201236684,4,1,0,80,0,0
113036,-89.9770918324195,4,1,0,80,0,0
113164,-90.2382922583667,4,1,0,80,0,0
113292,-90.5010136113524,4,1,0,80,0,0
113805,-91.5674609533455,4,1,0,80,0,0
113933,-91.8379904378284,4,1,0,80,0,0
114062,-92.1101231788677,4,1,0,80,0,0
114318,-92.6592557793894,4,1,0,80,0,0
114446,-92.9363711135171,4,1,0,80,0,0
114574,-93.2150620625883,4,1,0,80,0,0
114703,-93.4954294759301,4,1,0,80,0,0
114831,-93.7774885263243,4,1,0,80,0,0
114959,-94.0612545702012,4,1,0,80,0,0
115087,-94.3467431504264,4,1,0,80,0,0
115344,-92.5925925925926,4,1,0,80,0,0
115472,-90.0900900900901,4,1,0,80,0,0
115600,-86.9565217391304,4,1,0,80,0,0
115856,-87.4635823508986,4,1,0,80,0,0
116113,-87.9765137898787,4,1,0,80,0,0
116369,-88.495575221239,4,1,0,80,0,0
116626,-89.0207979290202,4,1,0,80,0,0
116882,-89.5522120739665,4,1,0,80,0,0
117139,-90.0900900900901,4,1,0,80,0,0
117267,-90.3614185658378,4,1,0,80,0,0
117395,-90.6344684696279,4,1,0,80,0,0
117908,-91.743119266055,4,1,0,80,0,0
118036,-92.0245116489228,4,1,0,80,0,0
118164,-92.3077207100679,4,1,0,80,0,0
118421,-92.8792282107653,4,1,0,80,0,0
118549,-93.1677307974319,4,1,0,80,0,0
118677,-93.4579439252336,4,1,0,80,0,0
118933,-94.043916628187,4,1,0,80,0,0
119062,-94.3396226415094,4,1,0,80,0,0
119190,-94.6371941207589,4,1,0,80,0,0
119318,-94.9367389040313,4,1,0,80,0,0
119446,-95.2380952380952,4,1,0,80,0,0
119703,-86.9565217391304,4,1,0,80,0,0
119959,-87.4635823508986,4,1,0,80,0,0
120215,-87.9765137898787,4,1,0,80,0,0
120472,-88.495575221239,4,1,0,80,0,0
120728,-89.0207979290202,4,1,0,80,0,0
120985,-89.5522120739665,4,1,0,80,0,0
121113,-89.8203861737683,4,1,0,80,0,0
121241,-90.0900900900901,4,1,0,80,0,0
121369,-90.3614185658378,4,1,0,80,0,0
121497,-90.6344684696279,4,1,0,80,0,0
122010,-91.743119266055,4,1,0,80,0,0
122139,-92.0245116489228,4,1,0,80,0,0
122267,-92.3077207100679,4,1,0,80,0,0
122523,-92.8792282107653,4,1,0,80,0,0
122651,-93.1677307974319,4,1,0,80,0,0
122780,-93.4579439252336,4,1,0,80,0,0
122908,-93.7499707031342,4,1,0,80,0,0
123036,-94.043916628187,4,1,0,80,0,0
123164,-94.3396226415094,4,1,0,80,0,0
123292,-94.6371941207589,4,1,0,80,0,0
123549,-92.5925925925926,4,1,0,80,0,0
123805,-86.9565217391304,4,1,0,80,0,0
124062,-87.4967954298674,4,1,0,80,0,0
124318,-88.0437471770974,4,1,0,80,0,0
124574,-88.5976585410801,4,1,0,80,0,0
124831,-89.1585042056066,4,1,0,80,0,0
125087,-89.7265762043325,4,1,0,80,0,0
125215,-90.0132949636661,4,1,0,80,0,0
125344,-90.3019335450011,4,1,0,80,0,0
125472,-90.5923471208846,4,1,0,80,0,0
125600,-90.8846346801224,4,1,0,80,0,0
125856,512.820512820513,5,1,0,80,1,8
125856,-91.324200913242,5,1,0,80,0,0
125857,512.820512820513,5,1,0,80,1,0
125857,-91.324200913242,5,1,0,80,0,0
126113,-91.743119266055,5,1,0,80,0,0
126241,-92.0011444942375,5,1,0,80,0,0
126369,-92.2607103152087,5,1,0,80,0,0
126626,-92.7840886422069,5,1,0,80,0,0
126754,-93.0480974920746,5,1,0,80,0,0
126882,-93.3135259822182,5,1,0,80,0,0
127010,-93.580473124156,5,1,0,80,0,0
127139,-93.8490400650937,5,1,0,80,0,0
127267,-94.1190643812048,5,1,0,80,0,0
127395,-94.3906470195681,5,1,0,80,0,0
127651,-94.9386316684895,5,1,0,80,0,0
127780,-95.2149716021347,5,1,0,80,0,0
128421,512.820512820513,4,1,0,80,1,0
128421,-95.2380952380952,4,1,0,80,0,0
132523,-90.9090909090909,4,1,0,80,0,0
135601,512.820512820513,4,1,0,80,1,0
135601,-83.3333333333333,4,1,0,80,0,1
155601,-95.2380952380952,4,1,0,80,0,0
160344,-95.2380952380952,4,1,0,40,0,0
161242,-95.2380952380952,4,1,0,30,0,0
162267,-95.2380952380952,4,1,0,20,0,0
163293,-95.2380952380952,4,1,0,10,0,0

[HitObjects]
256,192,473,5,0,0:0:0:0:
256,192,985,1,0,0:0:0:0:
256,192,1498,1,8,0:0:0:0:
256,192,2011,1,8,0:0:0:0:
256,192,2524,1,0,0:0:0:0:
256,192,3037,1,8,0:0:0:0:
256,192,3293,1,8,0:0:0:0:
256,192,3549,1,0,0:0:0:0:
256,192,3806,1,0,0:0:0:0:
256,192,4062,1,8,0:0:0:0:
256,192,4319,1,8,0:0:0:0:
256,192,4575,1,4,0:0:0:0:
256,192,4831,1,8,0:0:0:0:
256,192,4960,1,0,0:0:0:0:
256,192,5088,1,8,0:0:0:0:
256,192,5344,1,8,0:0:0:0:
256,192,5473,1,8,0:0:0:0:
256,192,5729,1,0,0:0:0:0:
256,192,5857,1,8,0:0:0:0:
256,192,5985,1,8,0:0:0:0:
256,192,6114,1,0,0:0:0:0:
256,192,6370,1,8,0:0:0:0:
256,192,6498,1,8,0:0:0:0:
256,192,6626,1,0,0:0:0:0:
256,192,6883,1,0,0:0:0:0:
256,192,7139,1,8,0:0:0:0:
256,192,7396,1,8,0:0:0:0:
256,192,7524,1,0,0:0:0:0:
256,192,7652,1,8,0:0:0:0:
256,192,7780,1,8,0:0:0:0:
256,192,7908,1,0,0:0:0:0:
256,192,8165,1,8,0:0:0:0:
256,192,8678,1,4,0:0:0:0:
256,192,8934,1,8,0:0:0:0:
256,192,9190,1,0,0:0:0:0:
256,192,9447,1,8,0:0:0:0:
256,192,9703,1,0,0:0:0:0:
256,192,9960,1,8,0:0:0:0:
256,192,10216,1,8,0:0:0:0:
256,192,10344,1,8,0:0:0:0:
256,192,10473,1,0,0:0:0:0:
256,192,10985,1,0,0:0:0:0:
256,192,11114,1,0,0:0:0:0:
256,192,11242,1,8,0:0:0:0:
256,192,11498,1,8,0:0:0:0:
256,192,11626,1,8,0:0:0:0:
256,192,11755,1,8,0:0:0:0:
256,192,12011,1,0,0:0:0:0:
256,192,12139,1,0,0:0:0:0:
256,192,12267,1,8,0:0:0:0:
256,192,12524,1,8,0:0:0:0:
256,192,12652,1,0,0:0:0:0:
256,192,12780,1,8,0:0:0:0:
256,192,13037,1,0,0:0:0:0:
256,192,13293,1,8,0:0:0:0:
256,192,13549,1,0,0:0:0:0:
256,192,13806,1,8,0:0:0:0:
256,192,14062,1,0,0:0:0:0:
256,192,14319,1,8,0:0:0:0:
256,192,14447,1,8,0:0:0:0:
256,192,14575,1,0,0:0:0:0:
256,192,15088,1,0,0:0:0:0:
256,192,15216,1,0,0:0:0:0:
256,192,15344,1,8,0:0:0:0:
256,192,15601,1,8,0:0:0:0:
256,192,15729,1,0,0:0:0:0:
256,192,15857,1,8,0:0:0:0:
256,192,16114,1,8,0:0:0:0:
256,192,16242,1,8,0:0:0:0:
256,192,16370,1,0,0:0:0:0:
256,192,16498,1,0,0:0:0:0:
256,192,16626,1,8,0:0:0:0:
256,192,16755,1,8,0:0:0:0:
256,192,17139,1,4,0:0:0:0:
256,192,17396,1,8,0:0:0:0:
256,192,17524,1,0,0:0:0:0:
256,192,17652,1,8,0:0:0:0:
256,192,17908,1,0,0:0:0:0:
256,192,18037,1,0,0:0:0:0:
256,192,18165,1,8,0:0:0:0:
256,192,18293,1,0,0:0:0:0:
256,192,18421,1,8,0:0:0:0:
256,192,18678,1,8,0:0:0:0:
256,192,18806,1,8,0:0:0:0:
256,192,18934,1,0,0:0:0:0:
256,192,19062,1,0,0:0:0:0:
256,192,19190,1,8,0:0:0:0:
256,192,19447,1,8,0:0:0:0:
256,192,19575,1,8,0:0:0:0:
256,192,19703,1,8,0:0:0:0:
256,192,19960,1,0,0:0:0:0:
256,192,20088,1,0,0:0:0:0:
256,192,20216,1,8,0:0:0:0:
256,192,20473,1,8,0:0:0:0:
256,192,20601,1,0,0:0:0:0:
256,192,20729,1,8,0:0:0:0:
256,192,20857,1,8,0:0:0:0:
256,192,20985,1,0,0:0:0:0:
256,192,21114,1,0,0:0:0:0:
256,192,21242,1,8,0:0:0:0:
256,192,21498,1,0,0:0:0:0:
256,192,21755,1,8,0:0:0:0:
256,192,22011,1,0,0:0:0:0:
256,192,22139,1,0,0:0:0:0:
256,192,22267,1,0,0:0:0:0:
256,192,22396,1,0,0:0:0:0:
256,192,22524,1,8,0:0:0:0:
256,192,22780,1,8,0:0:0:0:
256,192,22908,1,8,0:0:0:0:
256,192,23037,1,0,0:0:0:0:
256,192,23165,1,0,0:0:0:0:
256,192,23293,1,8,0:0:0:0:
256,192,23549,1,0,0:0:0:0:
256,192,23678,1,0,0:0:0:0:
256,192,23806,1,8,0:0:0:0:
256,192,24062,1,0,0:0:0:0:
256,192,24190,1,8,0:0:0:0:
256,192,24447,1,8,0:0:0:0:
256,192,24575,1,0,0:0:0:0:
256,192,24703,1,8,0:0:0:0:
256,192,24831,1,0,0:0:0:0:
256,192,25088,1,8,0:0:0:0:
256,192,25344,1,4,0:0:0:0:
256,192,25601,1,8,0:0:0:0:
256,192,25729,1,0,0:0:0:0:
256,192,25857,1,8,0:0:0:0:
256,192,26114,1,0,0:0:0:0:
256,192,26242,1,0,0:0:0:0:
256,192,26370,1,8,0:0:0:0:
256,192,26498,1,0,0:0:0:0:
256,192,26626,1,8,0:0:0:0:
256,192,26883,1,8,0:0:0:0:
256,192,27139,1,0,0:0:0:0:
256,192,27267,1,0,0:0:0:0:
256,192,27396,1,8,0:0:0:0:
256,192,27652,1,8,0:0:0:0:
256,192,27780,1,0,0:0:0:0:
256,192,27908,1,8,0:0:0:0:
256,192,28165,1,8,0:0:0:0:
256,192,28293,1,8,0:0:0:0:
256,192,28421,1,8,0:0:0:0:
256,192,28678,1,8,0:0:0:0:
256,192,28806,1,0,0:0:0:0:
256,192,28934,1,8,0:0:0:0:
256,192,29062,1,8,0:0:0:0:
256,192,29190,1,0,0:0:0:0:
256,192,29319,1,0,0:0:0:0:
256,192,29447,1,8,0:0:0:0:
256,192,29703,1,0,0:0:0:0:
256,192,29831,1,0,0:0:0:0:
256,192,29959,1,8,0:0:0:0:
256,192,30087,1,0,0:0:0:0:
256,192,30216,1,8,0:0:0:0:
256,192,30408,1,8,0:0:0:0:
256,192,30985,1,8,0:0:0:0:
256,192,31242,1,0,0:0:0:0:
256,192,31369,1,0,0:0:0:0:
256,192,31498,1,8,0:0:0:0:
256,192,31755,1,8,0:0:0:0:
256,192,31883,1,0,0:0:0:0:
256,192,32011,1,8,0:0:0:0:
256,192,32267,1,0,0:0:0:0:
256,192,32396,1,8,0:0:0:0:
256,192,32524,1,0,0:0:0:0:
256,192,32652,1,0,0:0:0:0:
256,192,32780,1,8,0:0:0:0:
256,192,32908,1,8,0:0:0:0:
256,192,33037,1,0,0:0:0:0:
256,192,33293,1,8,0:0:0:0:
256,192,33421,1,0,0:0:0:0:
256,192,33549,1,8,0:0:0:0:
256,192,34062,1,8,0:0:0:0:
256,192,34190,1,8,0:0:0:0:
256,192,34319,1,8,0:0:0:0:
256,192,34575,1,8,0:0:0:0:
256,192,34703,1,0,0:0:0:0:
256,192,34831,1,0,0:0:0:0:
256,192,34960,1,8,0:0:0:0:
256,192,35216,1,8,0:0:0:0:
256,192,35344,1,0,0:0:0:0:
256,192,35473,1,0,0:0:0:0:
256,192,35601,1,8,0:0:0:0:
256,192,35729,1,0,0:0:0:0:
256,192,35857,1,8,0:0:0:0:
256,192,35985,1,0,0:0:0:0:
256,192,36114,1,8,0:0:0:0:
256,192,36242,1,0,0:0:0:0:
256,192,36370,1,8,0:0:0:0:
256,192,36498,1,0,0:0:0:0:
256,192,37652,1,12,0:0:0:0:
256,192,37908,1,0,0:0:0:0:
256,192,38036,1,8,0:0:0:0:
256,192,38164,1,8,0:0:0:0:
256,192,38292,1,8,0:0:0:0:
256,192,38421,1,0,0:0:0:0:
256,192,38677,1,8,0:0:0:0:
256,192,38805,1,0,0:0:0:0:
256,192,38933,1,8,0:0:0:0:
256,192,39062,1,8,0:0:0:0:
256,192,39190,1,0,0:0:0:0:
256,192,39318,1,0,0:0:0:0:
256,192,39446,1,8,0:0:0:0:
256,192,39574,1,8,0:0:0:0:
256,192,39703,1,0,0:0:0:0:
256,192,39831,1,0,0:0:0:0:
256,192,40087,1,8,0:0:0:0:
256,192,40215,1,0,0:0:0:0:
256,192,40344,1,8,0:0:0:0:
256,192,40472,1,0,0:0:0:0:
256,192,40600,1,8,0:0:0:0:
256,192,40728,1,8,0:0:0:0:
256,192,40985,1,0,0:0:0:0:
256,192,41113,1,0,0:0:0:0:
256,192,41241,1,8,0:0:0:0:
256,192,41497,1,0,0:0:0:0:
256,192,41754,1,4,0:0:0:0:
256,192,42267,1,8,0:0:0:0:
256,192,42395,1,0,0:0:0:0:
256,192,42780,1,0,0:0:0:0:
256,192,42908,1,8,0:0:0:0:
256,192,43292,1,8,0:0:0:0:
256,192,43421,1,8,0:0:0:0:
256,192,43549,1,0,0:0:0:0:
256,192,43677,1,8,0:0:0:0:
256,192,43805,1,0,0:0:0:0:
256,192,44062,1,0,0:0:0:0:
256,192,44318,1,8,0:0:0:0:
256,192,44446,1,0,0:0:0:0:
256,192,44574,1,8,0:0:0:0:
256,192,44703,1,8,0:0:0:0:
256,192,44959,1,8,0:0:0:0:
256,192,45215,1,0,0:0:0:0:
256,192,45344,1,8,0:0:0:0:
256,192,45472,1,8,0:0:0:0:
256,192,45600,1,0,0:0:0:0:
256,192,45728,1,8,0:0:0:0:
256,192,45856,1,0,0:0:0:0:
256,192,45985,1,0,0:0:0:0:
256,192,46113,1,8,0:0:0:0:
256,192,46369,1,8,0:0:0:0:
256,192,46497,1,8,0:0:0:0:
256,192,46882,1,0,0:0:0:0:
256,192,47010,1,8,0:0:0:0:
256,192,47267,1,0,0:0:0:0:
256,192,47395,1,8,0:0:0:0:
256,192,47523,1,0,0:0:0:0:
256,192,47651,1,8,0:0:0:0:
256,192,47908,1,8,0:0:0:0:
256,192,48164,1,8,0:0:0:0:
256,192,48421,1,0,0:0:0:0:
256,192,48677,1,8,0:0:0:0:
256,192,48933,1,0,0:0:0:0:
256,192,49190,1,8,0:0:0:0:
256,192,49318,1,8,0:0:0:0:
256,192,49446,1,0,0:0:0:0:
256,192,49574,1,0,0:0:0:0:
256,192,49703,1,8,0:0:0:0:
256,192,49831,1,0,0:0:0:0:
256,192,49959,1,8,0:0:0:0:
256,192,50344,1,0,0:0:0:0:
256,192,50472,1,8,0:0:0:0:
256,192,50600,1,8,0:0:0:0:
256,192,50728,1,0,0:0:0:0:
256,192,50985,1,8,0:0:0:0:
256,192,51113,1,0,0:0:0:0:
256,192,51241,1,0,0:0:0:0:
256,192,51369,1,8,0:0:0:0:
256,192,51626,1,0,0:0:0:0:
256,192,51754,1,8,0:0:0:0:
256,192,52010,1,0,0:0:0:0:
256,192,52139,1,0,0:0:0:0:
256,192,52523,1,8,0:0:0:0:
256,192,52780,1,0,0:0:0:0:
256,192,52908,1,0,0:0:0:0:
256,192,53036,1,8,0:0:0:0:
256,192,53164,1,8,0:0:0:0:
256,192,53292,1,0,0:0:0:0:
256,192,53549,1,0,0:0:0:0:
256,192,53805,1,8,0:0:0:0:
256,192,54062,1,0,0:0:0:0:
256,192,54318,1,8,0:0:0:0:
256,192,54446,1,8,0:0:0:0:
256,192,54574,1,0,0:0:0:0:
256,192,54703,1,8,0:0:0:0:
256,192,54831,1,0,0:0:0:0:
256,192,54959,1,8,0:0:0:0:
256,192,55215,1,8,0:0:0:0:
256,192,55472,1,0,0:0:0:0:
256,192,55600,1,8,0:0:0:0:
256,192,55728,1,8,0:0:0:0:
256,192,55856,1,0,0:0:0:0:
256,192,55985,1,8,0:0:0:0:
256,192,56113,1,0,0:0:0:0:
256,192,56241,1,0,0:0:0:0:
256,192,56497,1,8,0:0:0:0:
256,192,56882,1,0,0:0:0:0:
256,192,57139,1,8,0:0:0:0:
256,192,57395,1,0,0:0:0:0:
256,192,57651,1,8,0:0:0:0:
256,192,57908,1,8,0:0:0:0:
256,192,58164,1,0,0:0:0:0:
256,192,58292,1,0,0:0:0:0:
256,192,58549,1,0,0:0:0:0:
256,192,58677,1,8,0:0:0:0:
256,192,58933,1,0,0:0:0:0:
256,192,59062,1,0,0:0:0:0:
256,192,59190,1,8,0:0:0:0:
256,192,59318,1,8,0:0:0:0:
256,192,59446,1,0,0:0:0:0:
256,192,59574,1,0,0:0:0:0:
256,192,59703,1,8,0:0:0:0:
256,192,59767,1,8,0:0:0:0:
256,192,59831,1,0,0:0:0:0:
256,192,59895,1,0,0:0:0:0:
256,192,59959,1,8,0:0:0:0:
256,192,60215,1,4,0:0:0:0:
256,192,60472,1,8,0:0:0:0:
256,192,60600,1,0,0:0:0:0:
256,192,60728,1,8,0:0:0:0:
256,192,60984,1,0,0:0:0:0:
256,192,61113,1,0,0:0:0:0:
256,192,61241,1,8,0:0:0:0:
256,192,61369,1,0,0:0:0:0:
256,192,61497,1,8,0:0:0:0:
256,192,61754,1,8,0:0:0:0:
256,192,61882,1,8,0:0:0:0:
256,192,62010,1,0,0:0:0:0:
256,192,62138,1,0,0:0:0:0:
256,192,62266,1,8,0:0:0:0:
256,192,62523,1,8,0:0:0:0:
256,192,62651,1,8,0:0:0:0:
256,192,62779,1,8,0:0:0:0:
256,192,63036,1,0,0:0:0:0:
256,192,63164,1,0,0:0:0:0:
256,192,63292,1,8,0:0:0:0:
256,192,63549,1,8,0:0:0:0:
256,192,63677,1,0,0:0:0:0:
256,192,63805,1,8,0:0:0:0:
256,192,63933,1,8,0:0:0:0:
256,192,64061,1,0,0:0:0:0:
256,192,64190,1,0,0:0:0:0:
256,192,64318,1,8,0:0:0:0:
256,192,64574,1,0,0:0:0:0:
256,192,64831,1,8,0:0:0:0:
256,192,65087,1,0,0:0:0:0:
256,192,65215,1,0,0:0:0:0:
256,192,65343,1,0,0:0:0:0:
256,192,65472,1,0,0:0:0:0:
256,192,65600,1,8,0:0:0:0:
256,192,65856,1,8,0:0:0:0:
256,192,65984,1,8,0:0:0:0:
256,192,66113,1,0,0:0:0:0:
256,192,66241,1,0,0:0:0:0:
256,192,66369,1,8,0:0:0:0:
256,192,66625,1,0,0:0:0:0:
256,192,66754,1,0,0:0:0:0:
256,192,66882,1,8,0:0:0:0:
256,192,67138,1,0,0:0:0:0:
256,192,67266,1,8,0:0:0:0:
256,192,67523,1,8,0:0:0:0:
256,192,67651,1,0,0:0:0:0:
256,192,67779,1,8,0:0:0:0:
256,192,67907,1,0,0:0:0:0:
256,192,68164,1,8,0:0:0:0:
256,192,68420,1,4,0:0:0:0:
256,192,68677,1,8,0:0:0:0:
256,192,68805,1,0,0:0:0:0:
256,192,68933,1,8,0:0:0:0:
256,192,69190,1,0,0:0:0:0:
256,192,69318,1,0,0:0:0:0:
256,192,69446,1,8,0:0:0:0:
256,192,69574,1,0,0:0:0:0:
256,192,69702,1,8,0:0:0:0:
256,192,69959,1,8,0:0:0:0:
256,192,70215,1,0,0:0:0:0:
256,192,70343,1,0,0:0:0:0:
256,192,70472,1,8,0:0:0:0:
256,192,70728,1,8,0:0:0:0:
256,192,70856,1,0,0:0:0:0:
256,192,70984,1,8,0:0:0:0:
256,192,71241,1,8,0:0:0:0:
256,192,71369,1,8,0:0:0:0:
256,192,71497,1,8,0:0:0:0:
256,192,71754,1,8,0:0:0:0:
256,192,71882,1,0,0:0:0:0:
256,192,72010,1,8,0:0:0:0:
256,192,72138,1,8,0:0:0:0:
256,192,72266,1,0,0:0:0:0:
256,192,72395,1,0,0:0:0:0:
256,192,72523,1,8,0:0:0:0:
256,192,72779,1,0,0:0:0:0:
256,192,72907,1,0,0:0:0:0:
256,192,73036,1,8,0:0:0:0:
256,192,73164,1,0,0:0:0:0:
256,192,73292,1,8,0:0:0:0:
256,192,73485,1,8,0:0:0:0:
256,192,74061,1,0,0:0:0:0:
256,192,74318,1,8,0:0:0:0:
256,192,74446,1,0,0:0:0:0:
256,192,74574,1,8,0:0:0:0:
256,192,74831,1,0,0:0:0:0:
256,192,74959,1,0,0:0:0:0:
256,192,75087,1,8,0:0:0:0:
256,192,75343,1,0,0:0:0:0:
256,192,75472,1,8,0:0:0:0:
256,192,75600,1,0,0:0:0:0:
256,192,75728,1,0,0:0:0:0:
256,192,75856,1,8,0:0:0:0:
256,192,75984,1,8,0:0:0:0:
256,192,76113,1,0,0:0:0:0:
256,192,76369,1,8,0:0:0:0:
256,192,76497,1,0,0:0:0:0:
256,192,76625,1,8,0:0:0:0:
256,192,77138,1,8,0:0:0:0:
256,192,77266,1,8,0:0:0:0:
256,192,77395,1,8,0:0:0:0:
256,192,77651,1,8,0:0:0:0:
256,192,77779,1,0,0:0:0:0:
256,192,77907,1,0,0:0:0:0:
256,192,78036,1,8,0:0:0:0:
256,192,78292,1,8,0:0:0:0:
256,192,78420,1,0,0:0:0:0:
256,192,78549,1,0,0:0:0:0:
256,192,78677,1,8,0:0:0:0:
256,192,78805,1,0,0:0:0:0:
256,192,78933,1,8,0:0:0:0:
256,192,79061,1,0,0:0:0:0:
256,192,79190,1,8,0:0:0:0:
256,192,79318,1,0,0:0:0:0:
256,192,79446,1,8,0:0:0:0:
256,192,79574,1,0,0:0:0:0:
256,192,80728,1,12,0:0:0:0:
256,192,80984,1,0,0:0:0:0:
256,192,81112,1,8,0:0:0:0:
256,192,81240,1,8,0:0:0:0:
256,192,81368,1,8,0:0:0:0:
256,192,81497,1,0,0:0:0:0:
256,192,81753,1,8,0:0:0:0:
256,192,81881,1,0,0:0:0:0:
256,192,82009,1,8,0:0:0:0:
256,192,82138,1,8,0:0:0:0:
256,192,82266,1,0,0:0:0:0:
256,192,82394,1,0,0:0:0:0:
256,192,82522,1,8,0:0:0:0:
256,192,82650,1,8,0:0:0:0:
256,192,82779,1,0,0:0:0:0:
256,192,82907,1,0,0:0:0:0:
256,192,83163,1,8,0:0:0:0:
256,192,83291,1,0,0:0:0:0:
256,192,83420,1,8,0:0:0:0:
256,192,83548,1,0,0:0:0:0:
256,192,83676,1,8,0:0:0:0:
256,192,83804,1,8,0:0:0:0:
256,192,84061,1,0,0:0:0:0:
256,192,84189,1,0,0:0:0:0:
256,192,84317,1,8,0:0:0:0:
256,192,84573,1,8,0:0:0:0:
256,192,84830,1,0,0:0:0:0:
256,192,84959,1,0,0:0:0:0:
256,192,85343,1,8,0:0:0:0:
256,192,85471,1,0,0:0:0:0:
256,192,85856,1,0,0:0:0:0:
256,192,85984,1,8,0:0:0:0:
256,192,86368,1,8,0:0:0:0:
256,192,86497,1,8,0:0:0:0:
256,192,86625,1,0,0:0:0:0:
256,192,86753,1,8,0:0:0:0:
256,192,86881,1,0,0:0:0:0:
256,192,87010,1,0,0:0:0:0:
256,192,87138,1,0,0:0:0:0:
256,192,87267,1,0,0:0:0:0:
256,192,87394,1,8,0:0:0:0:
256,192,87650,1,0,0:0:0:0:
256,192,87779,1,8,0:0:0:0:
256,192,88035,1,8,0:0:0:0:
256,192,88291,1,0,0:0:0:0:
256,192,88420,1,8,0:0:0:0:
256,192,88548,1,8,0:0:0:0:
256,192,88676,1,0,0:0:0:0:
256,192,88804,1,8,0:0:0:0:
256,192,88932,1,0,0:0:0:0:
256,192,89061,1,0,0:0:0:0:
256,192,89189,1,8,0:0:0:0:
256,192,89445,1,8,0:0:0:0:
256,192,89573,1,8,0:0:0:0:
256,192,89958,1,0,0:0:0:0:
256,192,90086,1,8,0:0:0:0:
256,192,90343,1,0,0:0:0:0:
256,192,90471,1,8,0:0:0:0:
256,192,90599,1,0,0:0:0:0:
256,192,90727,1,8,0:0:0:0:
256,192,90856,1,8,0:0:0:0:
256,192,90985,1,0,0:0:0:0:
256,192,91240,1,8,0:0:0:0:
256,192,91497,1,0,0:0:0:0:
256,192,91753,1,8,0:0:0:0:
256,192,92009,1,0,0:0:0:0:
256,192,92139,1,0,0:0:0:0:
256,192,92266,1,8,0:0:0:0:
256,192,92394,1,8,0:0:0:0:
256,192,92522,1,0,0:0:0:0:
256,192,92650,1,0,0:0:0:0:
256,192,92779,1,8,0:0:0:0:
256,192,93035,1,8,0:0:0:0:
256,192,93164,1,0,0:0:0:0:
256,192,93292,1,8,0:0:0:0:
256,192,93421,1,0,0:0:0:0:
256,192,93549,1,8,0:0:0:0:
256,192,93805,1,8,0:0:0:0:
256,192,93933,1,8,0:0:0:0:
256,192,94189,1,0,0:0:0:0:
256,192,94317,1,8,0:0:0:0:
256,192,94446,1,0,0:0:0:0:
256,192,94574,1,8,0:0:0:0:
256,192,94703,1,8,0:0:0:0:
256,192,94830,1,8,0:0:0:0:
256,192,95086,1,0,0:0:0:0:
256,192,95215,1,0,0:0:0:0:
256,192,95599,1,8,0:0:0:0:
256,192,95856,1,0,0:0:0:0:
256,192,95984,1,0,0:0:0:0:
256,192,96112,1,8,0:0:0:0:
256,192,96240,1,8,0:0:0:0:
256,192,96368,1,0,0:0:0:0:
256,192,96625,1,0,0:0:0:0:
256,192,96797,1,8,0:0:0:0:
256,192,96968,1,8,0:0:0:0:
256,192,97138,1,0,0:0:0:0:
256,192,97394,1,8,0:0:0:0:
256,192,97522,1,8,0:0:0:0:
256,192,97650,1,0,0:0:0:0:
256,192,97779,1,8,0:0:0:0:
256,192,97907,1,0,0:0:0:0:
256,192,98035,1,8,0:0:0:0:
256,192,98291,1,8,0:0:0:0:
256,192,98548,1,0,0:0:0:0:
256,192,98676,1,8,0:0:0:0:
256,192,98804,1,8,0:0:0:0:
256,192,98932,1,0,0:0:0:0:
256,192,99061,1,8,0:0:0:0:
256,192,99189,1,0,0:0:0:0:
256,192,99317,1,0,0:0:0:0:
256,192,99573,1,8,0:0:0:0:
256,192,99958,1,0,0:0:0:0:
256,192,100215,1,8,0:0:0:0:
256,192,100471,1,0,0:0:0:0:
256,192,100727,1,8,0:0:0:0:
256,192,100984,1,8,0:0:0:0:
256,192,101241,1,0,0:0:0:0:
256,192,101369,1,0,0:0:0:0:
256,192,101626,1,0,0:0:0:0:
256,192,101754,1,8,0:0:0:0:
256,192,102010,1,0,0:0:0:0:
256,192,102139,1,0,0:0:0:0:
256,192,102267,1,8,0:0:0:0:
256,192,102395,1,8,0:0:0:0:
256,192,102523,1,0,0:0:0:0:
256,192,102651,1,0,0:0:0:0:
256,192,102780,1,8,0:0:0:0:
256,192,103292,1,12,0:0:0:0:
256,192,103549,1,0,0:0:0:0:
256,192,103677,1,0,0:0:0:0:
256,192,103805,1,8,0:0:0:0:
256,192,103933,1,0,0:0:0:0:
256,192,104062,1,8,0:0:0:0:
256,192,104190,1,8,0:0:0:0:
256,192,104318,1,0,0:0:0:0:
256,192,104446,1,8,0:0:0:0:
256,192,104574,1,0,0:0:0:0:
256,192,104703,1,0,0:0:0:0:
256,192,104831,1,8,0:0:0:0:
256,192,104959,1,8,0:0:0:0:
256,192,105087,1,8,0:0:0:0:
256,192,105600,1,0,0:0:0:0:
256,192,105728,1,8,0:0:0:0:
256,192,105856,1,8,0:0:0:0:
256,192,106113,1,8,0:0:0:0:
256,192,106241,1,0,0:0:0:0:
256,192,106369,1,8,0:0:0:0:
256,192,106626,1,0,0:0:0:0:
256,192,106754,1,8,0:0:0:0:
256,192,106882,1,8,0:0:0:0:
256,192,107139,1,8,0:0:0:0:
256,192,107267,1,8,0:0:0:0:
256,192,107395,1,8,0:0:0:0:
256,192,107523,1,0,0:0:0:0:
256,192,107651,1,8,0:0:0:0:
256,192,107780,1,8,0:0:0:0:
256,192,107908,1,0,0:0:0:0:
256,192,108036,1,8,0:0:0:0:
256,192,108164,1,8,0:0:0:0:
256,192,108292,1,8,0:0:0:0:
256,192,108591,1,0,0:0:0:0:
256,192,108677,1,8,0:0:0:0:
256,192,108805,1,0,0:0:0:0:
256,192,108933,1,8,0:0:0:0:
256,192,109062,1,8,0:0:0:0:
256,192,109190,1,8,0:0:0:0:
256,192,109574,1,8,0:0:0:0:
256,192,109703,1,0,0:0:0:0:
256,192,109831,1,8,0:0:0:0:
256,192,109959,1,8,0:0:0:0:
256,192,110087,1,0,0:0:0:0:
256,192,110215,1,8,0:0:0:0:
256,192,110344,1,0,0:0:0:0:
256,192,110472,1,0,0:0:0:0:
256,192,110600,1,8,0:0:0:0:
256,192,110728,1,0,0:0:0:0:
256,192,110856,1,0,0:0:0:0:
256,192,110985,1,8,0:0:0:0:
256,192,111113,1,8,0:0:0:0:
256,192,111241,1,8,0:0:0:0:
256,192,111497,1,4,0:0:0:0:
256,192,111754,1,8,0:0:0:0:
256,192,112010,1,0,0:0:0:0:
256,192,112267,1,8,0:0:0:0:
256,192,112523,1,0,0:0:0:0:
256,192,112780,1,8,0:0:0:0:
256,192,113036,1,8,0:0:0:0:
256,192,113164,1,8,0:0:0:0:
256,192,113292,1,0,0:0:0:0:
256,192,113805,1,0,0:0:0:0:
256,192,113933,1,0,0:0:0:0:
256,192,114062,1,8,0:0:0:0:
256,192,114318,1,8,0:0:0:0:
256,192,114446,1,8,0:0:0:0:
256,192,114574,1,0,0:0:0:0:
256,192,114703,1,8,0:0:0:0:
256,192,114831,1,0,0:0:0:0:
256,192,114959,1,0,0:0:0:0:
256,192,115087,1,8,0:0:0:0:
256,192,115344,1,0,0:0:0:0:
256,192,115472,1,0,0:0:0:0:
256,192,115600,1,8,0:0:0:0:
256,192,115856,1,0,0:0:0:0:
256,192,116113,1,8,0:0:0:0:
256,192,116369,1,0,0:0:0:0:
256,192,116626,1,8,0:0:0:0:
256,192,116882,1,0,0:0:0:0:
256,192,117139,1,8,0:0:0:0:
256,192,117267,1,8,0:0:0:0:
256,192,117395,1,0,0:0:0:0:
256,192,117908,1,0,0:0:0:0:
256,192,118036,1,8,0:0:0:0:
256,192,118164,1,0,0:0:0:0:
256,192,118421,1,8,0:0:0:0:
256,192,118549,1,0,0:0:0:0:
256,192,118677,1,8,0:0:0:0:
256,192,118933,1,8,0:0:0:0:
256,192,119062,1,8,0:0:0:0:
256,192,119190,1,0,0:0:0:0:
256,192,119318,1,0,0:0:0:0:
256,192,119446,1,8,0:0:0:0:
256,192,119703,1,4,0:0:0:0:
256,192,119959,1,8,0:0:0:0:
256,192,120215,1,0,0:0:0:0:
256,192,120472,1,8,0:0:0:0:
256,192,120728,1,0,0:0:0:0:
256,192,120985,1,8,0:0:0:0:
256,192,121113,1,8,0:0:0:0:
256,192,121241,1,0,0:0:0:0:
256,192,121369,1,0,0:0:0:0:
256,192,121497,1,8,0:0:0:0:
256,192,122010,1,0,0:0:0:0:
256,192,122139,1,0,0:0:0:0:
256,192,122267,1,8,0:0:0:0:
256,192,122523,1,8,0:0:0:0:
256,192,122651,1,0,0:0:0:0:
256,192,122780,1,8,0:0:0:0:
256,192,122908,1,8,0:0:0:0:
256,192,123036,1,0,0:0:0:0:
256,192,123164,1,0,0:0:0:0:
256,192,123292,1,8,0:0:0:0:
256,192,123549,1,0,0:0:0:0:
256,192,123805,1,8,0:0:0:0:
256,192,124062,1,0,0:0:0:0:
256,192,124318,1,8,0:0:0:0:
256,192,124574,1,0,0:0:0:0:
256,192,124831,1,8,0:0:0:0:
256,192,125087,1,0,0:0:0:0:
256,192,125215,1,0,0:0:0:0:
256,192,125344,1,8,0:0:0:0:
256,192,125472,1,8,0:0:0:0:
256,192,125600,1,0,0:0:0:0:
256,192,126113,1,8,0:0:0:0:
256,192,126241,1,0,0:0:0:0:
256,192,126369,1,8,0:0:0:0:
256,192,126626,1,0,0:0:0:0:
256,192,126754,1,8,0:0:0:0:
256,192,126882,1,0,0:0:0:0:
256,192,127010,1,0,0:0:0:0:
256,192,127139,1,8,0:0:0:0:
256,192,127267,1,8,0:0:0:0:
256,192,127395,1,0,0:0:0:0:
256,192,127651,1,8,0:0:0:0:
256,192,127780,1,8,0:0:0:0:
256,192,128421,1,4,0:0:0:0:
256,192,128677,1,8,0:0:0:0:
256,192,128806,1,0,0:0:0:0:
256,192,128934,1,8,0:0:0:0:
256,192,129190,1,8,0:0:0:0:
256,192,129319,1,8,0:0:0:0:
256,192,129575,1,0,0:0:0:0:
256,192,129703,1,8,0:0:0:0:
256,192,129831,1,8,0:0:0:0:
256,192,129960,1,0,0:0:0:0:
256,192,130216,1,8,0:0:0:0:
256,192,130344,1,8,0:0:0:0:
256,192,130472,1,0,0:0:0:0:
256,192,130729,1,0,0:0:0:0:
256,192,130985,1,8,0:0:0:0:
256,192,131242,1,8,0:0:0:0:
256,192,131370,1,0,0:0:0:0:
256,192,131498,1,8,0:0:0:0:
256,192,131626,1,8,0:0:0:0:
256,192,131754,1,0,0:0:0:0:
256,192,132011,1,8,0:0:0:0:
256,192,132523,1,4,0:0:0:0:
256,192,132779,1,8,0:0:0:0:
256,192,132908,1,0,0:0:0:0:
256,192,133036,1,8,0:0:0:0:
256,192,133292,1,8,0:0:0:0:
256,192,133421,1,8,0:0:0:0:
256,192,133549,1,0,0:0:0:0:
256,192,133677,1,8,0:0:0:0:
256,192,133805,1,0,0:0:0:0:
256,192,134062,1,8,0:0:0:0:
256,192,134574,1,0,0:0:0:0:
256,192,135601,1,4,0:0:0:0:
256,192,135858,1,8,0:0:0:0:
256,192,135986,1,0,0:0:0:0:
256,192,136114,1,8,0:0:0:0:
256,192,136370,1,0,0:0:0:0:
256,192,136499,1,0,0:0:0:0:
256,192,136627,1,8,0:0:0:0:
256,192,136755,1,0,0:0:0:0:
256,192,136883,1,8,0:0:0:0:
256,192,137140,1,8,0:0:0:0:
256,192,137268,1,8,0:0:0:0:
256,192,137396,1,0,0:0:0:0:
256,192,137524,1,0,0:0:0:0:
256,192,137652,1,8,0:0:0:0:
256,192,137780,1,0,0:0:0:0:
256,192,137909,1,8,0:0:0:0:
256,192,138037,1,8,0:0:0:0:
256,192,138165,1,8,0:0:0:0:
256,192,138422,1,0,0:0:0:0:
256,192,138550,1,0,0:0:0:0:
256,192,138678,1,8,0:0:0:0:
256,192,138935,1,8,0:0:0:0:
256,192,139063,1,0,0:0:0:0:
256,192,139191,1,8,0:0:0:0:
256,192,139319,1,8,0:0:0:0:
256,192,139447,1,0,0:0:0:0:
256,192,139576,1,0,0:0:0:0:
256,192,139704,1,8,0:0:0:0:
256,192,139960,1,0,0:0:0:0:
256,192,140088,1,0,0:0:0:0:
256,192,140217,1,8,0:0:0:0:
256,192,140472,1,8,0:0:0:0:
256,192,140601,1,0,0:0:0:0:
256,192,140729,1,0,0:0:0:0:
256,192,140858,1,0,0:0:0:0:
256,192,140986,1,8,0:0:0:0:
256,192,141242,1,8,0:0:0:0:
256,192,141370,1,8,0:0:0:0:
256,192,141499,1,0,0:0:0:0:
256,192,141627,1,0,0:0:0:0:
256,192,141755,1,8,0:0:0:0:
256,192,142011,1,0,0:0:0:0:
256,192,142140,1,0,0:0:0:0:
256,192,142268,1,8,0:0:0:0:
256,192,142524,1,0,0:0:0:0:
256,192,142652,1,8,0:0:0:0:
256,192,142909,1,8,0:0:0:0:
256,192,143037,1,0,0:0:0:0:
256,192,143165,1,8,0:0:0:0:
256,192,143293,1,0,0:0:0:0:
256,192,143421,1,0,0:0:0:0:
256,192,143550,1,8,0:0:0:0:
256,192,143806,1,4,0:0:0:0:
256,192,144063,1,8,0:0:0:0:
256,192,144191,1,0,0:0:0:0:
256,192,144319,1,8,0:0:0:0:
256,192,144576,1,0,0:0:0:0:
256,192,144704,1,0,0:0:0:0:
256,192,144832,1,8,0:0:0:0:
256,192,144960,1,0,0:0:0:0:
256,192,145088,1,8,0:0:0:0:
256,192,145345,1,8,0:0:0:0:
256,192,145601,1,0,0:0:0:0:
256,192,145729,1,0,0:0:0:0:
256,192,145858,1,8,0:0:0:0:
256,192,145985,1,8,0:0:0:0:
256,192,146114,1,8,0:0:0:0:
256,192,146242,1,0,0:0:0:0:
256,192,146370,1,8,0:0:0:0:
256,192,146627,1,8,0:0:0:0:
256,192,146755,1,8,0:0:0:0:
256,192,146883,1,8,0:0:0:0:
256,192,147140,1,8,0:0:0:0:
256,192,147268,1,0,0:0:0:0:
256,192,147396,1,8,0:0:0:0:
256,192,147524,1,8,0:0:0:0:
256,192,147652,1,0,0:0:0:0:
256,192,147781,1,0,0:0:0:0:
256,192,147909,1,8,0:0:0:0:
256,192,148165,1,0,0:0:0:0:
256,192,148293,1,0,0:0:0:0:
256,192,148422,1,8,0:0:0:0:
256,192,148549,1,0,0:0:0:0:
256,192,148678,1,8,0:0:0:0:
256,192,148871,1,8,0:0:0:0:
256,192,149447,1,0,0:0:0:0:
256,192,149704,1,8,0:0:0:0:
256,192,149832,1,0,0:0:0:0:
256,192,149960,1,8,0:0:0:0:
256,192,150217,1,0,0:0:0:0:
256,192,150345,1,0,0:0:0:0:
256,192,150473,1,8,0:0:0:0:
256,192,150601,1,8,0:0:0:0:
256,192,150729,1,0,0:0:0:0:
256,192,150858,1,8,0:0:0:0:
256,192,150986,1,0,0:0:0:0:
256,192,151114,1,0,0:0:0:0:
256,192,151242,1,8,0:0:0:0:
256,192,151370,1,8,0:0:0:0:
256,192,151499,1,0,0:0:0:0:
256,192,151755,1,8,0:0:0:0:
256,192,151883,1,0,0:0:0:0:
256,192,152011,1,8,0:0:0:0:
256,192,152524,1,8,0:0:0:0:
256,192,152652,1,8,0:0:0:0:
256,192,152781,1,8,0:0:0:0:
256,192,153037,1,8,0:0:0:0:
256,192,153165,1,0,0:0:0:0:
256,192,153293,1,0,0:0:0:0:
256,192,153422,1,8,0:0:0:0:
256,192,153678,1,8,0:0:0:0:
256,192,153806,1,0,0:0:0:0:
256,192,153935,1,0,0:0:0:0:
256,192,154063,1,8,0:0:0:0:
256,192,154191,1,0,0:0:0:0:
256,192,154319,1,8,0:0:0:0:
256,192,154447,1,0,0:0:0:0:
256,192,154576,1,8,0:0:0:0:
256,192,154704,1,0,0:0:0:0:
256,192,154832,1,8,0:0:0:0:
256,192,154960,1,0,0:0:0:0:
256,192,156114,1,12,0:0:0:0:
256,192,157139,1,0,0:0:0:0:
256,192,157267,1,8,0:0:0:0:
256,192,157395,1,0,0:0:0:0:
256,192,157524,1,8,0:0:0:0:
256,192,157652,1,0,0:0:0:0:
256,192,157780,1,0,0:0:0:0:
256,192,157908,1,8,0:0:0:0:
256,192,158036,1,8,0:0:0:0:
256,192,158165,1,0,0:0:0:0:
256,192,159190,1,0,0:0:0:0:
256,192,159447,1,0,0:0:0:0:
256,192,159703,1,8,0:0:0:0:
256,192,160216,1,4,0:0:0:0:
256,192,160472,12,0,164318,0:0:0:0:
