osu file format v14

[General]
AudioFilename: audio.mp3
AudioLeadIn: 0
PreviewTime: 59173
Countdown: 0
SampleSet: Soft
StackLeniency: 0.5
Mode: 0
LetterboxInBreaks: 0
WidescreenStoryboard: 1

[Editor]
Bookmarks: 1246,18930,23983,29035,38983,41667,51772,59193,69298,82088,93456,106088,116193,123614,133719,146351,156456,166561,171614,181719,194193,196483,196561
DistanceSpacing: 1.3
BeatDivisor: 4
GridSize: 32
TimelineZoom: 1.9

[Metadata]
Title:Donna Ketsumatsu ga Onozomi dai?
TitleUnicode:どんな結末がお望みだい?
Artist:TUYU
ArtistUnicode:ツユ
Creator:Len
Version:eringiRa's Insane
Source:プロジェクトセカイ カラフルステージ! feat. 初音ミク
Tags:what sort of ending are you wishing for? Don'na japanese jpop j-pop pop jrock j-rock rock 礼衣 ぷす ミロ 双葉陽 rei pusu miro futaba haru azyun vocals female fast l1ght_u light_u -hitomi erisu lanzhu pnky eringira new-username athanasia- proseka prsk プロセカ ワンダーランズ×ショウタイム Wonderlands x Showtime ワンダショ Wondershow project sekai colorful stage! hatsune miku A Sorrowful Farewell at the Curtain Call カーテンコールに惜別を vocaloid
BeatmapID:3863610
BeatmapSetID:1875378

[Difficulty]
HPDrainRate:5
CircleSize:3.8
OverallDifficulty:7.8
ApproachRate:9
SliderMultiplier:1.66
SliderTickRate:1

[Events]
//Background and Video events
Video,-100,"defreeyay.mp4"
0,0,"bge.png",0,0
//Break Periods
2,29235,33488
2,82087,86509
//Storyboard Layer 0 (Background)
//Storyboard Layer 1 (Fail)
//Storyboard Layer 2 (Pass)
//Storyboard Layer 3 (Foreground)
//Storyboard Layer 4 (Overlay)
//Storyboard Sound Samples

[TimingPoints]
-17,315.789473684211,4,2,1,70,1,0
1246,-200,4,2,69,40,0,0
1561,-200,4,2,69,20,0,0
3772,-200,4,2,69,40,0,0
4088,-200,4,2,69,20,0,0
4877,-200,4,2,68,40,0,0
5034,-200,4,2,69,40,0,0
5877,-200,4,2,68,40,0,0
6298,-200,4,2,69,40,0,0
10930,-200,4,2,68,40,0,0
11351,-133.333333333333,4,2,69,40,0,0
12719,-133.333333333333,4,2,1,40,0,0
13877,-133.333333333333,4,2,69,40,0,0
14192,-133.333333333333,4,2,68,40,0,0
14825,-133.333333333333,4,2,69,40,0,0
15456,-133.333333333333,4,2,68,40,0,0
16088,-133.333333333333,4,2,59,40,0,0
16719,-133.333333333333,4,2,68,40,0,0
17035,-133.333333333333,4,2,69,40,0,0
17351,-133.333333333333,4,2,68,40,0,0
18930,-133.333333333333,4,2,1,50,0,0
21456,-100,4,2,1,60,0,0
23430,-100,4,2,1,5,0,0
23983,-100,4,2,1,50,0,0
29035,-100,4,2,69,40,0,0
34088,-133.333333333333,4,2,1,50,0,0
36614,-111.111111111111,4,2,1,60,0,0
38193,-200,4,2,1,60,0,0
38983,-111.111111111111,4,2,1,70,0,0
41193,-200,4,2,1,70,0,0
41667,-111.111111111111,4,2,1,60,0,0
43719,-222.222222222222,4,2,1,60,0,0
44193,-111.111111111111,4,2,1,60,0,0
51772,-100,4,2,1,60,0,0
59193,-90.9090909090909,4,2,3,70,0,1
59508,-90.9090909090909,4,2,1,80,0,1
69298,-90.9090909090909,4,2,3,80,0,1
69613,-90.9090909090909,4,2,1,80,0,1
81061,-90.9090909090909,4,2,1,5,0,1
81456,-90.9090909090909,4,2,1,80,0,1
81693,-90.9090909090909,4,2,1,5,0,1
82088,-90.9090909090909,4,2,1,80,0,0
87140,-181.818181818181,4,2,1,40,0,0
89351,-181.818181818181,4,2,1,45,0,0
89509,-90.9090909090909,4,2,1,60,0,0
92509,-333.333333333333,4,2,1,60,0,0
93456,-133.333333333333,4,2,2,50,0,0
94403,-133.333333333333,4,2,1,50,0,0
98509,-133.333333333333,4,2,1,55,0,0
101035,-100,4,2,1,60,0,0
102930,-133.333333333333,4,2,1,60,0,0
103404,-100,4,2,1,70,0,0
105614,-200,4,2,1,70,0,0
106088,-111.111111111111,4,2,1,60,0,0
108140,-222.222222222222,4,2,1,60,0,0
108614,-111.111111111111,4,2,1,60,0,0
113193,-222.222222222222,4,2,1,60,0,0
113667,-111.111111111111,4,2,1,60,0,0
116193,-100,4,2,1,60,0,0
123614,-90.9090909090909,4,2,3,70,0,1
123929,-90.9090909090909,4,2,1,80,0,1
133719,-90.9090909090909,4,2,3,80,0,1
134034,-90.9090909090909,4,2,1,80,0,1
145483,-90.9090909090909,4,2,1,5,0,1
145877,-90.9090909090909,4,2,1,80,0,1
146035,-250,4,2,1,80,0,1
146272,-250,4,2,1,5,0,1
146351,-100,4,2,1,70,0,0
165614,-166.666666666667,4,2,1,70,0,0
166246,-111.111111111111,4,2,1,70,0,0
166561,-100,4,2,1,70,0,0
171298,-250,4,2,1,70,0,0
171535,-250,4,2,1,30,0,0
171614,-90.9090909090909,4,2,3,80,0,1
171929,-90.9090909090909,4,2,1,80,0,1
181719,-90.9090909090909,4,2,3,80,0,1
182034,-90.9090909090909,4,2,1,80,0,1
191825,-90.9090909090909,4,2,3,80,0,1
192140,-90.9090909090909,4,2,1,80,0,1
194193,-90.9090909090909,4,2,1,80,0,0

[Colours]
Combo1 : 142,193,255
Combo2 : 172,172,215

[HitObjects]
409,120,1246,6,0,B|384:133|342:115|303:44|454:-34|501:36|513:169|427:235|427:235|383:181|320:204,1,498,2|0,2:0|2:0,2:0:0:0:
107,309,3772,6,0,B|62:310|51:366|51:366|26:249|26:249|31:240|31:240|17:163,1,290.5,2|2,2:0|2:0,2:0:0:0:
18,148,4956,2,0,L|26:116,1,20.75,0|2,2:0|2:0,2:0:0:0:
288,52,5877,6,0,P|311:79|343:84,1,55.3333333333333,2|2,2:0|2:0,2:0:0:0:
399,25,6298,2,0,P|379:70|348:181,1,138.333333333333,2|0,2:0|2:0,2:0:0:0:
403,363,7140,6,0,P|426:356|444:326,1,55.3333333333333,2|2,2:0|2:0,2:0:0:0:
511,314,7561,2,0,P|471:304|265:243,1,249,2|0,2:0|2:0,2:0:0:0:
191,99,8825,6,0,B|173:17|62:-13|-22:107|29:187|112:194|112:194|84:168|86:125,1,415,2|0,2:0|2:0,2:0:0:0:
255,208,10719,6,0,L|243:278,2,55.3333333333333,0|2|2,2:0|2:0|2:0,2:0:0:0:
340,114,11351,6,0,P|375:161|449:149,1,124.5,2|0,2:0|2:0,2:0:0:0:
367,32,11825,1,0,0:0:0:0:
367,32,11983,2,0,L|232:53,1,124.500004749298,0|0,3:0|3:0,0:0:0:0:
167,25,12456,1,0,2:0:0:0:
130,97,12614,6,0,P|150:169|165:244,1,124.5,2|2,3:2|2:0,2:0:0:0:
144,305,13088,1,0,2:0:0:0:
144,305,13246,2,0,P|113:284|77:279,2,62.2500000000002,0|0|2,3:0|2:0|2:0,2:0:0:0:
212,356,13719,1,0,2:0:0:0:
212,356,13877,6,0,P|260:341|357:320,2,124.5,2|2|2,3:2|3:2|2:0,2:0:0:0:
212,356,14825,2,0,P|173:316|236:196,1,186.75,2|0,3:2|2:0,2:0:0:0:
276,157,15456,2,0,P|287:121|267:86,1,62.2500000000002,2|0,3:2|2:0,2:0:0:0:
227,35,15772,2,0,P|199:58|162:54,1,62.2500000000002,2|0,2:0|2:0,2:0:0:0:
106,16,16088,6,0,P|131:82|154:207,1,186.75,2|0,3:2|2:0,2:0:0:0:
117,268,16719,2,0,P|82:257|69:222,1,62.2500000000002,2|0,2:0|2:0,2:0:0:0:
49,377,17035,5,2,3:2:0:0:
229,233,17351,1,2,2:0:0:0:
168,76,17667,6,0,P|155:122|133:212,2,124.5,2|2|2,2:0|2:0|3:2,2:0:0:0:
324,33,18614,2,0,P|359:52|372:87,1,62.2500000000002,2|0,3:2|2:0,2:0:0:0:
321,135,18930,6,0,P|376:107|437:96,1,124.5,4|2,1:0|2:0,2:0:0:0:
489,166,19404,2,0,P|502:206|491:242,1,62.2500000000002,2|0,2:0|1:0,2:0:0:0:
427,276,19719,2,0,P|416:238|400:200,2,62.2500000000002,2|2|2,2:0|2:0|2:0,2:0:0:0:
478,349,20193,6,0,P|434:320|356:319,1,124.5,2|2,1:2|2:0,2:0:0:0:
298,380,20667,1,2,2:0:0:0:
298,380,20825,2,0,P|291:347|260:312,1,62.2500000000002,0|0,1:0|2:0,2:0:0:0:
214,269,21140,2,0,P|221:236|252:201,1,62.2500000000002,2|0,2:0|2:0,2:0:0:0:
337,142,21456,6,0,L|354:261,1,83,4|0,1:0|2:0,2:0:0:0:
371,41,21772,1,10,2:0:0:0:
237,212,21930,1,0,1:0:0:0:
190,66,22088,1,10,2:0:0:0:
372,177,22246,1,0,1:0:0:0:
261,298,22404,2,0,B|219:286|219:286|213:283|213:283|155:272,1,83,10|0,2:0|1:0,2:0:0:0:
106,190,22719,5,4,1:0:0:0:
106,190,23351,6,0,L|91:245,1,41.5,6|0,1:2|2:0,2:0:0:0:
106,190,23983,6,0,P|97:151|113:112,1,83,2|2,1:2|2:0,2:0:0:0:
199,154,24298,2,0,P|214:191|205:231,1,83,2|2,2:0|2:0,2:0:0:0:
292,103,24614,1,2,1:2:0:0:
292,103,24772,2,0,B|334:81|382:68|382:68|407:98|466:99,2,166,2|2|2,2:0|2:0|2:0,2:0:0:0:
358,164,25561,6,0,P|371:197|351:248,1,83,2|2,2:0|2:0,2:0:0:0:
291,304,25877,2,0,P|252:283|202:289,1,83,2|0,1:2|2:0,2:0:0:0:
147,347,26193,1,2,2:0:0:0:
147,347,26509,6,0,P|127:269|123:260,1,83,2|2,1:2|2:0,2:0:0:0:
55,208,26825,2,0,P|43:179|61:131,1,83,2|2,2:0|2:0,2:0:0:0:
181,76,27140,1,2,1:2:0:0:
181,76,27298,2,0,P|165:169|151:264,2,166,2|2|2,2:0|2:0|2:0,2:0:0:0:
239,5,28088,6,0,P|280:33|282:84,1,83,2|2,2:0|2:0,2:0:0:0:
341,137,28404,2,0,P|376:113|423:107,1,83,2|0,1:2|2:0,2:0:0:0:
481,38,28719,1,2,2:0:0:0:
414,189,28956,1,0,2:0:0:0:
407,194,29035,1,2,2:0:0:0:
257,31,34088,6,0,B|247:78|247:78|253:97|253:97|240:181,1,124.5,4|2,1:0|2:0,2:0:0:0:
187,222,34561,1,2,2:0:0:0:
187,222,34719,2,0,P|138:178|74:208,1,124.5,2|2,1:2|2:0,2:0:0:0:
34,266,35193,1,2,2:0:0:0:
34,266,35351,2,0,P|58:317|66:394,2,124.5,2|2|2,1:2|2:0|1:2,2:0:0:0:
86,192,36140,1,0,2:0:0:0:
86,192,36298,2,0,P|95:168|79:128,1,62.2500000000002,2|0,2:0|2:0,2:0:0:0:
247,29,36614,6,0,P|235:86|231:132,1,74.7000000000001,4|0,1:0|2:0,2:0:0:0:
160,31,36930,5,10,2:0:0:0:
321,154,37088,1,0,1:0:0:0:
192,207,37246,5,10,2:0:0:0:
364,87,37404,1,0,1:0:0:0:
247,29,37561,1,10,2:0:0:0:
344,235,37719,1,0,1:0:0:0:
354,232,37798,1,0,1:0:0:0:
364,227,37877,1,4,1:0:0:0:
484,35,38193,6,0,P|463:106|448:203,1,166,2|2,1:2|2:0,2:0:0:0:
503,280,38983,6,0,P|467:241|360:241,1,149.4,4|0,1:0|1:0,2:0:0:0:
302,376,39456,2,0,P|362:356|399:349,1,74.7000000000001,8|0,2:0|2:0,2:0:0:0:
252,176,39772,5,0,1:0:0:0:
208,378,39930,1,0,1:0:0:0:
131,283,40088,2,0,B|167:270|167:270|172:272|172:272|224:252,1,74.7000000000001,8|0,2:0|1:0,2:0:0:0:
210,267,40325,1,0,1:0:0:0:
218,274,40404,5,4,1:0:0:0:
62,177,40561,1,0,1:0:0:0:
179,88,40719,1,8,2:0:0:0:
131,283,40877,5,0,1:0:0:0:
131,283,40956,1,0,1:0:0:0:
131,283,41035,1,8,2:0:0:0:
274,206,41193,2,0,P|288:182|269:121,1,83,4|0,1:0|2:0,2:0:0:0:
194,105,41667,6,0,P|261:97|342:54,1,149.4,4|0,1:0|2:0,2:0:0:0:
479,170,42140,1,0,2:0:0:0:
426,27,42298,1,10,2:0:0:0:
426,27,42456,2,0,P|411:77|401:126,1,74.7000000000001,2|0,2:0|1:0,2:0:0:0:
344,212,42772,6,0,P|397:192|490:177,1,149.4,10|10,2:0|2:0,2:0:0:0:
467,259,43246,2,0,P|422:267|387:282,1,74.7000000000001,2|0,1:2|2:0,2:0:0:0:
412,359,43561,1,10,2:0:0:0:
412,359,43719,2,0,P|449:354|484:341,1,74.7000000000001,2|0,1:2|2:0,2:0:0:0:
321,284,44193,6,0,B|315:323|315:323|339:389,1,74.7000000000001,2|0,1:2|2:0,2:0:0:0:
209,268,44509,2,0,B|221:234|221:234|215:195,1,74.7000000000001,0|0,1:0|2:0,2:0:0:0:
147,100,44825,1,10,2:0:0:0:
57,244,44983,2,0,L|138:227,1,74.7000000000001,2|0,1:2|1:0,2:0:0:0:
277,124,45298,6,0,B|226:114|226:114|198:83|198:83|126:74,1,149.4,10|10,2:0|2:0,2:0:0:0:
78,31,45772,2,0,P|59:67|85:118,1,74.7000000000001,2|2,1:2|1:2,2:0:0:0:
212,213,46088,2,0,L|201:123,1,74.7000000000001,10|0,2:0|1:0,2:0:0:0:
271,42,46404,5,10,2:0:0:0:
133,191,46561,1,10,2:0:0:0:
280,37,46719,6,0,B|307:56|334:52|334:52|357:75|357:75|392:68|440:111,1,149.4,4|0,1:0|2:0,2:0:0:0:
494,158,47193,1,0,2:0:0:0:
396,229,47351,1,10,2:0:0:0:
396,229,47509,2,0,P|384:185|370:150,1,74.7000000000001,2|0,2:0|1:0,2:0:0:0:
476,357,47825,6,0,P|418:305|328:334,1,149.4,10|10,2:0|2:0,2:0:0:0:
286,381,48298,2,0,P|274:333|253:296,1,74.7000000000001,2|0,1:2|2:0,2:0:0:0:
186,247,48614,5,10,2:0:0:0:
262,207,48772,1,2,1:2:0:0:
181,358,48930,2,0,L|101:335,1,74.7000000000001,2|8,1:2|2:0,2:0:0:0:
20,207,49246,6,0,B|90:187|90:187|93:189|93:189|183:170,1,149.4,6|0,1:2|1:0,2:0:0:0:
290,100,49719,1,0,2:0:0:0:
218,42,49877,2,0,B|198:91|198:91|201:123|201:123|172:200,1,149.4,10|0,2:0|1:0,2:0:0:0:
251,273,50351,6,0,P|291:220|387:244,1,149.4,8|8,2:0|2:0,2:0:0:0:
449,297,50825,2,0,P|465:337|444:378,1,74.7000000000001,0|0,1:0|2:0,2:0:0:0:
328,299,51140,1,8,2:0:0:0:
328,299,51456,5,8,2:0:0:0:
494,219,51614,1,8,2:0:0:0:
405,110,51772,6,0,L|381:284,1,166,4|8,1:0|2:0,2:0:0:0:
382,274,52246,1,0,2:0:0:0:
271,158,52404,1,2,1:2:0:0:
271,158,52561,2,0,P|298:129|350:139,1,83,2|8,2:0|2:0,2:0:0:0:
241,64,52877,6,0,P|188:51|74:26,1,166,2|0,2:0|2:0,2:0:0:0:
109,114,53351,2,0,P|145:121|202:135,1,83,10|0,2:0|2:0,2:0:0:0:
60,259,53667,2,0,L|36:169,1,83,2|2,1:2|2:0,2:0:0:0:
144,202,53983,1,10,2:0:0:0:
27,373,54140,1,0,2:0:0:0:
207,294,54298,6,0,B|262:280|262:280|301:300|301:300|380:283,1,166,4|8,1:0|2:0,2:0:0:0:
501,373,54772,1,0,2:0:0:0:
464,195,54930,1,2,1:2:0:0:
464,195,55088,2,0,P|446:249|438:302,1,83,2|8,2:0|2:0,2:0:0:0:
380,139,55404,6,0,P|437:86|523:130,1,166,2|2,2:0|2:0,2:0:0:0:
348,289,55877,2,0,P|301:273|254:258,1,83,10|0,2:0|2:0,2:0:0:0:
175,196,56193,5,2,1:2:0:0:
301,150,56351,1,2,2:0:0:0:
209,358,56509,2,0,L|192:252,1,83,10|2,2:0|2:0,2:0:0:0:
87,131,56825,6,0,P|56:170|72:217,1,83,4|2,1:0|2:0,2:0:0:0:
163,58,57140,2,0,P|118:46|69:28,1,83,8|0,2:0|2:0,2:0:0:0:
146,188,57456,5,2,1:2:0:0:
258,21,57614,1,0,1:0:0:0:
159,65,57772,1,8,2:0:0:0:
283,173,57930,1,8,2:0:0:0:
283,173,58009,1,8,2:0:0:0:
283,173,58088,6,0,B|294:120|294:120|298:117|298:117|313:41,1,124.5,4|0,1:0|2:0,2:0:0:0:
395,31,58404,2,0,L|387:90,1,41.5,8|8,2:0|2:0,2:0:0:0:
283,173,58561,5,8,2:0:0:0:
283,173,58640,1,8,2:0:0:0:
283,173,58719,2,0,L|223:158,1,41.5,0|0,1:0|1:0,2:0:0:0:
209,53,58877,2,0,L|166:43,1,41.5,8|8,2:0|2:0,2:0:0:0:
50,77,59035,1,8,2:0:0:0:
67,88,59114,1,8,2:0:0:0:
63,110,59193,6,0,B|59:144|32:155|32:155|171:126,1,182.6,4|2,1:0|1:2,2:0:0:0:
209,53,59667,1,8,2:0:0:0:
128,21,59825,1,2,2:0:0:0:
230,190,59983,2,0,B|267:182|267:182|272:177|272:177|325:168,1,91.3,0|0,1:0|1:0,2:0:0:0:
488,169,60298,1,8,2:0:0:0:
410,39,60456,5,2,2:0:0:0:
397,33,60535,1,2,2:0:0:0:
384,28,60614,2,0,B|335:122|446:102|384:221,1,182.6,2|8,1:2|2:0,2:0:0:0:
283,348,61088,2,0,P|298:303|351:293,1,91.3,2|0,1:2|2:0,2:0:0:0:
368,374,61404,1,2,1:2:0:0:
200,257,61561,1,8,2:0:0:0:
321,170,61719,6,0,B|301:253|301:253|303:259|303:259|280:357,1,182.6,4|0,1:0|1:0,2:0:0:0:
150,180,62193,2,0,P|175:148|232:160,1,91.3,10|0,2:0|2:0,2:0:0:0:
35,119,62509,5,2,1:2:0:0:
138,47,62667,1,0,1:0:0:0:
26,131,62825,2,0,B|17:91|17:91|19:87|19:87|7:28,1,91.3,8|0,2:0|2:0,2:0:0:0:
115,271,63140,6,0,B|70:199|-8:229|-11:300|42:313,1,182.6,2|10,1:2|2:0,2:0:0:0:
192,380,63614,2,0,B|201:363|214:364|214:364|201:276,1,91.3,2|0,1:2|2:0,2:0:0:0:
150,165,63930,5,2,1:2:0:0:
96,344,64088,1,8,2:0:0:0:
297,254,64246,6,0,B|332:274|359:263|359:263|374:269|387:282|387:282|416:258|490:290,1,182.6,4|0,1:0|1:0,2:0:0:0:
399,89,64719,2,0,B|376:134|376:134|397:194,1,91.3,10|0,2:0|2:0,2:0:0:0:
471,135,65035,1,2,1:2:0:0:
477,130,65193,1,0,1:0:0:0:
319,40,65351,2,0,B|260:28|260:28|254:34|254:34|169:17,1,136.95,8|0,2:0|2:0,2:0:0:0:
174,26,65667,5,4,1:0:0:0:
281,124,65825,1,2,2:0:0:0:
191,187,65983,1,10,2:0:0:0:
188,178,66140,1,2,1:2:0:0:
84,77,66298,2,0,B|73:120|73:120|75:126|75:126|60:187,1,91.3,2|2,2:0|1:2,2:0:0:0:
5,38,66614,1,10,2:0:0:0:
122,207,66772,6,0,B|89:205|70:180|70:180|107:314,1,182.6,4|0,1:0|1:0,2:0:0:0:
244,376,67246,2,0,P|219:331|178:330,1,91.3,10|0,2:0|1:0,2:0:0:0:
337,219,67561,1,10,2:0:0:0:
315,307,67719,1,0,1:0:0:0:
403,327,67877,1,10,2:0:0:0:
426,238,68035,1,2,1:2:0:0:
338,145,68193,5,10,2:0:0:0:
318,143,68272,1,10,2:0:0:0:
301,151,68351,1,10,2:0:0:0:
437,76,68509,1,2,1:2:0:0:
300,41,68667,2,0,P|308:15|328:-10,2,45.65,2|2|10,1:2|1:2|1:2,2:0:0:0:
234,215,68983,1,10,2:0:0:0:
244,227,69298,6,0,B|177:213|177:213|154:176|154:176|78:164,1,182.6,4|2,1:0|1:2,2:0:0:0:
0,107,69772,1,8,2:0:0:0:
109,65,69930,1,2,2:0:0:0:
60,266,70088,2,0,P|8:247|2:205,1,91.3,0|0,1:0|1:0,2:0:0:0:
165,129,70404,1,8,2:0:0:0:
237,345,70561,5,2,2:0:0:0:
253,337,70640,1,2,2:0:0:0:
264,322,70719,2,0,B|196:313|144:289|144:289|132:322|92:333,1,182.6,2|8,1:2|2:0,2:0:0:0:
271,170,71193,2,0,P|224:187|215:247,1,91.3,2|0,1:2|2:0,2:0:0:0:
335,381,71509,1,2,1:2:0:0:
301,243,71667,1,8,2:0:0:0:
462,327,71825,6,0,P|473:271|509:134,1,182.6,4|0,1:0|1:0,2:0:0:0:
365,34,72298,2,0,P|381:79|398:147,1,91.3,10|0,2:0|2:0,2:0:0:0:
464,58,72614,5,2,1:2:0:0:
472,54,72772,1,0,1:0:0:0:
329,192,72930,1,8,2:0:0:0:
297,111,73088,1,0,2:0:0:0:
388,26,73246,6,0,P|372:86|343:233,1,182.6,2|10,1:2|2:0,2:0:0:0:
250,375,73719,2,0,P|231:327|203:272,1,91.3,2|0,1:2|2:0,2:0:0:0:
202,180,74035,1,2,1:2:0:0:
128,368,74193,1,8,2:0:0:0:
32,265,74351,6,0,B|78:228|125:250|125:250|149:302|214:284,1,182.6,4|0,1:0|1:0,2:0:0:0:
63,151,74825,5,10,2:0:0:0:
60,142,74983,1,0,2:0:0:0:
200,209,75140,2,0,P|221:147|251:99,1,91.3,2|0,1:2|1:0,2:0:0:0:
109,24,75456,2,0,P|158:46|154:104,1,91.3,8|0,2:0|2:0,2:0:0:0:
63,151,75772,5,4,1:0:0:0:
22,24,75930,1,2,2:0:0:0:
157,90,76088,1,10,2:0:0:0:
1,237,76246,2,0,P|75:199|208:180,1,182.6,2|2,1:2|1:2,2:0:0:0:
352,202,76719,1,10,2:0:0:0:
229,52,76877,6,0,B|193:144|327:119|242:254,1,182.6,4|0,1:0|1:0,2:0:0:0:
396,55,77351,2,0,B|360:62|360:62|355:67|355:67|296:81,1,91.3,10|0,2:0|1:0,2:0:0:0:
413,21,77667,5,10,2:0:0:0:
350,156,77825,1,0,1:0:0:0:
495,229,77983,2,0,B|509:183|509:183|472:114,1,91.3,10|2,2:0|2:0,2:0:0:0:
365,368,78298,5,0,1:2:0:0:
323,289,78456,2,0,P|408:281|449:357,1,182.6,2|0,2:0|1:0,2:0:0:0:
495,229,78930,1,10,2:0:0:0:
347,157,79088,2,0,P|373:233|383:274,1,91.3,8|2,2:0|1:2,2:0:0:0:
211,51,79404,6,0,B|107:62|172:125|51:130,1,182.6,4|2,1:0|1:2,2:0:0:0:
50,33,79877,1,8,2:0:0:0:
219,142,80035,1,2,1:2:0:0:
59,235,80193,1,10,2:0:0:0:
157,71,80351,1,0,1:0:0:0:
281,220,80509,1,10,2:0:0:0:
171,289,80667,1,2,1:2:0:0:
167,275,80746,1,2,1:2:0:0:
163,261,80825,5,10,1:2:0:0:
295,373,80983,2,0,P|329:358|359:353,1,45.65,10|0,2:0|2:0,2:0:0:0:
163,261,81456,5,10,1:2:0:0:
295,373,81614,2,0,P|329:358|359:353,1,45.65,10|0,2:0|2:0,2:0:0:0:
418,90,87140,6,0,B|406:63|397:57|397:57|466:48|466:48|428:135|413:205|413:205|365:184|365:184|398:182|411:159,1,365.200000000002,2|0,1:2|1:0,2:0:0:0:
267,32,88719,1,0,1:0:0:0:
265,34,89351,1,0,1:0:0:0:
163,194,89509,6,0,B|106:167|49:164|49:164|19:131|49:90,1,182.6,12|0,2:0|1:0,2:0:0:0:
146,32,89983,5,8,2:0:0:0:
150,23,90140,1,0,1:0:0:0:
285,123,90298,5,8,2:0:0:0:
270,95,90456,1,0,1:0:0:0:
104,212,90614,5,8,2:0:0:0:
140,115,90772,1,0,1:0:0:0:
273,292,90930,2,0,B|310:285|310:285|315:280|315:280|374:268,1,91.3,8|0,2:0|1:0,2:0:0:0:
486,366,91246,5,8,2:0:0:0:
366,258,91404,1,8,2:0:0:0:
489,183,91561,1,10,2:0:0:0:
355,62,91719,6,0,B|269:104|277:211|277:211|309:157|372:166,1,273.9,10|0,2:0|2:0,2:0:0:0:
353,164,92509,6,0,P|363:190|359:218,2,49.8,0|0|0,2:0|2:0|2:0,2:0:0:0:
240,49,93456,6,0,P|189:62|98:85,1,124.5,6|2,1:2|2:0,2:0:0:0:
31,153,93930,2,0,P|18:196|32:231,1,62.2500000000002,0|0,2:0|1:2,2:0:0:0:
96,255,94246,2,0,P|107:211|95:177,1,62.2500000000002,0|2,2:0|2:0,2:0:0:0:
17,349,94561,1,0,2:0:0:0:
11,362,94719,6,0,P|71:344|161:333,1,124.5,0|2,1:2|2:0,2:0:0:0:
132,334,95351,2,0,P|70:344|11:362,1,124.5,0|2,1:2|2:0,2:0:0:0:
151,228,95983,6,0,P|198:229|218:314,1,124.5,0|2,1:2|2:0,2:0:0:0:
210,379,96456,2,0,P|251:369|281:363,1,62.2500000000002,0|0,2:0|1:2,2:0:0:0:
316,289,96772,2,0,P|348:294|368:326,1,62.2500000000002,0|2,2:0|2:0,2:0:0:0:
405,382,97088,1,0,2:0:0:0:
481,284,97246,6,0,P|489:233|514:139,2,124.5,0|2|0,1:2|2:0|1:2,2:0:0:0:
366,194,98193,1,2,2:0:0:0:
501,68,98509,6,0,P|452:53|362:38,1,124.5,4|2,1:0|2:0,2:0:0:0:
238,106,98983,1,2,2:0:0:0:
261,27,99140,2,0,P|305:55|304:141,1,124.5,2|2,1:2|2:0,2:0:0:0:
247,195,99614,1,2,2:0:0:0:
247,195,99772,6,0,P|207:186|116:176,2,124.5,2|2|2,1:2|2:0|1:2,2:0:0:0:
247,195,100719,1,2,2:0:0:0:
36,369,101035,6,0,B|0:275|106:300|59:182,1,166,4|10,1:0|2:0,2:0:0:0:
1,142,101509,1,0,1:0:0:0:
136,36,101667,2,0,P|121:81|105:139,1,83,10|0,2:0|1:0,2:0:0:0:
146,212,101983,1,10,2:0:0:0:
44,62,102140,1,0,1:0:0:0:
36,57,102219,1,0,1:0:0:0:
27,56,102298,5,4,1:0:0:0:
158,205,102614,1,2,1:2:0:0:
158,205,102930,2,0,B|160:177|206:158|231:181|231:181|205:179|190:196,1,124.5,0|2,2:0|2:0,2:0:0:0:
212,272,103404,6,0,P|280:251|384:232,1,166,4|0,1:0|1:0,2:0:0:0:
489,361,103877,2,0,P|433:342|425:294,1,83,8|0,2:0|2:0,2:0:0:0:
512,201,104193,5,0,1:0:0:0:
487,283,104351,1,0,1:0:0:0:
397,105,104509,2,0,P|350:114|292:131,1,83,8|0,2:0|1:0,2:0:0:0:
309,127,104746,1,0,1:0:0:0:
304,133,104825,5,4,1:0:0:0:
142,59,104983,1,0,1:0:0:0:
283,5,105140,1,8,2:0:0:0:
164,193,105298,5,0,1:0:0:0:
164,193,105377,1,0,1:0:0:0:
164,193,105456,1,8,2:0:0:0:
63,134,105614,2,0,P|40:173|52:214,1,83,4|0,1:0|2:0,2:0:0:0:
8,275,106088,6,0,P|57:252|176:229,1,149.4,4|0,1:0|2:0,2:0:0:0:
298,303,106561,1,0,2:0:0:0:
219,367,106719,1,10,2:0:0:0:
219,367,106877,2,0,P|196:336|204:283,1,74.7000000000001,2|0,2:0|1:0,2:0:0:0:
328,156,107193,6,0,P|315:214|294:325,1,149.4,10|10,2:0|2:0,2:0:0:0:
418,368,107667,2,0,B|455:374|455:374|506:347,1,74.7000000000001,2|0,1:2|2:0,2:0:0:0:
476,269,107983,1,10,2:0:0:0:
476,269,108140,2,0,B|439:263|439:263|406:280,1,74.7000000000001,2|0,1:2|2:0,2:0:0:0:
324,379,108614,6,0,B|317:347|317:347|319:341|319:341|308:282,1,74.7000000000001,2|0,1:2|2:0,2:0:0:0:
223,277,108930,2,0,B|229:312|229:312|227:318|227:318|234:350,1,74.7000000000001,0|0,1:0|2:0,2:0:0:0:
309,224,109246,1,10,2:0:0:0:
201,166,109404,2,0,P|160:183|147:227,1,74.7000000000001,2|0,1:2|1:0,2:0:0:0:
74,326,109719,6,0,P|60:267|31:170,1,149.4,10|10,2:0|2:0,2:0:0:0:
34,68,110193,2,0,B|29:92|13:99|13:99|40:102|51:71,1,74.7000000000001,2|2,1:2|1:2,2:0:0:0:
168,22,110509,2,0,B|173:46|189:53|189:53|162:56|151:25,1,74.7000000000001,10|0,2:0|1:0,2:0:0:0:
118,162,110825,1,10,2:0:0:0:
112,156,110983,1,10,2:0:0:0:
270,45,111140,6,0,B|289:88|255:116|255:116|279:213,1,149.4,4|0,1:0|2:0,2:0:0:0:
272,185,111772,1,10,2:0:0:0:
360,42,111930,2,0,P|362:101|334:132,1,74.7000000000001,2|0,2:0|1:0,2:0:0:0:
403,215,112246,6,0,B|432:168|495:184|495:184|509:212|483:236,1,149.4,10|10,2:0|2:0,2:0:0:0:
434,329,112719,2,0,P|376:315|335:306,1,74.7000000000001,2|0,1:2|2:0,2:0:0:0:
201,384,113035,1,10,2:0:0:0:
280,256,113193,2,0,B|261:293|261:293|268:332,1,74.7000000000001,2|8,1:2|2:0,2:0:0:0:
168,212,113667,6,0,B|194:170|194:170|243:153,1,74.7000000000001,6|0,1:2|2:0,2:0:0:0:
121,326,113983,2,0,B|74:309|74:309|47:264,1,74.7000000000001,0|0,1:0|2:0,2:0:0:0:
0,175,114298,6,0,B|68:156|68:156|73:158|73:158|161:136,1,149.4,10|0,2:0|1:0,2:0:0:0:
241,49,114772,2,0,B|264:59|272:83|272:83|241:191,1,149.4,8|8,2:0|2:0,2:0:0:0:
144,141,115246,2,0,B|134:107|134:107|137:103|137:103|124:57,1,74.7000000000001,0|0,1:0|2:0,2:0:0:0:
31,19,115561,1,8,2:0:0:0:
22,12,115877,1,8,2:0:0:0:
170,98,116035,1,8,2:0:0:0:
69,205,116193,6,0,P|62:162|39:110,1,83,4|0,1:0|2:0,2:0:0:0:
197,251,116509,2,0,P|184:296|175:343,1,83,8|0,2:0|2:0,2:0:0:0:
84,289,116825,1,2,1:2:0:0:
180,157,116983,2,0,P|211:150|259:183,1,83,2|8,2:0|2:0,2:0:0:0:
413,42,117298,6,0,P|347:37|320:139,1,166,2|0,2:0|2:0,2:0:0:0:
374,216,117772,2,0,P|390:161|406:114,1,83,10|0,2:0|2:0,2:0:0:0:
512,34,118088,2,0,P|500:69|487:117,1,83,2|2,1:2|2:0,2:0:0:0:
374,216,118404,2,0,P|390:161|406:114,1,83,10|0,2:0|2:0,2:0:0:0:
492,352,118719,6,0,B|464:318|423:318|423:318|384:358|330:320,1,166,4|8,1:0|2:0,2:0:0:0:
195,377,119193,1,0,2:0:0:0:
274,225,119351,1,2,1:2:0:0:
274,225,119509,2,0,P|258:268|240:330,1,83,2|8,2:0|2:0,2:0:0:0:
123,174,119825,6,0,B|181:161|181:161|201:131|201:131|291:115,1,166,2|2,2:0|2:0,2:0:0:0:
112,21,120298,2,0,B|94:46|94:46|113:119,1,83,10|0,2:0|2:0,2:0:0:0:
204,41,120614,5,2,1:2:0:0:
30,129,120772,1,2,2:0:0:0:
108,255,120930,2,0,L|127:151,1,83,10|2,2:0|2:0,2:0:0:0:
174,364,121246,6,0,P|138:380|93:369,1,83,4|2,1:0|2:0,2:0:0:0:
31,256,121561,2,0,P|70:241|111:257,1,83,8|0,2:0|2:0,2:0:0:0:
250,377,121877,5,2,1:2:0:0:
313,179,122035,1,0,1:0:0:0:
249,384,122193,1,8,2:0:0:0:
172,244,122351,1,8,2:0:0:0:
172,244,122430,1,8,2:0:0:0:
172,244,122509,2,0,P|216:230|241:296,1,124.5,4|0,1:0|2:0,2:0:0:0:
250,377,122825,6,0,P|293:357|318:353,1,41.5,8|8,2:0|2:0,2:0:0:0:
386,247,122983,1,8,2:0:0:0:
396,253,123061,1,8,2:0:0:0:
406,259,123140,2,0,L|397:329,1,41.5,0|0,1:0|1:0,2:0:0:0:
247,179,123298,2,0,L|269:251,1,41.5,8|8,2:0|2:0,2:0:0:0:
453,86,123456,1,8,2:0:0:0:
479,105,123535,1,8,2:0:0:0:
482,141,123614,6,0,B|403:116|403:116|376:130|376:130|294:101,1,182.6,4|2,1:0|1:2,2:0:0:0:
352,35,124088,5,8,2:0:0:0:
423,10,124246,1,2,2:0:0:0:
237,129,124404,2,0,B|229:85|229:85|261:41,1,91.3,0|0,1:0|1:0,2:0:0:0:
354,197,124719,1,8,2:0:0:0:
211,304,124877,5,2,2:0:0:0:
211,304,124956,1,2,2:0:0:0:
211,304,125035,2,0,B|98:308|176:237|30:255,1,182.6,2|8,1:2|2:0,2:0:0:0:
232,128,125509,2,0,P|203:173|195:225,1,91.3,2|0,1:2|2:0,2:0:0:0:
146,83,125825,5,2,1:2:0:0:
278,202,125983,1,8,2:0:0:0:
127,319,126140,2,0,P|116:258|76:134,1,182.6,4|0,1:0|1:0,2:0:0:0:
237,18,126614,2,0,P|250:63|216:107,1,91.3,10|0,2:0|2:0,2:0:0:0:
71,159,126930,5,2,1:2:0:0:
151,52,127088,1,0,1:0:0:0:
224,221,127246,2,0,P|275:206|320:197,1,91.3,8|0,2:0|2:0,2:0:0:0:
455,84,127561,2,0,B|468:33|419:21|363:42|349:124|431:156,1,182.6,2|10,1:2|2:0,2:0:0:0:
455,273,128035,2,0,B|463:239|463:239|465:237|465:237|477:182,1,91.3,2|0,1:2|2:0,2:0:0:0:
363,207,128351,1,2,1:2:0:0:
480,370,128509,1,8,2:0:0:0:
355,200,128667,6,0,B|324:221|289:218|289:218|265:244|265:244|224:234|185:255,1,182.6,4|0,1:0|1:0,2:0:0:0:
58,165,129140,2,0,P|109:176|122:225,1,91.3,10|0,2:0|2:0,2:0:0:0:
162,76,129456,5,2,1:2:0:0:
167,68,129614,1,0,1:0:0:0:
46,244,129772,2,0,B|41:260|41:260|62:335,1,91.3,8|0,2:0|2:0,2:0:0:0:
123,208,130088,5,4,1:0:0:0:
277,276,130246,1,2,2:0:0:0:
192,374,130404,1,10,2:0:0:0:
190,365,130561,1,2,1:2:0:0:
270,189,130719,5,2,2:0:0:0:
357,216,130877,1,2,1:2:0:0:
368,306,131035,1,10,2:0:0:0:
279,365,131193,6,0,P|292:298|332:178,1,182.6,4|0,1:0|1:0,2:0:0:0:
417,67,131667,2,0,B|442:61|475:51|475:51|453:69|444:97,1,91.3,10|0,2:0|1:0,2:0:0:0:
318,28,131983,5,10,2:0:0:0:
260,143,132140,1,0,1:0:0:0:
226,42,132298,1,10,2:0:0:0:
356,120,132456,1,2,1:2:0:0:
239,225,132614,5,10,2:0:0:0:
220,222,132693,1,10,2:0:0:0:
207,209,132772,1,10,2:0:0:0:
131,103,132930,1,2,1:2:0:0:
60,247,133088,2,0,P|21:232|3:231,2,45.65,2|2|10,1:2|1:2|1:2,2:0:0:0:
141,346,133404,1,10,2:0:0:0:
134,357,133719,6,0,P|151:300|203:150,1,182.6,4|2,1:0|1:2,2:0:0:0:
58,44,134193,2,0,P|84:97|104:156,1,91.3,8|2,2:0|2:0,2:0:0:0:
161,49,134509,5,0,1:0:0:0:
25,175,134667,1,0,1:0:0:0:
135,250,134825,2,0,P|183:223|180:166,1,91.3,8|2,2:0|2:0,2:0:0:0:
316,32,135140,6,0,B|295:70|269:77|269:77|305:207,1,182.6,2|8,1:2|2:0,2:0:0:0:
434,324,135614,2,0,B|402:294|361:304|361:304|339:274|339:274|302:292|245:255,1,182.6,2|2,1:2|1:2,2:0:0:0:
296,374,136088,1,8,2:0:0:0:
413,217,136246,6,0,B|448:218|468:192|468:192|434:321,1,182.6,4|0,1:0|1:0,2:0:0:0:
299,188,136719,2,0,B|309:145|309:145|313:141|313:141|326:91,1,91.3,10|0,2:0|2:0,2:0:0:0:
259,18,137035,5,2,1:2:0:0:
403,121,137193,1,0,1:0:0:0:
223,204,137351,1,8,2:0:0:0:
225,195,137509,1,0,2:0:0:0:
165,50,137667,6,0,B|203:40|203:40|211:42|211:42|260:29,2,91.3,2|0|10,1:2|2:0|2:0,2:0:0:0:
89,163,138140,2,0,B|49:172|32:141|32:141|72:290,1,182.6,2|2,1:2|1:2,2:0:0:0:
133,221,138614,1,8,2:0:0:0:
41,372,138772,6,0,B|82:350|111:354|111:354|128:322|128:322|167:319|205:296,1,182.6,4|0,1:0|1:0,2:0:0:0:
274,185,139246,1,10,2:0:0:0:
266,180,139404,1,0,2:0:0:0:
367,286,139561,2,0,P|352:337|344:388,1,91.3,2|0,1:2|1:0,2:0:0:0:
475,235,139877,2,0,P|461:181|443:138,1,91.3,8|0,2:0|2:0,2:0:0:0:
443,35,140193,5,4,1:0:0:0:
317,200,140351,1,2,2:0:0:0:
271,17,140509,1,10,2:0:0:0:
447,148,140667,2,0,B|330:158|403:77|255:108,1,182.6,2|2,1:2|1:2,2:0:0:0:
131,183,141140,1,10,2:0:0:0:
151,44,141298,6,0,P|196:95|207:238,1,182.6,4|0,1:0|1:0,2:0:0:0:
35,362,141772,2,0,P|56:308|97:281,1,91.3,10|0,2:0|1:0,2:0:0:0:
182,362,142088,5,10,2:0:0:0:
129,169,142246,1,0,1:0:0:0:
294,298,142404,2,0,B|317:342|317:342|294:420,1,91.3,10|2,2:0|2:0,2:0:0:0:
379,270,142719,1,0,1:2:0:0:
240,150,142877,2,0,P|223:200|213:252,2,91.3,2|8|0,2:0|2:0|1:0,2:0:0:0:
185,63,143351,1,10,2:0:0:0:
301,211,143509,2,0,P|345:196|353:137,1,91.3,8|2,2:0|1:2,2:0:0:0:
249,51,143825,6,0,P|196:41|60:15,1,182.6,4|2,1:0|1:2,2:0:0:0:
22,144,144298,5,8,2:0:0:0:
185,63,144456,1,2,1:2:0:0:
239,247,144614,1,10,2:0:0:0:
108,133,144772,1,0,1:0:0:0:
258,27,144930,1,10,2:0:0:0:
147,210,145088,1,2,1:2:0:0:
134,215,145167,1,2,1:2:0:0:
120,214,145246,5,10,1:2:0:0:
37,24,145404,2,0,L|24:85,1,45.65,10|0,2:0|2:0,2:0:0:0:
120,214,145877,5,10,1:2:0:0:
37,24,146035,2,0,L|24:86,1,49.8,10|0,2:0|2:0,2:0:0:0:
0,169,146351,6,0,P|41:140|182:113,1,166,4|2,1:0|1:2,2:0:0:0:
245,57,146825,2,0,P|263:102|234:157,1,83,10|2,2:0|2:0,2:0:0:0:
77,240,147140,2,0,P|118:211|166:205,1,83,2|0,1:2|2:0,2:0:0:0:
307,305,147456,2,0,P|264:282|257:243,1,83,10|2,2:0|2:0,2:0:0:0:
347,118,147772,6,0,L|450:94,1,83,2|0,1:2|2:0,2:0:0:0:
437,91,148009,1,0,2:0:0:0:
447,83,148088,1,10,2:0:0:0:
346,189,148246,1,2,2:0:0:0:
504,262,148404,1,2,1:2:0:0:
392,365,148561,2,0,P|402:313|417:252,1,83,2|10,2:0|2:0,2:0:0:0:
248,111,148877,6,0,P|265:174|292:309,1,166,4|2,1:0|1:2,2:0:0:0:
175,371,149351,2,0,P|200:323|248:325,1,83,10|0,2:0|2:0,2:0:0:0:
308,370,149667,1,2,1:2:0:0:
130,282,149825,2,0,P|134:251|168:198,1,83,2|10,2:0|2:0,2:0:0:0:
248,111,150140,6,0,B|200:60|153:73|153:73|130:116|67:93,1,166,2|2,2:0|2:0,2:0:0:0:
43,54,150614,1,10,2:0:0:0:
173,168,150772,1,2,2:0:0:0:
85,243,150930,2,0,P|74:180|64:141,2,83,2|2|10,1:2|2:0|2:0,2:0:0:0:
42,361,151404,6,0,B|75:340|108:344|108:344|126:320|126:320|161:325|196:295,1,166,4|2,1:0|1:2,2:0:0:0:
276,165,151877,2,0,P|265:210|253:264,1,83,8|0,2:0|2:0,2:0:0:0:
361,365,152193,2,0,P|318:348|276:335,2,83,2|2|10,1:2|2:0|2:0,2:0:0:0:
475,303,152667,2,0,P|478:251|376:235,1,166,2|2,2:0|2:0,2:0:0:0:
369,235,153061,1,2,2:0:0:0:
360,248,153140,2,0,L|376:315,2,41.5,10|2|2,2:0|2:0|2:0,2:0:0:0:
259,126,153456,2,0,L|239:216,1,83,2|2,1:2|2:0,2:0:0:0:
177,46,153772,1,10,2:0:0:0:
326,182,153930,6,0,P|376:159|496:123,1,166,4|2,1:2|1:2,2:0:0:0:
418,60,154404,2,0,P|363:74|321:93,1,83,8|2,2:0|1:2,2:0:0:0:
391,242,154719,2,0,P|429:227|470:218,1,83,10|0,2:0|1:0,2:0:0:0:
250,163,155035,2,0,P|247:215|274:248,1,83,8|0,2:0|1:0,2:0:0:0:
192,352,155351,5,2,1:2:0:0:
176,313,155430,1,2,1:2:0:0:
144,288,155509,1,2,1:2:0:0:
104,281,155588,1,2,1:2:0:0:
66,296,155667,2,0,P|54:338|45:383,1,83,10|2,2:0|1:2,2:0:0:0:
42,167,155983,5,10,2:0:0:0:
123,364,156140,1,8,2:0:0:0:
123,364,156456,6,0,P|139:296|177:194,1,166,4|0,1:0|1:0,2:0:0:0:
86,67,156930,5,10,2:0:0:0:
213,23,157088,1,2,2:0:0:0:
95,172,157246,2,0,B|58:164|58:164|53:160|53:160|11:152,2,83,2|2|8,1:2|1:2|2:0,2:0:0:0:
171,205,157719,1,2,2:0:0:0:
258,90,157877,6,0,P|294:52|281:5,1,83,2|2,1:2|2:0,2:0:0:0:
213,23,158193,1,8,2:0:0:0:
309,175,158351,2,0,P|354:161|396:154,1,83,2|2,1:2|2:0,2:0:0:0:
478,68,158667,1,2,1:2:0:0:
360,248,158825,1,10,2:0:0:0:
383,77,158983,6,0,P|458:117|445:222,1,166,4|2,1:0|1:2,2:0:0:0:
356,274,159456,1,10,2:0:0:0:
358,261,159535,1,2,2:0:0:0:
360,248,159614,1,2,2:0:0:0:
478,364,159772,1,2,1:2:0:0:
478,364,159930,2,0,P|489:299|500:253,1,83,2|10,1:2|2:0,2:0:0:0:
361,162,160246,6,0,B|249:173|320:230|191:221,1,166,2|2,2:0|2:0,2:0:0:0:
138,139,160719,1,10,2:0:0:0:
223,103,160877,1,2,1:2:0:0:
125,293,161035,1,2,2:0:0:0:
125,293,161193,2,0,P|116:241|101:197,1,83,2|8,1:2|2:0,2:0:0:0:
252,60,161509,6,0,P|232:133|207:248,1,166,4|2,1:2|1:2,2:0:0:0:
94,28,161983,2,0,P|114:83|123:126,1,83,10|0,2:0|2:0,2:0:0:0:
184,21,162298,1,2,1:2:0:0:
107,212,162456,2,0,P|60:200|13:194,1,83,0|8,1:0|2:0,2:0:0:0:
102,329,162772,6,0,P|155:308|188:299,1,83,2|0,2:0|1:0,2:0:0:0:
246,167,163088,2,0,P|267:210|237:253,1,83,2|8,2:0|2:0,2:0:0:0:
304,353,163404,2,0,B|348:308|383:314|383:314|409:357|469:351,1,166,2|2,1:2|1:2,2:0:0:0:
468,268,163877,1,8,2:0:0:0:
322,166,164035,6,0,P|342:220|347:267,1,83,4|0,1:0|2:0,2:0:0:0:
400,58,164351,1,0,1:0:0:0:
252,222,164509,1,10,2:0:0:0:
204,24,164667,1,0,1:0:0:0:
330,91,164825,5,10,2:0:0:0:
146,219,164983,1,0,1:0:0:0:
192,18,165140,2,0,P|218:93|226:131,1,83,8|0,2:0|1:0,2:0:0:0:
218,96,165377,1,0,1:0:0:0:
218,96,165456,5,14,1:2:0:0:
86,256,165614,2,0,P|129:263|203:283,1,99.5999999999998,10|2,2:0|2:0,2:0:0:0:
183,276,166088,5,10,1:2:0:0:
343,106,166246,2,0,P|333:152|326:192,1,74.7000000000001,10|2,2:0|2:0,2:0:0:0:
467,350,166561,6,0,P|389:309|308:306,1,166,4|0,1:0|1:0,2:0:0:0:
247,218,167035,2,0,P|206:248|192:288,1,83,10|0,2:0|2:0,2:0:0:0:
235,384,167351,1,2,1:2:0:0:
96,263,167509,1,2,1:2:0:0:
160,191,167667,1,10,2:0:0:0:
70,369,167825,6,0,P|60:307|24:183,1,166,4|0,1:0|1:0,2:0:0:0:
120,36,168298,2,0,P|101:97|94:148,1,83,10|0,2:0|2:0,2:0:0:0:
29,35,168614,1,2,1:2:0:0:
108,187,168772,1,2,1:2:0:0:
204,98,168930,1,10,2:0:0:0:
268,231,169088,6,0,P|207:207|80:186,1,166,4|0,1:0|1:0,2:0:0:0:
271,65,169561,2,0,P|279:124|242:157,1,83,10|0,2:0|2:0,2:0:0:0:
191,25,169877,1,2,1:2:0:0:
333,181,170035,2,0,P|390:167|438:162,1,83,2|10,1:2|2:0,2:0:0:0:
483,352,170351,6,0,B|449:303|407:308|407:308|371:351|312:328,1,166,4|8,1:0|2:0,2:0:0:0:
242,254,170825,1,8,2:0:0:0:
227,226,170904,1,8,2:0:0:0:
222,196,170983,1,8,2:0:0:0:
229,166,171061,1,8,2:0:0:0:
246,140,171140,1,10,1:2:0:0:
361,215,171298,2,0,P|345:247|342:275,1,49.8,10|0,2:0|2:0,2:0:0:0:
329,343,171614,6,0,P|316:277|281:135,1,182.6,4|2,1:0|1:2,2:0:0:0:
184,58,172088,5,8,2:0:0:0:
283,11,172246,1,2,2:0:0:0:
196,171,172404,2,0,P|163:142|98:147,1,91.3,0|0,1:0|1:0,2:0:0:0:
35,81,172719,1,8,2:0:0:0:
124,265,172877,5,2,2:0:0:0:
133,249,172956,1,2,2:0:0:0:
132,230,173035,2,0,P|43:244|43:341,1,182.6,2|8,1:2|2:0,2:0:0:0:
198,384,173509,2,0,P|211:327|227:278,1,91.3,2|0,1:2|2:0,2:0:0:0:
243,176,173825,5,2,1:2:0:0:
319,371,173983,1,8,2:0:0:0:
419,351,174140,2,0,P|388:282|264:308,1,182.6,4|0,1:0|1:0,2:0:0:0:
195,130,174614,2,0,P|214:201|224:243,1,91.3,10|0,2:0|2:0,2:0:0:0:
233,33,174930,5,2,1:2:0:0:
134,199,175088,1,0,1:0:0:0:
34,91,175246,2,0,P|55:52|115:52,1,91.3,8|0,2:0|2:0,2:0:0:0:
195,130,175561,6,0,P|174:185|145:327,1,182.6,2|10,1:2|2:0,2:0:0:0:
259,377,176035,2,0,P|286:332|343:343,1,91.3,2|0,1:2|2:0,2:0:0:0:
488,258,176351,1,2,1:2:0:0:
328,185,176509,1,8,2:0:0:0:
407,382,176667,6,0,P|420:319|450:193,1,182.6,4|0,1:0|1:0,2:0:0:0:
313,47,177140,2,0,P|280:87|297:146,1,91.3,10|0,2:0|2:0,2:0:0:0:
212,46,177456,1,2,1:2:0:0:
204,40,177614,1,0,1:0:0:0:
355,195,177772,2,0,P|366:140|384:97,1,91.3,8|0,2:0|2:0,2:0:0:0:
282,124,178088,5,4,1:0:0:0:
457,212,178246,1,2,2:0:0:0:
352,349,178404,1,10,2:0:0:0:
348,340,178561,1,2,1:2:0:0:
215,248,178719,2,0,P|245:203|309:225,1,91.3,2|2,2:0|1:2,2:0:0:0:
283,275,179035,1,10,2:0:0:0:
147,371,179193,6,0,P|136:307|107:180,1,182.6,4|0,1:0|1:0,2:0:0:0:
268,57,179667,2,0,P|286:114|248:148,1,91.3,10|0,2:0|1:0,2:0:0:0:
167,22,179983,5,10,2:0:0:0:
110,192,180140,1,0,1:0:0:0:
58,78,180298,1,10,2:0:0:0:
205,161,180456,1,2,1:2:0:0:
54,266,180614,6,0,P|27:256|-2:248,2,45.65,10|10|10,2:0|2:0|2:0,2:0:0:0:
147,371,180930,1,2,1:2:0:0:
262,240,181088,1,2,1:2:0:0:
268,251,181167,1,2,1:2:0:0:
266,264,181246,1,10,1:2:0:0:
150,145,181404,1,10,2:0:0:0:
140,160,181719,6,0,P|207:138|345:122,1,182.6,4|2,1:0|1:2,2:0:0:0:
455,39,182193,2,0,P|481:90|459:127,1,91.3,10|2,2:0|1:2,2:0:0:0:
295,210,182509,2,0,P|314:129|324:107,1,91.3,10|2,2:0|1:2,2:0:0:0:
460,224,182825,1,10,2:0:0:0:
309,379,182983,1,2,1:2:0:0:
260,305,183140,6,0,P|318:289|395:390,1,182.6,4|10,1:0|2:0,2:0:0:0:
295,210,183614,1,2,1:2:0:0:
189,383,183772,2,0,P|180:333|159:283,1,91.3,10|2,2:0|1:2,2:0:0:0:
121,126,184088,1,10,2:0:0:0:
6,236,184246,6,0,B|52:232|76:216|76:216|107:232|107:232|142:205|197:220,1,182.6,4|2,1:0|1:2,2:0:0:0:
287,61,184719,2,0,P|266:134|254:178,1,91.3,10|2,2:0|1:2,2:0:0:0:
251,281,185035,1,10,2:0:0:0:
167,99,185193,1,2,1:2:0:0:
335,206,185351,2,0,P|395:204|419:169,1,91.3,10|2,2:0|1:2,2:0:0:0:
474,362,185667,6,0,P|420:345|295:321,1,182.6,4|10,1:0|2:0,2:0:0:0:
132,384,186140,1,2,1:2:0:0:
159,222,186298,2,0,P|211:249|224:312,1,91.3,10|2,2:0|1:2,2:0:0:0:
43,284,186614,1,10,2:0:0:0:
165,121,186772,6,0,P|139:197|116:306,1,182.6,4|0,1:0|1:0,2:0:0:0:
64,56,187246,1,10,2:0:0:0:
57,49,187404,1,2,2:0:0:0:
107,182,187561,6,0,P|173:164|220:160,1,91.3,2|0,1:2|1:0,2:0:0:0:
287,63,187877,2,0,P|246:24|188:29,1,91.3,8|0,2:0|2:0,2:0:0:0:
325,217,188193,5,4,1:0:0:0:
378,9,188351,1,2,2:0:0:0:
218,94,188509,1,10,2:0:0:0:
432,160,188667,2,0,P|359:184|240:227,1,182.6,2|2,1:2|1:2,2:0:0:0:
101,327,189140,1,10,2:0:0:0:
173,372,189298,6,0,B|219:259|115:296|150:184,1,182.6,4|0,1:0|1:0,2:0:0:0:
325,70,189772,2,0,P|311:124|297:183,1,91.3,10|0,2:0|1:0,2:0:0:0:
236,32,190088,5,10,2:0:0:0:
408,141,190246,1,0,1:0:0:0:
271,224,190404,2,0,P|233:198|231:144,1,91.3,10|2,2:0|2:0,2:0:0:0:
429,249,190719,1,0,1:2:0:0:
318,372,190877,2,0,P|330:309|341:267,2,91.3,2|8|0,2:0|2:0|1:0,2:0:0:0:
242,139,191351,5,10,2:0:0:0:
155,166,191509,1,8,2:0:0:0:
215,234,191667,1,2,1:2:0:0:
81,69,191825,6,0,P|106:147|129:288,1,182.6,4|2,1:0|1:2,2:0:0:0:
220,48,192298,5,8,2:0:0:0:
305,245,192456,1,2,1:2:0:0:
355,113,192614,5,10,2:0:0:0:
199,230,192772,1,0,1:0:0:0:
397,315,192930,1,10,2:0:0:0:
269,384,193088,1,2,1:2:0:0:
267,370,193167,1,2,1:2:0:0:
265,356,193246,5,10,1:2:0:0:
454,229,193404,1,10,2:0:0:0:
466,245,193877,5,10,1:2:0:0:
240,128,194035,1,10,2:0:0:0:
