osu file format v14

[General]
AudioFilename: audio.mp3
AudioLeadIn: 0
PreviewTime: 59173
Countdown: 0
SampleSet: Soft
StackLeniency: 0.5
Mode: 0
LetterboxInBreaks: 0
WidescreenStoryboard: 1

[Editor]
Bookmarks: 1246,18930,23982,29035,38982,41667,51772,59193,69298,82087,93455,106087,116192,123613,133718,146349,156455,166560,171613,181718,194191,196481,196560
DistanceSpacing: 1.6
BeatDivisor: 4
GridSize: 32
TimelineZoom: 1.9

[Metadata]
Title:Donna Ketsumatsu ga Onozomi dai?
TitleUnicode:どんな結末がお望みだい?
Artist:TUYU
ArtistUnicode:ツユ
Creator:Len
Version:Not Classic Extra
Source:プロジェクトセカイ カラフルステージ! feat. 初音ミク
Tags:what sort of ending are you wishing for? Don'na japanese jpop j-pop pop jrock j-rock rock 礼衣 ぷす ミロ 双葉陽 rei pusu miro futaba haru azyun vocals female fast l1ght_u light_u -hitomi erisu lanzhu pnky eringira new-username athanasia- proseka prsk プロセカ ワンダーランズ×ショウタイム Wonderlands x Showtime ワンダショ Wondershow project sekai colorful stage! hatsune miku A Sorrowful Farewell at the Curtain Call カーテンコールに惜別を vocaloid
BeatmapID:3859309
BeatmapSetID:1875378

[Difficulty]
HPDrainRate:5
CircleSize:4
OverallDifficulty:9.3
ApproachRate:9.4
SliderMultiplier:1.8
SliderTickRate:0.5

[Events]
//Background and Video events
Video,-100,"defreeyay.mp4"
0,0,"bge.png",0,0
//Break Periods
2,29235,33548
2,93656,97969
//Storyboard Layer 0 (Background)
//Storyboard Layer 1 (Fail)
//Storyboard Layer 2 (Pass)
//Storyboard Layer 3 (Foreground)
//Storyboard Layer 4 (Overlay)
//Storyboard Sound Samples

[TimingPoints]
-17,315.789473684211,4,2,1,70,1,0
1246,-769.230769230769,4,2,69,40,0,0
1561,-769.230769230769,4,2,69,20,0,0
3772,-769.230769230769,4,2,69,40,0,0
4088,-769.230769230769,4,2,69,20,0,0
4877,-769.230769230769,4,2,68,40,0,0
5035,-769.230769230769,4,2,69,40,0,0
5877,-769.230769230769,4,2,68,40,0,0
6298,-769.230769230769,4,2,69,40,0,0
7140,-769.230769230769,4,2,68,40,0,0
7561,-769.230769230769,4,2,69,40,0,0
10930,-769.230769230769,4,2,68,40,0,0
11351,-250,4,2,69,40,0,0
11983,-200,4,2,69,40,0,0
12930,-166.666666666667,4,2,1,40,0,0
13246,-142.857142857143,4,2,1,40,0,0
13877,-125,4,2,69,40,0,0
14193,-125,4,2,68,40,0,0
14825,-125,4,2,69,40,0,0
15456,-111.111111111111,4,2,68,40,0,0
16087,-111.111111111111,4,2,59,40,0,0
18298,-111.111111111111,4,2,68,40,0,0
18930,-100,4,2,1,50,0,0
21456,-100,4,2,1,60,0,0
23351,-200,4,2,1,60,0,0
23983,-111.111111111111,4,2,1,50,0,0
29035,-111.111111111111,4,2,69,40,0,0
34088,-111.111111111111,4,2,1,50,0,0
36614,-100,4,2,1,60,0,0
38509,-166.666666666667,4,2,1,60,0,0
38983,-83.3333333333333,4,2,1,70,0,0
41667,-90.9090909090909,4,2,1,60,0,0
58404,-71.4285714285714,4,2,1,60,0,0
59193,-76.9230769230769,4,2,3,70,0,1
59508,-76.9230769230769,4,2,1,80,0,1
59667,-83.3333333333333,4,2,1,80,0,1
69298,-83.3333333333333,4,2,3,80,0,1
69613,-83.3333333333333,4,2,1,80,0,1
82088,-333.333333333333,4,2,1,70,0,0
87140,-333.333333333333,4,2,1,40,0,0
89351,-333.333333333333,4,2,1,45,0,0
89509,-83.3333333333333,4,2,1,60,0,0
91719,-125,4,2,1,60,0,0
92193,-125,4,2,1,5,0,0
93456,-125,4,2,2,50,0,0
98509,-111.111111111111,4,2,1,55,0,0
101035,-99.9999999999999,4,2,1,60,0,0
102930,-166.666666666667,4,2,1,60,0,0
103404,-83.3333333333333,4,2,1,70,0,0
106088,-90.9090909090909,4,2,1,60,0,0
120219,-90.9090909090909,4,2,1,58,0,0
120298,-90.9090909090909,4,2,1,56,0,0
120377,-90.9090909090909,4,2,1,54,0,0
120456,-90.9090909090909,4,2,1,52,0,0
120535,-90.9090909090909,4,2,1,50,0,0
120614,-90.9090909090909,4,2,1,60,0,0
120693,-90.9090909090909,4,2,1,48,0,0
120772,-90.9090909090909,4,2,1,46,0,0
120851,-90.9090909090909,4,2,1,44,0,0
120930,-90.9090909090909,4,2,1,60,0,0
121009,-90.9090909090909,4,2,1,42,0,0
121088,-90.9090909090909,4,2,1,40,0,0
121167,-90.9090909090909,4,2,1,50,0,0
121246,-90.9090909090909,4,2,1,60,0,0
122825,-71.4285714285714,4,2,1,60,0,0
123614,-76.9230769230769,4,2,3,70,0,1
123929,-76.9230769230769,4,2,1,80,0,1
124088,-83.3333333333333,4,2,1,80,0,1
133719,-83.3333333333333,4,2,3,80,0,1
134034,-83.3333333333333,4,2,1,80,0,1
146351,-90.9090909090909,4,2,1,70,0,0
166088,-71.4285714285714,4,2,1,70,0,0
166561,-90.9090909090909,4,2,1,70,0,0
170667,-66.6666666666667,4,2,1,70,0,0
171140,-71.4285714285714,4,2,1,70,0,0
171179,-71.4285714285714,4,2,1,50,0,0
171298,-45.4545454545455,4,2,1,70,0,0
171338,-45.4545454545455,4,2,1,60,0,0
171377,-45.4545454545455,4,2,1,50,0,0
171417,-45.4545454545455,4,2,1,40,0,0
171456,-45.4545454545455,4,2,1,30,0,0
171614,-83.3333333333333,4,2,3,80,0,1
171930,-83.3333333333333,4,2,1,80,0,1
181088,-71.4285714285714,4,2,1,80,0,1
181719,-83.3333333333333,4,2,3,80,0,1
182035,-83.3333333333333,4,2,1,80,0,1
186614,-66.6666666666667,4,2,1,80,0,1
186772,-83.3333333333333,4,2,1,80,0,1
191825,-83.3333333333333,4,2,3,80,0,1
192140,-83.3333333333333,4,2,1,80,0,1
193088,-62.5,4,2,1,80,0,1
194193,-62.5,4,2,1,80,0,0

[Colours]
Combo1 : 142,193,255
Combo2 : 172,172,215

[HitObjects]
65,255,1246,6,0,B|47:214|47:214|73:330,1,163.8,2|0,2:0|2:0,2:0:0:0:
301,377,3772,6,0,P|331:369|357:274,1,140.4,2|0,2:0|2:0,2:0:0:0:
278,227,5877,5,2,2:0:0:0:
265,237,6088,5,2,2:0:0:0:
261,252,6298,6,0,P|257:202|254:187,1,62.4,2|2,2:0|2:0,2:0:0:0:
185,136,7351,5,2,2:0:0:0:
174,124,7561,6,0,P|178:74|182:52,1,70.2,2|0,2:0|2:0,2:0:0:0:
314,8,8825,6,0,B|407:18|370:67|456:72,1,156,2|2,2:0|2:0,2:0:0:0:
460,61,11140,5,2,2:0:0:0:
464,49,11351,6,0,P|469:104|477:161,1,108,2|0,2:0|2:0,2:0:0:0:
439,235,11983,2,0,P|403:226|386:173,1,90,0|0,3:0|3:0,2:0:0:0:
244,37,12614,5,2,3:2:0:0:
244,37,12772,1,0,2:0:0:0:
194,105,12930,2,0,P|151:114|127:118,1,53.9999999999999,2|0,2:0|2:0,2:0:0:0:
43,199,13246,6,0,P|35:158|25:124,2,62.9999999999999,0|0|2,3:0|2:0|2:0,2:0:0:0:
121,241,13719,1,0,2:0:0:0:
72,358,13877,6,0,P|114:335|162:317,1,72,2|0,3:2|2:0,2:0:0:0:
224,218,14193,2,0,P|268:228|305:243,1,72,2|0,3:2|2:0,2:0:0:0:
396,277,14509,2,0,P|388:242|377:208,1,72,2|0,2:0|2:0,2:0:0:0:
489,379,14825,1,2,3:2:0:0:
489,379,15456,6,0,P|428:361|322:341,2,162,2|2|2,3:2|2:0|3:2,2:0:0:0:
256,192,16127,12,2,18298,3:2:0:0:
91,343,18930,6,0,P|34:317|33:188,1,180,4|2,1:0|2:0,2:0:0:0:
174,135,19404,2,0,P|185:87|204:27,1,90,2|0,2:0|1:0,2:0:0:0:
68,13,19719,1,2,2:0:0:0:
68,13,19877,2,0,P|81:62|94:113,1,90,2|2,2:0|2:0,2:0:0:0:
179,223,20193,6,0,B|268:202|254:265|363:239,1,180,2|2,1:2|2:0,2:0:0:0:
502,145,20667,2,0,P|441:126|410:90,1,90,2|0,2:0|1:0,2:0:0:0:
391,22,20983,1,0,2:0:0:0:
444,224,21140,2,0,P|430:284|418:331,1,90,2|0,2:0|2:0,2:0:0:0:
181,107,21456,5,4,1:0:0:0:
250,293,21614,1,0,2:0:0:0:
287,71,21772,5,10,2:0:0:0:
119,188,21930,1,0,1:0:0:0:
337,252,22088,5,10,2:0:0:0:
208,27,22246,1,0,1:0:0:0:
146,301,22404,5,10,2:0:0:0:
373,118,22561,1,0,1:0:0:0:
48,18,22719,5,4,1:0:0:0:
48,18,23351,6,0,P|62:76|73:161,1,135,6|0,1:2|2:0,2:0:0:0:
72,150,23983,6,0,P|115:122|123:87,1,81.0000000000001,2|2,1:2|2:0,2:0:0:0:
189,17,24298,2,0,P|223:43|239:83,1,81.0000000000001,2|2,2:0|2:0,2:0:0:0:
340,207,24614,1,2,1:2:0:0:
340,207,24772,2,0,P|293:188|185:156,2,162,2|2|2,2:0|2:0|2:0,2:0:0:0:
406,135,25561,2,0,P|439:104|448:57,1,81.0000000000001,2|2,2:0|2:0,2:0:0:0:
296,32,25877,2,0,P|314:89|319:121,1,81.0000000000001,2|0,1:2|2:0,2:0:0:0:
435,224,26193,1,2,2:0:0:0:
435,224,26509,6,0,P|416:268|406:308,1,81.0000000000001,2|2,1:2|2:0,2:0:0:0:
315,380,26825,2,0,P|267:356|256:312,1,81.0000000000001,2|2,2:0|2:0,2:0:0:0:
324,152,27140,1,2,1:2:0:0:
324,152,27298,2,0,P|388:124|510:92,2,162,2|2|2,2:0|2:0|2:0,2:0:0:0:
256,226,28088,2,0,P|209:203|150:181,1,81.0000000000001,2|2,2:0|2:0,2:0:0:0:
204,37,28404,2,0,P|232:78|238:127,1,81.0000000000001,2|0,1:2|2:0,2:0:0:0:
95,197,28719,1,2,2:0:0:0:
95,197,29035,5,2,2:0:0:0:
328,356,34088,6,0,P|397:360|421:254,1,162,4|2,1:0|2:0,2:0:0:0:
276,216,34561,1,2,2:0:0:0:
276,216,34719,2,0,P|289:271|306:383,1,162,2|2,1:2|2:0,2:0:0:0:
384,203,35193,1,2,2:0:0:0:
384,203,35351,2,0,P|395:156|415:107,1,81.0000000000001,2|0,1:2|2:0,2:0:0:0:
282,50,35667,2,0,P|299:86|310:125,1,81.0000000000001,2|0,2:0|2:0,2:0:0:0:
203,176,35983,2,0,P|154:153|105:136,1,81.0000000000001,2|0,1:2|2:0,2:0:0:0:
83,19,36298,1,2,2:0:0:0:
21,343,36614,6,0,P|68:327|139:309,1,90,4|0,1:0|2:0,2:0:0:0:
273,227,36930,1,10,2:0:0:0:
193,378,37088,1,0,1:0:0:0:
113,137,37246,6,0,P|129:188|141:242,1,90,10|0,2:0|1:0,2:0:0:0:
299,329,37561,1,10,2:0:0:0:
352,140,37719,1,0,1:0:0:0:
182,306,37877,6,0,P|129:316|71:328,1,90,4|0,1:0|2:0,2:0:0:0:
265,132,38193,2,0,P|281:73|293:34,1,90,2|0,1:2|2:0,2:0:0:0:
459,373,38509,6,0,P|472:316|490:247,1,108,0|2,2:0|2:0,2:0:0:0:
478,185,38904,1,2,2:0:0:0:
472,176,38983,6,0,B|378:156|412:218|311:193,1,162,4|0,1:0|2:0,2:0:0:0:
265,132,39298,1,0,1:0:0:0:
333,346,39456,5,8,2:0:0:0:
135,209,39614,1,0,2:0:0:0:
381,87,39772,5,0,1:0:0:0:
241,318,39930,1,0,1:0:0:0:
125,18,40088,6,0,P|139:70|146:123,1,108,8|0,2:0|1:0,2:0:0:0:
135,209,40325,1,0,1:0:0:0:
128,217,40404,1,4,1:0:0:0:
253,59,40561,1,0,1:0:0:0:
347,307,40719,5,8,2:0:0:0:
450,30,40877,1,0,1:0:0:0:
452,22,40956,1,0,1:0:0:0:
453,14,41035,1,8,2:0:0:0:
215,238,41193,1,4,1:0:0:0:
215,238,41667,6,0,P|145:222|62:308,1,198,4|0,1:0|2:0,2:0:0:0:
144,144,42140,1,0,2:0:0:0:
262,384,42298,2,0,P|274:327|297:264,1,99,10|2,2:0|2:0,2:0:0:0:
372,352,42614,1,0,1:0:0:0:
215,238,42772,6,0,P|309:246|367:171,1,198,10|10,2:0|2:0,2:0:0:0:
414,0,43246,2,0,P|460:18|508:31,1,99,2|0,1:2|2:0,2:0:0:0:
289,126,43561,2,0,P|262:83|273:14,1,99,10|2,2:0|1:2,2:0:0:0:
438,111,43877,2,0,P|419:179|401:285,1,148.5,2|0,1:2|2:0,2:0:0:0:
455,321,44193,6,0,P|417:368|283:311,1,198,2|0,1:2|1:0,2:0:0:0:
180,139,44667,1,0,2:0:0:0:
137,328,44825,2,0,P|196:304|252:287,1,99,10|2,2:0|1:2,2:0:0:0:
268,204,45140,1,0,1:0:0:0:
68,265,45298,6,0,P|9:234|26:106,1,198,10|10,2:0|2:0,2:0:0:0:
212,23,45772,2,0,P|198:81|191:141,1,99,2|2,1:2|1:2,2:0:0:0:
20,30,46088,2,0,P|80:40|115:83,1,99,10|0,2:0|1:0,2:0:0:0:
220,206,46404,1,10,2:0:0:0:
316,31,46561,1,10,2:0:0:0:
407,253,46719,6,0,B|285:277|372:331|234:355,1,198,4|0,1:0|2:0,2:0:0:0:
306,201,47193,1,0,2:0:0:0:
379,382,47351,2,0,P|434:364|460:319,1,99,10|2,2:0|2:0,2:0:0:0:
497,128,47667,1,0,1:0:0:0:
258,93,47825,6,0,P|271:151|296:299,1,198,10|10,2:0|2:0,2:0:0:0:
394,84,48298,2,0,P|372:137|359:193,1,99,2|0,1:2|2:0,2:0:0:0:
210,250,48614,2,0,P|153:227|136:173,1,99,10|2,2:0|1:2,2:0:0:0:
233,53,48930,1,2,1:2:0:0:
25,24,49088,1,8,2:0:0:0:
25,24,49167,1,8,2:0:0:0:
25,24,49246,6,0,P|38:81|61:245,1,198,6|0,1:2|1:0,2:0:0:0:
290,177,49719,1,0,2:0:0:0:
109,358,49877,2,0,P|108:307|146:259,1,99,10|0,2:0|2:0,2:0:0:0:
290,177,50193,1,0,1:0:0:0:
214,365,50351,1,8,2:0:0:0:
191,166,50509,6,0,P|212:220|229:278,1,99,2|8,2:0|2:0,2:0:0:0:
410,117,50825,2,0,P|385:169|370:212,1,99,0|0,1:0|2:0,2:0:0:0:
142,15,51140,5,8,2:0:0:0:
307,124,51298,1,0,1:0:0:0:
105,216,51456,1,8,2:0:0:0:
217,70,51614,1,8,2:0:0:0:
9,21,51772,6,0,P|25:84|30:121,1,99,4|0,1:0|2:0,2:0:0:0:
189,259,52088,2,0,P|196:210|209:162,1,99,8|0,2:0|2:0,2:0:0:0:
142,15,52404,1,2,1:2:0:0:
110,187,52561,2,0,P|60:205|10:232,1,99,2|8,2:0|2:0,2:0:0:0:
232,40,52877,6,0,B|351:73|266:127|387:165,1,198,2|0,2:0|2:0,2:0:0:0:
491,39,53351,2,0,P|437:61|391:76,1,99,10|0,2:0|2:0,2:0:0:0:
289,223,53667,2,0,P|232:202|178:190,1,99,2|2,1:2|2:0,2:0:0:0:
114,63,53983,1,10,2:0:0:0:
314,314,54298,6,0,B|362:294|406:337|404:343|400:348|433:394|515:360,2,198,4|8|2,1:0|2:0|1:2,2:0:0:0:
155,217,55088,1,2,2:0:0:0:
253,382,55246,1,8,2:0:0:0:
403,188,55404,6,0,P|347:172|243:276,1,198,2|2,2:0|2:0,2:0:0:0:
39,270,55877,2,0,P|59:331|66:372,1,99,10|0,2:0|2:0,2:0:0:0:
228,136,56193,1,2,1:2:0:0:
139,307,56351,1,2,2:0:0:0:
65,86,56509,1,10,2:0:0:0:
153,206,56667,1,2,2:0:0:0:
153,206,56746,1,2,2:0:0:0:
153,206,56825,6,0,P|208:192|259:183,1,99,4|2,1:0|2:0,2:0:0:0:
432,63,57140,2,0,P|401:14|353:2,1,99,8|0,2:0|2:0,2:0:0:0:
328,269,57456,6,0,P|343:200|364:133,1,99,2|0,1:2|1:0,2:0:0:0:
272,43,57772,1,8,2:0:0:0:
463,186,57930,1,8,2:0:0:0:
463,186,58009,1,8,2:0:0:0:
463,186,58088,1,4,1:0:0:0:
30,295,58404,6,0,P|22:257|11:217,1,63,8|8,2:0|2:0,2:0:0:0:
139,135,58561,2,0,P|127:171|122:195,1,63,8|8,2:0|2:0,2:0:0:0:
169,352,58719,5,0,1:0:0:0:
204,358,58798,1,0,1:0:0:0:
245,337,58877,1,8,2:0:0:0:
271,296,58956,1,8,2:0:0:0:
288,248,59035,1,8,2:0:0:0:
347,221,59114,1,8,2:0:0:0:
415,255,59193,6,0,P|338:233|317:85,1,234,4|2,1:0|1:2,2:0:0:0:
509,3,59667,2,0,P|486:61|473:113,1,108,8|2,2:0|2:0,2:0:0:0:
293,335,59983,1,0,1:0:0:0:
309,96,60140,1,0,1:0:0:0:
504,215,60298,2,0,P|444:192|390:176,1,108,8|2,2:0|2:0,2:0:0:0:
112,324,60614,6,0,P|177:341|268:218,1,216,2|8,1:2|2:0,2:0:0:0:
94,55,61088,2,0,P|113:117|127:176,1,108,2|0,1:2|2:0,2:0:0:0:
293,0,61404,2,0,P|274:62|260:121,1,108,2|8,1:2|2:0,2:0:0:0:
11,166,61719,6,0,P|69:152|174:262,1,216,4|0,1:0|1:0,2:0:0:0:
32,380,62193,2,0,P|22:326|3:263,1,108,10|0,2:0|2:0,2:0:0:0:
241,180,62509,1,2,1:2:0:0:
127,344,62667,1,0,1:0:0:0:
304,243,62825,2,0,P|284:318|276:358,1,108,8|0,2:0|2:0,2:0:0:0:
175,65,63140,5,2,1:2:0:0:
357,167,63298,1,0,2:0:0:0:
143,263,63456,1,10,2:0:0:0:
301,105,63614,2,0,P|379:131|464:31,1,216,2|2,1:2|1:2,2:0:0:0:
381,5,64088,1,8,2:0:0:0:
512,213,64246,6,0,B|398:243|469:309|327:345,1,216,4|0,1:0|1:0,2:0:0:0:
210,146,64719,2,0,P|230:214|238:263,1,108,10|0,2:0|2:0,2:0:0:0:
381,5,65035,1,2,1:2:0:0:
311,190,65193,1,0,1:0:0:0:
213,18,65351,1,8,2:0:0:0:
417,111,65509,1,0,2:0:0:0:
236,250,65667,6,0,P|175:230|22:188,1,216,4|10,1:0|2:0,2:0:0:0:
195,105,66140,1,2,1:2:0:0:
55,9,66298,2,0,P|74:68|86:130,1,108,2|2,2:0|1:2,2:0:0:0:
166,0,66614,1,10,2:0:0:0:
267,173,66772,6,0,P|303:112|469:134,1,216,4|0,1:0|1:0,2:0:0:0:
504,312,67246,2,0,P|444:293|391:283,1,108,10|0,2:0|1:0,2:0:0:0:
472,211,67561,1,10,2:0:0:0:
472,211,67719,1,0,1:0:0:0:
329,348,67877,2,0,P|271:302|276:243,1,108,10|2,2:0|1:2,2:0:0:0:
419,105,68193,6,0,P|429:67|438:41,2,54,10|10|10,2:0|2:0|2:0,2:0:0:0:
170,116,68509,1,2,1:2:0:0:
179,141,68588,1,2,1:2:0:0:
187,167,68667,1,2,1:2:0:0:
193,193,68746,1,2,1:2:0:0:
198,219,68825,1,10,1:2:0:0:
301,15,68983,1,10,2:0:0:0:
9,379,69298,6,0,P|30:320|192:331,1,216,4|2,1:0|1:2,2:0:0:0:
381,273,69772,2,0,P|355:346|347:389,1,108,8|2,2:0|2:0,2:0:0:0:
157,147,70088,1,0,1:0:0:0:
236,354,70246,1,0,1:0:0:0:
349,174,70404,2,0,P|291:190|222:215,1,108,8|2,2:0|2:0,2:0:0:0:
34,68,70719,6,0,P|57:133|97:301,1,216,2|8,1:2|2:0,2:0:0:0:
182,16,71193,2,0,P|147:78|133:115,1,108,2|0,1:2|2:0,2:0:0:0:
304,308,71509,2,0,P|295:244|261:209,1,108,2|8,1:2|2:0,2:0:0:0:
0,233,71825,6,0,B|112:213|71:299|205:272,1,216,4|0,1:0|1:0,2:0:0:0:
423,379,72298,2,0,P|436:320|454:262,1,108,10|0,2:0|2:0,2:0:0:0:
278,47,72614,1,2,1:2:0:0:
368,243,72772,1,0,1:0:0:0:
421,5,72930,1,8,2:0:0:0:
293,190,73088,1,0,2:0:0:0:
509,225,73246,5,2,1:2:0:0:
329,117,73404,1,0,2:0:0:0:
503,35,73561,1,10,2:0:0:0:
368,243,73719,2,0,P|282:222|195:346,1,216,2|2,1:2|1:2,2:0:0:0:
257,375,74193,1,8,2:0:0:0:
60,150,74351,6,0,B|183:144|115:228|278:213,1,216,4|0,1:0|1:0,2:0:0:0:
430,85,74825,1,10,2:0:0:0:
339,259,74983,1,0,2:0:0:0:
230,31,75140,2,0,P|250:95|263:156,1,108,2|0,1:2|1:0,2:0:0:0:
429,282,75456,2,0,P|477:242|487:184,1,108,8|0,2:0|2:0,2:0:0:0:
291,367,75772,6,0,P|199:332|61:300,1,216,4|10,1:0|2:0,2:0:0:0:
42,126,76246,1,2,1:2:0:0:
156,80,76404,2,0,P|134:151|118:214,1,108,2|2,2:0|1:2,2:0:0:0:
21,244,76719,1,10,2:0:0:0:
222,177,76877,6,0,P|281:200|374:81,1,216,4|0,1:0|1:0,2:0:0:0:
224,0,77351,2,0,P|241:51|255:116,1,108,10|0,2:0|1:0,2:0:0:0:
441,182,77667,1,10,2:0:0:0:
441,182,77825,1,0,1:0:0:0:
319,354,77983,2,0,P|259:328|242:274,1,108,10|2,2:0|2:0,2:0:0:0:
360,102,78298,6,0,P|344:167|339:219,1,108,0|2,1:2|2:0,2:0:0:0:
196,375,78614,1,8,2:0:0:0:
159,146,78772,1,0,1:0:0:0:
13,317,78930,5,10,2:0:0:0:
222,203,79088,1,8,2:0:0:0:
47,47,79246,1,2,1:2:0:0:
47,47,79325,1,2,1:2:0:0:
47,47,79404,6,0,P|63:99|79:189,1,108,4|0,1:0|2:0,2:0:0:0:
271,284,79719,1,2,1:2:0:0:
349,61,79877,5,8,2:0:0:0:
168,185,80035,1,2,1:2:0:0:
442,265,80193,5,10,2:0:0:0:
268,17,80351,1,0,1:0:0:0:
182,353,80509,5,10,2:0:0:0:
427,97,80667,1,2,1:2:0:0:
427,97,80746,1,2,1:2:0:0:
427,97,80825,5,10,1:2:0:0:
11,263,80983,1,10,2:0:0:0:
63,71,81456,5,10,1:2:0:0:
397,379,81614,1,10,2:0:0:0:
397,379,82088,6,0,P|313:354|181:323,1,216,2|2,2:0|2:0,2:0:0:0:
57,78,84298,5,2,2:0:0:0:
57,78,84456,1,2,2:0:0:0:
57,78,84614,2,0,P|66:111|80:190,2,108,2|2|2,2:0|2:0|2:0,2:0:0:0:
75,358,86509,6,0,P|92:319|131:258,1,108,2|2,2:0|1:2,2:0:0:0:
268,179,88404,5,0,1:0:0:0:
188,324,88719,1,0,1:0:0:0:
124,114,89351,5,0,1:0:0:0:
225,211,89509,6,0,P|166:176|27:118,1,216,12|0,2:0|1:0,2:0:0:0:
250,3,89983,2,0,P|222:70|208:126,1,108,8|0,2:0|1:0,2:0:0:0:
373,228,90298,6,0,P|353:184|294:158,1,108,8|0,2:0|1:0,2:0:0:0:
151,365,90614,2,0,P|134:291|116:226,1,108,8|0,2:0|1:0,2:0:0:0:
436,117,90930,5,8,2:0:0:0:
266,293,91088,1,0,1:0:0:0:
480,384,91246,5,8,2:0:0:0:
266,293,91404,1,8,2:0:0:0:
502,195,91561,5,10,2:0:0:0:
416,295,91719,2,0,P|341:271|192:231,1,216,10|0,2:0|2:0,2:0:0:0:
208,234,93456,5,6,1:2:0:0:
161,102,98509,6,0,P|221:125|240:226,1,162,4|2,1:0|2:0,2:0:0:0:
295,358,98983,1,2,2:0:0:0:
295,358,99140,2,0,P|246:343|123:317,1,162,2|2,1:2|2:0,2:0:0:0:
29,166,99614,1,2,2:0:0:0:
29,166,99772,2,0,P|46:216|60:262,1,81.0000000000001,2|0,1:2|2:0,2:0:0:0:
148,74,100088,2,0,P|133:128|125:170,1,81.0000000000001,2|0,2:0|2:0,2:0:0:0:
212,285,100404,2,0,P|251:264|266:226,1,81.0000000000001,2|0,1:2|2:0,2:0:0:0:
242,124,100719,1,2,2:0:0:0:
501,27,101035,6,0,P|480:80|469:124,1,90.0000000000001,4|0,1:0|2:0,2:0:0:0:
496,281,101351,1,10,2:0:0:0:
328,140,101509,1,0,1:0:0:0:
307,351,101667,6,0,P|359:326|412:316,1,90.0000000000001,10|0,2:0|1:0,2:0:0:0:
238,144,101983,1,10,2:0:0:0:
418,209,102140,1,0,1:0:0:0:
205,374,102298,6,0,P|220:324|228:276,1,90.0000000000001,4|0,1:0|2:0,2:0:0:0:
95,49,102614,2,0,P|81:91|73:136,1,90.0000000000001,2|0,1:2|2:0,2:0:0:0:
418,209,102930,6,0,P|430:156|443:104,1,108,0|2,2:0|2:0,2:0:0:0:
417,30,103325,1,2,2:0:0:0:
405,23,103404,6,0,B|302:33|369:99|221:101,1,162,4|0,1:0|2:0,2:0:0:0:
200,43,103719,1,0,1:0:0:0:
289,271,103877,5,8,2:0:0:0:
106,119,104035,1,0,2:0:0:0:
343,173,104193,5,0,1:0:0:0:
123,350,104351,1,0,1:0:0:0:
267,97,104509,5,8,2:0:0:0:
341,384,104667,1,0,1:0:0:0:
341,384,104746,1,0,1:0:0:0:
341,384,104825,1,4,1:0:0:0:
63,207,104983,1,0,1:0:0:0:
407,87,105140,5,8,2:0:0:0:
141,360,105298,1,0,1:0:0:0:
137,353,105377,1,0,1:0:0:0:
137,346,105456,1,8,2:0:0:0:
243,2,105614,5,4,1:0:0:0:
243,2,106088,6,0,P|340:1|396:115,1,198,4|0,1:0|2:0,2:0:0:0:
263,179,106561,1,0,2:0:0:0:
451,263,106719,2,0,P|441:201|435:152,1,99,10|2,2:0|2:0,2:0:0:0:
508,87,107035,1,0,1:0:0:0:
353,267,107193,6,0,B|230:280|308:345|177:371,1,198,10|10,2:0|2:0,2:0:0:0:
16,260,107667,2,0,P|21:209|61:171,1,99,2|0,1:2|2:0,2:0:0:0:
263,197,107983,2,0,P|214:177|174:142,1,99,10|2,2:0|1:2,2:0:0:0:
18,14,108298,2,0,P|78:7|140:91,1,148.5,2|0,1:2|2:0,2:0:0:0:
178,147,108614,6,0,P|233:115|385:70,1,198,2|0,1:2|1:0,2:0:0:0:
505,8,109088,1,0,2:0:0:0:
372,162,109246,2,0,P|423:181|476:216,1,99,10|2,2:0|1:2,2:0:0:0:
455,98,109561,1,0,1:0:0:0:
508,298,109719,6,0,P|423:308|336:376,1,198,10|10,2:0|2:0,2:0:0:0:
205,199,110193,2,0,P|230:253|242:304,1,99,2|2,1:2|1:2,2:0:0:0:
372,162,110509,2,0,P|314:135|277:110,1,99,10|0,2:0|1:0,2:0:0:0:
122,259,110825,1,10,2:0:0:0:
205,71,110983,1,10,2:0:0:0:
0,120,111140,6,0,P|68:107|166:206,1,198,4|0,1:0|2:0,2:0:0:0:
196,368,111614,1,0,2:0:0:0:
310,236,111772,2,0,P|286:307|276:364,1,99,10|2,2:0|2:0,2:0:0:0:
182,275,112088,1,0,1:0:0:0:
387,316,112246,6,0,P|458:294|481:173,1,198,10|10,2:0|2:0,2:0:0:0:
314,117,112719,2,0,P|370:103|424:83,1,99,2|0,1:2|2:0,2:0:0:0:
223,187,113035,2,0,P|276:205|325:230,1,99,10|2,2:0|1:2,2:0:0:0:
387,316,113351,1,2,1:2:0:0:
233,92,113509,1,8,2:0:0:0:
233,92,113588,1,8,2:0:0:0:
233,92,113667,6,0,P|213:165|183:301,1,198,6|0,1:2|1:0,2:0:0:0:
85,117,114140,1,0,2:0:0:0:
17,335,114298,2,0,P|76:304|88:247,1,99,10|0,2:0|2:0,2:0:0:0:
296,208,114614,1,0,1:0:0:0:
150,50,114772,1,8,2:0:0:0:
186,284,114930,6,0,P|166:222|145:172,1,99,2|8,2:0|2:0,2:0:0:0:
318,99,115246,2,0,P|300:145|285:192,1,99,0|0,1:0|2:0,2:0:0:0:
353,377,115561,5,8,2:0:0:0:
481,183,115719,1,0,1:0:0:0:
286,303,115877,1,8,2:0:0:0:
461,362,116035,1,8,2:0:0:0:
359,147,116193,6,0,P|308:133|255:113,1,99,4|0,1:0|2:0,2:0:0:0:
204,321,116509,2,0,P|250:304|298:291,1,99,8|0,2:0|2:0,2:0:0:0:
174,109,116825,1,2,1:2:0:0:
116,288,116983,2,0,P|73:258|66:212,1,99,2|8,2:0|2:0,2:0:0:0:
244,28,117298,6,0,P|217:109|185:244,1,198,2|0,2:0|2:0,2:0:0:0:
339,381,117772,2,0,P|332:330|289:293,1,99,10|0,2:0|2:0,2:0:0:0:
128,375,118088,2,0,P|182:344|221:313,1,99,2|2,1:2|2:0,2:0:0:0:
53,300,118404,1,10,2:0:0:0:
178,31,118719,6,0,B|288:59|206:128|342:150,2,198,4|8|2,1:0|2:0|1:2,2:0:0:0:
91,200,119509,1,2,2:0:0:0:
35,14,119667,1,8,2:0:0:0:
9,248,119825,6,0,P|80:219|121:209,1,99,2|2,2:0|1:2,2:0:0:0:
368,375,120140,1,2,2:2:0:0:
385,317,120219,1,2,2:2:0:0:
366,265,120298,1,10,2:2:0:0:
323,233,120377,1,2,2:2:0:0:
273,235,120456,1,2,2:2:0:0:
233,260,120535,1,2,2:2:0:0:
218,296,120614,1,2,1:2:0:0:
223,325,120693,1,2,2:2:0:0:
236,342,120772,1,2,2:2:0:0:
248,349,120851,1,2,2:2:0:0:
260,353,120930,2,0,L|278:297,1,49.5,10|2,2:2|2:2,2:2:0:0:
148,236,121088,1,2,2:2:0:0:
148,236,121167,1,2,2:2:0:0:
148,236,121246,6,0,P|100:250|52:262,1,99,4|2,1:0|2:0,2:0:0:0:
232,154,121561,2,0,P|183:122|144:83,1,99,8|0,2:0|2:0,2:0:0:0:
356,227,121877,6,0,P|323:274|321:319,1,99,2|0,1:2|1:0,2:0:0:0:
440,83,122193,1,8,2:0:0:0:
510,296,122351,1,8,2:0:0:0:
510,296,122430,1,8,2:0:0:0:
510,296,122509,1,4,1:0:0:0:
71,333,122825,6,0,P|60:281|46:243,1,63,8|8,2:0|2:0,2:0:0:0:
191,197,122983,2,0,P|182:227|176:258,1,63,8|8,2:0|2:0,2:0:0:0:
99,99,123140,5,0,1:0:0:0:
128,79,123219,1,0,1:0:0:0:
174,83,123298,1,8,2:0:0:0:
214,110,123377,1,8,2:0:0:0:
249,148,123456,1,8,2:0:0:0:
314,150,123535,1,8,2:0:0:0:
369,94,123614,6,0,P|345:211|321:347,1,234,4|2,1:0|1:2,2:0:0:0:
141,286,124088,2,0,P|181:241|245:242,1,108,8|2,2:0|2:0,2:0:0:0:
385,379,124404,1,0,1:0:0:0:
483,212,124561,1,0,1:0:0:0:
385,379,124719,2,0,P|318:338|261:316,1,108,8|2,2:0|2:0,2:0:0:0:
92,177,125035,6,0,P|123:257|150:396,1,216,2|8,1:2|2:0,2:0:0:0:
226,235,125509,2,0,P|260:195|265:131,1,108,2|0,1:2|2:0,2:0:0:0:
96,49,125825,2,0,P|56:73|-6:97,1,108,2|8,1:2|2:0,2:0:0:0:
123,265,126140,6,0,P|224:247|290:326,1,216,4|0,1:0|1:0,2:0:0:0:
500,191,126614,2,0,P|450:170|381:134,1,108,10|0,2:0|2:0,2:0:0:0:
354,381,126930,1,2,1:2:0:0:
508,284,127088,1,0,1:0:0:0:
314,147,127246,2,0,P|341:221|356:293,1,108,8|0,2:0|2:0,2:0:0:0:
376,52,127561,5,2,1:2:0:0:
238,202,127719,1,0,2:0:0:0:
163,9,127877,1,10,2:0:0:0:
314,147,128035,6,0,P|255:95|124:140,1,216,2|2,1:2|1:2,2:0:0:0:
53,69,128509,1,8,2:0:0:0:
22,298,128667,6,0,P|94:275|259:239,1,216,4|0,1:0|1:0,2:0:0:0:
436,376,129140,2,0,P|477:336|481:277,1,108,10|0,2:0|2:0,2:0:0:0:
293,130,129456,1,2,1:2:0:0:
370,309,129614,1,0,1:0:0:0:
449,93,129772,1,8,2:0:0:0:
301,241,129930,1,0,2:0:0:0:
243,25,130088,6,0,P|171:46|160:196,1,216,4|10,1:0|2:0,2:0:0:0:
328,113,130561,1,2,1:2:0:0:
324,229,130719,2,0,P|272:200|211:178,1,108,2|2,2:0|1:2,2:0:0:0:
124,264,131035,1,10,2:0:0:0:
290,384,131193,6,0,P|348:342|489:261,1,216,4|0,1:0|1:0,2:0:0:0:
373,56,131667,2,0,P|395:135|411:183,1,108,10|0,2:0|1:0,2:0:0:0:
475,55,131983,1,10,2:0:0:0:
475,55,132140,1,0,1:0:0:0:
302,150,132298,2,0,P|236:123|191:106,1,108,10|2,2:0|1:2,2:0:0:0:
14,265,132614,6,0,P|21:291|26:317,2,54,10|10|10,2:0|2:0|2:0,2:0:0:0:
198,384,132930,1,2,1:2:0:0:
203,358,133009,1,2,1:2:0:0:
209,332,133088,1,2,1:2:0:0:
217,306,133167,1,2,1:2:0:0:
226,281,133246,1,10,1:2:0:0:
82,171,133404,1,10,2:0:0:0:
433,337,133719,6,0,P|487:315|470:142,1,216,4|2,1:0|1:2,2:0:0:0:
324,98,134193,2,0,P|345:154|362:206,1,108,8|2,2:0|2:0,2:0:0:0:
172,89,134509,2,0,P|253:105|344:-8,1,216,0|8,1:0|2:0,2:0:0:0:
254,2,134983,1,2,2:0:0:0:
211,196,135140,6,0,B|79:209|174:278|4:301,1,216,2|8,1:2|2:0,2:0:0:0:
50,108,135614,2,0,P|105:155|120:224,1,108,2|0,1:2|2:0,2:0:0:0:
198,384,135930,2,0,P|219:325|251:266,1,108,2|8,1:2|2:0,2:0:0:0:
422,172,136246,6,0,P|334:120|341:17,1,216,4|0,1:0|1:0,2:0:0:0:
512,141,136719,2,0,P|492:211|476:282,1,108,10|0,2:0|2:0,2:0:0:0:
315,376,137035,5,2,1:2:0:0:
247,159,137193,1,0,1:0:0:0:
408,303,137351,1,8,2:0:0:0:
195,364,137509,1,0,2:0:0:0:
326,200,137667,5,2,1:2:0:0:
151,292,137825,1,0,2:0:0:0:
315,376,137983,1,10,2:0:0:0:
178,200,138140,2,0,P|111:219|9:120,1,216,2|2,1:2|1:2,2:0:0:0:
58,40,138614,1,8,2:0:0:0:
178,200,138772,6,0,B|290:161|272:263|407:219,1,216,4|0,1:0|1:0,2:0:0:0:
512,129,139246,1,10,2:0:0:0:
399,316,139404,1,0,2:0:0:0:
280,99,139561,2,0,P|299:169|305:224,1,108,2|0,1:2|1:0,2:0:0:0:
487,318,139877,2,0,P|495:264|510:212,1,108,8|0,2:0|2:0,2:0:0:0:
512,2,140193,6,0,P|445:76|330:32,1,216,4|10,1:0|2:0,2:0:0:0:
208,177,140667,1,2,1:2:0:0:
296,241,140825,2,0,P|304:187|319:135,1,108,2|2,2:0|1:2,2:0:0:0:
247,24,141140,1,10,2:0:0:0:
401,208,141298,6,0,P|324:254|232:370,1,216,4|0,1:0|1:0,2:0:0:0:
38,236,141772,2,0,P|95:269|130:304,1,108,10|0,2:0|1:0,2:0:0:0:
253,144,142088,1,10,2:0:0:0:
253,144,142246,1,0,1:0:0:0:
96,72,142404,2,0,P|122:140|135:197,1,108,10|2,2:0|2:0,2:0:0:0:
242,349,142719,6,0,P|285:311|297:255,1,108,0|2,1:2|2:0,2:0:0:0:
209,61,143035,1,8,2:0:0:0:
381,182,143193,1,0,1:0:0:0:
144,277,143351,5,10,2:0:0:0:
311,117,143509,1,8,2:0:0:0:
347,369,143667,1,2,1:2:0:0:
347,369,143746,1,2,1:2:0:0:
347,369,143825,6,0,P|402:377|468:391,1,108,4|0,1:0|2:0,2:0:0:0:
505,121,144140,1,2,1:2:0:0:
327,280,144298,5,8,2:0:0:0:
228,28,144456,1,2,1:2:0:0:
110,326,144614,5,10,2:0:0:0:
317,67,144772,1,0,1:0:0:0:
222,356,144930,5,10,2:0:0:0:
134,41,145088,1,2,1:2:0:0:
134,41,145167,1,2,1:2:0:0:
134,41,145246,5,10,1:2:0:0:
495,260,145404,1,10,2:0:0:0:
110,326,145877,5,10,1:2:0:0:
449,41,146035,1,10,2:0:0:0:
448,352,146351,6,0,B|423:302|423:302|354:278|280:256,1,198,4|2,1:0|1:2,2:0:0:0:
118,149,146825,2,0,P|137:221|148:279,1,99,10|2,2:0|2:0,2:0:0:0:
315,183,147140,1,2,1:2:0:0:
193,363,147298,2,0,P|135:354|102:301,1,99,0|10,2:0|2:0,2:0:0:0:
191,85,147614,6,0,P|100:125|4:151,1,198,2|0,2:0|2:0,2:0:0:0:
259,238,148088,2,0,P|201:201|161:183,1,99,10|2,2:0|2:0,2:0:0:0:
399,27,148404,5,2,1:2:0:0:
260,141,148561,1,2,2:0:0:0:
424,208,148719,2,0,P|431:231|439:255,1,49.5,10|0,2:0|2:0,2:0:0:0:
362,114,148877,6,0,P|304:121|217:17,1,198,4|2,1:0|1:2,2:0:0:0:
399,27,149351,2,0,P|451:17|503:2,1,99,10|0,2:0|2:0,2:0:0:0:
326,199,149667,1,2,1:2:0:0:
217,25,149825,1,2,2:0:0:0:
167,257,149983,1,10,2:0:0:0:
167,257,150061,1,2,2:0:0:0:
167,257,150140,1,2,2:0:0:0:
19,94,150298,6,0,P|77:77|126:51,1,99,2|2,1:2|2:0,2:0:0:0:
251,220,150614,1,10,2:0:0:0:
43,316,150772,2,0,P|14:262|102:163,1,198,2|2,2:0|2:0,2:0:0:0:
236,82,151246,1,10,2:0:0:0:
167,257,151404,6,0,P|263:284|353:329,1,198,4|2,1:0|1:2,2:0:0:0:
503,192,151877,2,0,P|481:241|464:293,1,99,8|0,2:0|2:0,2:0:0:0:
288,119,152193,1,2,1:2:0:0:
376,233,152351,1,2,2:0:0:0:
420,59,152509,1,10,2:0:0:0:
298,201,152667,5,2,2:0:0:0:
239,15,152825,1,2,1:2:0:0:
376,147,152983,2,0,P|411:136|434:129,1,49.5,2|2,2:0|2:0,2:0:0:0:
301,93,153140,1,10,2:0:0:0:
301,93,153219,1,2,2:0:0:0:
301,93,153298,1,2,2:0:0:0:
200,149,153456,5,2,1:2:0:0:
153,54,153614,1,2,2:0:0:0:
239,15,153772,1,10,2:0:0:0:
261,210,153930,6,0,P|194:181|37:143,1,198,4|2,1:2|1:2,2:0:0:0:
13,267,154404,2,0,P|66:248|127:235,1,99,8|2,2:0|1:2,2:0:0:0:
229,356,154719,2,0,P|244:320|251:296,2,49.5,10|2|2,2:0|2:0|1:2,2:0:0:0:
168,135,155035,2,0,P|183:191|201:239,1,99,8|0,2:0|1:0,2:0:0:0:
336,351,155351,5,2,1:2:0:0:
384,348,155430,1,2,1:2:0:0:
425,321,155509,1,2,1:2:0:0:
448,278,155588,1,2,1:2:0:0:
446,229,155667,2,0,P|459:172|474:116,1,99,10|2,2:0|1:2,2:0:0:0:
230,3,155983,5,10,2:0:0:0:
398,101,156140,1,8,2:0:0:0:
197,229,156298,1,2,2:0:0:0:
197,229,156377,1,2,2:0:0:0:
197,229,156456,6,0,P|156:180|12:187,1,198,4|0,1:0|1:0,2:0:0:0:
4,265,156930,1,10,2:0:0:0:
56,345,157088,1,2,2:0:0:0:
142,306,157246,1,2,1:2:0:0:
207,372,157404,1,2,1:2:0:0:
295,294,157561,1,8,2:0:0:0:
387,371,157719,1,2,2:0:0:0:
495,249,157877,5,2,1:2:0:0:
387,371,158035,1,2,2:0:0:0:
294,183,158193,5,8,2:0:0:0:
481,344,158351,1,2,1:2:0:0:
246,266,158509,5,2,2:0:0:0:
501,142,158667,1,2,1:2:0:0:
297,346,158825,1,10,2:0:0:0:
204,46,158983,5,4,1:0:0:0:
204,46,159298,6,0,L|196:-9,1,49.5,2|2,1:2|2:0,2:0:0:0:
110,243,159456,1,10,2:0:0:0:
110,243,159535,1,2,2:0:0:0:
110,243,159614,1,2,2:0:0:0:
27,16,159772,5,2,1:2:0:0:
231,154,159930,2,0,P|284:121|337:96,1,99,2|10,1:2|2:0,2:0:0:0:
490,15,160246,6,0,P|509:71|409:165,1,198,2|2,2:0|2:0,2:0:0:0:
254,260,160719,2,0,P|197:227|146:208,1,99,10|2,2:0|1:2,2:0:0:0:
5,93,161035,5,2,2:0:0:0:
91,292,161193,1,2,1:2:0:0:
188,133,161351,1,8,2:0:0:0:
86,201,161509,6,0,P|161:183|303:135,1,198,4|2,1:2|1:2,2:0:0:0:
461,29,161983,1,10,2:0:0:0:
461,29,162298,2,0,P|442:91|435:151,1,99,2|0,1:2|1:0,2:0:0:0:
363,48,162614,1,8,2:0:0:0:
479,224,162772,6,0,P|417:200|319:309,1,198,2|2,2:0|2:0,2:0:0:0:
366,353,163246,1,8,2:0:0:0:
194,239,163404,2,0,P|216:303|227:352,1,99,2|2,1:2|2:0,2:0:0:0:
324,137,163719,1,2,1:2:0:0:
134,321,163877,1,8,2:0:0:0:
48,35,164035,6,0,P|109:30|194:144,1,198,4|0,1:0|1:0,2:0:0:0:
72,258,164509,1,10,2:0:0:0:
268,192,164667,6,0,P|287:123|307:75,1,99,0|10,1:0|2:0,2:0:0:0:
20,194,164983,2,0,P|38:252|54:325,1,99,0|8,1:0|2:0,2:0:0:0:
35,373,165219,1,8,2:0:0:0:
30,384,165298,1,0,1:0:0:0:
118,142,165456,5,14,1:2:0:0:
408,304,165614,1,10,2:0:0:0:
499,128,165772,5,2,2:0:0:0:
442,105,165851,1,2,2:0:0:0:
392,127,165930,1,2,2:0:0:0:
372,167,166009,1,2,2:0:0:0:
377,208,166088,6,0,P|423:221|447:228,1,63,10|0,1:2|2:0,2:0:0:0:
183,77,166246,2,0,P|137:64|113:57,1,63,10|0,2:0|2:0,2:0:0:0:
119,320,166404,1,2,2:0:0:0:
114,327,166483,1,2,2:0:0:0:
110,333,166561,6,0,P|58:299|88:197,1,148.5,4|0,1:0|2:0,2:0:0:0:
129,168,166877,1,0,1:0:0:0:
261,308,167035,2,0,P|315:292|383:277,1,99,10|0,2:0|2:0,2:0:0:0:
489,148,167351,1,2,1:2:0:0:
324,67,167509,2,0,P|346:122|363:179,1,99,2|10,1:2|2:0,2:0:0:0:
415,371,167825,6,0,P|429:308|468:211,1,148.5,4|0,1:0|2:0,2:0:0:0:
489,148,168140,1,0,1:0:0:0:
356,282,168298,2,0,P|295:257|277:205,1,99,10|0,2:0|2:0,2:0:0:0:
206,26,168614,1,2,1:2:0:0:
151,233,168772,1,2,1:2:0:0:
279,103,168930,1,10,2:0:0:0:
51,106,169088,6,0,P|128:90|211:193,1,198,4|0,1:0|1:0,2:0:0:0:
162,326,169561,2,0,P|107:339|56:357,1,99,10|0,2:0|2:0,2:0:0:0:
314,140,169877,2,0,P|289:196|274:248,1,99,2|2,1:2|1:2,2:0:0:0:
127,206,170193,1,10,2:0:0:0:
313,378,170351,6,0,P|373:356|435:343,1,99,4|0,1:0|2:0,2:0:0:0:
500,79,170667,6,0,P|485:127|475:160,1,67.5,8|8,2:0|2:0,2:0:0:0:
302,294,170825,2,0,P|292:261|275:228,1,67.5,8|8,2:0|2:0,2:0:0:0:
130,67,170983,1,8,2:0:0:0:
132,62,171061,1,8,2:0:0:0:
134,56,171140,6,0,L|124:10,8,31.5,10|2|2|2|10|2|2|2|2,1:2|2:0|2:0|2:0|0:0|2:0|2:0|2:0|2:0,2:0:0:0:
85,291,171614,6,0,P|135:288|178:221,1,108,4|0,1:0|2:0,2:0:0:0:
225,94,171930,1,2,1:2:0:0:
25,41,172088,2,0,P|42:104|52:165,1,108,8|2,2:0|2:0,2:0:0:0:
243,351,172404,2,0,P|259:289|282:223,1,108,0|0,1:0|1:0,2:0:0:0:
178,27,172719,1,8,2:0:0:0:
309,174,172877,1,2,2:0:0:0:
28,223,173035,6,0,P|107:234|179:110,1,216,2|8,1:2|2:0,2:0:0:0:
180,309,173509,2,0,P|128:326|79:347,1,108,2|0,1:2|2:0,2:0:0:0:
309,174,173825,2,0,P|325:122|342:71,1,108,2|8,1:2|2:0,2:0:0:0:
506,366,174140,6,0,P|415:366|368:240,1,216,4|0,1:0|1:0,2:0:0:0:
496,37,174614,2,0,P|475:98|458:186,1,108,10|0,2:0|2:0,2:0:0:0:
245,138,174930,2,0,P|264:189|277:242,1,108,2|0,1:2|1:0,2:0:0:0:
355,37,175246,1,8,2:0:0:0:
277,242,175404,1,0,2:0:0:0:
99,115,175561,6,0,P|187:137|260:24,1,216,2|10,1:2|2:0,2:0:0:0:
137,225,176035,2,0,P|90:246|31:282,1,108,2|0,1:2|2:0,2:0:0:0:
133,34,176351,1,2,1:2:0:0:
392,122,176509,1,8,2:0:0:0:
392,122,176588,1,8,2:0:0:0:
392,122,176667,6,0,P|378:182|352:347,1,216,4|0,1:0|1:0,2:0:0:0:
154,382,177140,2,0,P|142:329|124:277,1,108,10|0,2:0|2:0,2:0:0:0:
213,60,177456,1,2,1:2:0:0:
58,233,177614,1,0,1:0:0:0:
33,8,177772,1,8,2:0:0:0:
200,165,177930,1,0,2:0:0:0:
1,106,178088,6,0,P|59:86|111:58,1,108,4|2,1:0|2:0,2:0:0:0:
302,212,178404,1,10,2:0:0:0:
112,159,178561,1,2,1:2:0:0:
84,362,178719,5,2,2:0:0:0:
230,263,178877,1,2,1:2:0:0:
34,191,179035,1,10,2:0:0:0:
221,356,179193,6,0,P|282:332|451:286,1,216,4|0,1:0|1:0,2:0:0:0:
509,49,179667,1,10,2:0:0:0:
324,231,179825,1,0,1:0:0:0:
243,9,179983,5,10,2:0:0:0:
490,171,180140,1,0,1:0:0:0:
286,315,180298,5,10,2:0:0:0:
438,94,180456,1,2,1:2:0:0:
165,221,180614,5,10,2:0:0:0:
147,215,180693,1,10,2:0:0:0:
129,210,180772,1,10,2:0:0:0:
395,26,180930,5,2,1:2:0:0:
260,381,181088,2,0,P|253:350|245:319,1,63,2|2,1:2|1:2,2:0:0:0:
2,118,181246,5,10,1:2:0:0:
427,281,181404,1,10,2:0:0:0:
427,281,181719,6,0,P|487:253|504:176,1,108,4|0,1:0|2:0,2:0:0:0:
304,141,182035,1,2,1:2:0:0:
437,21,182193,2,0,P|418:82|408:148,1,108,10|2,2:0|1:2,2:0:0:0:
423,380,182509,5,10,2:0:0:0:
204,230,182667,1,2,1:2:0:0:
410,125,182825,1,10,2:0:0:0:
236,338,182983,1,2,1:2:0:0:
151,58,183140,5,4,1:0:0:0:
359,191,183298,1,0,2:0:0:0:
114,270,183456,1,10,2:0:0:0:
276,40,183614,6,0,P|260:114|252:180,1,108,2|10,1:2|2:0,2:0:0:0:
114,270,183930,1,2,1:2:0:0:
65,17,184088,1,10,2:0:0:0:
4,237,184246,6,0,P|89:241|158:113,1,216,4|2,1:0|1:2,2:0:0:0:
65,17,184719,1,10,2:0:0:0:
275,95,184877,1,2,1:2:0:0:
34,160,185035,5,10,2:0:0:0:
293,10,185193,1,2,1:2:0:0:
378,303,185351,5,10,2:0:0:0:
202,56,185509,1,2,1:2:0:0:
145,365,185667,5,4,1:0:0:0:
412,176,185825,1,0,2:0:0:0:
107,48,185983,1,10,2:0:0:0:
415,354,186140,6,0,P|430:303|451:253,1,108,2|10,1:2|2:0,2:0:0:0:
359,36,186456,1,2,1:2:0:0:
227,297,186614,2,0,P|217:265|201:231,1,67.5,10|8,2:0|2:0,2:0:0:0:
359,36,186772,6,0,B|324:127|287:51|242:191,1,162,4|0,1:0|2:0,2:0:0:0:
295,233,187088,1,0,1:0:0:0:
14,187,187246,2,0,P|63:170|115:147,1,108,10|2,2:0|2:0,2:0:0:0:
304,320,187561,5,2,1:2:0:0:
128,231,187719,1,0,1:0:0:0:
328,131,187877,2,0,P|307:191|290:256,1,108,8|0,2:0|2:0,2:0:0:0:
209,379,188193,5,4,1:0:0:0:
431,338,188351,2,0,P|420:278|375:244,1,108,2|10,2:0|2:0,2:0:0:0:
226,155,188667,1,2,1:2:0:0:
431,67,188825,5,2,2:0:0:0:
295,233,188983,1,2,1:2:0:0:
245,7,189140,1,10,2:0:0:0:
461,165,189298,6,0,P|359:152|295:233,1,216,4|0,1:0|1:0,2:0:0:0:
134,382,189772,1,10,2:0:0:0:
348,310,189930,1,0,1:0:0:0:
150,142,190088,5,10,2:0:0:0:
277,367,190246,1,0,1:0:0:0:
345,76,190404,5,10,2:0:0:0:
150,268,190561,1,2,2:0:0:0:
256,5,190719,5,0,1:2:0:0:
41,144,190877,1,2,2:0:0:0:
295,232,191035,1,8,2:0:0:0:
295,232,191114,1,0,2:0:0:0:
295,232,191193,1,0,1:0:0:0:
102,32,191351,5,10,2:0:0:0:
177,339,191509,1,8,2:0:0:0:
331,132,191667,1,2,1:2:0:0:
331,132,191746,1,2,1:2:0:0:
331,132,191825,6,0,P|387:118|488:227,1,216,4|2,1:0|1:2,2:0:0:0:
162,290,192298,1,8,2:0:0:0:
259,57,192456,1,2,1:2:0:0:
76,341,192614,5,10,2:0:0:0:
29,316,192693,1,2,2:0:0:0:
1,271,192772,1,2,1:2:0:0:
0,217,192851,1,2,2:0:0:0:
26,171,192930,1,10,2:0:0:0:
352,34,193088,6,0,P|339:77|329:122,1,72,2|2,1:2|1:2,2:0:0:0:
184,384,193246,5,10,1:2:0:0:
60,0,193404,1,10,2:0:0:0:
408,178,193877,5,10,1:2:0:0:
0,375,194035,1,10,2:0:0:0:
