osu file format v14

[General]
AudioFilename: audio.mp3
AudioLeadIn: 0
PreviewTime: 59173
Countdown: 0
SampleSet: Soft
StackLeniency: 0.5
Mode: 0
LetterboxInBreaks: 0
WidescreenStoryboard: 1

[Editor]
Bookmarks: 1246,23983,41667,59193,82088,89509,106088,123614,146351,166561,171614,196088
DistanceSpacing: 0.5
BeatDivisor: 4
GridSize: 32
TimelineZoom: 1.9

[Metadata]
Title:Donna Ketsumatsu ga Onozomi dai?
TitleUnicode:どんな結末がお望みだい?
Artist:TUYU
ArtistUnicode:ツユ
Creator:Len
Version:New's Extra
Source:プロジェクトセカイ カラフルステージ! feat. 初音ミク
Tags:what sort of ending are you wishing for? Don'na japanese jpop j-pop pop jrock j-rock rock 礼衣 ぷす ミロ 双葉陽 rei pusu miro futaba haru azyun vocals female fast l1ght_u light_u -hitomi erisu lanzhu pnky eringira new-username athanasia- proseka prsk プロセカ ワンダーランズ×ショウタイム Wonderlands x Showtime ワンダショ Wondershow project sekai colorful stage! hatsune miku A Sorrowful Farewell at the Curtain Call カーテンコールに惜別を vocaloid
BeatmapID:3865589
BeatmapSetID:1875378

[Difficulty]
HPDrainRate:5
CircleSize:3.8
OverallDifficulty:8.8
ApproachRate:9.2
SliderMultiplier:1.9
SliderTickRate:0.5

[Events]
//Background and Video events
Video,-100,"defreeyay.mp4"
0,0,"bge.png",0,0
//Break Periods
2,29035,33518
//Storyboard Layer 0 (Background)
//Storyboard Layer 1 (Fail)
//Storyboard Layer 2 (Pass)
//Storyboard Layer 3 (Foreground)
//Storyboard Layer 4 (Overlay)
//Storyboard Sound Samples

[TimingPoints]
-17,315.789473684211,4,2,1,70,1,0
1246,-250,4,2,69,40,0,0
3772,-333.333333333333,4,2,69,40,0,0
4877,-333.333333333333,4,2,68,40,0,0
5035,-333.333333333333,4,2,69,40,0,0
5667,-200,4,2,69,40,0,0
5877,-200,4,2,68,40,0,0
6298,-166.666666666667,4,2,69,40,0,0
7140,-166.666666666667,4,2,68,40,0,0
7561,-333.333333333333,4,2,69,40,0,0
8667,-333.333333333333,4,2,68,40,0,0
8825,-333.333333333333,4,2,69,40,0,0
10930,-333.333333333333,4,2,68,40,0,0
11351,-133.333333333333,4,2,69,40,0,0
12930,-133.333333333333,4,2,1,40,0,0
13877,-133.333333333333,4,2,69,40,0,0
14192,-133.333333333333,4,2,68,40,0,0
14825,-250,4,2,69,40,0,0
15456,-133.333333333333,4,2,68,40,0,0
16088,-133.333333333333,4,2,59,40,0,0
16719,-133.333333333333,4,2,68,40,0,0
17035,-133.333333333333,4,2,69,40,0,0
17350,-133.333333333333,4,2,68,40,0,0
18930,-111.111111111111,4,2,1,50,0,0
21456,-83.3333333333333,4,2,1,60,0,0
23983,-133.333333333333,4,2,1,50,0,0
36614,-83.3333333333333,4,2,1,60,0,0
38193,-133.333333333333,4,2,1,60,0,0
38983,-83.3333333333333,4,2,1,70,0,0
41193,-66.6666666666667,4,2,1,70,0,0
41667,-100,4,2,1,60,0,0
51772,-83.3333333333333,4,2,1,60,0,0
57140,-100,4,2,1,60,0,0
57772,-66.6666666666667,4,2,1,60,0,0
59193,-83.3333333333333,4,2,3,70,0,1
59508,-83.3333333333333,4,2,1,80,0,1
69298,-83.3333333333333,4,2,3,80,0,1
69613,-83.3333333333333,4,2,1,80,0,1
76877,-76.9230769230769,4,2,1,80,0,1
78456,-83.3333333333333,4,2,1,80,0,1
79404,-76.9230769230769,4,2,1,80,0,1
82088,-76.9230769230769,4,2,1,80,0,0
84140,-76.9230769230769,4,2,1,70,0,0
85719,-200,4,2,1,70,0,0
87140,-200,4,2,1,40,0,0
89351,-200,4,2,1,45,0,0
89509,-83.3333333333333,4,2,1,60,0,0
93456,-100,4,2,2,50,0,0
93929,-100,4,2,2,5,0,0
94088,-100,4,2,2,50,0,0
94561,-100,4,2,2,5,0,0
94719,-100,4,2,2,50,0,0
95192,-100,4,2,2,5,0,0
95351,-100,4,2,2,50,0,0
95824,-100,4,2,2,5,0,0
95983,-100,4,2,2,50,0,0
96456,-100,4,2,2,5,0,0
96614,-100,4,2,2,50,0,0
97087,-100,4,2,2,5,0,0
97246,-100,4,2,2,50,0,0
97719,-100,4,2,2,5,0,0
97877,-100,4,2,2,50,0,0
98350,-100,4,2,2,5,0,0
98509,-111.111111111111,4,2,1,55,0,0
101035,-83.3333333333333,4,2,1,60,0,0
102614,-133.333333333333,4,2,1,60,0,0
103404,-83.3333333333333,4,2,1,70,0,0
106088,-100,4,2,1,60,0,0
116193,-83.3333333333333,4,2,1,60,0,0
122509,-66.6666666666667,4,2,1,60,0,0
123614,-83.3333333333333,4,2,3,70,0,1
123929,-83.3333333333333,4,2,1,80,0,1
133719,-83.3333333333333,4,2,3,80,0,1
134034,-83.3333333333333,4,2,1,80,0,1
141298,-76.9230769230769,4,2,1,80,0,1
142877,-83.3333333333333,4,2,1,80,0,1
143825,-76.9230769230769,4,2,1,80,0,1
146351,-83.3333333333333,4,2,1,70,0,0
171614,-83.3333333333333,4,2,3,80,0,1
171929,-83.3333333333333,4,2,1,80,0,1
181719,-83.3333333333333,4,2,3,80,0,1
182034,-83.3333333333333,4,2,1,80,0,1
189298,-76.9230769230769,4,2,1,80,0,1
190719,-83.3333333333333,4,2,1,80,0,1
191825,-76.9230769230769,4,2,3,80,0,1
192140,-76.9230769230769,4,2,1,80,0,1
194035,-83.3333333333333,4,2,1,80,0,0
194981,-83.3333333333333,4,2,1,60,0,0
195613,-83.3333333333333,4,2,1,35,0,0

[Colours]
Combo1 : 142,193,255
Combo2 : 172,172,215

[HitObjects]
125,170,1246,6,0,B|69:131|100:51|178:33|229:104|202:148|202:148|220:182|220:182|180:237|180:237|215:283|192:337,1,456,2|0,2:0|2:0,2:0:0:0:
117,297,3614,1,0,2:0:0:0:
117,297,3693,1,0,2:0:0:0:
117,297,3772,6,0,B|228:289|228:289|228:284|228:284|350:275,1,228,2|2,2:0|2:0,2:0:0:0:
481,349,5667,2,0,P|454:355|422:313,2,63.3333333333333,0|2|2,2:0|2:0|2:0,2:0:0:0:
468,232,6298,6,0,B|390:196|306:266|352:272|272:339|167:289,1,303.999999999999,2|2,2:0|2:0,2:0:0:0:
130,227,7351,1,2,2:0:0:0:
260,384,7561,2,0,P|255:300|245:200,1,171,2|0,2:0|2:0,2:0:0:0:
178,113,8667,1,2,2:0:0:0:
178,113,8746,1,2,2:0:0:0:
178,113,8825,6,0,B|227:117|272:106|272:106|301:128|301:128|354:118|409:122,1,228,2|0,2:0|2:0,2:0:0:0:
489,90,10930,5,2,2:0:0:0:
472,189,11140,1,2,2:0:0:0:
455,288,11351,6,0,B|400:262|400:262|307:303,1,142.5,2|0,2:0|2:0,2:0:0:0:
303,309,11825,1,0,2:0:0:0:
425,384,11983,2,0,L|435:304,1,71.2500000000002,0|0,3:0|2:0,2:0:0:0:
369,236,12298,2,0,L|359:156,1,71.2500000000002,0|0,3:0|2:0,2:0:0:0:
466,129,12614,5,2,3:2:0:0:
461,156,12772,1,0,2:0:0:0:
485,36,12930,5,2,2:0:0:0:
490,9,13088,1,0,2:0:0:0:
399,65,13246,6,0,L|308:51,1,71.2500000000002,0|0,3:0|2:0,2:0:0:0:
194,153,13561,2,0,L|285:139,1,71.2500000000002,2|0,2:0|2:0,2:0:0:0:
86,37,13877,2,0,B|57:83|57:83|90:185,1,142.5,2|2,3:2|3:2,2:0:0:0:
94,186,14351,1,0,2:0:0:0:
254,56,14825,6,0,L|181:74,1,76,2|0,3:2|2:0,2:0:0:0:
256,201,15456,2,0,P|292:134|258:58,1,142.5,2|2,3:2|2:0,2:0:0:0:
61,265,16088,6,0,B|128:214|206:265|176:278|255:329|324:265,1,285.000000000001,2|2,3:2|2:0,2:0:0:0:
350,165,17035,2,0,L|370:319,1,142.5,2|2,3:2|2:0,2:0:0:0:
377,336,17667,5,2,2:0:0:0:
402,242,17983,1,2,2:0:0:0:
427,148,18298,1,2,3:2:0:0:
348,73,18614,5,2,3:2:0:0:
348,73,18772,1,0,2:0:0:0:
348,73,18930,6,0,B|421:29|421:29|530:78,1,171,4|2,1:0|2:0,2:0:0:0:
435,233,19404,1,2,2:0:0:0:
435,233,19561,2,0,L|423:119,1,85.5000000000001,0|2,1:0|2:0,2:0:0:0:
270,319,19877,2,0,L|282:205,1,85.5000000000001,2|2,2:0|2:0,2:0:0:0:
512,280,20193,6,0,P|466:319|361:286,1,171,2|2,1:2|2:0,2:0:0:0:
245,135,20667,1,2,2:0:0:0:
245,135,20825,2,0,L|362:119,1,85.5000000000001,0|0,1:0|2:0,2:0:0:0:
139,302,21140,2,0,L|223:313,1,85.5000000000001,2|0,2:0|2:0,2:0:0:0:
174,57,21456,6,0,B|129:132|129:132|178:235,1,171,4|0,1:0|2:0,2:0:0:0:
223,313,21772,1,10,2:0:0:0:
329,123,21930,1,0,1:0:0:0:
306,345,22088,5,10,2:0:0:0:
245,135,22246,1,0,1:0:0:0:
214,326,22404,5,10,2:0:0:0:
336,110,22561,1,0,1:0:0:0:
311,360,22719,5,4,1:0:0:0:
241,121,23351,1,6,1:2:0:0:
94,240,23983,6,0,L|187:220,1,71.2500000000002,2|2,1:2|2:0,2:0:0:0:
241,121,24298,6,0,L|171:135,1,71.2500000000002,2|2,2:0|2:0,2:0:0:0:
22,163,24614,1,2,1:2:0:0:
22,163,24772,1,2,2:0:0:0:
253,270,25088,2,0,P|286:208|258:133,1,142.5,2|2,2:0|2:0,2:0:0:0:
170,285,25561,2,0,P|185:329|221:349,1,71.2500000000002,2|2,2:0|2:0,2:0:0:0:
354,286,25877,6,0,L|278:275,1,71.2500000000002,2|0,1:2|2:0,2:0:0:0:
437,374,26193,2,0,L|366:384,1,71.2500000000002,2|0,2:0|2:0,2:0:0:0:
330,199,26509,5,2,1:2:0:0:
416,176,26667,1,2,2:0:0:0:
440,262,26825,1,2,2:0:0:0:
354,286,26983,1,2,2:0:0:0:
393,80,27140,5,2,1:2:0:0:
393,80,27298,2,0,P|435:77|474:95,1,71.2500000000002,2|0,2:0|2:0,2:0:0:0:
321,147,27614,2,0,P|297:112|293:69,1,71.2500000000002,2|0,2:0|1:0,2:0:0:0:
416,176,27930,1,2,2:0:0:0:
416,176,28088,2,0,P|397:213|362:238,1,71.2500000000002,2|2,2:0|2:0,2:0:0:0:
207,122,28404,5,2,1:2:0:0:
461,86,28719,1,2,2:0:0:0:
211,347,34088,6,0,B|202:290|202:290|212:266|212:266|203:197,1,142.5,4|2,1:0|2:0,2:0:0:0:
192,98,34561,1,2,2:0:0:0:
4,216,34719,2,0,P|46:258|132:241,1,142.5,2|2,1:2|2:0,2:0:0:0:
88,113,35193,2,0,P|74:172|85:198,1,71.2500000000002,2|2,2:0|1:2,2:0:0:0:
193,295,35509,1,0,2:0:0:0:
193,295,35667,2,0,P|207:236|196:210,1,71.2500000000002,2|0,2:0|2:0,2:0:0:0:
88,113,35983,5,2,1:2:0:0:
296,83,36298,1,2,2:0:0:0:
279,254,36614,6,0,B|243:192|243:192|291:91,1,171,4|0,1:0|2:0,2:0:0:0:
307,65,36930,1,10,2:0:0:0:
366,287,37088,1,0,1:0:0:0:
434,66,37246,5,10,2:0:0:0:
187,105,37404,1,0,1:0:0:0:
374,308,37561,5,10,2:0:0:0:
439,51,37719,1,0,1:0:0:0:
439,51,37798,1,0,1:0:0:0:
439,51,37877,6,0,P|379:33|312:72,1,114,4|0,1:0|2:0,2:0:0:0:
174,230,38193,6,0,B|298:223|298:223|328:201|328:201|463:194,1,285.000000000001,2|2,1:2|2:0,2:0:0:0:
468,193,38983,2,0,P|408:209|407:109,1,171,4|0,1:0|2:0,2:0:0:0:
387,122,39298,1,0,1:0:0:0:
363,304,39456,5,8,2:0:0:0:
363,304,39614,1,0,2:0:0:0:
262,132,39772,2,0,B|211:103|211:103|135:129,1,114,0|0,1:0|1:0,2:0:0:0:
21,172,40088,1,8,2:0:0:0:
196,264,40246,1,0,1:0:0:0:
210,239,40325,1,0,1:0:0:0:
203,211,40404,5,4,1:0:0:0:
56,337,40561,1,0,1:0:0:0:
137,128,40719,5,8,2:0:0:0:
168,354,40877,1,0,1:0:0:0:
212,365,40956,1,0,1:0:0:0:
249,339,41035,1,8,2:0:0:0:
268,178,41193,6,0,B|133:219|133:219|136:222|136:222|-11:266,1,285,4|0,1:0|2:0,2:0:0:0:
28,152,41667,6,0,B|107:136|156:217|118:226|163:301|252:289,1,285,4|0,1:0|2:0,2:0:0:0:
364,237,42298,1,10,2:0:0:0:
289,129,42456,2,0,P|240:165|235:227,1,95,2|0,2:0|1:0,2:0:0:0:
392,372,42772,2,0,L|377:159,1,190,10|10,2:0|2:0,2:0:0:0:
372,73,43246,5,2,1:2:0:0:
372,73,43404,1,0,2:0:0:0:
268,278,43561,2,0,P|206:287|157:239,1,95,10|2,2:0|1:2,2:0:0:0:
188,180,43877,2,0,P|250:171|299:219,1,95,2|0,1:2|2:0,2:0:0:0:
362,331,44114,1,0,2:0:0:0:
362,331,44193,6,0,B|334:294|360:240|360:240|387:182|361:141,1,190,2|0,1:2|1:0,2:0:0:0:
293,78,44825,1,10,2:0:0:0:
411,60,44983,2,0,L|302:77,1,95,2|0,1:2|1:0,2:0:0:0:
64,50,45298,6,0,P|166:52|206:141,1,190,10|10,2:0|2:0,2:0:0:0:
111,219,45772,2,0,P|98:172|126:116,1,95,2|2,1:2|1:2,2:0:0:0:
244,305,46088,5,10,2:0:0:0:
274,302,46246,1,0,1:0:0:0:
156,309,46404,5,10,2:0:0:0:
126,312,46561,1,10,2:0:0:0:
235,220,46719,6,0,B|311:187|378:247|348:270|415:328|497:288,1,285,4|0,1:0|2:0,2:0:0:0:
470,123,47351,1,10,2:0:0:0:
470,123,47509,2,0,P|442:173|452:217,1,95,2|0,2:0|1:0,2:0:0:0:
505,36,47825,6,0,B|430:41|430:41|427:44|427:44|313:51,1,190,10|10,2:0|2:0,2:0:0:0:
189,58,48298,1,2,1:2:0:0:
189,58,48456,1,0,2:0:0:0:
249,116,48614,6,0,P|260:163|237:209,1,95,10|2,2:0|1:2,2:0:0:0:
96,189,48930,2,0,P|131:155|182:152,1,95,2|8,1:2|2:0,2:0:0:0:
327,231,49167,1,8,2:0:0:0:
327,231,49246,5,6,1:2:0:0:
174,335,49561,2,0,B|183:255|183:255|167:230|167:230|177:135,2,190,0|10|0,1:0|2:0|1:0,2:0:0:0:
177,132,50351,1,8,2:0:0:0:
172,357,50667,5,8,2:0:0:0:
266,204,50825,2,0,P|321:194|365:225,1,95,0|0,1:0|2:0,2:0:0:0:
454,304,51140,5,8,2:0:0:0:
456,340,51298,1,0,1:0:0:0:
444,215,51456,5,8,2:0:0:0:
441,179,51614,1,8,2:0:0:0:
356,304,51772,6,0,P|301:323|245:285,1,114,4|0,1:0|2:0,2:0:0:0:
181,211,52088,2,0,L|147:342,1,114,8|0,2:0|2:0,2:0:0:0:
105,118,52404,1,2,1:2:0:0:
98,85,52561,1,2,2:0:0:0:
43,219,52719,2,0,P|105:246|166:221,1,114,8|2,2:0|2:0,2:0:0:0:
194,73,53035,6,0,P|132:46|71:71,1,114,2|0,1:2|2:0,2:0:0:0:
267,155,53351,2,0,L|295:44,1,114,10|0,2:0|2:0,2:0:0:0:
366,131,53667,6,0,P|415:157|471:147,1,114,2|2,1:2|2:0,2:0:0:0:
497,56,53904,1,0,2:0:0:0:
488,43,53983,2,0,P|438:16|383:27,1,114,10|0,2:0|2:0,2:0:0:0:
260,220,54298,6,0,L|236:91,1,114,4|0,1:0|2:0,2:0:0:0:
389,322,54614,2,0,L|413:193,1,114,8|0,2:0|2:0,2:0:0:0:
425,110,54930,1,2,1:2:0:0:
304,300,55088,2,0,P|242:311|185:274,1,114,2|8,2:0|2:0,2:0:0:0:
216,122,55404,6,0,P|256:170|252:238,1,114,2|2,2:0|1:2,2:0:0:0:
106,288,55719,1,2,2:0:0:0:
106,288,55877,2,0,P|127:228|188:197,1,114,10|0,2:0|2:0,2:0:0:0:
304,300,56193,5,2,1:2:0:0:
122,375,56351,1,2,2:0:0:0:
216,122,56509,1,10,2:0:0:0:
300,384,56667,1,2,2:0:0:0:
300,384,56746,1,2,2:0:0:0:
300,384,56825,5,4,1:0:0:0:
41,327,57140,2,0,P|102:281|175:297,1,142.5,8|0,2:0|2:0,2:0:0:0:
182,301,57456,1,2,1:2:0:0:
293,193,57614,1,0,1:0:0:0:
427,365,57772,2,0,L|417:199,1,142.5,8|8,2:0|2:0,2:0:0:0:
440,210,58009,1,8,2:0:0:0:
459,194,58088,6,0,L|450:51,1,142.5,4|0,1:0|2:0,2:0:0:0:
222,82,58404,2,0,P|257:108|303:92,1,71.25,8|8,2:0|2:0,2:0:0:0:
314,25,58561,2,0,P|279:-1|233:15,1,71.25,8|8,2:0|2:0,2:0:0:0:
382,164,58719,5,0,1:0:0:0:
383,149,58798,1,0,1:0:0:0:
385,135,58877,1,8,2:0:0:0:
387,121,58956,1,8,2:0:0:0:
389,106,59035,1,8,2:0:0:0:
391,92,59114,1,8,2:0:0:0:
393,78,59193,6,0,B|407:177|407:177|395:201|395:201|413:328,1,228,4|2,1:0|1:2,2:0:0:0:
417,332,59667,1,8,2:0:0:0:
493,224,59825,1,2,2:0:0:0:
311,154,59983,2,0,B|257:136|257:136|190:174,1,114,0|0,1:0|1:0,2:0:0:0:
280,351,60298,6,0,L|267:238,1,114,8|2,2:0|2:0,2:0:0:0:
112,125,60614,2,0,L|125:238,1,114,2|0,1:2|2:0,2:0:0:0:
145,384,60930,1,8,2:0:0:0:
207,164,61088,2,0,B|257:136|257:136|311:154,1,114,2|0,1:2|2:0,2:0:0:0:
320,252,61404,2,0,B|270:280|270:280|216:262,1,114,2|8,1:2|2:0,2:0:0:0:
401,99,61719,6,0,B|397:196|397:196|410:227|410:227|405:347,1,228,4|0,1:0|1:0,2:0:0:0:
420,360,62193,2,0,L|426:227,1,114,10|0,2:0|2:0,2:0:0:0:
439,19,62509,1,2,1:2:0:0:
439,19,62667,1,0,1:0:0:0:
386,114,62825,2,0,P|327:128|275:94,1,114,8|0,2:0|2:0,2:0:0:0:
150,0,63140,6,0,P|191:44|188:106,1,114,2|0,1:2|2:0,2:0:0:0:
170,262,63456,1,10,2:0:0:0:
170,262,63614,2,0,P|187:203|242:175,1,114,2|0,1:2|2:0,2:0:0:0:
386,114,63930,1,2,1:2:0:0:
323,342,64088,1,8,2:0:0:0:
230,177,64246,6,0,B|327:171|327:171|355:195|355:195|477:189,1,228,4|0,1:0|1:0,2:0:0:0:
476,204,64719,2,0,L|338:210,1,114,10|0,2:0|2:0,2:0:0:0:
149,219,65035,1,2,1:2:0:0:
149,219,65193,1,0,1:0:0:0:
257,281,65351,2,0,P|274:347|245:393,1,114,8|0,2:0|2:0,2:0:0:0:
30,225,65667,6,0,L|143:220,1,114,4|2,1:0|2:0,2:0:0:0:
362,208,65983,1,10,2:0:0:0:
362,208,66140,1,2,1:2:0:0:
250,147,66298,2,0,P|233:81|262:35,1,114,2|2,2:0|1:2,2:0:0:0:
336,0,66614,1,10,2:0:0:0:
457,226,66772,2,0,P|339:299|270:221,1,228,4|0,1:0|1:0,2:0:0:0:
250,147,67246,5,10,2:0:0:0:
401,103,67404,1,0,1:0:0:0:
282,256,67561,5,10,2:0:0:0:
253,43,67719,1,0,1:0:0:0:
457,226,67877,5,10,2:0:0:0:
171,229,68035,1,2,1:2:0:0:
388,23,68193,6,0,L|401:104,2,57,10|10|10,2:0|2:0|2:0,2:0:0:0:
282,256,68509,1,2,1:2:0:0:
282,256,68588,1,2,1:2:0:0:
282,256,68667,6,0,L|272:199,2,57,2|2|10,1:2|1:2|1:2,2:0:0:0:
243,0,68983,1,10,2:0:0:0:
253,6,69298,6,0,B|308:47|280:124|221:128|221:128|223:94|200:70,1,228,4|2,1:0|1:2,2:0:0:0:
44,93,69772,2,0,P|87:136|156:106,1,114,8|2,2:0|2:0,2:0:0:0:
183,55,70088,1,0,1:0:0:0:
183,55,70246,1,0,1:0:0:0:
202,182,70404,2,0,L|219:310,1,114,8|2,2:0|2:0,2:0:0:0:
401,129,70719,6,0,B|347:111|347:111|278:152,1,114,2|0,1:2|2:0,2:0:0:0:
376,328,71035,1,8,2:0:0:0:
376,328,71193,2,0,L|360:214,1,114,2|0,1:2|2:0,2:0:0:0:
217,295,71509,2,0,P|152:308|105:265,1,114,2|8,1:2|2:0,2:0:0:0:
50,163,71825,6,0,B|180:192|180:192|177:196|177:196|277:218,1,228,4|0,1:0|1:0,2:0:0:0:
287,32,72298,2,0,P|242:74|235:129,1,114,10|0,2:0|2:0,2:0:0:0:
468,196,72614,5,2,1:2:0:0:
438,86,72772,1,0,1:0:0:0:
328,115,72930,1,8,2:0:0:0:
358,226,73088,1,0,2:0:0:0:
508,1,73246,6,0,L|484:129,1,114,2|0,1:2|2:0,2:0:0:0:
448,279,73561,1,10,2:0:0:0:
373,71,73719,2,0,L|421:205,1,114,2|0,1:2|2:0,2:0:0:0:
456,294,74035,1,2,1:2:0:0:
486,113,74193,1,8,2:0:0:0:
512,353,74351,6,0,P|459:376|388:335,1,114,4|0,1:0|2:0,2:0:0:0:
320,221,74667,1,0,1:0:0:0:
230,366,74825,1,10,2:0:0:0:
230,366,74983,1,0,2:0:0:0:
232,166,75140,6,0,B|217:224|217:224|246:296,1,114,2|0,1:2|1:0,2:0:0:0:
412,266,75456,2,0,B|427:208|427:208|398:136,1,114,8|0,2:0|2:0,2:0:0:0:
167,74,75772,6,0,B|261:66|261:66|296:85|296:85|393:78,1,228,4|10,1:0|2:0,2:0:0:0:
319,0,76246,1,2,1:2:0:0:
232,166,76404,1,2,2:0:0:0:
232,166,76561,1,2,1:2:0:0:
77,116,76719,2,0,P|54:143|67:180,1,57,10|0,2:0|2:0,2:0:0:0:
138,277,76877,6,0,B|132:157|132:157|128:157|128:157|121:9,1,247,4|0,1:0|1:0,2:0:0:0:
73,342,77351,2,0,B|129:372|129:372|233:339,1,123.5,10|0,2:0|1:0,2:0:0:0:
345,154,77667,2,0,B|287:135|287:135|231:165,1,123.5,10|0,2:0|1:0,2:0:0:0:
308,365,77983,2,0,L|295:208,1,123.5,10|2,2:0|2:0,2:0:0:0:
278,49,78298,5,0,1:2:0:0:
470,168,78456,2,0,P|434:237|365:250,2,114,2|8|0,2:0|2:0|1:0,2:0:0:0:
388,101,78930,2,0,P|340:130|321:183,1,114,10|8,2:0|2:0,2:0:0:0:
427,344,79167,1,0,2:0:0:0:
443,341,79246,1,2,1:2:0:0:
459,338,79325,1,2,1:2:0:0:
475,335,79404,6,0,B|363:326|363:326|342:338|342:338|218:331,1,247,4|2,1:0|1:2,2:0:0:0:
298,136,79877,2,0,B|326:191|326:191|294:303,1,123.5,8|2,2:0|1:2,2:0:0:0:
101,205,80193,2,0,L|264:195,1,123.5,10|0,2:0|1:0,2:0:0:0:
413,186,80509,1,10,2:0:0:0:
207,100,80667,1,2,1:2:0:0:
207,100,80746,1,2,1:2:0:0:
207,100,80825,5,10,1:2:0:0:
286,336,80983,1,10,2:0:0:0:
195,300,81456,5,10,1:2:0:0:
298,136,81614,1,10,2:0:0:0:
190,68,84140,5,0,2:0:0:0:
213,84,84298,1,2,2:0:0:0:
241,86,84456,1,2,2:0:0:0:
280,66,84614,5,2,2:0:0:0:
351,49,84772,1,0,2:0:0:0:
425,109,84930,1,0,2:0:0:0:
425,117,85246,5,2,2:0:0:0:
397,145,85404,1,0,2:0:0:0:
393,210,85561,1,2,2:0:0:0:
454,259,85719,2,0,L|521:270,1,47.5,2|2,2:0|2:0,2:0:0:0:
329,349,86035,5,0,2:0:0:0:
340,338,86193,2,0,L|386:330,1,47.5,2|0,2:0|2:0,2:0:0:0:
281,226,86509,5,2,2:0:0:0:
265,257,86667,1,0,2:0:0:0:
215,289,86825,1,0,2:0:0:0:
145,286,86983,1,0,2:0:0:0:
85,236,87140,1,2,1:2:0:0:
85,236,88404,5,0,1:0:0:0:
85,236,88719,5,0,1:0:0:0:
85,236,89351,5,0,1:0:0:0:
147,68,89509,2,0,B|154:165|154:165|174:190|174:190|182:320,1,228,12|0,2:0|1:0,2:0:0:0:
242,130,89983,2,0,B|289:100|289:100|364:116,1,114,8|0,2:0|1:0,2:0:0:0:
360,202,90298,2,0,B|312:231|312:231|237:215,1,114,8|0,2:0|1:0,2:0:0:0:
445,35,90614,2,0,L|432:177,1,114,8|0,2:0|1:0,2:0:0:0:
418,309,90930,5,8,2:0:0:0:
346,112,91088,1,0,1:0:0:0:
272,320,91246,5,8,2:0:0:0:
504,268,91404,1,8,2:0:0:0:
337,91,91561,5,10,2:0:0:0:
264,342,91719,1,10,2:0:0:0:
264,342,93456,6,0,B|294:324|283:254|221:236|165:285|165:285|111:328|44:289,1,285,6|0,1:2|2:0,2:0:0:0:
7,138,94088,6,0,B|44:93|117:107|143:168|106:227|106:227|72:212|31:228,1,285,0|0,1:2|2:0,2:0:0:0:
7,232,94719,6,0,B|72:187|139:238|139:238|202:287|269:239,1,285,0|0,1:2|2:0,2:0:0:0:
280,186,95351,6,0,B|225:220|250:306|316:301|316:301|370:293|396:343|386:377,1,285,0|0,1:2|2:0,2:0:0:0:
286,384,95983,6,0,B|329:103|292:384|336:102,1,285,0|0,1:2|2:0,2:0:0:0:
342,67,96614,6,0,B|401:93|401:93|291:110|291:110|268:97|268:97|167:110,1,285,0|0,1:2|2:0,2:0:0:0:
0,84,97246,6,0,B|12:18|81:-3|147:38|147:38|99:67|108:130,1,285,0|0,1:2|2:0,2:0:0:0:
188,291,97877,6,0,P|269:235|168:108,1,285,0|0,1:2|2:0,2:0:0:0:
19,205,98509,6,0,B|91:208|91:208|113:196|113:196|210:199,1,171,4|2,1:0|2:0,2:0:0:0:
293,203,98983,1,2,2:0:0:0:
142,290,99140,2,0,P|127:333|148:377,1,85.5000000000001,2|0,1:2|2:0,2:0:0:0:
231,369,99456,2,0,P|245:325|224:281,1,85.5000000000001,2|2,2:0|2:0,2:0:0:0:
126,150,99772,5,2,1:2:0:0:
129,184,99930,1,0,2:0:0:0:
116,66,100088,5,2,2:0:0:0:
113,32,100246,1,0,2:0:0:0:
195,103,100404,5,2,1:2:0:0:
229,100,100561,1,0,2:0:0:0:
47,116,100719,5,2,2:0:0:0:
13,119,100877,1,0,2:0:0:0:
277,167,101035,6,0,P|312:109|256:22,1,171,4|0,1:0|2:0,2:0:0:0:
249,17,101351,5,10,2:0:0:0:
210,223,101509,1,0,1:0:0:0:
255,34,101667,5,10,2:0:0:0:
318,245,101825,1,0,1:0:0:0:
195,103,101983,5,10,2:0:0:0:
379,67,102140,1,0,1:0:0:0:
379,67,102219,1,0,1:0:0:0:
379,67,102298,6,0,B|411:116|411:116|390:187,1,114,4|0,1:0|2:0,2:0:0:0:
282,292,102614,2,0,B|273:166|273:166|289:138|289:138|279:6,1,285.000000000001,2|2,1:2|2:0,2:0:0:0:
278,0,103404,6,0,P|266:39|367:77,1,171,4|0,1:0|2:0,2:0:0:0:
379,67,103719,1,0,1:0:0:0:
194,116,103877,5,8,2:0:0:0:
177,110,104035,1,0,2:0:0:0:
430,195,104193,2,0,L|288:151,1,114,0|0,1:0|1:0,2:0:0:0:
160,104,104509,5,8,2:0:0:0:
379,67,104667,2,0,L|451:52,2,57,0|0|4,1:0|1:0|1:0,2:0:0:0:
143,98,104983,1,0,1:0:0:0:
315,226,105140,6,0,L|297:83,1,114,8|0,2:0|1:0,2:0:0:0:
289,32,105377,1,0,1:0:0:0:
289,32,105456,5,8,2:0:0:0:
327,306,105614,1,4,1:0:0:0:
68,133,106088,6,0,B|24:168|24:168|128:161|128:161|147:146|147:146|272:139,1,285,4|0,1:0|2:0,2:0:0:0:
362,132,106719,1,10,2:0:0:0:
190,234,106877,2,0,P|180:295|213:342,1,95,2|0,2:0|1:0,2:0:0:0:
299,366,107193,6,0,B|285:273|285:273|290:273|290:273|272:142,1,190,10|10,2:0|2:0,2:0:0:0:
264,94,107667,1,2,1:2:0:0:
264,94,107825,1,0,2:0:0:0:
362,191,107983,2,0,P|422:189|457:140,1,95,10|2,2:0|1:2,2:0:0:0:
447,184,108298,2,0,P|475:131|449:77,1,95,2|0,1:2|2:0,2:0:0:0:
498,21,108614,6,0,B|451:0|398:32|421:39|371:70|317:48,1,190,2|0,1:2|1:0,2:0:0:0:
299,28,109088,1,0,2:0:0:0:
201,183,109246,2,0,P|259:161|276:104,1,95,10|2,2:0|1:2,2:0:0:0:
187,12,109561,1,0,1:0:0:0:
187,12,109719,6,0,P|177:73|219:116,1,95,10|0,2:0|2:0,2:0:0:0:
352,76,110035,1,10,2:0:0:0:
193,100,110193,2,0,L|65:119,1,95,2|2,1:2|1:2,2:0:0:0:
163,302,110509,5,10,2:0:0:0:
158,336,110667,1,0,1:0:0:0:
177,222,110825,5,10,2:0:0:0:
182,188,110983,1,10,2:0:0:0:
238,276,111140,6,0,B|297:304|348:269|348:269|367:291|400:300|400:300|448:267|504:284,1,285,4|0,1:0|2:0,2:0:0:0:
512,286,111772,1,10,2:0:0:0:
410,197,111930,2,0,P|393:142|414:97,1,95,2|0,2:0|1:0,2:0:0:0:
500,105,112246,2,0,P|517:160|496:205,1,95,10|0,2:0|2:0,2:0:0:0:
329,252,112561,1,10,2:0:0:0:
388,80,112719,5,2,1:2:0:0:
419,84,112877,1,0,2:0:0:0:
306,67,113035,5,10,2:0:0:0:
275,63,113193,1,2,1:2:0:0:
333,162,113351,6,0,P|343:217|320:262,1,95,2|8,1:2|2:0,2:0:0:0:
234,311,113588,1,8,2:0:0:0:
234,311,113667,5,6,1:2:0:0:
185,96,113983,2,0,B|269:89|269:89|284:75|284:75|395:66,2,190,0|10|0,1:0|2:0|1:0,2:0:0:0:
387,66,114772,1,8,2:0:0:0:
164,96,115088,5,8,2:0:0:0:
328,251,115246,2,0,P|344:207|333:162,1,95,0|0,1:0|2:0,2:0:0:0:
138,256,115561,5,8,2:0:0:0:
163,348,115719,1,0,1:0:0:0:
254,323,115877,1,8,2:0:0:0:
230,231,116035,1,8,2:0:0:0:
50,330,116193,6,0,L|178:350,1,114,4|0,1:0|2:0,2:0:0:0:
342,213,116509,2,0,L|214:233,1,114,8|0,2:0|2:0,2:0:0:0:
202,235,116825,1,2,1:2:0:0:
419,271,116983,2,0,P|440:204|415:149,1,114,2|8,2:0|2:0,2:0:0:0:
360,18,117298,6,0,B|298:44|288:121|343:157|343:157|345:130|367:107,1,228,2|0,2:0|2:0,2:0:0:0:
426,164,117772,1,10,2:0:0:0:
275,223,117930,1,0,2:0:0:0:
483,278,118088,2,0,L|370:248,1,114,2|2,1:2|2:0,2:0:0:0:
254,216,118404,1,10,2:0:0:0:
446,158,118561,1,0,2:0:0:0:
179,155,118719,6,0,B|152:204|152:204|184:287,1,114,4|0,1:0|2:0,2:0:0:0:
269,328,119035,2,0,L|251:198,1,114,8|0,2:0|2:0,2:0:0:0:
234,63,119351,1,2,1:2:0:0:
172,258,119509,2,0,P|112:272|59:241,1,114,2|8,2:0|2:0,2:0:0:0:
74,132,119825,6,0,B|127:99|181:135|181:135|234:169|290:132,1,228,2|2,2:0|2:0,2:0:0:0:
319,42,120298,2,0,P|291:111|319:151,1,114,10|0,2:0|2:0,2:0:0:0:
391,199,120614,1,2,1:2:0:0:
463,91,120772,1,2,2:0:0:0:
512,283,120930,2,0,L|377:292,1,114,10|2,2:0|2:0,2:0:0:0:
188,310,121246,2,0,B|208:258|264:231|322:253|322:253|304:287|326:331,1,228,4|8,1:0|2:0,2:0:0:0:
414,347,121877,5,2,1:2:0:0:
391,199,122035,1,0,1:0:0:0:
368,51,122193,1,8,2:0:0:0:
365,62,122272,1,8,2:0:0:0:
362,73,122351,1,8,2:0:0:0:
359,84,122430,1,8,2:0:0:0:
356,95,122509,6,0,B|412:56|412:56|210:83,1,213.75,4|0,1:0|2:0,2:0:0:0:
105,97,122825,2,0,P|84:124|85:159,1,71.25,8|8,2:0|2:0,2:0:0:0:
170,182,122983,2,0,P|190:154|189:119,1,71.25,8|8,2:0|2:0,2:0:0:0:
29,280,123140,5,0,1:0:0:0:
43,279,123219,1,0,1:0:0:0:
57,278,123298,1,8,2:0:0:0:
71,277,123377,1,8,2:0:0:0:
85,276,123456,1,8,2:0:0:0:
99,275,123535,1,8,2:0:0:0:
113,274,123614,6,0,B|211:268|211:268|236:248|236:248|369:241,1,228,4|2,1:0|1:2,2:0:0:0:
362,228,124088,2,0,L|232:235,1,114,8|2,2:0|2:0,2:0:0:0:
17,250,124404,1,0,1:0:0:0:
17,250,124561,1,0,1:0:0:0:
154,77,124719,2,0,B|183:126|183:126|162:215,1,114,8|2,2:0|2:0,2:0:0:0:
62,48,125035,6,0,P|105:-3|248:75,1,228,2|8,1:2|2:0,2:0:0:0:
298,204,125509,2,0,P|285:130|328:95,1,114,2|0,1:2|2:0,2:0:0:0:
405,118,125825,2,0,P|418:192|375:227,1,114,2|8,1:2|2:0,2:0:0:0:
170,343,126140,6,0,B|176:230|176:230|180:230|180:230|187:95,1,228,4|0,1:0|1:0,2:0:0:0:
0,160,126614,2,0,P|42:193|106:190,1,114,10|0,2:0|2:0,2:0:0:0:
268,94,126930,1,2,1:2:0:0:
268,94,127088,1,0,1:0:0:0:
101,10,127246,2,0,P|68:52|71:116,1,114,8|0,2:0|2:0,2:0:0:0:
344,240,127561,6,0,B|338:141|338:141|353:113|353:113|346:7,1,228,2|10,1:2|2:0,2:0:0:0:
512,131,128035,2,0,P|461:174|407:156,1,114,2|0,1:2|2:0,2:0:0:0:
268,94,128351,1,2,1:2:0:0:
505,36,128509,1,8,2:0:0:0:
436,270,128667,6,0,B|391:311|318:281|338:271|272:238|219:278,1,228,4|0,1:0|1:0,2:0:0:0:
137,357,129140,2,0,P|187:306|174:235,1,114,10|0,2:0|2:0,2:0:0:0:
55,190,129456,2,0,P|74:258|142:283,1,114,2|0,1:2|1:0,2:0:0:0:
240,202,129772,2,0,P|170:184|115:230,1,114,8|0,2:0|2:0,2:0:0:0:
313,363,130088,2,0,L|325:228,1,114,4|2,1:0|2:0,2:0:0:0:
333,133,130404,5,10,2:0:0:0:
436,270,130561,1,2,1:2:0:0:
240,202,130719,1,2,2:0:0:0:
437,157,130877,1,2,1:2:0:0:
313,363,131035,1,10,2:0:0:0:
236,103,131193,2,0,P|175:127|178:280,1,228,4|0,1:0|1:0,2:0:0:0:
333,133,131667,5,10,2:0:0:0:
128,54,131825,1,0,1:0:0:0:
168,270,131983,5,10,2:0:0:0:
344,124,132140,1,0,1:0:0:0:
126,43,132298,5,10,2:0:0:0:
170,280,132456,1,2,1:2:0:0:
313,40,132614,6,0,L|230:49,2,57,10|10|10,2:0|2:0|2:0,2:0:0:0:
92,150,132930,1,2,1:2:0:0:
92,150,133009,1,2,1:2:0:0:
92,150,133088,6,0,L|148:143,2,57,2|2|10,1:2|1:2|1:2,2:0:0:0:
344,124,133404,1,10,2:0:0:0:
363,121,133719,6,0,P|369:183|279:127,1,228,4|2,1:0|1:2,2:0:0:0:
358,28,134193,2,0,P|434:52|456:112,1,114,8|2,2:0|2:0,2:0:0:0:
463,233,134509,1,0,1:0:0:0:
463,233,134667,1,0,1:0:0:0:
314,210,134825,2,0,P|338:134|398:112,1,114,8|2,2:0|2:0,2:0:0:0:
388,297,135140,6,0,B|286:301|286:301|265:285|265:285|138:290,1,228,2|8,1:2|2:0,2:0:0:0:
27,197,135614,2,0,P|17:138|52:91,1,114,2|0,1:2|2:0,2:0:0:0:
136,110,135930,2,0,P|145:168|110:215,1,114,2|8,1:2|2:0,2:0:0:0:
0,9,136246,6,0,B|99:5|99:5|120:21|120:21|222:17,1,228,4|0,1:0|1:0,2:0:0:0:
383,11,136719,2,0,P|333:34|309:100,1,114,10|0,2:0|2:0,2:0:0:0:
473,287,137035,5,2,1:2:0:0:
482,173,137193,1,0,1:0:0:0:
369,163,137351,1,8,2:0:0:0:
360,278,137509,1,0,2:0:0:0:
496,160,137667,5,2,1:2:0:0:
485,301,137825,1,0,2:0:0:0:
356,148,137983,1,10,2:0:0:0:
345,290,138140,2,0,B|298:321|298:321|220:293,1,114,2|0,1:2|2:0,2:0:0:0:
173,224,138456,2,0,L|300:213,1,114,2|8,1:2|2:0,2:0:0:0:
100,282,138772,6,0,B|61:225|93:162|95:185|134:120|92:66,1,228,4|0,1:0|1:0,2:0:0:0:
68,54,139246,1,10,2:0:0:0:
68,54,139404,1,0,2:0:0:0:
173,224,139561,2,0,P|215:251|285:241,1,114,2|0,1:2|1:0,2:0:0:0:
300,155,139877,2,0,P|257:127|187:137,1,114,8|0,2:0|2:0,2:0:0:0:
385,307,140193,6,0,B|380:207|380:207|394:181|394:181|387:54,1,228,4|10,1:0|2:0,2:0:0:0:
384,50,140667,1,2,1:2:0:0:
300,155,140825,1,2,2:0:0:0:
300,155,140983,1,2,1:2:0:0:
202,44,141140,2,0,P|177:29|138:45,1,57,10|0,2:0|2:0,2:0:0:0:
51,89,141298,6,0,B|173:81|173:81|174:77|174:77|325:67,1,247,4|0,1:0|1:0,2:0:0:0:
210,295,141772,2,0,B|186:237|186:237|210:151,1,123.5,10|0,2:0|1:0,2:0:0:0:
420,223,142088,2,0,L|274:234,1,123.5,10|0,2:0|1:0,2:0:0:0:
372,2,142404,2,0,B|396:60|396:60|372:146,1,123.5,10|2,2:0|2:0,2:0:0:0:
306,321,142719,5,0,1:2:0:0:
181,78,142877,2,0,L|329:67,2,114,2|8|0,2:0|2:0|1:0,2:0:0:0:
59,87,143351,1,10,2:0:0:0:
242,222,143509,1,8,2:0:0:0:
255,197,143588,1,2,2:0:0:0:
251,168,143667,1,2,1:2:0:0:
78,300,143825,6,0,B|188:295|188:295|210:311|210:311|354:305,1,247,4|2,1:0|1:2,2:0:0:0:
238,109,144298,2,0,B|215:166|215:166|257:254,1,123.5,8|2,2:0|1:2,2:0:0:0:
444,157,144614,2,0,L|294:161,1,123.5,10|0,2:0|1:0,2:0:0:0:
120,168,144930,1,10,2:0:0:0:
328,57,145088,1,2,1:2:0:0:
328,57,145167,1,2,1:2:0:0:
328,57,145246,5,10,1:2:0:0:
225,318,145404,1,10,2:0:0:0:
317,283,145877,5,10,1:2:0:0:
236,92,146035,1,10,2:0:0:0:
241,221,146193,5,0,2:0:0:0:
314,155,146351,2,0,P|387:193|314:282,1,228,4|2,1:0|1:2,2:0:0:0:
236,92,146825,2,0,P|281:58|359:68,1,114,10|2,2:0|2:0,2:0:0:0:
415,180,147140,5,2,1:2:0:0:
412,214,147298,1,0,2:0:0:0:
423,77,147456,5,10,2:0:0:0:
426,43,147614,1,2,2:0:0:0:
467,287,147772,6,0,B|415:310|415:310|341:283,1,114,2|0,1:2|2:0,2:0:0:0:
280,250,148009,1,0,2:0:0:0:
280,250,148088,2,0,B|228:227|228:227|154:254,1,114,10|2,2:0|2:0,2:0:0:0:
73,294,148404,6,0,L|96:152,1,114,2|2,1:2|2:0,2:0:0:0:
108,74,148719,1,10,2:0:0:0:
69,316,148877,6,0,B|122:344|179:316|179:316|240:286|292:318,1,228,4|2,1:0|1:2,2:0:0:0:
347,384,149351,2,0,P|318:327|337:263,1,114,10|0,2:0|2:0,2:0:0:0:
484,248,149667,2,0,P|449:301|384:317,1,114,2|2,1:2|2:0,2:0:0:0:
298,198,149983,2,0,P|361:201|407:249,1,114,10|2,2:0|2:0,2:0:0:0:
190,349,150298,5,2,1:2:0:0:
206,205,150456,1,2,2:0:0:0:
270,285,150614,1,10,2:0:0:0:
126,269,150772,1,2,2:0:0:0:
207,190,150930,5,2,1:2:0:0:
188,363,151088,1,2,2:0:0:0:
111,267,151246,1,10,2:0:0:0:
284,286,151404,6,0,B|352:293|352:293|186:326,1,228,4|2,1:0|1:2,2:0:0:0:
150,105,151877,2,0,P|203:147|201:208,1,114,8|0,2:0|2:0,2:0:0:0:
77,277,152193,2,0,P|86:210|140:181,1,114,2|2,1:2|2:0,2:0:0:0:
263,254,152509,2,0,P|200:278|148:246,1,114,10|2,2:0|2:0,2:0:0:0:
320,40,152825,6,0,P|267:82|269:143,1,114,2|2,1:2|2:0,2:0:0:0:
393,212,153140,2,0,P|383:145|329:116,1,114,10|2,2:0|2:0,2:0:0:0:
207,189,153456,2,0,P|269:213|321:181,1,114,2|2,1:2|2:0,2:0:0:0:
407,55,153772,1,10,2:0:0:0:
448,273,153930,6,0,B|349:277|349:277|325:294|325:294|221:299,1,228,4|2,1:2|1:2,2:0:0:0:
211,299,154404,5,8,2:0:0:0:
387,372,154561,1,2,1:2:0:0:
197,300,154719,5,10,2:0:0:0:
448,273,154877,1,0,1:0:0:0:
183,301,155035,5,8,2:0:0:0:
401,377,155193,1,0,1:0:0:0:
241,161,155351,5,2,1:2:0:0:
241,161,155430,1,2,1:2:0:0:
241,161,155509,2,0,L|237:225,2,57,2|2|10,1:2|1:2|2:0,2:0:0:0:
313,384,155825,6,0,L|316:327,2,57,2|2|10,1:2|1:2|2:0,2:0:0:0:
327,126,156140,1,8,2:0:0:0:
328,110,156456,6,0,B|389:148|389:148|198:131,1,228,4|0,1:0|1:0,2:0:0:0:
76,117,156930,1,10,2:0:0:0:
109,108,157088,1,2,2:0:0:0:
217,32,157246,1,2,1:2:0:0:
184,23,157404,1,2,1:2:0:0:
159,196,157561,5,8,2:0:0:0:
59,20,157719,1,2,2:0:0:0:
51,231,157877,5,2,1:2:0:0:
63,213,158035,1,2,2:0:0:0:
147,250,158193,5,8,2:0:0:0:
159,196,158351,1,2,1:2:0:0:
257,258,158509,5,2,2:0:0:0:
254,161,158667,1,2,1:2:0:0:
370,245,158825,5,10,2:0:0:0:
335,109,158983,2,0,L|329:230,1,114,4|0,1:0|2:0,2:0:0:0:
321,336,159298,1,2,1:2:0:0:
428,175,159456,1,10,2:0:0:0:
456,177,159535,1,2,2:0:0:0:
478,194,159614,1,2,2:0:0:0:
422,261,159772,5,2,1:2:0:0:
395,37,159930,2,0,P|320:18|267:45,1,114,2|10,1:2|2:0,2:0:0:0:
168,135,160246,6,0,P|198:119|203:71,2,57,2|0|0,2:0|2:0|1:0,2:0:0:0:
129,63,160561,1,2,2:0:0:0:
291,149,160719,5,10,2:0:0:0:
278,160,160877,1,2,1:2:0:0:
121,214,161035,5,2,2:0:0:0:
157,241,161193,1,2,1:2:0:0:
326,232,161351,5,8,2:0:0:0:
267,286,161509,2,0,B|284:216|284:216|311:382,1,228,4|2,1:2|1:2,2:0:0:0:
58,276,161983,2,0,P|111:237|176:252,1,114,10|0,2:0|2:0,2:0:0:0:
163,379,162298,1,2,1:2:0:0:
133,360,162456,1,0,1:0:0:0:
130,325,162614,1,8,2:0:0:0:
215,308,162772,6,0,P|242:265|230:194,1,114,2|0,2:0|1:0,2:0:0:0:
122,100,163088,2,0,P|165:127|236:115,1,114,2|8,2:0|2:0,2:0:0:0:
330,7,163404,2,0,P|303:50|315:121,1,114,2|2,1:2|2:0,2:0:0:0:
423,215,163719,2,0,P|380:188|309:200,1,114,2|8,1:2|2:0,2:0:0:0:
235,204,164035,5,4,1:0:0:0:
215,308,164193,1,0,2:0:0:0:
225,120,164351,5,0,1:0:0:0:
122,100,164509,1,10,2:0:0:0:
309,110,164667,5,0,1:0:0:0:
330,7,164825,1,10,2:0:0:0:
319,194,164983,5,0,1:0:0:0:
423,215,165140,1,8,2:0:0:0:
236,26,165298,5,0,1:0:0:0:
236,26,165377,1,0,1:0:0:0:
236,26,165456,1,14,1:2:0:0:
306,284,165614,1,10,2:0:0:0:
228,247,166088,5,10,1:2:0:0:
310,74,166246,1,10,2:0:0:0:
310,74,166561,6,0,B|371:101|371:101|201:126,1,228,4|0,1:0|1:0,2:0:0:0:
134,174,167035,2,0,B|110:121|110:121|146:39,1,114,10|0,2:0|2:0,2:0:0:0:
224,0,167351,1,2,1:2:0:0:
211,124,167509,1,2,1:2:0:0:
198,248,167667,1,10,2:0:0:0:
280,332,167825,6,0,B|179:339|179:339|156:327|156:327|34:334,1,228,4|0,1:0|1:0,2:0:0:0:
30,320,168298,2,0,L|158:313,1,114,10|0,2:0|2:0,2:0:0:0:
311,241,168614,2,0,L|197:247,1,114,2|2,1:2|1:2,2:0:0:0:
104,177,168930,1,10,2:0:0:0:
324,154,169088,6,0,P|398:227|334:323,1,228,4|0,1:0|1:0,2:0:0:0:
241,152,169561,2,0,P|269:85|341:75,1,114,10|0,2:0|2:0,2:0:0:0:
416,89,169877,1,2,1:2:0:0:
303,70,170035,1,2,1:2:0:0:
190,51,170193,1,10,2:0:0:0:
93,108,170351,6,0,P|148:157|273:123,1,171,4|0,1:0|2:0,2:0:0:0:
280,76,170667,2,0,P|256:98|255:144,1,57,8|8,2:0|2:0,2:0:0:0:
330,168,170825,2,0,P|353:145|354:99,1,57,8|8,2:0|2:0,2:0:0:0:
94,129,170983,1,8,2:0:0:0:
96,157,171061,1,8,2:0:0:0:
98,185,171140,5,10,1:2:0:0:
90,0,171298,1,10,2:0:0:0:
73,268,171614,6,0,B|173:274|173:274|197:261|197:261|318:267,1,228,4|2,1:0|1:2,2:0:0:0:
326,256,172088,2,0,L|201:249,1,114,8|2,2:0|2:0,2:0:0:0:
139,179,172404,1,0,1:0:0:0:
222,358,172561,1,0,1:0:0:0:
279,156,172719,2,0,P|339:142|410:183,1,114,8|2,2:0|2:0,2:0:0:0:
425,318,173035,6,0,B|415:208|415:208|421:209|421:209|410:66,1,228,2|8,1:2|2:0,2:0:0:0:
170,85,173509,2,0,P|194:148|247:163,1,114,2|0,1:2|2:0,2:0:0:0:
304,106,173825,2,0,P|280:43|227:28,1,114,2|8,1:2|2:0,2:0:0:0:
18,159,174140,6,0,B|75:202|141:162|110:161|177:122|234:164,1,228,4|0,1:0|1:0,2:0:0:0:
208,330,174614,2,0,P|172:282|184:224,1,114,10|0,2:0|2:0,2:0:0:0:
296,369,174930,1,2,1:2:0:0:
296,369,175088,1,0,1:0:0:0:
319,194,175246,2,0,P|354:241|342:299,1,114,8|0,2:0|2:0,2:0:0:0:
99,156,175561,6,0,L|228:133,1,114,2|0,1:2|2:0,2:0:0:0:
395,104,175877,1,10,2:0:0:0:
188,33,176035,2,0,L|320:78,1,114,2|0,1:2|2:0,2:0:0:0:
412,109,176351,1,2,1:2:0:0:
211,135,176509,1,8,2:0:0:0:
452,5,176667,6,0,B|530:89|530:89|481:226,1,228,4|0,1:0|1:0,2:0:0:0:
323,277,177140,2,0,P|381:235|439:261,1,114,10|0,2:0|2:0,2:0:0:0:
497,338,177456,1,2,1:2:0:0:
497,338,177614,1,0,1:0:0:0:
412,109,177772,2,0,L|279:123,1,114,8|0,2:0|2:0,2:0:0:0:
67,152,178088,5,4,1:0:0:0:
226,180,178246,1,2,2:0:0:0:
160,87,178404,1,10,2:0:0:0:
133,246,178561,1,2,1:2:0:0:
51,149,178719,5,2,2:0:0:0:
162,71,178877,1,2,1:2:0:0:
130,261,179035,1,10,2:0:0:0:
241,182,179193,6,0,B|299:144|299:144|133:171,1,228,4|0,1:0|1:0,2:0:0:0:
24,188,179667,1,10,2:0:0:0:
221,266,179825,1,0,1:0:0:0:
91,92,179983,5,10,2:0:0:0:
58,287,180140,1,0,1:0:0:0:
268,185,180298,5,10,2:0:0:0:
72,82,180456,1,2,1:2:0:0:
58,306,180614,6,0,L|147:249,2,57,10|10|10,2:0|2:0|2:0,2:0:0:0:
282,176,180930,1,2,1:2:0:0:
53,72,181088,5,2,1:2:0:0:
53,72,181167,1,2,1:2:0:0:
53,72,181246,1,10,1:2:0:0:
159,351,181404,1,10,2:0:0:0:
165,364,181719,6,0,B|172:299|224:264|285:285|285:285|253:319|269:377,1,228,4|2,1:0|1:2,2:0:0:0:
344,342,182193,2,0,L|327:184,1,114,10|2,2:0|1:2,2:0:0:0:
318,99,182509,5,10,2:0:0:0:
251,196,182667,1,2,1:2:0:0:
238,67,182825,5,10,2:0:0:0:
331,228,182983,1,2,1:2:0:0:
305,13,183140,6,0,B|257:51|186:27|206:16|139:-10|85:26,1,228,4|10,1:0|2:0,2:0:0:0:
116,199,183614,2,0,P|151:125|127:80,1,114,2|10,1:2|2:0,2:0:0:0:
27,250,183930,1,2,1:2:0:0:
205,270,184088,1,10,2:0:0:0:
43,360,184246,6,0,B|91:322|162:346|142:357|209:383|263:347,1,228,4|2,1:0|1:2,2:0:0:0:
309,244,184719,2,0,P|286:300|309:355,1,114,10|2,2:0|1:2,2:0:0:0:
455,328,185035,5,10,2:0:0:0:
366,166,185193,1,2,1:2:0:0:
373,298,185351,5,10,2:0:0:0:
448,136,185509,1,2,1:2:0:0:
396,384,185667,6,0,P|456:351|450:261,1,113.999996520996,4|0,1:0|1:0,0:0:0:0:
284,196,185983,5,10,2:0:0:0:
512,256,186140,1,2,1:2:0:0:
269,309,186298,5,10,2:0:0:0:
489,249,186456,1,2,1:2:0:0:
261,189,186614,5,10,2:0:0:0:
466,242,186772,6,0,B|433:306|433:306|407:137,1,228,4|0,1:0|1:0,2:0:0:0:
383,3,187246,1,10,2:0:0:0:
383,3,187404,1,2,2:0:0:0:
261,189,187561,2,0,P|162:201|134:163,1,114,2|0,1:2|1:0,2:0:0:0:
147,98,187877,2,0,P|246:85|274:123,1,114,8|0,2:0|2:0,2:0:0:0:
65,278,188193,6,0,B|61:175|61:175|73:153|73:153|69:39,1,228,4|10,1:0|2:0,2:0:0:0:
69,32,188667,1,2,1:2:0:0:
157,204,188825,2,0,P|210:220|260:195,1,114,2|2,2:0|1:2,2:0:0:0:
331,68,189140,1,10,2:0:0:0:
177,101,189298,2,0,P|159:116|251:121,1,246.999988693238,4|0,1:0|1:0,2:0:0:0:
245,51,189772,5,10,2:0:0:0:
209,279,189930,1,0,1:0:0:0:
372,115,190088,1,10,2:0:0:0:
144,152,190246,1,0,1:0:0:0:
349,256,190404,1,10,2:0:0:0:
243,39,190561,1,2,2:0:0:0:
203,289,190719,5,0,1:2:0:0:
382,109,190877,2,0,B|331:84|331:84|256:112,2,114,2|8|0,2:0|2:0|1:0,2:0:0:0:
463,183,191351,2,0,L|476:47,1,114,10|8,2:0|2:0,2:0:0:0:
450,290,191667,1,2,1:2:0:0:
236,281,191825,6,0,B|258:346|322:369|376:332|376:332|354:292|378:240,1,246.999988693238,4|2,1:0|1:2,2:0:0:0:
419,193,192298,1,8,2:0:0:0:
447,370,192456,1,2,1:2:0:0:
509,172,192614,5,10,2:0:0:0:
291,194,192772,1,0,1:0:0:0:
448,381,192930,5,10,2:0:0:0:
446,105,193088,1,2,1:2:0:0:
446,105,193167,1,2,1:2:0:0:
446,105,193246,5,10,1:2:0:0:
213,240,193404,1,10,2:0:0:0:
212,149,193877,5,10,1:2:0:0:
447,196,194035,1,10,2:0:0:0:
256,192,194114,12,0,196088,2:0:0:0:
