osu file format v14

[General]
AudioFilename: audio.mp3
AudioLeadIn: 0
PreviewTime: 59173
Countdown: 0
SampleSet: Soft
StackLeniency: 0.5
Mode: 0
LetterboxInBreaks: 0
WidescreenStoryboard: 1

[Editor]
DistanceSpacing: 1
BeatDivisor: 4
GridSize: 16
TimelineZoom: 1.9

[Metadata]
Title:Donna Ketsumatsu ga Onozomi dai?
TitleUnicode:どんな結末がお望みだい?
Artist:TUYU
ArtistUnicode:ツユ
Creator:Len
Version:Erisu's Normal
Source:プロジェクトセカイ カラフルステージ! feat. 初音ミク
Tags:what sort of ending are you wishing for? Don'na japanese jpop j-pop pop jrock j-rock rock 礼衣 ぷす ミロ 双葉陽 rei pusu miro futaba haru azyun vocals female fast l1ght_u light_u -hitomi erisu lanzhu pnky eringira new-username athanasia- proseka prsk プロセカ ワンダーランズ×ショウタイム Wonderlands x Showtime ワンダショ Wondershow project sekai colorful stage! hatsune miku A Sorrowful Farewell at the Curtain Call カーテンコールに惜別を vocaloid
BeatmapID:3865623
BeatmapSetID:1875378

[Difficulty]
HPDrainRate:3
CircleSize:3
OverallDifficulty:4.5
ApproachRate:5.5
SliderMultiplier:0.999999999999999
SliderTickRate:0.5

[Events]
//Background and Video events
Video,-100,"defreeyay.mp4"
0,0,"bge.png",0,0
//Break Periods
2,29235,32963
2,82288,88384
//Storyboard Layer 0 (Background)
//Storyboard Layer 1 (Fail)
//Storyboard Layer 2 (Pass)
//Storyboard Layer 3 (Foreground)
//Storyboard Layer 4 (Overlay)
//Storyboard Sound Samples

[TimingPoints]
-17,315.789473684211,4,2,1,70,1,0
1246,-100,4,2,1,40,0,0
11351,-100,4,2,1,40,0,0
11983,-100,4,2,1,40,0,0
12930,-100,4,2,1,40,0,0
13246,-100,4,2,1,40,0,0
13877,-100,4,2,1,40,0,0
14825,-100,4,2,1,40,0,0
18930,-100,4,2,1,50,0,0
21456,-100,4,2,1,60,0,0
23351,-100,4,2,1,60,0,0
23983,-100,4,2,1,50,0,0
29035,-100,4,2,1,40,0,0
34088,-100,4,2,1,50,0,0
36614,-100,4,2,1,60,0,0
38509,-100,4,2,1,60,0,0
38983,-100,4,2,1,70,0,0
40404,-100,4,2,1,70,0,0
41667,-100,4,2,1,60,0,0
58404,-100,4,2,1,60,0,0
59193,-100,4,2,3,80,0,1
59666,-100,4,2,1,80,0,1
69298,-100,4,2,3,80,0,1
69614,-100,4,2,1,80,0,1
82088,-100,4,2,1,40,0,0
89350,-100,4,2,1,45,0,0
89508,-100,4,2,1,60,0,0
91718,-100,4,2,1,60,0,0
93455,-100,4,2,1,50,0,0
98508,-100,4,2,1,55,0,0
101034,-100,4,2,1,60,0,0
102929,-100,4,2,1,60,0,0
103402,-100,4,2,1,70,0,0
106087,-100,4,2,1,60,0,0
122823,-100,4,2,1,60,0,0
123614,-100,4,2,3,80,0,1
124086,-100,4,2,1,80,0,1
133719,-100,4,2,3,80,0,1
134035,-100,4,2,1,80,0,1
146351,-100,4,2,1,70,0,0
171139,-100,4,2,1,70,0,0
171614,-100,4,2,3,80,0,1
171930,-100,4,2,1,80,0,1
181718,-100,4,2,3,80,0,1
182035,-100,4,2,1,80,0,1
194193,-100,4,2,1,80,0,0
194981,-100,4,2,1,60,0,0
195614,-100,4,2,1,35,0,0

[Colours]
Combo1 : 142,193,255
Combo2 : 172,172,215

[HitObjects]
256,192,1246,5,2,0:0:0:0:
256,192,3772,5,2,0:0:0:0:
256,192,6298,5,2,0:0:0:0:
256,192,8825,5,2,0:0:0:0:
256,192,8983,12,2,11351,0:0:0:0:
256,192,11983,6,0,P|256:278|256:307,1,99.9999999999999,0|0,3:0|3:0,0:0:0:0:
256,339,12456,1,0,0:0:0:0:
256,339,12614,1,2,3:2:0:0:
163,376,12930,1,2,0:0:0:0:
101,297,13246,2,0,L|101:187,1,99.9999999999999,0|2,3:0|0:0,0:0:0:0:
10,154,13877,6,0,L|10:264,2,99.9999999999999,2|2|2,3:2|3:2|0:0,0:0:0:0:
64,64,14825,2,0,P|112:48|160:64,1,99.9999999999999,2|0,3:2|0:0,0:0:0:0:
230,130,15456,2,0,P|278:146|326:130,1,99.9999999999999,2|2,3:2|0:2,0:0:0:0:
359,96,15930,1,0,0:0:0:0:
359,96,16088,1,2,3:2:0:0:
197,213,16719,5,2,0:0:0:0:
110,262,17035,2,0,P|51:250|5:243,2,99.9999999999999,2|2|2,3:2|0:0|0:0,0:0:0:0:
142,357,17983,1,2,0:0:0:0:
238,331,18298,1,2,3:2:0:0:
323,382,18614,1,2,3:2:0:0:
387,305,18930,6,0,P|373:264|355:188,1,99.9999999999999,4|2,1:0|0:0,0:0:0:0:
260,191,19561,2,0,P|210:199|161:206,2,99.9999999999999,0|2|2,1:0|0:0|1:2,0:0:0:0:
359,209,20509,1,2,0:0:0:0:
445,156,20825,1,0,1:0:0:0:
427,57,21140,1,2,0:0:0:0:
328,37,21456,6,0,P|283:46|215:61,1,99.9999999999999,4|10,1:0|0:0,0:0:0:0:
187,42,21930,1,0,1:0:0:0:
187,42,22088,2,0,P|168:70|162:109,1,50,10|0,0:0|1:0,0:0:0:0:
121,117,22404,2,0,P|136:147|166:172,1,50,10|0,0:0|1:0,0:0:0:0:
133,207,22719,1,4,1:0:0:0:
323,267,23351,1,6,1:2:0:0:
141,350,23983,6,0,P|175:346|210:340,2,50,2|2|2,1:2|0:2|0:2,0:0:0:0:
99,334,24456,2,0,P|85:309|91:272,1,50,2|2,0:2|1:2,0:0:0:0:
100,241,24772,1,2,0:2:0:0:
57,150,25088,1,2,0:0:0:0:
115,68,25404,1,2,0:2:0:0:
115,68,25561,2,0,B|157:73|144:85|223:89,1,99.9999999999999,2|2,0:2|1:2,0:0:0:0:
299,39,26193,1,2,0:0:0:0:
390,78,26509,6,0,P|408:53|431:18,2,50,2|2|2,1:2|0:2|0:2,0:0:0:0:
371,124,26982,2,0,P|381:153|386:178,1,50,2|2,0:2|1:2,0:0:0:0:
422,206,27298,1,2,0:2:0:0:
480,286,27614,1,2,0:0:0:0:
394,334,27930,1,2,0:2:0:0:
394,334,28087,2,0,P|352:345|286:355,1,99.9999999999999,2|2,0:2|1:2,0:0:0:0:
253,326,28561,2,0,P|250:304|265:265,2,50,0|2|0,0:0|0:2|0:0,0:0:0:0:
210,352,29035,5,2,0:0:0:0:
59,47,34088,6,0,P|68:89|78:153,1,99.9999999999999,4|2,1:0|0:2,0:0:0:0:
159,201,34719,2,0,P|150:243|140:307,1,99.9999999999999,2|2,1:2|0:2,0:0:0:0:
227,350,35351,2,0,B|276:365|276:365|322:337,1,99.9999999999999,2|2,1:2|0:0,0:0:0:0:
350,301,35825,1,0,0:0:0:0:
350,301,35983,2,0,B|399:286|399:286|445:314,1,99.9999999999999,2|2,1:2|0:0,0:0:0:0:
485,222,36614,5,4,1:0:0:0:
433,136,36930,2,0,L|380:122,1,50,10|0,0:0|1:0,0:0:0:0:
347,156,37246,2,0,L|294:170,1,50,10|0,0:0|1:0,0:0:0:0:
252,149,37561,1,10,0:0:0:0:
168,204,37877,1,4,1:0:0:0:
75,165,38193,2,0,P|67:116|102:66,1,99.9999999999999,2|0,1:2|0:0,0:0:0:0:
183,30,38825,1,2,0:0:0:0:
183,30,38983,6,0,P|207:72|199:121,1,99.9999999999999,4|0,1:0|1:0,0:0:0:0:
240,149,39456,2,0,L|358:131,1,99.9999999999999,8|0,0:0|1:0,0:0:0:0:
384,155,39930,1,0,1:0:0:0:
384,155,40088,1,8,0:0:0:0:
356,251,40404,2,0,P|322:259|298:270,1,50,4|0,1:0|1:0,0:0:0:0:
271,298,40719,2,0,P|237:289|213:279,1,50,8|0,0:0|1:0,0:0:0:0:
188,247,41035,1,8,0:0:0:0:
106,304,41351,1,0,0:0:0:0:
15,260,41667,6,0,P|20:217|30:146,1,99.9999999999999,4|0,1:0|0:0,0:0:0:0:
20,65,42298,1,10,0:0:0:0:
20,65,42456,1,2,0:0:0:0:
114,30,42772,2,0,P|151:55|215:60,1,99.9999999999999,10|10,0:0|0:0,0:0:0:0:
239,24,43246,1,2,1:2:0:0:
306,97,43561,1,10,0:0:0:0:
276,192,43877,1,2,1:2:0:0:
307,287,44193,6,0,B|341:292|341:292|360:302|360:302|411:308,1,99.9999999999999,2|0,1:2|1:0,0:0:0:0:
491,257,44825,1,10,0:0:0:0:
491,257,44983,1,2,1:2:0:0:
418,188,45298,2,0,P|431:153|442:89,1,99.9999999999999,10|10,0:0|0:0,0:0:0:0:
405,56,45772,1,2,1:2:0:0:
321,111,46088,1,10,0:0:0:0:
234,61,46404,2,0,P|206:67|174:94,1,50,10|10,0:0|0:0,0:0:0:0:
154,115,46719,6,0,P|99:99|92:41,1,99.9999999999999,4|0,1:0|0:0,0:0:0:0:
19,141,47351,1,10,0:0:0:0:
19,141,47509,1,2,0:0:0:0:
52,235,47825,2,0,P|46:283|31:347,1,99.9999999999999,10|10,0:0|0:0,0:0:0:0:
75,363,48298,1,2,1:2:0:0:
167,323,48614,1,10,0:0:0:0:
202,229,48930,1,2,1:2:0:0:
128,161,49246,6,0,P|178:148|235:136,1,99.9999999999999,6|0,1:2|1:0,0:0:0:0:
288,60,49877,2,0,P|338:72|395:85,1,99.9999999999999,10|0,0:0|1:0,0:0:0:0:
481,53,50509,2,0,P|500:91|483:149,1,99.9999999999999,2|0,0:0|1:0,0:0:0:0:
422,221,51140,1,8,0:0:0:0:
364,302,51456,2,0,L|306:283,1,50,8|8,0:0|0:0,0:0:0:0:
266,284,51772,6,0,B|245:238|245:238|276:174,1,99.9999999999999,4|8,1:0|0:0,0:0:0:0:
322,110,52404,2,0,L|250:82,1,50,2|2,1:2|0:0,0:0:0:0:
237,58,52719,1,8,0:0:0:0:
237,58,52877,2,0,L|132:76,1,99.9999999999999,2|0,0:0|0:0,0:0:0:0:
90,58,53351,1,10,0:2:0:0:
57,152,53667,2,0,L|73:219,1,50,2|2,1:2|0:2,0:0:0:0:
33,236,53983,1,10,0:2:0:0:
76,325,54298,6,0,B|130:321|111:349|181:342,1,99.9999999999999,4|8,1:0|0:0,0:0:0:0:
251,280,54930,2,0,L|263:220,1,50,2|2,1:2|0:2,0:0:0:0:
238,192,55245,1,8,0:0:0:0:
238,192,55403,2,0,P|227:143|220:87,1,99.9999999999999,2|2,0:2|0:0,0:0:0:0:
263,66,55877,1,10,0:2:0:0:
356,30,56193,2,0,P|369:56|372:97,1,50,2|2,1:2|0:2,0:0:0:0:
415,102,56509,1,10,0:2:0:0:
490,167,56825,6,0,P|475:209|464:280,1,99.9999999999999,4|8,1:0|0:0,0:0:0:0:
375,308,57456,2,0,L|385:361,2,50,2|0|8,1:2|1:0|0:0,0:0:0:0:
334,278,57930,1,8,0:0:0:0:
334,278,58088,1,4,1:0:0:0:
246,327,58404,2,0,L|173:312,1,50,8|8,0:0|0:0,0:0:0:0:
161,281,58719,2,0,L|88:296,1,50,0|8,1:0|0:0,0:0:0:0:
63,305,59035,1,8,0:0:0:0:
17,283,59193,6,0,P|7:236|53:173,1,99.9999999999999,4|2,1:0|1:2,0:0:0:0:
53,146,59667,1,8,0:0:0:0:
152,139,59983,2,0,B|193:147|193:147|208:156|208:156|276:167,1,99.9999999999999,0|8,1:0|0:0,0:0:0:0:
296,190,60456,1,2,0:0:0:0:
296,190,60614,2,0,L|413:171,1,99.9999999999999,2|8,1:2|0:0,0:0:0:0:
435,144,61088,1,2,1:2:0:0:
487,59,61404,1,2,1:2:0:0:
393,26,61719,6,0,P|350:41|282:51,1,99.9999999999999,4|0,1:0|1:0,0:0:0:0:
255,79,62193,2,0,L|198:62,1,50,10|0,0:0|0:0,0:0:0:0:
168,32,62509,2,0,L|111:49,1,50,2|0,1:2|1:0,0:0:0:0:
73,65,62825,1,8,0:0:0:0:
14,145,63140,2,0,B|22:186|22:186|18:205|18:205|32:268,1,99.9999999999999,2|10,1:2|0:0,0:0:0:0:
57,282,63614,1,2,1:2:0:0:
135,344,63930,1,2,1:2:0:0:
220,292,64246,6,0,B|257:294|247:308|336:311,1,99.9999999999999,4|0,1:0|1:0,0:0:0:0:
361,334,64719,1,10,0:0:0:0:
439,271,65035,2,0,L|454:212,1,50,2|0,1:2|1:0,0:0:0:0:
484,184,65351,2,0,L|461:75,1,99.9999999999999,8|4,0:0|1:0,0:0:0:0:
422,57,65825,2,0,L|355:47,1,50,2|10,0:0|0:0,0:0:0:0:
339,86,66140,1,2,1:2:0:0:
248,43,66456,2,0,L|171:28,1,50,2|10,1:2|0:0,0:0:0:0:
149,42,66772,6,0,P|139:111|181:141,1,99.9999999999999,4|0,1:0|1:0,0:0:0:0:
194,161,67246,1,10,0:0:0:0:
267,228,67561,1,10,0:0:0:0:
204,306,67877,1,10,0:0:0:0:
119,252,68193,2,0,P|89:241|60:211,1,50,10|10,0:2|0:2,0:0:0:0:
28,209,68509,2,0,P|22:177|34:137,1,50,2|2,1:2|1:2,0:0:0:0:
63,127,68825,1,10,1:2:0:0:
63,127,68983,1,10,0:0:0:0:
26,34,69298,6,0,P|67:28|134:13,1,99.9999999999999,4|2,1:0|1:2,0:0:0:0:
174,9,69772,1,8,0:0:0:0:
259,60,70088,2,0,B|288:96|288:96|271:171,1,99.9999999999999,0|8,1:0|0:0,0:0:0:0:
238,180,70561,1,2,0:0:0:0:
238,180,70719,2,0,P|246:230|257:297,1,99.9999999999999,2|8,1:2|0:0,0:0:0:0:
219,314,71193,1,2,1:2:0:0:
133,366,71509,1,2,1:2:0:0:
48,312,71824,6,0,P|26:271|54:204,1,99.9999999999999,4|0,1:0|1:0,0:0:0:0:
56,174,72298,2,0,L|113:163,1,50,10|0,0:0|0:0,0:0:0:0:
149,187,72614,2,0,L|206:204,1,50,2|0,1:2|1:0,0:0:0:0:
238,180,72930,1,8,0:0:0:0:
309,249,73245,2,0,P|352:239|421:229,1,99.9999999999999,2|10,1:2|0:0,0:0:0:0:
446,199,73719,1,2,1:2:0:0:
507,120,74035,1,2,1:2:0:0:
431,54,74351,6,0,B|394:52|394:52|364:35|364:35|315:35,1,99.9999999999999,4|0,1:0|1:0,0:0:0:0:
286,23,74824,1,10,0:0:0:0:
198,72,75140,2,0,L|120:62,1,50,2|0,1:2|1:0,0:0:0:0:
105,39,75456,2,0,P|75:77|92:146,1,99.9999999999999,8|4,0:0|1:0,0:0:0:0:
59,172,75930,2,0,L|73:242,1,50,2|10,0:0|0:0,0:0:0:0:
37,259,76245,1,2,1:2:0:0:
104,333,76561,2,0,L|181:318,1,50,2|10,1:2|0:0,0:0:0:0:
173,277,76877,6,0,B|229:281|217:294|300:295,1,99.9999999999999,4|0,1:0|1:0,0:0:0:0:
316,272,77351,1,10,0:0:0:0:
293,174,77666,1,10,0:0:0:0:
214,111,77983,2,0,P|219:60|231:9,1,99.9999999999999,10|0,0:0|1:2,0:0:0:0:
322,50,78614,2,0,P|344:54|399:63,1,50,8|0,0:0|1:0,0:0:0:0:
424,55,78930,1,10,0:0:0:0:
424,55,79088,1,8,0:0:0:0:
496,124,79404,6,0,P|485:176|477:242,1,99.9999999999999,4|2,1:0|1:2,0:0:0:0:
483,272,79877,2,0,P|457:280|430:291,1,50,8|2,0:0|1:2,0:0:0:0:
406,329,80193,2,0,P|380:320|353:310,1,50,10|0,0:0|1:0,0:0:0:0:
316,285,80509,1,10,0:0:0:0:
235,236,80825,1,10,1:2:0:0:
235,236,80983,1,10,0:0:0:0:
347,136,81456,1,10,1:2:0:0:
347,136,81613,1,10,0:2:0:0:
255,16,82088,5,2,0:0:0:0:
389,361,89509,6,0,P|387:305|412:256,1,99.9999999999999,12|0,0:0|1:0,0:0:0:0:
428,221,89983,1,8,0:0:0:0:
484,138,90298,1,8,0:0:0:0:
397,88,90614,1,8,0:0:0:0:
341,171,90930,2,0,L|269:154,1,50,8|0,0:0|1:0,0:0:0:0:
246,137,91246,2,0,L|174:154,1,50,8|8,0:0|0:0,0:0:0:0:
161,183,91561,1,10,0:0:0:0:
161,183,91719,1,10,0:0:0:0:
178,161,93456,5,6,1:2:0:0:
69,328,94088,2,0,P|77:284|90:226,1,99.9999999999999,0|2,1:2|0:0,0:0:0:0:
185,256,94719,2,0,P|193:300|206:358,1,99.9999999999999,0|2,1:2|0:0,0:0:0:0:
290,289,95351,1,0,1:2:0:0:
381,328,95667,1,2,0:0:0:0:
458,265,95983,6,0,B|475:207|475:207|435:160,1,99.9999999999999,0|2,1:2|0:0,0:0:0:0:
499,90,96614,1,0,1:2:0:0:
409,44,96930,1,2,0:0:0:0:
323,96,97246,2,0,B|270:106|270:106|262:113|262:113|209:122,1,99.9999999999999,0|2,1:2|0:0,0:0:0:0:
152,51,97877,2,0,B|99:40|99:40|91:34|91:34|38:25,1,99.9999999999999,0|2,1:2|0:0,0:0:0:0:
31,125,98509,6,0,P|43:161|109:184,1,99.9999999999999,4|2,1:0|0:2,0:0:0:0:
142,205,98983,1,2,0:2:0:0:
142,205,99140,1,2,1:2:0:0:
98,295,99456,1,2,0:2:0:0:
178,354,99772,2,0,L|283:337,1,99.9999999999999,2|2,1:2|0:0,0:0:0:0:
328,251,100404,2,0,L|229:235,1,99.9999999999999,2|2,1:2|0:0,0:0:0:0:
167,155,101035,5,4,1:0:0:0:
234,80,101351,2,0,P|254:76|300:67,1,50,10|0,0:0|1:0,0:0:0:0:
323,39,101667,2,0,P|343:43|389:52,1,50,10|0,0:0|1:0,0:0:0:0:
413,77,101983,1,10,0:0:0:0:
474,155,102298,1,4,1:0:0:0:
412,233,102614,2,0,P|426:286|434:339,2,99.9999999999999,2|0|2,1:2|0:0|0:0,0:0:0:0:
366,211,103404,6,0,P|325:247|250:255,1,99.9999999999999,4|0,1:0|1:0,0:0:0:0:
248,295,103877,1,8,0:0:0:0:
148,307,104193,2,0,L|131:370,2,50,0|0|8,1:0|1:0|0:0,0:0:0:0:
76,236,104825,2,0,L|53:167,1,50,4|0,1:0|1:0,0:0:0:0:
105,166,105140,2,0,L|120:118,1,50,8|0,0:0|1:0,0:0:0:0:
90,78,105456,1,8,0:0:0:0:
167,14,105772,1,0,0:0:0:0:
247,74,106088,6,0,P|277:121|262:188,1,99.9999999999999,4|0,1:0|0:0,0:0:0:0:
212,242,106719,1,10,0:0:0:0:
212,242,106877,1,2,0:0:0:0:
279,315,107193,2,0,B|334:317|316:340|380:345,1,99.9999999999999,10|10,0:0|0:0,0:0:0:0:
423,345,107667,1,2,1:2:0:0:
485,267,107982,1,10,0:0:0:0:
442,176,108298,1,2,1:2:0:0:
506,89,108614,6,0,B|402:68,1,99.9999999999999,2|0,1:2|1:0,0:0:0:0:
322,28,109246,1,10,0:0:0:0:
322,28,109404,1,2,1:2:0:0:
241,87,109719,2,0,L|116:65,1,99.9999999999999,10|10,0:0|0:0,0:0:0:0:
98,45,110193,1,2,1:2:0:0:
20,108,110509,1,10,0:0:0:0:
80,187,110825,2,0,P|87:217|92:247,1,50,10|10,0:0|0:0,0:0:0:0:
77,284,111140,6,0,B|119:292|119:292|131:308|131:308|179:317,1,99.9999999999999,4|0,1:0|0:0,0:0:0:0:
253,262,111772,1,10,0:0:0:0:
253,262,111930,1,2,0:0:0:0:
193,181,112246,2,0,P|200:130|209:73,1,99.9999999999999,10|10,0:0|0:0,0:0:0:0:
243,47,112719,1,2,1:2:0:0:
342,56,113035,1,10,0:0:0:0:
441,65,113351,1,2,1:2:0:0:
423,163,113667,6,0,L|404:291,1,99.9999999999999,6|0,1:2|1:0,0:0:0:0:
332,326,114298,2,0,B|279:350|279:350|232:323,1,99.9999999999999,10|0,0:0|1:0,0:0:0:0:
142,327,114930,2,0,P|127:280|147:235,1,99.9999999999999,2|0,0:0|1:0,0:0:0:0:
235,187,115561,1,8,0:0:0:0:
155,125,115877,2,0,L|100:137,1,50,8|8,0:0|0:0,0:0:0:0:
55,137,116193,6,0,B|35:246,1,99.9999999999999,4|8,1:0|0:0,0:0:0:0:
77,326,116825,2,0,P|104:326|126:343,1,50,2|2,1:2|0:0,0:0:0:0:
173,360,117140,1,8,0:0:0:0:
173,360,117298,2,0,P|210:336|266:351,1,99.9999999999999,2|0,0:0|0:0,0:0:0:0:
310,333,117772,1,10,0:2:0:0:
409,342,118088,2,0,P|413:313|425:275,1,50,2|2,1:2|0:2,0:0:0:0:
446,251,118404,1,10,0:2:0:0:
468,153,118719,6,0,B|473:119|473:119|480:104|480:104|483:55,1,99.9999999999999,4|8,1:0|0:0,0:0:0:0:
386,78,119351,2,0,P|352:66|319:59,1,50,2|2,1:2|0:2,0:0:0:0:
293,76,119666,1,8,0:0:0:0:
293,76,119824,2,0,P|282:125|275:181,1,99.9999999999999,2|2,0:2|0:0,0:0:0:0:
261,222,120298,1,10,0:2:0:0:
229,317,120614,2,0,P|201:324|168:334,1,50,2|2,1:2|0:2,0:0:0:0:
133,346,120930,1,10,0:2:0:0:
45,297,121246,6,0,P|53:247|69:200,1,99.9999999999999,4|8,1:0|0:0,0:0:0:0:
59,101,121877,2,0,L|6:111,2,50,2|0|8,1:2|1:0|0:0,0:0:0:0:
89,60,122351,1,8,0:0:0:0:
89,60,122509,5,4,1:0:0:0:
181,98,122825,2,0,L|174:151,1,50,8|8,0:0|0:0,0:0:0:0:
207,180,123140,2,0,P|236:166|274:160,1,50,0|8,1:0|0:0,0:0:0:0:
299,142,123456,1,8,0:0:0:0:
343,164,123614,6,0,P|372:202|358:279,1,99.9999999999999,4|2,1:0|1:2,0:0:0:0:
370,302,124088,1,8,0:0:0:0:
283,353,124404,2,0,B|231:349|242:326|161:316,1,99.9999999999999,0|8,1:0|0:0,0:0:0:0:
147,345,124877,1,2,0:0:0:0:
147,345,125035,2,0,P|105:320|111:267,1,99.9999999999999,2|8,1:2|0:0,0:0:0:0:
65,243,125509,1,2,1:2:0:0:
30,149,125825,1,2,1:2:0:0:
95,74,126140,6,0,L|191:98,1,99.9999999999999,4|0,1:0|1:0,0:0:0:0:
228,131,126614,2,0,P|252:126|285:114,1,50,10|0,0:0|0:0,0:0:0:0:
323,100,126930,2,0,L|376:112,1,50,2|0,1:2|1:0,0:0:0:0:
415,85,127246,1,8,0:0:0:0:
482,158,127561,2,0,B|466:274,1,99.9999999999999,2|10,1:2|0:0,0:0:0:0:
440,299,128035,1,2,1:2:0:0:
348,259,128351,1,2,1:2:0:0:
256,219,128667,6,0,B|207:231|207:231|196:244|196:244|148:258,1,99.9999999999999,4|0,1:0|1:0,0:0:0:0:
125,222,129140,1,10,0:0:0:0:
32,260,129456,2,0,P|27:293|47:319,1,50,2|0,1:2|1:0,0:0:0:0:
72,338,129772,2,0,P|116:345|181:361,1,99.9999999999999,8|4,0:0|1:0,0:0:0:0:
220,352,130246,2,0,L|269:344,1,50,2|10,0:0|0:0,0:0:0:0:
317,330,130561,1,2,1:2:0:0:
416,340,130877,2,0,L|431:263,1,50,2|10,1:2|0:0,0:0:0:0:
465,260,131193,6,0,L|447:154,1,99.9999999999999,4|0,1:0|1:0,0:0:0:0:
478,121,131667,1,10,0:0:0:0:
396,63,131982,1,10,0:0:0:0:
320,128,132298,1,10,0:0:0:0:
233,77,132614,2,0,P|219:105|220:147,1,50,10|10,0:2|0:2,0:0:0:0:
181,150,132930,2,0,P|161:133|148:112,1,50,2|2,1:2|1:2,0:0:0:0:
111,89,133246,1,10,1:2:0:0:
111,89,133404,1,10,0:0:0:0:
40,159,133719,6,0,P|51:200|60:258,1,99.9999999999999,4|2,1:0|1:2,0:0:0:0:
66,306,134193,1,8,0:0:0:0:
160,338,134509,2,0,P|169:288|185:234,1,99.9999999999999,0|8,1:0|0:0,0:0:0:0:
222,209,134982,1,2,0:0:0:0:
222,209,135140,2,0,L|203:92,1,99.9999999999999,2|8,1:2|0:0,0:0:0:0:
239,72,135614,1,2,1:2:0:0:
338,59,135930,1,2,1:2:0:0:
437,54,136245,6,0,L|451:166,1,99.9999999999999,4|0,1:0|1:0,0:0:0:0:
471,198,136719,2,0,L|456:266,1,50,10|0,0:0|0:0,0:0:0:0:
473,295,137035,2,0,P|438:300|416:312,1,50,2|0,1:2|1:0,0:0:0:0:
381,332,137351,1,8,0:0:0:0:
285,359,137666,2,0,P|242:349|173:339,1,99.9999999999999,2|10,1:2|0:0,0:0:0:0:
141,317,138140,1,2,1:2:0:0:
43,292,138456,1,2,1:2:0:0:
78,198,138772,6,0,B|116:172|116:172|179:186,1,99.9999999999999,4|0,1:0|1:0,0:0:0:0:
197,224,139245,1,10,0:0:0:0:
296,238,139561,2,0,L|374:228,1,50,2|0,1:2|1:0,0:0:0:0:
393,214,139877,2,0,P|396:165|366:126,1,99.9999999999999,8|4,0:0|1:0,0:0:0:0:
321,103,140351,2,0,L|335:33,1,50,2|10,0:0|0:0,0:0:0:0:
298,15,140666,1,2,1:2:0:0:
216,72,140982,2,0,L|139:87,1,50,2|10,1:2|0:0,0:0:0:0:
117,73,141298,6,0,B|73:111|93:175,1,99.9999999999999,4|0,1:0|1:0,0:0:0:0:
72,210,141772,1,10,0:0:0:0:
23,296,142087,1,10,0:0:0:0:
120,320,142404,2,0,L|221:299,1,99.9999999999999,10|0,0:0|1:2,0:0:0:0:
257,207,143035,2,0,P|261:185|270:130,1,50,8|0,0:0|1:0,0:0:0:0:
244,118,143351,1,10,0:0:0:0:
244,118,143509,1,8,0:0:0:0:
306,39,143825,6,0,P|358:50|424:58,1,99.9999999999999,4|2,1:0|1:2,0:0:0:0:
454,50,144298,2,0,P|473:62|478:91,1,50,8|2,0:0|1:2,0:0:0:0:
471,137,144614,2,0,L|461:201,1,50,10|0,0:0|1:0,0:0:0:0:
487,230,144930,1,10,0:0:0:0:
437,318,145246,1,10,1:2:0:0:
437,318,145404,1,10,0:0:0:0:
310,248,145877,1,10,1:2:0:0:
310,248,146034,1,10,0:2:0:0:
235,315,146351,6,0,B|198:314|217:298|126:293,1,99.9999999999999,4|2,1:0|1:2,0:0:0:0:
87,294,146825,1,10,0:0:0:0:
23,217,147140,2,0,L|33:167,1,50,2|0,1:2|0:0,0:0:0:0:
60,125,147456,1,10,0:0:0:0:
136,61,147772,2,0,P|164:85|236:83,1,99.9999999999999,2|10,1:2|0:0,0:0:0:0:
276,75,148246,1,2,0:0:0:0:
276,75,148404,2,0,P|283:41|291:21,2,50,2|2|10,1:2|0:0|0:0,0:0:0:0:
310,111,148877,6,0,P|305:162|300:223,1,99.9999999999999,4|2,1:0|1:2,0:0:0:0:
265,246,149351,1,10,0:0:0:0:
332,319,149667,2,0,L|320:374,2,50,2|2|10,1:2|0:0|0:0,0:0:0:0:
379,298,150140,1,2,0:0:0:0:
379,298,150298,2,0,B|441:301|409:320|484:322,1,99.9999999999999,2|10,1:2|0:0,0:0:0:0:
495,223,150930,1,2,1:2:0:0:
430,146,151246,1,10,0:0:0:0:
430,146,151404,6,0,P|438:88|450:30,1,99.9999999999999,4|2,1:0|1:2,0:0:0:0:
400,27,151877,1,8,0:0:0:0:
315,80,152193,1,2,1:2:0:0:
224,38,152509,2,0,P|213:65|210:109,1,50,10|2,0:0|0:0,0:0:0:0:
215,135,152825,2,0,P|222:157|234:234,1,99.9999999999999,2|10,1:2|0:2,0:0:0:0:
165,305,153456,2,0,L|113:297,1,50,2|2,1:2|0:0,0:0:0:0:
71,285,153772,1,10,0:0:0:0:
71,285,153930,6,0,P|48:241|59:193,1,99.9999999999999,4|2,1:2|1:2,0:0:0:0:
84,149,154404,1,8,0:0:0:0:
175,110,154719,2,0,P|203:112|235:134,1,50,10|0,0:0|1:0,0:0:0:0:
268,142,155035,2,0,P|291:125|328:127,1,50,8|0,0:0|1:0,0:0:0:0:
359,105,155351,1,2,1:2:0:0:
447,151,155667,2,0,L|437:209,1,50,10|2,0:0|1:2,0:0:0:0:
420,247,155983,1,10,0:2:0:0:
420,247,156140,1,8,0:0:0:0:
465,336,156456,6,0,B|406:335|424:359|359:356,1,99.9999999999999,4|0,1:0|1:0,0:0:0:0:
319,344,156930,2,0,L|258:333,1,50,10|2,0:2|0:2,0:0:0:0:
228,306,157246,1,2,1:2:0:0:
268,217,157561,1,8,0:0:0:0:
268,217,157719,2,0,L|282:108,1,99.9999999999999,2|2,0:0|0:0,0:0:0:0:
306,74,158193,2,0,L|360:63,2,50,8|2|2,0:0|1:2|0:0,0:0:0:0:
215,30,158825,1,10,0:0:0:0:
215,30,158983,6,0,P|169:62|111:60,1,99.9999999999999,4|2,1:0|1:2,0:0:0:0:
81,41,159456,2,0,P|67:68|63:107,1,50,10|2,0:2|0:2,0:0:0:0:
25,121,159772,2,0,P|30:145|43:167,1,50,2|2,1:2|1:2,0:0:0:0:
67,211,160088,1,10,0:0:0:0:
67,211,160246,1,2,0:0:0:0:
68,314,160561,1,2,0:0:0:0:
68,314,160719,2,0,L|122:303,1,50,10|2,0:0|1:2,0:0:0:0:
155,271,161035,2,0,L|209:282,1,50,2|2,0:0|1:2,0:0:0:0:
232,322,161351,1,8,0:0:0:0:
232,322,161509,6,0,B|274:313|274:313|296:321|296:321|349:308,1,99.9999999999999,4|2,1:2|1:2,0:0:0:0:
370,284,161983,1,10,0:0:0:0:
442,215,162298,2,0,P|462:217|496:222,2,50,2|0|8,1:2|1:0|0:0,0:0:0:0:
399,188,162772,1,2,0:0:0:0:
317,130,163088,1,2,0:0:0:0:
317,130,163246,2,0,L|304:197,1,50,8|2,0:0|1:2,0:0:0:0:
269,211,163561,2,0,L|278:260,1,50,2|2,0:0|1:2,0:0:0:0:
312,297,163877,1,8,0:0:0:0:
312,297,164035,6,0,P|272:339|214:340,1,99.9999999999999,4|0,1:0|1:0,0:0:0:0:
186,365,164509,1,10,0:0:0:0:
118,290,164825,1,10,0:0:0:0:
171,205,165140,1,8,0:0:0:0:
125,116,165456,1,14,1:2:0:0:
125,116,165614,1,10,0:0:0:0:
227,6,166088,1,10,1:2:0:0:
227,6,166246,1,10,0:0:0:0:
309,61,166561,6,0,P|354:53|417:48,1,99.9999999999999,4|0,1:0|1:0,0:0:0:0:
454,67,167035,1,10,0:0:0:0:
463,166,167351,2,0,L|514:175,2,50,2|2|10,1:2|1:2|0:0,0:0:0:0:
420,192,167825,2,0,B|424:233|424:233|435:246|435:246|442:310,1,99.9999999999999,4|0,1:0|1:0,0:0:0:0:
410,328,168298,1,10,0:0:0:0:
312,304,168614,2,0,L|247:289,1,50,2|2,1:2|1:2,0:0:0:0:
224,324,168930,1,10,0:0:0:0:
224,324,169088,6,0,L|121:309,1,99.9999999999999,4|0,1:0|1:0,0:0:0:0:
90,273,169561,1,10,0:0:0:0:
134,183,169877,2,0,L|195:194,2,50,2|2|10,1:2|1:2|0:0,0:0:0:0:
89,159,170351,2,0,P|109:76|124:68,1,99.9999999999999,4|8,1:0|0:0,0:0:0:0:
162,54,170825,2,0,L|223:73,1,50,8|8,0:0|0:0,0:0:0:0:
250,98,171140,1,10,1:2:0:0:
250,98,171298,1,10,0:0:0:0:
349,101,171614,6,0,B|379:147|379:147|360:199,1,99.9999999999999,4|2,1:0|1:2,0:0:0:0:
323,219,172088,1,8,0:0:0:0:
265,300,172404,2,0,B|320:306|309:322|361:324,1,99.9999999999999,0|8,1:0|0:0,0:0:0:0:
409,351,172877,1,2,0:0:0:0:
409,351,173035,2,0,P|443:328|443:256,1,99.9999999999999,2|8,1:2|0:0,0:0:0:0:
484,234,173509,1,2,1:2:0:0:
434,147,173825,1,2,1:2:0:0:
489,64,174140,6,0,P|444:45|391:39,1,99.9999999999999,4|0,1:0|1:0,0:0:0:0:
349,64,174614,2,0,P|325:69|292:81,1,50,10|0,0:0|0:0,0:0:0:0:
258,103,174930,2,0,L|209:91,1,50,2|0,1:2|1:0,0:0:0:0:
168,61,175246,1,8,0:0:0:0:
76,101,175561,2,0,P|65:157|60:217,1,99.9999999999999,2|10,1:2|0:0,0:0:0:0:
25,234,176035,1,2,1:2:0:0:
84,314,176351,1,2,1:2:0:0:
171,266,176667,6,0,P|221:251|273:243,1,99.9999999999999,4|0,1:0|1:0,0:0:0:0:
293,200,177140,1,10,0:0:0:0:
229,122,177456,2,0,L|240:57,1,50,2|0,1:2|1:0,0:0:0:0:
279,45,177772,2,0,B|332:51|317:65|388:68,1,99.9999999999999,8|4,0:0|1:0,0:0:0:0:
422,85,178246,2,0,P|444:104|446:141,1,50,2|10,0:0|0:0,0:0:0:0:
418,163,178561,1,2,1:2:0:0:
480,241,178877,2,0,L|470:290,1,50,2|10,1:2|0:0,0:0:0:0:
439,329,179193,6,0,P|379:328|341:368,1,99.9999999999999,4|0,1:0|1:0,0:0:0:0:
299,357,179667,1,10,0:0:0:0:
213,305,179982,1,10,0:0:0:0:
129,359,180298,1,10,0:0:0:0:
43,307,180614,2,0,P|39:281|52:257,1,50,10|10,0:2|0:2,0:0:0:0:
87,227,180930,2,0,P|67:210|54:189,1,50,2|2,1:2|1:2,0:0:0:0:
52,144,181246,1,10,1:2:0:0:
52,144,181404,1,10,0:0:0:0:
118,69,181719,6,0,P|159:57|232:47,1,99.9999999999999,4|2,1:0|1:2,0:0:0:0:
258,73,182193,1,10,0:0:0:0:
342,19,182509,2,0,P|373:46|373:113,1,99.9999999999999,10|10,0:0|0:0,0:0:0:0:
350,145,182982,1,2,1:2:0:0:
350,145,183140,2,0,B|335:195|335:195|341:210|341:210|329:256,1,99.9999999999999,4|10,1:0|0:0,0:0:0:0:
304,281,183614,1,2,1:2:0:0:
371,355,183930,1,2,1:2:0:0:
465,323,184245,6,0,P|472:285|487:224,1,99.9999999999999,4|2,1:0|1:2,0:0:0:0:
482,175,184719,2,0,P|484:140|467:107,1,50,10|2,0:0|1:2,0:0:0:0:
437,97,185035,2,0,P|402:102|380:114,1,50,10|2,0:0|1:2,0:0:0:0:
358,148,185351,1,10,0:0:0:0:
269,102,185666,2,0,P|226:92|157:82,1,99.9999999999999,4|10,1:0|0:0,0:0:0:0:
124,64,186140,1,2,1:2:0:0:
30,98,186456,1,2,1:2:0:0:
85,181,186772,6,0,P|95:229|105:286,1,99.9999999999999,4|0,1:0|1:0,0:0:0:0:
82,324,187245,1,10,0:0:0:0:
178,349,187561,2,0,L|256:339,1,50,2|0,1:2|1:0,0:0:0:0:
277,343,187877,2,0,B|306:304|306:304|292:244,1,99.9999999999999,8|4,0:0|1:0,0:0:0:0:
250,231,188351,2,0,L|264:161,1,50,2|10,0:0|0:0,0:0:0:0:
232,139,188666,1,2,1:2:0:0:
282,52,188982,2,0,L|359:37,1,50,2|10,1:2|0:0,0:0:0:0:
381,38,189298,6,0,P|419:74|403:130,1,99.9999999999999,4|0,1:0|1:0,0:0:0:0:
390,162,189772,1,10,0:0:0:0:
445,244,190087,1,10,0:0:0:0:
387,326,190404,2,0,B|344:319|344:319|330:310|330:310|289:305,1,99.9999999999999,10|0,0:0|1:2,0:0:0:0:
198,344,191035,2,0,P|176:348|121:357,1,50,8|0,0:0|1:0,0:0:0:0:
108,333,191351,1,10,0:0:0:0:
108,333,191509,1,8,0:0:0:0:
28,272,191825,6,0,B|14:221|14:221|46:169,1,99.9999999999999,4|2,1:0|1:2,0:0:0:0:
72,143,192298,2,0,P|102:131|133:125,1,50,8|2,0:0|1:2,0:0:0:0:
162,152,192614,2,0,P|181:162|230:162,1,50,10|0,0:0|1:0,0:0:0:0:
251,138,192930,1,10,0:0:0:0:
344,97,193246,1,10,1:2:0:0:
344,97,193404,1,10,0:0:0:0:
334,250,193877,1,10,1:2:0:0:
334,250,194034,1,10,0:2:0:0:
256,192,194193,12,0,196246,0:0:0:0:
