osu file format v14

[General]
AudioFilename: audio.mp3
AudioLeadIn: 0
PreviewTime: 59173
Countdown: 0
SampleSet: Soft
StackLeniency: 0.4
Mode: 0
LetterboxInBreaks: 0
WidescreenStoryboard: 1

[Editor]
Bookmarks: 1246,18930,23983,29035,38983,41667,51772,59193,69298,82088,93456,106088,116193,123614,133719,146351,156456,166561,171614,181719,194193,196483,196561
DistanceSpacing: 1.8
BeatDivisor: 4
GridSize: 32
TimelineZoom: 2.799999

[Metadata]
Title:Donna Ketsumatsu ga Onozomi dai?
TitleUnicode:どんな結末がお望みだい?
Artist:TUYU
ArtistUnicode:ツユ
Creator:Len
Version:Athanasia's Sorrowful Farewell
Source:プロジェクトセカイ カラフルステージ! feat. 初音ミク
Tags:what sort of ending are you wishing for? Don'na japanese jpop j-pop pop jrock j-rock rock 礼衣 ぷす ミロ 双葉陽 rei pusu miro futaba haru azyun vocals female fast l1ght_u light_u -hitomi erisu lanzhu pnky eringira new-username athanasia- proseka prsk プロセカ ワンダーランズ×ショウタイム Wonderlands x Showtime ワンダショ Wondershow project sekai colorful stage! hatsune miku A Sorrowful Farewell at the Curtain Call カーテンコールに惜別を vocaloid
BeatmapID:3863609
BeatmapSetID:1875378

[Difficulty]
HPDrainRate:5
CircleSize:4
OverallDifficulty:9
ApproachRate:9.3
SliderMultiplier:1.8
SliderTickRate:1

[Events]
//Background and Video events
0,0,"bge.png",0,0
Video,-100,"defreeyay.mp4"
//Break Periods
2,29235,33534
2,93656,97954
//Storyboard Layer 0 (Background)
//Storyboard Layer 1 (Fail)
//Storyboard Layer 2 (Pass)
//Storyboard Layer 3 (Foreground)
//Storyboard Layer 4 (Overlay)
//Storyboard Sound Samples

[TimingPoints]
-17,315.789473684211,4,2,1,70,1,0
1246,-500,4,2,69,40,0,0
1561,-500,4,2,69,20,0,0
3772,-500,4,2,69,40,0,0
4088,-500,4,2,69,20,0,0
4877,-500,4,2,68,40,0,0
5035,-500,4,2,69,40,0,0
5877,-500,4,2,68,40,0,0
6298,-500,4,2,69,40,0,0
7140,-500,4,2,68,40,0,0
7561,-500,4,2,69,40,0,0
10930,-500,4,2,68,40,0,0
11351,-166.666666666667,4,2,69,40,0,0
12930,-200,4,2,1,40,0,0
13246,-250,4,2,1,40,0,0
13877,-333.333333333333,4,2,69,40,0,0
14113,-333.333333333333,4,2,69,5,0,0
14193,-200,4,2,68,40,0,0
14429,-200,4,2,68,5,0,0
14509,-142.857142857143,4,2,68,40,0,0
14745,-142.857142857143,4,2,68,5,0,0
14825,-111.111111111111,4,2,69,40,0,0
15456,-166.666666666667,4,2,68,40,0,0
16087,-166.666666666667,4,2,59,40,0,0
18298,-333.333333333333,4,2,68,40,0,0
18930,-125,4,2,1,50,0,0
21456,-125,4,2,1,60,0,0
23351,-200,4,2,1,60,0,0
23983,-125,4,2,1,50,0,0
29035,-125,4,2,69,40,0,0
34088,-125,4,2,1,50,0,0
35983,-166.666666666667,4,2,1,50,0,0
36298,-250,4,2,1,50,0,0
36614,-100,4,2,1,60,0,0
37877,-125,4,2,1,60,0,0
38113,-125,4,2,1,5,0,0
38193,-125,4,2,1,60,0,0
38429,-125,4,2,1,5,0,0
38509,-125,4,2,1,60,0,0
38745,-125,4,2,1,5,0,0
38825,-125,4,2,1,60,0,0
38983,-100,4,2,1,70,0,0
41667,-166.666666666667,4,2,1,60,0,0
51772,-100,4,2,1,60,0,0
59193,-90.9090909090909,4,2,3,70,0,1
59509,-90.9090909090909,4,2,1,80,0,1
69298,-90.9090909090909,4,2,3,80,0,1
69614,-90.9090909090909,4,2,1,80,0,1
82088,-90.9090909090909,4,2,1,80,0,0
84298,-166.666666666667,4,2,1,70,0,0
87140,-166.666666666667,4,2,1,40,0,0
89351,-166.666666666667,4,2,1,45,0,0
89509,-90.9090909090909,4,2,1,60,0,0
93456,-90.9090909090909,4,2,2,50,0,0
98509,-125,4,2,1,55,0,0
100088,-166.666666666667,4,2,1,55,0,0
100404,-250,4,2,1,55,0,0
100719,-500,4,2,1,55,0,0
101035,-100,4,2,1,60,0,0
102298,-125,4,2,1,60,0,0
102534,-125,4,2,1,5,0,0
102614,-125,4,2,1,60,0,0
102850,-125,4,2,1,5,0,0
102930,-125,4,2,1,60,0,0
103166,-125,4,2,1,5,0,0
103246,-125,4,2,1,60,0,0
103404,-100,4,2,1,70,0,0
106088,-166.666666666667,4,2,1,60,0,0
116193,-100,4,2,1,60,0,0
123614,-90.9090909090909,4,2,3,70,0,1
123930,-90.9090909090909,4,2,1,80,0,1
133719,-90.9090909090909,4,2,3,80,0,1
134035,-90.9090909090909,4,2,1,80,0,1
146351,-100,4,2,1,70,0,0
171219,-100,4,2,1,60,0,0
171298,-100,4,2,1,50,0,0
171377,-100,4,2,1,40,0,0
171456,-100,4,2,1,35,0,0
171535,-100,4,2,1,30,0,0
171614,-83.3333333333333,4,2,3,80,0,1
171930,-83.3333333333333,4,2,1,80,0,1
181719,-83.3333333333333,4,2,3,80,0,1
182035,-83.3333333333333,4,2,1,80,0,1
191825,-83.3333333333333,4,2,3,80,0,1
192140,-83.3333333333333,4,2,1,80,0,1
194193,-83.3333333333333,4,2,1,80,0,0

[Colours]
Combo1 : 142,193,255
Combo2 : 172,172,215

[HitObjects]
377,293,1246,6,0,B|244:282|318:354|180:358,1,216,2|0,2:0|2:0,2:0:0:0:
44,215,3772,6,0,B|70:252|70:252|84:79,1,216,2|0,2:0|2:0,2:0:0:0:
155,37,5877,5,2,2:0:0:0:
170,42,6088,5,2,2:0:0:0:
185,47,6298,6,0,P|210:74|215:109,1,72,2|0,2:0|2:0,2:0:0:0:
299,161,7140,5,2,2:0:0:0:
290,164,7351,5,2,2:0:0:0:
280,167,7561,6,0,P|271:189|246:275,1,108,2|0,2:0|2:0,2:0:0:0:
305,372,8825,6,0,P|365:362|339:242,1,216,2|0,2:0|2:0,2:0:0:0:
334,255,10930,5,2,2:0:0:0:
326,269,11140,5,2,2:0:0:0:
318,283,11351,6,0,P|240:255|159:235,1,162,2|0,2:0|2:0,2:0:0:0:
108,170,11983,2,0,P|116:136|186:122,1,108,0|0,3:0|3:0,2:0:0:0:
275,47,12614,5,2,3:2:0:0:
275,47,12772,1,0,2:0:0:0:
344,103,12930,2,0,L|407:110,1,45,2|0,2:0|2:0,2:0:0:0:
368,188,13246,2,0,L|410:254,1,72,0|2,3:0|2:0,2:0:0:0:
328,278,13719,1,0,2:0:0:0:
288,353,13877,6,0,L|238:363,1,40.5,2|0,3:2|2:0,2:0:0:0:
237,263,14193,2,0,L|312:276,1,67.5,2|0,3:2|2:0,2:0:0:0:
314,169,14509,2,0,L|221:184,1,94.4999999999999,2|0,2:0|2:0,2:0:0:0:
190,61,14825,2,0,L|358:91,1,162,2|0,3:2|2:0,2:0:0:0:
462,233,15456,6,0,L|451:350,2,108,2|2|2,3:2|2:0|3:2,2:0:0:0:
256,192,16167,12,0,18140,2:0:0:0:
285,354,18298,6,0,L|220:342,1,54.0000000000001,2|2,3:2|3:2,2:0:0:0:
147,249,18930,6,0,B|123:221|123:221|195:241|231:186,1,144,4|2,1:0|2:0,2:0:0:0:
196,59,19404,2,0,B|169:34|169:34|157:145,1,144,2|2,2:0|2:0,2:0:0:0:
277,263,19877,1,2,2:0:0:0:
354,132,20035,1,2,2:0:0:0:
445,250,20193,6,0,B|498:259|487:309|487:309|475:377,1,144,2|2,1:2|2:0,2:0:0:0:
319,369,20667,2,0,P|264:350|168:325,1,144,2|0,2:0|2:0,2:0:0:0:
41,299,21140,2,0,P|49:337|59:401,1,72,2|0,2:0|2:0,2:0:0:0:
86,224,21456,5,4,1:0:0:0:
264,150,21614,1,0,2:0:0:0:
74,59,21772,5,10,2:0:0:0:
254,242,21930,1,0,1:0:0:0:
367,42,22088,5,10,2:0:0:0:
140,118,22246,1,0,1:0:0:0:
377,252,22404,5,10,2:0:0:0:
240,23,22561,1,0,1:0:0:0:
213,334,22719,5,4,1:0:0:0:
213,334,23351,6,0,B|122:332|173:278|79:278,1,135,6|0,1:2|2:0,2:0:0:0:
31,138,23983,6,0,P|43:173|52:224,1,72,2|2,1:2|2:0,2:0:0:0:
180,79,24298,2,0,P|168:114|159:165,1,72,2|2,2:0|2:0,2:0:0:0:
274,153,24614,2,0,P|286:188|295:239,1,72,2|2,1:2|2:0,2:0:0:0:
468,120,25088,6,0,P|474:95|375:52,1,144,2|2,2:0|2:0,2:0:0:0:
231,24,25561,2,0,P|221:63|208:127,1,72,2|2,2:0|2:0,2:0:0:0:
301,185,25877,2,0,P|317:256|336:355,1,144,2|2,1:2|2:0,2:0:0:0:
491,367,26509,6,0,P|496:327|504:289,1,72,2|2,1:2|2:0,2:0:0:0:
414,297,26825,2,0,P|405:257|399:219,1,72,2|2,2:0|2:0,2:0:0:0:
338,339,27140,2,0,P|316:305|297:270,1,72,2|2,1:2|2:0,2:0:0:0:
180,370,27614,6,0,B|201:356|201:356|220:239,1,144,2|2,2:0|2:0,2:0:0:0:
305,158,28088,2,0,L|288:57,1,72,2|2,2:0|2:0,2:0:0:0:
195,30,28404,2,0,P|151:52|161:148,1,144,2|2,1:2|2:0,2:0:0:0:
195,30,29035,5,2,2:0:0:0:
466,47,34088,6,0,P|458:105|451:177,1,108,4|0,1:0|2:0,2:0:0:0:
387,201,34404,2,0,P|357:171|358:133,1,72,2|2,2:0|2:0,2:0:0:0:
230,101,34719,6,0,L|149:78,1,72,2|0,1:2|2:0,2:0:0:0:
281,26,35035,1,2,2:0:0:0:
180,8,35193,2,0,B|198:17|198:17|211:159,1,144,2|0,2:0|2:0,2:0:0:0:
163,211,35667,6,0,L|173:304,1,72,2|0,2:0|2:0,2:0:0:0:
260,274,35983,2,0,L|251:349,1,53.9999999999999,2|0,1:2|2:0,2:0:0:0:
343,319,36298,2,0,L|349:370,1,36,2|0,2:0|2:0,2:0:0:0:
423,329,36614,6,0,L|269:356,1,135,4|0,1:0|2:0,2:0:0:0:
210,363,36930,1,10,2:0:0:0:
262,173,37088,1,0,1:0:0:0:
78,273,37246,5,10,2:0:0:0:
231,93,37404,1,0,1:0:0:0:
10,124,37561,5,10,2:0:0:0:
247,8,37719,2,0,L|161:26,1,45,0|0,1:0|1:0,2:0:0:0:
26,121,37877,6,0,L|4:256,1,108,4|0,1:0|2:0,2:0:0:0:
114,297,38193,2,0,L|97:191,1,108,2|0,1:2|2:0,2:0:0:0:
202,257,38509,2,0,L|180:392,1,108,0|0,2:0|2:0,2:0:0:0:
273,369,38825,2,0,L|266:334,1,36,2|2,2:0|2:0,2:0:0:0:
353,363,38983,6,0,L|175:333,1,180,4|0,1:0|1:0,2:0:0:0:
70,147,39456,2,0,P|43:182|45:226,1,90,8|0,2:0|2:0,2:0:0:0:
273,270,39772,2,0,P|299:234|297:190,1,90,0|0,1:0|1:0,2:0:0:0:
126,34,40088,5,8,2:0:0:0:
210,184,40246,1,0,1:0:0:0:
201,190,40325,1,0,1:0:0:0:
193,197,40404,1,4,1:0:0:0:
358,48,40561,1,0,1:0:0:0:
403,244,40719,5,8,2:0:0:0:
220,77,40877,1,0,1:0:0:0:
211,79,40956,1,0,1:0:0:0:
201,82,41035,1,8,2:0:0:0:
484,21,41193,1,4,1:0:0:0:
484,21,41667,6,0,P|473:78|463:143,1,108,4|0,1:0|2:0,2:0:0:0:
263,141,42298,5,10,2:0:0:0:
221,28,42456,2,0,P|185:72|199:109,1,80.9999999999998,2|0,2:0|2:0,2:0:0:0:
263,141,42772,2,0,P|248:202|235:262,1,108,10|10,2:0|2:0,2:0:0:0:
350,358,43246,6,0,L|410:342,1,53.9999999999999,2|0,1:2|2:0,2:0:0:0:
339,237,43561,2,0,L|398:253,1,53.9999999999999,10|2,2:0|1:2,2:0:0:0:
423,150,43877,2,0,L|466:193,1,53.9999999999999,2|0,1:2|2:0,2:0:0:0:
496,380,44193,2,0,P|486:320|473:260,1,108,2|0,1:2|1:0,2:0:0:0:
274,145,44825,5,10,2:0:0:0:
347,5,44983,2,0,P|339:49|330:101,1,80.9999999999998,2|0,1:2|2:0,2:0:0:0:
274,145,45298,2,0,B|250:118|251:102|251:102|232:163,1,108,10|10,2:0|2:0,2:0:0:0:
158,304,45772,6,0,P|159:331|173:354,1,53.9999999999999,2|2,1:2|1:2,2:0:0:0:
306,317,46088,2,0,P|305:290|291:267,1,53.9999999999999,10|0,2:0|1:0,2:0:0:0:
252,381,46404,1,10,2:0:0:0:
374,253,46561,1,10,2:0:0:0:
491,367,46719,2,0,B|435:375|459:334|392:330,1,108,4|0,1:0|2:0,2:0:0:0:
370,173,47351,5,10,2:0:0:0:
492,117,47509,2,0,L|398:96,1,80.9999999999998,2|0,2:0|2:0,2:0:0:0:
370,173,47825,2,0,B|346:161|340:145|340:145|326:229,1,108,10|10,2:0|2:0,2:0:0:0:
212,362,48298,6,0,P|224:358|267:337,1,53.9999999999999,2|0,1:2|2:0,2:0:0:0:
144,192,48614,2,0,P|167:204|193:213,1,53.9999999999999,10|2,2:0|1:2,2:0:0:0:
357,173,48930,1,2,1:2:0:0:
232,16,49088,1,8,2:0:0:0:
246,19,49167,1,8,2:0:0:0:
259,21,49246,2,0,P|272:73|282:126,1,108,6|0,1:2|1:0,2:0:0:0:
117,317,49877,6,0,P|81:299|86:224,1,107.999996704102,10|0,2:0|2:0,2:0:0:0:
222,222,50351,1,8,2:0:0:0:
160,130,50509,2,0,L|146:203,1,53.9999983520508,2|8,2:0|2:0,2:0:0:0:
22,33,50825,1,0,1:0:0:0:
22,33,51140,6,0,L|34:130,1,80.9999999999998,8|0,2:0|2:0,2:0:0:0:
108,63,51456,1,8,2:0:0:0:
50,242,51614,1,8,2:0:0:0:
234,181,51772,6,0,L|251:307,1,90,4|0,1:0|2:0,2:0:0:0:
344,372,52088,2,0,P|386:336|385:298,1,90,8|0,2:0|2:0,2:0:0:0:
471,189,52404,5,2,1:2:0:0:
361,93,52561,2,0,P|348:41|334:-16,1,90,2|8,2:0|2:0,2:0:0:0:
315,240,52877,2,0,B|227:240|287:176|161:186,1,135,2|0,2:0|2:0,2:0:0:0:
137,244,53193,1,0,2:0:0:0:
44,95,53351,6,0,P|53:49|92:29,1,90,10|0,2:0|2:0,2:0:0:0:
229,81,53667,2,0,P|280:73|322:61,1,90,2|2,1:2|2:0,2:0:0:0:
155,218,53983,2,0,P|180:254|206:335,1,90,10|0,2:0|2:0,2:0:0:0:
424,357,54298,6,0,P|467:300|420:227,1,135,4|0,1:0|2:0,2:0:0:0:
369,252,54614,2,0,L|256:232,1,90,8|0,2:0|2:0,2:0:0:0:
334,338,54930,5,2,1:2:0:0:
188,152,55088,2,0,P|181:195|168:281,1,90,2|8,2:0|2:0,2:0:0:0:
326,80,55404,2,0,B|414:80|354:16|480:26,1,135,2|0,2:0|2:0,2:0:0:0:
487,86,55719,1,2,2:0:0:0:
286,5,55877,6,0,L|305:127,1,90,10|0,2:0|2:0,2:0:0:0:
193,253,56193,2,0,P|146:231|95:221,1,90,2|2,1:2|2:0,2:0:0:0:
39,99,56509,2,0,P|85:77|137:67,1,90,10|2,2:0|2:0,2:0:0:0:
128,316,56825,6,0,B|211:313|169:258|277:265,1,135,4|0,1:0|2:0,2:0:0:0:
331,271,57140,2,0,P|323:322|317:373,1,90,8|0,2:0|2:0,2:0:0:0:
181,171,57456,2,0,P|189:120|199:52,1,90,2|0,1:2|1:0,2:0:0:0:
339,35,57772,5,8,2:0:0:0:
372,39,57851,1,0,2:0:0:0:
398,59,57930,1,8,2:0:0:0:
411,90,58009,1,8,2:0:0:0:
406,123,58088,1,4,1:0:0:0:
240,255,58404,5,8,2:0:0:0:
207,262,58483,1,8,2:0:0:0:
174,271,58561,1,8,2:0:0:0:
142,280,58640,1,8,2:0:0:0:
107,289,58719,5,0,1:0:0:0:
98,247,58798,1,0,1:0:0:0:
86,204,58877,1,8,2:0:0:0:
74,160,58956,1,8,2:0:0:0:
62,117,59035,1,8,2:0:0:0:
50,74,59114,1,8,2:0:0:0:
38,30,59193,6,0,B|95:36|95:36|119:62|119:62|184:67,1,148.5,4|0,1:0|2:0,2:0:0:0:
238,19,59509,1,2,1:2:0:0:
357,134,59667,2,0,P|345:189|337:257,1,99,8|2,2:0|2:0,2:0:0:0:
223,363,59983,1,0,1:0:0:0:
163,189,60140,1,0,1:0:0:0:
22,367,60298,2,0,P|47:318|128:321,1,99,8|2,2:0|2:0,2:0:0:0:
332,373,60614,6,0,B|425:364|368:316|493:319,1,148.5,2|0,1:2|2:0,2:0:0:0:
507,245,60930,1,8,2:0:0:0:
392,134,61088,2,0,P|397:88|443:56,1,99,2|0,1:2|2:0,2:0:0:0:
285,201,61404,2,0,P|256:164|265:109,1,99,2|8,1:2|2:0,2:0:0:0:
16,22,61719,6,0,B|14:114|67:81|67:188,1,148.5,4|0,1:0|2:0,2:0:0:0:
27,233,62035,1,0,1:0:0:0:
190,356,62193,2,0,P|236:324|303:314,1,99,10|0,2:0|2:0,2:0:0:0:
415,232,62509,1,2,1:2:0:0:
245,139,62667,1,0,1:0:0:0:
384,5,62825,2,0,P|365:62|359:134,1,99,8|0,2:0|2:0,2:0:0:0:
174,257,63140,6,0,B|191:241|191:241|210:385,1,148.5,2|0,1:2|2:0,2:0:0:0:
288,361,63456,1,10,2:0:0:0:
428,247,63614,2,0,P|459:202|445:152,1,99,2|0,1:2|2:0,2:0:0:0:
271,25,63930,2,0,B|174:16|230:87|116:81,1,148.5,2|0,1:2|2:0,2:0:0:0:
80,24,64246,6,0,B|25:32|36:91|36:91|57:189,1,148.5,4|0,1:0|2:0,2:0:0:0:
67,225,64561,1,0,1:0:0:0:
217,166,64719,2,0,L|196:301,1,99,10|0,2:0|2:0,2:0:0:0:
305,347,65035,2,0,P|370:337|383:293,1,99,2|0,1:2|1:0,2:0:0:0:
408,26,65351,2,0,B|380:45|380:45|355:238,1,198,8|4,2:0|1:0,2:0:0:0:
164,33,65825,5,2,2:0:0:0:
192,181,65983,2,0,P|228:134|216:90,1,99,10|2,2:0|1:2,2:0:0:0:
319,203,66298,2,0,P|286:237|290:285,1,99,2|2,2:0|1:2,2:0:0:0:
348,351,66614,1,10,2:0:0:0:
32,367,66772,6,0,B|50:295|75:183,1,148.5,4|0,1:0|2:0,2:0:0:0:
126,157,67088,1,0,1:0:0:0:
213,320,67246,5,10,2:0:0:0:
311,125,67404,1,0,1:0:0:0:
424,281,67561,5,10,2:0:0:0:
217,179,67719,1,0,1:0:0:0:
432,108,67877,5,10,2:0:0:0:
348,332,68035,1,2,1:2:0:0:
230,92,68193,5,10,2:0:0:0:
223,86,68272,1,10,2:0:0:0:
217,81,68351,1,10,2:0:0:0:
407,264,68509,1,2,1:2:0:0:
331,111,68667,5,2,1:2:0:0:
338,107,68746,1,2,1:2:0:0:
345,103,68825,1,10,1:2:0:0:
131,285,68983,1,10,2:0:0:0:
131,285,69298,6,0,B|230:273|168:217|272:222,1,148.5,4|0,1:0|2:0,2:0:0:0:
320,277,69614,1,2,1:2:0:0:
157,164,69772,2,0,P|152:121|114:53,1,99,8|2,2:0|2:0,2:0:0:0:
272,30,70088,1,0,1:0:0:0:
344,188,70246,1,0,1:0:0:0:
498,1,70404,2,0,P|482:76|474:120,1,99,8|2,2:0|2:0,2:0:0:0:
467,306,70719,6,0,B|370:311|424:366|305:370,1,148.5,2|0,1:2|2:0,2:0:0:0:
260,336,71035,1,8,2:0:0:0:
123,198,71193,2,0,P|175:249|183:293,1,99,2|0,1:2|2:0,2:0:0:0:
236,87,71509,2,0,P|255:157|240:199,1,99,2|8,1:2|2:0,2:0:0:0:
5,14,71825,6,0,P|20:113|31:209,1,148.5,4|0,1:0|2:0,2:0:0:0:
35,244,72140,1,0,1:0:0:0:
209,365,72298,2,0,P|257:332|310:311,1,99,10|0,2:0|2:0,2:0:0:0:
389,184,72614,1,2,1:2:0:0:
219,159,72772,1,0,1:0:0:0:
293,4,72930,2,0,P|300:38|312:117,1,99,8|0,2:0|2:0,2:0:0:0:
498,206,73246,6,0,P|486:282|474:376,1,148.5,2|0,1:2|2:0,2:0:0:0:
400,377,73561,1,10,2:0:0:0:
250,266,73719,2,0,P|250:314|281:352,1,99,2|0,1:2|2:0,2:0:0:0:
86,222,74035,2,0,P|30:256|48:352,1,148.5,2|0,1:2|2:0,2:0:0:0:
96,384,74351,6,0,B|188:380|140:332|234:332,1,148.5,4|0,1:0|2:0,2:0:0:0:
302,374,74667,1,0,1:0:0:0:
326,137,74825,5,10,2:0:0:0:
380,280,74983,1,0,2:0:0:0:
227,57,75140,5,2,1:2:0:0:
159,256,75298,1,0,1:0:0:0:
30,25,75456,2,0,P|45:117|63:230,1,198,8|4,2:0|1:0,2:0:0:0:
190,366,75930,5,2,2:0:0:0:
271,245,76088,2,0,P|284:303|259:337,1,99,10|2,2:0|1:2,2:0:0:0:
241,139,76404,2,0,P|225:93|248:50,1,99,2|2,2:0|1:2,2:0:0:0:
322,18,76719,1,10,2:0:0:0:
456,177,76877,6,0,L|473:355,1,148.5,4|0,1:0|2:0,2:0:0:0:
399,376,77193,1,0,1:0:0:0:
306,213,77351,2,0,P|324:259|344:305,1,99,10|0,2:0|1:0,2:0:0:0:
183,192,77667,2,0,P|134:185|85:180,1,99,10|0,2:0|1:0,2:0:0:0:
260,95,77983,2,0,P|291:56|322:18,1,99,10|2,2:0|2:0,2:0:0:0:
164,100,78298,5,0,1:2:0:0:
228,278,78456,1,2,2:0:0:0:
38,254,78614,2,0,P|64:304|82:349,1,99,8|0,2:0|1:0,2:0:0:0:
268,177,78930,5,10,2:0:0:0:
192,376,79088,1,8,2:0:0:0:
452,372,79246,5,2,1:2:0:0:
462,368,79325,1,2,1:2:0:0:
472,363,79404,2,0,B|492:283|435:290|474:181,1,148.5,4|0,1:0|2:0,2:0:0:0:
486,137,79719,1,2,1:2:0:0:
329,75,79877,5,8,2:0:0:0:
378,279,80035,1,2,1:2:0:0:
254,122,80193,5,10,2:0:0:0:
219,308,80351,1,0,1:0:0:0:
170,139,80509,5,10,2:0:0:0:
16,278,80667,1,2,1:2:0:0:
93,105,80825,5,10,1:2:0:0:
163,376,80983,1,10,2:0:0:0:
396,161,81456,5,10,1:2:0:0:
106,294,81614,1,10,2:0:0:0:
15,20,82088,5,2,2:0:0:0:
7,101,83351,5,2,2:0:0:0:
78,142,84140,5,0,2:0:0:0:
78,142,84298,2,0,L|147:129,1,53.9999999999999,2|2,2:0|2:0,2:0:0:0:
201,59,84614,6,0,P|216:86|214:128,1,53.9999999999999,2|0,2:0|2:0,2:0:0:0:
299,116,84930,2,0,P|298:146|275:182,1,53.9999999999999,0|0,2:0|2:0,2:0:0:0:
345,227,85246,2,0,P|310:256|266:307,1,108,2|2,2:0|2:0,2:0:0:0:
227,376,85719,5,2,2:0:0:0:
300,318,85877,2,0,P|305:289|313:258,1,53.9999999999999,2|0,2:0|2:0,2:0:0:0:
224,236,86193,2,0,P|219:207|211:176,1,53.9999999999999,2|0,2:0|2:0,2:0:0:0:
226,47,86509,1,2,2:0:0:0:
291,153,86667,2,0,P|302:88|314:32,1,108,0|0,2:0|2:0,2:0:0:0:
384,25,87140,5,2,1:2:0:0:
384,25,87456,1,2,2:0:0:0:
477,356,88404,5,0,1:0:0:0:
477,356,88719,1,0,1:0:0:0:
477,356,89351,1,0,1:0:0:0:
393,382,89509,6,0,B|271:377|351:324|214:325,1,148.5,12|0,2:0|2:0,2:0:0:0:
188,364,89825,1,0,1:0:0:0:
378,287,89983,5,8,2:0:0:0:
347,107,90140,1,0,1:0:0:0:
205,266,90298,5,8,2:0:0:0:
268,88,90456,1,0,1:0:0:0:
61,160,90614,5,8,2:0:0:0:
209,32,90772,1,0,1:0:0:0:
11,9,90930,5,8,2:0:0:0:
24,238,91088,1,0,1:0:0:0:
244,110,91246,5,8,2:0:0:0:
25,256,91404,1,8,2:0:0:0:
289,359,91561,5,10,2:0:0:0:
25,274,91719,1,10,2:0:0:0:
256,192,93456,5,6,1:2:0:0:
285,367,98509,6,0,P|342:349|401:340,1,108,4|0,1:0|2:0,2:0:0:0:
458,303,98825,2,0,P|432:250|400:247,1,72,2|2,2:0|2:0,2:0:0:0:
329,172,99140,6,0,L|338:55,1,108,2|0,1:2|2:0,2:0:0:0:
267,33,99456,2,0,P|232:61|230:95,1,72,2|2,2:0|2:0,2:0:0:0:
173,150,99772,6,0,L|244:180,1,72,2|0,1:2|2:0,2:0:0:0:
211,251,100088,2,0,L|262:303,1,53.9999999999999,2|0,2:0|2:0,2:0:0:0:
172,330,100404,2,0,L|185:380,1,36,2|0,1:2|2:0,2:0:0:0:
98,360,100719,2,0,L|92:380,1,18,2|0,2:0|2:0,2:0:0:0:
16,367,101035,6,0,L|174:342,1,135,4|0,1:0|2:0,2:0:0:0:
228,369,101351,5,10,2:0:0:0:
417,285,101509,1,0,1:0:0:0:
145,231,101667,5,10,2:0:0:0:
372,214,101825,1,0,1:0:0:0:
150,68,101983,5,10,2:0:0:0:
390,134,102140,2,0,L|324:112,1,45,0|0,1:0|1:0,2:0:0:0:
166,77,102298,6,0,L|190:216,1,108,4|0,1:0|2:0,2:0:0:0:
253,258,102614,2,0,L|272:152,1,108,2|0,1:2|2:0,2:0:0:0:
345,212,102930,2,0,L|369:351,1,108,0|0,2:0|2:0,2:0:0:0:
446,329,103246,2,0,L|430:384,1,36,2|2,2:0|2:0,2:0:0:0:
347,380,103404,6,0,P|374:280|395:201,1,180,4|0,1:0|1:0,2:0:0:0:
440,29,103877,2,0,P|473:43|474:117,1,90,8|0,2:0|2:0,2:0:0:0:
279,130,104193,2,0,P|289:173|297:219,1,90,0|0,1:0|1:0,2:0:0:0:
199,26,104509,5,8,2:0:0:0:
158,227,104667,1,0,1:0:0:0:
147,231,104746,1,0,1:0:0:0:
139,236,104825,1,4,1:0:0:0:
361,153,104983,1,0,1:0:0:0:
129,105,105140,5,8,2:0:0:0:
344,292,105298,1,0,1:0:0:0:
317,35,105456,5,8,2:0:0:0:
201,354,105614,1,4,1:0:0:0:
201,354,106088,6,0,P|144:338|85:327,1,108,4|0,1:0|2:0,2:0:0:0:
147,147,106719,5,10,2:0:0:0:
280,199,106877,2,0,L|175:215,1,80.9999999999998,2|0,2:0|2:0,2:0:0:0:
147,147,107193,2,0,P|141:100|203:61,1,108,10|10,2:0|2:0,2:0:0:0:
382,34,107667,6,0,L|322:14,1,53.9999999999999,2|0,1:2|2:0,2:0:0:0:
420,111,107983,2,0,L|363:139,1,53.9999999999999,10|2,2:0|1:2,2:0:0:0:
501,138,108298,2,0,L|481:198,1,53.9999999999999,2|0,1:2|2:0,2:0:0:0:
436,334,108614,2,0,P|386:319|325:306,1,108,2|0,1:2|1:0,2:0:0:0:
177,166,109246,5,10,2:0:0:0:
265,191,109404,2,0,B|256:176|256:176|251:219|208:247,1,80.9999999999998,2|0,1:2|2:0,2:0:0:0:
177,166,109719,2,0,P|170:109|160:42,1,108,10|10,2:0|2:0,2:0:0:0:
311,11,110193,6,0,P|293:34|294:74,1,53.9999999999999,2|2,1:2|1:2,2:0:0:0:
450,128,110509,2,0,P|468:105|467:65,1,53.9999999999999,10|0,2:0|1:0,2:0:0:0:
319,126,110825,1,10,2:0:0:0:
426,20,110983,1,10,2:0:0:0:
484,202,111140,2,0,L|469:330,1,108,4|0,1:0|2:0,2:0:0:0:
272,299,111772,5,10,2:0:0:0:
338,366,111930,2,0,B|324:367|324:367|357:343|357:298,1,80.9999999999998,2|0,2:0|2:0,2:0:0:0:
272,299,112246,2,0,L|258:172,1,108,10|10,2:0|2:0,2:0:0:0:
362,37,112719,6,0,L|303:23,1,53.9999999999999,2|0,1:2|2:0,2:0:0:0:
125,134,113035,2,0,L|184:120,1,53.9999999999999,10|2,2:0|1:2,2:0:0:0:
336,206,113351,1,2,1:2:0:0:
207,331,113509,1,8,2:0:0:0:
210,345,113588,1,8,2:0:0:0:
212,358,113667,2,0,P|264:371|317:381,1,108,6|0,1:2|1:0,2:0:0:0:
130,320,114298,6,0,P|117:281|160:231,1,107.999996704102,10|0,2:0|2:0,2:0:0:0:
317,268,114772,1,8,2:0:0:0:
241,234,114930,2,0,L|233:181,1,53.9999983520508,2|8,2:0|2:0,2:0:0:0:
340,384,115246,1,0,1:0:0:0:
340,384,115561,6,0,L|238:358,1,80.9999999999998,8|0,2:0|2:0,2:0:0:0:
302,292,115877,1,8,2:0:0:0:
142,356,116035,1,8,2:0:0:0:
172,181,116193,2,0,P|227:166|261:159,1,90,4|0,1:0|2:0,2:0:0:0:
123,38,116509,2,0,P|68:23|34:16,1,90,8|0,2:0|2:0,2:0:0:0:
28,158,116825,5,2,1:2:0:0:
76,293,116983,2,0,P|69:330|60:394,1,90,2|8,2:0|2:0,2:0:0:0:
238,324,117298,2,0,B|330:325|264:270|382:273,1,135,2|0,2:0|2:0,2:0:0:0:
411,332,117614,1,0,2:0:0:0:
484,174,117772,2,0,P|453:153|391:151,1,90,10|0,2:0|2:0,2:0:0:0:
219,220,118088,2,0,P|187:173|193:134,1,90,2|2,1:2|2:0,2:0:0:0:
305,11,118404,2,0,P|297:57|289:119,1,90,10|0,2:0|2:0,2:0:0:0:
74,192,118719,6,0,P|92:274|110:349,1,135,4|0,1:0|2:0,2:0:0:0:
171,367,119035,2,0,P|235:356|245:303,1,90,8|0,2:0|2:0,2:0:0:0:
395,270,119351,1,2,1:2:0:0:
276,184,119509,2,0,P|270:131|259:81,1,90,2|8,2:0|2:0,2:0:0:0:
470,28,119825,6,0,P|472:102|413:112,1,135,2|0,2:0|2:0,2:0:0:0:
371,55,120140,1,2,2:0:0:0:
223,15,120298,2,0,P|229:68|240:118,1,90,10|0,2:0|2:0,2:0:0:0:
330,252,120614,2,0,P|397:224|422:218,1,90,2|2,1:2|2:0,2:0:0:0:
238,370,120930,2,0,P|171:342|146:336,1,90,10|2,2:0|2:0,2:0:0:0:
161,140,121246,6,0,B|72:141|131:85|9:84,1,135,4|0,1:0|2:0,2:0:0:0:
90,20,121561,2,0,P|46:55|53:110,1,90,8|0,2:0|2:0,2:0:0:0:
211,209,121877,2,0,P|255:174|248:119,1,90,2|0,1:2|1:0,2:0:0:0:
475,26,122193,5,8,2:0:0:0:
467,58,122272,1,8,2:0:0:0:
461,92,122351,1,8,2:0:0:0:
455,125,122430,1,8,2:0:0:0:
450,158,122509,1,4,1:0:0:0:
277,57,122825,1,8,2:0:0:0:
243,51,122904,1,8,2:0:0:0:
210,46,122983,1,8,2:0:0:0:
176,41,123061,1,8,2:0:0:0:
143,36,123140,5,0,1:0:0:0:
152,80,123219,1,0,1:0:0:0:
161,124,123298,1,8,2:0:0:0:
170,168,123377,1,8,2:0:0:0:
179,212,123456,1,8,2:0:0:0:
188,256,123535,1,8,2:0:0:0:
198,300,123614,6,0,B|292:294|238:358|348:354,1,148.5,4|0,1:0|2:0,2:0:0:0:
389,299,123930,1,2,1:2:0:0:
491,197,124088,2,0,P|451:144|410:152,1,99,8|2,2:0|2:0,2:0:0:0:
298,30,124404,1,0,1:0:0:0:
257,207,124561,1,0,1:0:0:0:
107,41,124719,2,0,P|147:94|188:86,1,99,8|2,2:0|2:0,2:0:0:0:
418,22,125035,6,0,P|403:103|388:196,1,148.5,2|0,1:2|2:0,2:0:0:0:
414,249,125351,1,8,2:0:0:0:
325,355,125509,2,0,P|272:323|270:279,1,99,2|0,1:2|2:0,2:0:0:0:
183,382,125825,2,0,P|153:327|173:288,1,99,2|8,1:2|2:0,2:0:0:0:
16,174,126140,6,0,B|100:172|74:112|182:132,1,148.5,4|0,1:0|2:0,2:0:0:0:
229,166,126456,1,0,1:0:0:0:
387,289,126614,2,0,P|421:259|487:237,1,99,10|0,2:0|2:0,2:0:0:0:
465,37,126930,1,2,1:2:0:0:
343,178,127088,1,0,1:0:0:0:
285,10,127246,2,0,P|224:25|225:89,1,99,8|0,2:0|2:0,2:0:0:0:
284,279,127561,6,0,P|218:298|136:332,1,148.5,2|0,1:2|2:0,2:0:0:0:
72,361,127877,1,10,2:0:0:0:
28,150,128035,2,0,P|83:153|110:228,1,99,2|0,1:2|2:0,2:0:0:0:
356,232,128351,2,0,P|293:263|299:347,1,148.5,2|0,1:2|2:0,2:0:0:0:
354,384,128667,6,0,B|429:379|412:321|497:322,1,148.5,4|0,1:0|2:0,2:0:0:0:
503,245,128983,1,0,1:0:0:0:
393,122,129140,2,0,L|362:-7,1,99,10|0,2:0|2:0,2:0:0:0:
192,30,129456,2,0,P|153:89|175:131,1,99,2|0,1:2|1:0,2:0:0:0:
216,335,129772,2,0,B|230:351|230:351|265:155,1,198,8|4,2:0|1:0,2:0:0:0:
72,179,130246,5,2,2:0:0:0:
207,221,130404,2,0,L|91:258,1,99,10|2,2:0|1:2,2:0:0:0:
305,163,130719,2,0,L|399:132,1,99,2|2,2:0|1:2,2:0:0:0:
440,205,131035,1,10,2:0:0:0:
321,373,131193,2,0,B|213:378|286:323|161:314,1,148.5,4|0,1:0|2:0,2:0:0:0:
131,374,131509,1,0,1:0:0:0:
184,154,131667,5,10,2:0:0:0:
365,261,131825,1,0,1:0:0:0:
114,274,131983,5,10,2:0:0:0:
306,176,132140,1,0,1:0:0:0:
45,124,132298,5,10,2:0:0:0:
248,249,132456,1,2,1:2:0:0:
202,35,132614,5,10,2:0:0:0:
208,27,132693,1,10,2:0:0:0:
213,22,132772,1,10,2:0:0:0:
40,216,132930,1,2,1:2:0:0:
221,168,133088,5,2,1:2:0:0:
215,160,133167,1,2,1:2:0:0:
213,152,133246,1,10,1:2:0:0:
269,362,133404,1,10,2:0:0:0:
269,362,133719,6,0,B|361:378|323:301|433:337,1,148.5,4|0,1:0|2:0,2:0:0:0:
471,379,134035,1,2,1:2:0:0:
350,210,134193,2,0,P|287:250|288:290,1,99,8|2,2:0|2:0,2:0:0:0:
216,78,134509,1,0,1:0:0:0:
123,238,134667,1,0,1:0:0:0:
25,3,134825,2,0,P|45:57|63:121,1,99,8|2,2:0|2:0,2:0:0:0:
300,126,135140,6,0,P|373:104|470:86,1,148.5,2|0,1:2|2:0,2:0:0:0:
484,19,135456,1,8,2:0:0:0:
259,13,135614,2,0,P|218:64|228:97,1,99,2|0,1:2|2:0,2:0:0:0:
328,154,135930,2,0,P|266:177|259:211,1,99,2|8,1:2|2:0,2:0:0:0:
212,361,136246,6,0,B|117:362|167:300|41:308,1,148.5,4|0,1:0|2:0,2:0:0:0:
17,358,136561,1,0,1:0:0:0:
46,153,136719,2,0,P|107:164|126:220,1,99,10|0,2:0|2:0,2:0:0:0:
202,31,137035,5,2,1:2:0:0:
282,196,137193,1,0,1:0:0:0:
412,19,137351,2,0,P|400:73|384:149,1,99,8|0,2:0|2:0,2:0:0:0:
419,344,137667,2,0,P|466:301|453:247,1,99,2|0,1:2|2:0,2:0:0:0:
417,43,137983,1,10,2:0:0:0:
228,136,138140,2,0,P|240:190|256:266,1,99,2|0,1:2|2:0,2:0:0:0:
105,30,138456,2,0,P|34:34|33:135,1,148.5,2|0,1:2|2:0,2:0:0:0:
92,141,138772,6,0,B|79:186|41:190|41:190|25:302,1,148.5,4|0,1:0|2:0,2:0:0:0:
69,336,139088,1,0,1:0:0:0:
243,357,139246,5,10,2:0:0:0:
160,231,139404,1,0,2:0:0:0:
351,280,139561,5,2,1:2:0:0:
298,101,139719,1,0,1:0:0:0:
453,155,139877,2,0,B|469:128|469:128|493:326,1,198,8|4,2:0|1:0,2:0:0:0:
341,373,140351,5,2,2:0:0:0:
306,213,140509,2,0,L|282:340,1,99,10|2,2:0|1:2,2:0:0:0:
206,171,140825,2,0,L|224:73,1,99,2|2,2:0|1:2,2:0:0:0:
171,11,141140,1,10,2:0:0:0:
469,31,141298,6,0,B|437:4|420:44|420:44|392:190,1,198,4|0,1:0|1:0,2:0:0:0:
318,344,141772,2,0,P|252:351|234:327,1,99,10|0,2:0|1:0,2:0:0:0:
28,306,142088,2,0,P|54:245|84:242,1,99,10|0,2:0|1:0,2:0:0:0:
206,73,142404,2,0,P|245:126|233:153,1,99,10|2,2:0|2:0,2:0:0:0:
150,304,142719,5,0,1:2:0:0:
315,241,142877,1,2,2:0:0:0:
199,90,143035,2,0,P|211:138|222:186,1,99,8|0,2:0|1:0,2:0:0:0:
117,116,143351,5,10,2:0:0:0:
299,229,143509,1,8,2:0:0:0:
320,15,143667,5,2,1:2:0:0:
326,25,143746,1,2,1:2:0:0:
332,35,143825,2,0,B|436:26|352:93|504:81,1,148.5,4|0,1:0|2:0,2:0:0:0:
502,154,144140,1,2,1:2:0:0:
429,367,144298,5,8,2:0:0:0:
337,184,144456,1,2,1:2:0:0:
215,356,144614,5,10,2:0:0:0:
256,157,144772,1,0,1:0:0:0:
25,264,144930,5,10,2:0:0:0:
189,117,145088,1,2,1:2:0:0:
320,291,145246,5,10,1:2:0:0:
78,163,145404,1,10,2:0:0:0:
331,53,145877,5,10,1:2:0:0:
153,265,146035,1,10,2:0:0:0:
481,360,146351,6,0,P|464:287|439:206,1,135,4|0,1:0|2:0,2:0:0:0:
490,164,146667,1,2,1:2:0:0:
362,45,146825,2,0,P|321:67|315:134,1,90,10|2,2:0|2:0,2:0:0:0:
129,163,147140,1,2,1:2:0:0:
256,279,147298,2,0,P|264:324|273:381,1,90,0|10,2:0|2:0,2:0:0:0:
18,378,147614,6,0,B|92:365|57:310|151:300,1,135,2|0,2:0|2:0,2:0:0:0:
169,370,147930,1,0,2:0:0:0:
317,206,148088,2,0,P|276:139|249:138,1,90,10|2,2:0|2:0,2:0:0:0:
54,232,148404,1,2,1:2:0:0:
244,16,148561,2,0,P|204:55|218:121,1,90,2|10,2:0|2:0,2:0:0:0:
324,365,148877,6,0,B|412:364|361:305|476:319,1,135,4|0,1:0|2:0,2:0:0:0:
490,248,149193,1,2,1:2:0:0:
337,203,149351,5,10,2:0:0:0:
410,354,149509,1,0,2:0:0:0:
282,138,149667,5,2,1:2:0:0:
209,289,149825,1,2,2:0:0:0:
151,89,149983,1,10,2:0:0:0:
31,237,150140,6,0,P|43:303|56:369,1,135,2|0,2:0|2:0,2:0:0:0:
133,383,150456,2,0,P|170:343|151:278,1,90,2|10,2:0|2:0,2:0:0:0:
130,162,150772,2,0,P|124:103|218:71,1,135,2|0,2:0|2:0,2:0:0:0:
238,113,151088,6,0,P|241:175|268:193,1,90,2|10,2:0|2:0,2:0:0:0:
421,11,151404,2,0,P|466:20|471:121,1,135,4|0,1:0|2:0,2:0:0:0:
436,158,151719,1,2,1:2:0:0:
287,197,151877,2,0,L|272:316,1,90,8|0,2:0|2:0,2:0:0:0:
138,98,152193,2,0,P|152:29|197:17,2,90,2|2|10,1:2|2:0|2:0,2:0:0:0:
303,219,152667,6,0,P|292:287|281:382,1,135,2|0,2:0|2:0,2:0:0:0:
204,372,152983,1,2,2:0:0:0:
162,357,153061,1,2,2:0:0:0:
138,319,153140,1,10,2:0:0:0:
143,276,153219,1,2,2:0:0:0:
174,244,153298,1,2,2:0:0:0:
318,240,153456,6,0,L|303:359,2,90,2|2|10,1:2|2:0|2:0,2:0:0:0:
408,116,153930,2,0,B|327:118|362:63|279:64,1,135,4|0,1:2|2:0,2:0:0:0:
225,15,154246,1,2,1:2:0:0:
80,76,154404,5,8,2:0:0:0:
247,132,154561,1,2,1:2:0:0:
35,221,154719,5,10,2:0:0:0:
207,208,154877,1,0,1:0:0:0:
42,372,155035,5,8,2:0:0:0:
196,293,155193,1,0,1:0:0:0:
124,194,155351,5,2,1:2:0:0:
119,185,155430,1,2,1:2:0:0:
114,176,155509,1,2,1:2:0:0:
192,376,155667,1,10,2:0:0:0:
320,211,155825,1,2,1:2:0:0:
108,288,155983,5,10,2:0:0:0:
239,58,156140,2,0,P|280:93|284:159,1,90,8|2,2:0|2:0,2:0:0:0:
372,276,156456,6,0,B|255:278|310:212|204:207,1,180,4|0,1:0|1:0,2:0:0:0:
211,288,156930,1,10,2:0:0:0:
329,167,157088,1,2,2:0:0:0:
169,132,157246,5,2,1:2:0:0:
222,34,157404,1,2,1:2:0:0:
31,88,157561,5,8,2:0:0:0:
14,9,157719,1,2,2:0:0:0:
39,8,157877,5,2,1:2:0:0:
93,244,158035,1,2,2:0:0:0:
261,68,158193,5,8,2:0:0:0:
171,289,158351,1,2,1:2:0:0:
401,196,158509,5,2,2:0:0:0:
198,367,158667,1,2,1:2:0:0:
446,378,158825,5,10,2:0:0:0:
188,383,158983,2,0,P|159:279|137:205,1,180,4|2,1:0|1:2,2:0:0:0:
209,70,159456,1,10,2:0:0:0:
230,76,159535,1,2,2:0:0:0:
248,89,159614,1,2,2:0:0:0:
261,107,159693,1,0,2:0:0:0:
266,129,159772,2,0,P|275:182|340:197,1,90,2|2,1:2|1:2,2:0:0:0:
458,255,160088,1,10,2:0:0:0:
484,100,160246,6,0,P|472:35|413:7,1,135,2|0,2:0|2:0,2:0:0:0:
342,40,160561,1,2,2:0:0:0:
266,242,160719,2,0,P|278:286|296:347,1,90,10|2,2:0|1:2,2:0:0:0:
143,178,161035,2,0,P|99:206|101:253,1,90,2|2,2:0|1:2,2:0:0:0:
6,335,161351,1,8,2:0:0:0:
13,344,161430,1,0,2:0:0:0:
20,353,161509,6,0,B|134:386|66:315|214:353,1,180,4|2,1:2|1:2,2:0:0:0:
442,363,161983,2,0,P|453:311|469:264,1,90,10|0,2:0|2:0,2:0:0:0:
345,148,162298,1,2,1:2:0:0:
296,288,162456,2,0,P|284:236|269:189,1,90,0|8,1:0|2:0,2:0:0:0:
407,24,162772,6,0,P|456:36|468:140,1,135,2|0,2:0|2:0,2:0:0:0:
433,170,163088,2,0,P|387:156|321:145,1,90,2|8,2:0|2:0,2:0:0:0:
126,162,163404,2,0,P|138:223|153:331,1,135,2|0,1:2|2:0,2:0:0:0:
105,360,163719,2,0,P|56:348|41:278,1,90,2|8,1:2|2:0,2:0:0:0:
239,174,164035,6,0,L|265:4,1,135,4|0,1:0|2:0,2:0:0:0:
188,13,164351,1,0,1:0:0:0:
334,135,164509,5,10,2:0:0:0:
144,92,164667,1,0,1:0:0:0:
361,212,164825,5,10,2:0:0:0:
157,248,164983,1,0,1:0:0:0:
430,267,165140,5,8,2:0:0:0:
242,375,165298,1,0,1:0:0:0:
509,294,165456,5,14,1:2:0:0:
253,195,165614,1,10,2:0:0:0:
165,345,166088,5,10,1:2:0:0:
492,211,166246,1,10,2:0:0:0:
492,211,166561,6,0,B|488:124|436:167|445:48,1,135,4|0,1:0|2:0,2:0:0:0:
493,26,166877,1,0,1:0:0:0:
303,26,167035,2,0,P|257:65|272:123,1,90,10|0,2:0|2:0,2:0:0:0:
355,190,167351,1,2,1:2:0:0:
215,255,167509,2,0,P|155:231|116:220,1,90,2|10,1:2|2:0,2:0:0:0:
318,370,167825,6,0,B|404:358|364:316|470:318,1,135,4|0,1:0|2:0,2:0:0:0:
504,369,168140,1,0,1:0:0:0:
315,276,168298,5,10,2:0:0:0:
401,107,168456,1,0,2:0:0:0:
242,131,168614,5,2,1:2:0:0:
233,23,168772,2,0,P|276:31|301:68,1,90,2|10,1:2|2:0,2:0:0:0:
41,82,169088,6,0,P|56:155|73:250,1,135,4|0,1:0|2:0,2:0:0:0:
27,284,169404,1,0,1:0:0:0:
162,352,169561,2,0,P|201:318|204:270,1,90,10|0,2:0|2:0,2:0:0:0:
321,182,169877,1,2,1:2:0:0:
472,266,170035,2,0,P|455:342|450:375,1,90,2|10,1:2|2:0,2:0:0:0:
218,176,170351,6,0,P|205:99|183:12,1,135,4|0,1:0|2:0,2:0:0:0:
269,19,170667,1,8,2:0:0:0:
330,25,170746,1,8,2:0:0:0:
380,63,170825,1,8,2:0:0:0:
402,121,170904,1,8,2:0:0:0:
391,182,170983,1,8,2:0:0:0:
350,228,171061,1,8,2:0:0:0:
290,246,171140,6,0,L|265:278,1,22.5,10|0,1:2|2:0,2:0:0:0:
247,255,171219,6,0,L|239:294,1,22.5,2|0,2:0|2:0,2:0:0:0:
217,287,171298,6,0,L|228:326,1,22.5,10|0,2:0|2:0,2:0:0:0:
212,331,171377,6,0,L|239:360,1,22.5,2|0,2:0|2:0,2:0:0:0:
235,369,171456,6,0,L|273:382,1,22.5,2|0,2:0|2:0,2:0:0:0:
276,384,171535,6,0,L|316:379,1,22.5,2|0,2:0|2:0,2:0:0:0:
319,376,171614,6,0,B|426:381|356:313|484:319,1,162,4|0,1:0|2:0,2:0:0:0:
494,243,171930,1,2,1:2:0:0:
325,127,172088,2,0,P|291:174|300:226,1,108,8|2,2:0|2:0,2:0:0:0:
192,43,172404,1,0,1:0:0:0:
137,222,172561,1,0,1:0:0:0:
11,21,172719,2,0,P|27:83|43:158,1,108,8|2,2:0|2:0,2:0:0:0:
193,376,173035,6,0,B|86:381|156:313|28:319,1,162,2|0,1:2|2:0,2:0:0:0:
18,243,173351,1,8,2:0:0:0:
154,116,173509,5,2,1:2:0:0:
228,299,173667,1,0,2:0:0:0:
382,154,173825,5,2,1:2:0:0:
142,221,173983,1,8,2:0:0:0:
299,17,174140,6,0,L|271:226,1,162,4|0,1:0|2:0,2:0:0:0:
324,245,174456,1,0,1:0:0:0:
144,374,174614,2,0,P|97:330|97:283,1,108,10|0,2:0|2:0,2:0:0:0:
248,163,174930,1,2,1:2:0:0:
332,341,175088,1,0,1:0:0:0:
430,173,175246,2,0,P|477:217|477:264,1,108,8|0,2:0|2:0,2:0:0:0:
247,297,175561,6,0,B|134:300|202:232|61:243,1,162,2|0,1:2|2:0,2:0:0:0:
63,319,175877,1,10,2:0:0:0:
32,36,176035,2,0,P|60:95|75:162,1,108,2|0,1:2|2:0,2:0:0:0:
264,116,176351,2,0,P|216:134|168:166,1,108,2|8,1:2|2:0,2:0:0:0:
481,372,176667,6,0,P|470:288|455:184,1,162,4|0,1:0|2:0,2:0:0:0:
508,147,176983,1,0,1:0:0:0:
337,31,177140,2,0,P|274:58|265:107,1,108,10|0,2:0|2:0,2:0:0:0:
231,270,177456,1,2,1:2:0:0:
105,163,177614,1,0,1:0:0:0:
65,340,177772,2,0,B|43:363|43:363|15:163,1,216,8|4,2:0|1:0,2:0:0:0:
297,217,178246,5,2,2:0:0:0:
231,270,178404,2,0,L|250:384,1,108,10|2,2:0|1:2,2:0:0:0:
281,114,178719,2,0,L|262:0,1,108,2|2,2:0|1:2,2:0:0:0:
215,167,179035,1,10,2:0:0:0:
26,15,179193,6,0,B|19:117|79:59|74:200,1,162,4|0,1:0|2:0,2:0:0:0:
20,229,179509,1,0,1:0:0:0:
273,285,179667,5,10,2:0:0:0:
87,367,179825,1,0,1:0:0:0:
167,133,179983,5,10,2:0:0:0:
281,366,180140,1,0,1:0:0:0:
299,89,180298,5,10,2:0:0:0:
179,298,180456,1,2,1:2:0:0:
371,293,180614,5,10,2:0:0:0:
380,298,180693,1,10,2:0:0:0:
389,304,180772,1,10,2:0:0:0:
111,213,180930,1,2,1:2:0:0:
320,98,181088,1,2,1:2:0:0:
163,313,181246,5,10,1:2:0:0:
46,43,181404,1,10,2:0:0:0:
46,43,181719,6,0,B|153:54|72:123|230:118,1,162,4|0,1:0|2:0,2:0:0:0:
232,53,182035,1,2,1:2:0:0:
176,303,182193,5,10,2:0:0:0:
30,121,182351,1,2,1:2:0:0:
298,143,182509,5,10,2:0:0:0:
83,276,182667,1,2,1:2:0:0:
358,342,182825,5,10,2:0:0:0:
125,196,182983,1,2,1:2:0:0:
445,95,183140,6,0,P|434:174|425:264,1,162,4|0,1:0|2:0,2:0:0:0:
497,301,183456,1,10,2:0:0:0:
282,375,183614,2,0,P|236:331|261:265,1,108,2|10,1:2|2:0,2:0:0:0:
240,69,183930,2,0,P|286:113|261:179,1,108,2|10,1:2|2:0,2:0:0:0:
33,193,184246,6,0,P|43:272|53:362,1,162,4|0,1:0|2:0,2:0:0:0:
130,373,184561,1,2,1:2:0:0:
299,233,184719,5,10,2:0:0:0:
113,157,184877,1,2,1:2:0:0:
321,62,185035,5,10,2:0:0:0:
149,249,185193,1,2,1:2:0:0:
444,294,185351,5,10,2:0:0:0:
253,112,185509,1,2,1:2:0:0:
493,74,185667,5,4,1:0:0:0:
386,359,185825,2,0,P|315:331|262:318,1,108,0|10,2:0|2:0,2:0:0:0:
104,211,186140,2,0,P|127:164|177:149,1,108,2|10,1:2|2:0,2:0:0:0:
408,173,186456,2,0,P|385:220|335:235,1,108,2|10,1:2|2:0,2:0:0:0:
298,17,186772,6,0,P|281:104|266:202,1,162,4|0,1:0|2:0,2:0:0:0:
248,254,187088,1,0,1:0:0:0:
30,105,187246,2,0,P|45:40|102:30,1,108,10|2,2:0|2:0,2:0:0:0:
221,137,187561,1,2,1:2:0:0:
85,282,187719,1,0,1:0:0:0:
279,374,187877,2,0,B|257:356|257:356|309:323|428:308|428:308|432:351,1,216,8|4,2:0|1:0,2:0:0:0:
431,122,188351,5,2,2:0:0:0:
306,230,188509,2,0,L|434:196,1,108,10|2,2:0|1:2,2:0:0:0:
205,153,188825,2,0,L|77:187,1,108,2|2,2:0|1:2,2:0:0:0:
81,262,189140,1,10,2:0:0:0:
258,376,189298,6,0,B|289:347|289:347|313:159,1,216,4|0,1:0|1:0,2:0:0:0:
24,10,189772,2,0,L|5:141,1,108,10|0,2:0|1:0,2:0:0:0:
102,338,190088,2,0,L|224:288,1,108,10|0,2:0|1:0,2:0:0:0:
347,106,190404,2,0,L|243:24,1,108,10|2,2:0|2:0,2:0:0:0:
424,77,190719,5,0,1:2:0:0:
269,202,190877,1,2,2:0:0:0:
179,53,191035,2,0,L|195:176,1,108,8|0,2:0|1:0,2:0:0:0:
328,289,191351,5,10,2:0:0:0:
262,39,191509,1,8,2:0:0:0:
78,209,191667,1,2,1:2:0:0:
69,217,191746,1,2,1:2:0:0:
60,225,191825,6,0,L|35:23,1,162,4|0,1:0|2:0,2:0:0:0:
106,16,192140,1,2,1:2:0:0:
151,249,192298,5,8,2:0:0:0:
252,70,192456,1,2,1:2:0:0:
307,343,192614,5,10,2:0:0:0:
339,109,192772,1,0,1:0:0:0:
484,348,192930,5,10,2:0:0:0:
425,95,193088,1,2,1:2:0:0:
251,259,193246,5,10,1:2:0:0:
470,28,193404,1,10,2:0:0:0:
135,117,193877,5,10,1:2:0:0:
459,196,194035,1,10,2:0:0:0:
