osu file format v14

[General]
AudioFilename: audio.mp3
AudioLeadIn: 0
PreviewTime: 123551
Countdown: 0
SampleSet: Normal
StackLeniency: 0.7
Mode: 1
LetterboxInBreaks: 0
WidescreenStoryboard: 1

[Editor]
DistanceSpacing: 0.2
BeatDivisor: 4
GridSize: 32
TimelineZoom: 2.599998

[Metadata]
Title:Donna Ketsumatsu ga Onozomi dai?
TitleUnicode:どんな結末がお望みだい?
Artist:TUYU
ArtistUnicode:ツユ
Creator:FabriGamer84
Version:yurishe's Futsuu
Source:プロジェクトセカイ カラフルステージ! feat. 初音ミク
Tags:tsuyu 礼衣 Rei ぷす Pusu ミロ miro 双葉陽 Haru Futaba ドンケツ donketsu What Sort of Ending Are You Wishing For? pop jpop j-pop japanese j-rock jrock rock Project SEKAI COLORFUL STAGE! feat. Hatsune Miku ワンダーランズ×ショウタイム wandasho wxs Wonderlands x Showtime A Sorrowful Farewell at the Curtain Call proseka puroseka プロセカ prsk pjsk arcpotato Cryceptio yurishe
BeatmapID:3887392
BeatmapSetID:1881138

[Difficulty]
HPDrainRate:7
CircleSize:5
OverallDifficulty:4
ApproachRate:10
SliderMultiplier:1.4
SliderTickRate:1

[Events]
//Background and Video events
0,0,"bg.png",0,0
Video,-90,"video.avi"
//Break Periods
//Storyboard Layer 0 (Background)
//Storyboard Layer 1 (Fail)
//Storyboard Layer 2 (Pass)
//Storyboard Layer 3 (Foreground)
//Storyboard Layer 4 (Overlay)
//Storyboard Sound Samples

[TimingPoints]
1288,315.789473684211,4,1,0,70,1,0
1288,-105.263157894737,4,1,0,70,0,0
11393,-105.263157894737,4,1,0,80,0,0
16761,-105.263157894737,4,1,0,70,0,0
18972,-100,4,1,0,80,0,0
28998,-105.263157894737,4,1,0,80,0,0
34051,-100,4,1,0,80,0,0
59235,-100,4,1,0,90,0,1
68866,-100,4,1,0,90,0,0
69340,-100,4,1,0,90,0,1
80866,-100,4,1,0,80,0,0
82130,-105.263157894737,4,1,0,60,0,0
89393,-105.263157894737,4,1,0,80,0,0
89472,-100,4,1,0,80,0,0
91524,-100,4,1,0,80,0,0
91603,-100,4,1,0,80,0,0
92235,-100,4,1,0,60,0,0
93419,-100,4,1,0,80,0,0
98551,-100,4,1,0,80,0,0
123656,-100,4,1,0,90,0,1
133288,-100,4,1,0,90,0,0
133761,-100,4,1,0,90,0,1
145288,-100,4,1,0,90,0,0
146393,-100,4,1,0,80,0,0
171656,-100,4,1,0,90,0,1
181288,-100,4,1,0,80,0,0
181761,-100,4,1,0,90,0,1
193288,-100,4,1,0,80,0,0
194235,-100,4,1,0,60,0,0
194445,-100,4,1,0,55,0,0
194656,-100,4,1,0,50,0,0
194866,-100,4,1,0,45,0,0
195077,-100,4,1,0,40,0,0
195288,-100,4,1,0,35,0,0
195498,-100,4,1,0,30,0,0
195709,-100,4,1,0,25,0,0
195919,-100,4,1,0,20,0,0

[HitObjects]
255,188,1288,5,0,0:0:0:0:
255,188,3814,1,8,0:0:0:0:
252,190,4919,1,8,0:0:0:0:
252,190,5077,1,0,0:0:0:0:
248,184,5919,1,8,0:0:0:0:
248,184,6130,1,0,0:0:0:0:
255,188,6340,1,8,0:0:0:0:
251,195,7182,1,0,0:0:0:0:
251,195,7393,1,8,0:0:0:0:
251,195,7603,1,0,0:0:0:0:
250,198,8709,1,0,0:0:0:0:
255,188,8866,1,8,0:0:0:0:
264,186,10972,1,0,0:0:0:0:
264,186,11182,1,0,0:0:0:0:
255,188,11393,1,8,0:0:0:0:
255,188,12024,1,0,0:0:0:0:
255,188,12340,1,0,0:0:0:0:
255,188,12656,1,8,0:0:0:0:
255,188,12814,1,8,0:0:0:0:
255,188,12972,1,0,0:0:0:0:
255,188,13288,1,0,0:0:0:0:
255,188,13445,1,8,0:0:0:0:
255,188,13603,1,0,0:0:0:0:
255,188,13919,1,8,0:0:0:0:
255,188,14235,1,8,0:0:0:0:
255,188,14866,1,8,0:0:0:0:
255,188,15498,1,0,0:0:0:0:
255,188,15814,1,0,0:0:0:0:
255,188,15972,1,0,0:0:0:0:
255,188,16130,1,8,0:0:0:0:
255,188,16761,1,0,0:0:0:0:
255,188,17077,1,0,0:0:0:0:
255,188,17393,1,8,0:0:0:0:
255,188,17709,1,0,0:0:0:0:
255,188,18024,1,8,0:0:0:0:
255,188,18340,1,8,0:0:0:0:
255,188,18972,1,4,0:0:0:0:
255,188,19288,1,8,0:0:0:0:
255,188,19445,1,0,0:0:0:0:
255,188,19761,1,0,0:0:0:0:
255,188,19919,1,8,0:0:0:0:
255,188,20235,1,8,0:0:0:0:
255,188,20551,1,8,0:0:0:0:
255,188,20709,1,0,0:0:0:0:
255,188,21182,1,0,0:0:0:0:
255,188,21498,1,12,0:0:0:0:
255,188,21814,1,8,0:0:0:0:
255,188,22130,1,8,0:0:0:0:
255,188,22288,1,0,0:0:0:0:
255,188,22445,1,8,0:0:0:0:
255,188,22761,1,4,0:0:0:0:
255,188,23393,1,8,0:0:0:0:
255,188,24024,1,4,0:0:0:0:
255,188,24340,1,0,0:0:0:0:
255,188,24656,1,0,0:0:0:0:
255,188,25130,1,8,0:0:0:0:
255,188,25445,1,0,0:0:0:0:
255,188,25603,1,8,0:0:0:0:
255,188,25761,1,8,0:0:0:0:
255,188,25919,1,0,0:0:0:0:
255,188,26235,1,0,0:0:0:0:
255,188,26551,1,8,0:0:0:0:
255,188,26866,1,8,0:0:0:0:
255,188,27182,1,8,0:0:0:0:
255,188,27656,1,0,0:0:0:0:
255,188,27972,1,0,0:0:0:0:
255,188,28130,1,8,0:0:0:0:
256,181,28288,1,0,0:0:0:0:
255,188,28445,1,8,0:0:0:0:
255,188,28761,1,0,0:0:0:0:
255,188,29077,1,8,0:0:0:0:
255,188,29709,1,8,0:0:0:0:
255,188,30340,1,0,0:0:0:0:
255,188,31603,1,8,0:0:0:0:
255,188,32235,1,0,0:0:0:0:
255,188,32866,1,8,0:0:0:0:
255,188,33498,1,0,0:0:0:0:
255,188,34130,1,4,0:0:0:0:
255,188,34445,1,8,0:0:0:0:
255,188,34603,1,0,0:0:0:0:
255,188,34761,1,0,0:0:0:0:
255,188,35077,1,8,0:0:0:0:
255,188,35235,1,0,0:0:0:0:
255,188,35709,1,8,0:0:0:0:
255,188,36024,1,0,0:0:0:0:
255,188,36340,1,0,0:0:0:0:
255,188,36656,1,12,0:0:0:0:
255,188,36972,1,8,0:0:0:0:
255,188,37130,1,0,0:0:0:0:
255,188,37288,1,8,0:0:0:0:
255,188,37445,1,0,0:0:0:0:
255,188,37603,1,8,0:0:0:0:
255,188,37919,1,4,0:0:0:0:
255,188,38235,1,4,0:0:0:0:
255,188,39024,1,12,0:0:0:0:
255,188,39340,1,0,0:0:0:0:
255,188,39498,1,8,0:0:0:0:
255,188,39656,1,8,0:0:0:0:
255,188,39814,1,0,0:0:0:0:
255,188,40130,1,8,0:0:0:0:
255,188,40288,1,8,0:0:0:0:
255,188,40445,1,0,0:0:0:0:
255,188,40603,1,8,0:0:0:0:
255,188,40761,1,0,0:0:0:0:
255,188,41077,1,8,0:0:0:0:
255,188,41709,1,4,0:0:0:0:
255,188,42340,1,8,0:0:0:0:
255,188,42498,1,0,0:0:0:0:
255,188,42814,1,8,0:0:0:0:
255,188,43130,1,0,0:0:0:0:
255,188,43288,1,0,0:0:0:0:
255,188,43603,1,8,0:0:0:0:
255,188,43919,1,8,0:0:0:0:
255,188,44235,1,0,0:0:0:0:
255,188,44866,1,8,0:0:0:0:
255,188,45024,1,0,0:0:0:0:
255,188,45340,1,8,0:0:0:0:
255,188,45656,1,8,0:0:0:0:
255,188,45814,1,0,0:0:0:0:
255,188,46130,1,8,0:0:0:0:
255,188,46445,1,8,0:0:0:0:
255,188,46761,1,4,0:0:0:0:
255,188,47393,1,8,0:0:0:0:
255,188,47551,1,8,0:0:0:0:
255,188,47866,1,0,0:0:0:0:
255,188,48182,1,8,0:0:0:0:
255,188,48340,1,0,0:0:0:0:
255,188,48656,1,8,0:0:0:0:
255,188,48972,1,0,0:0:0:0:
255,188,49288,1,8,0:0:0:0:
255,188,49919,1,8,0:0:0:0:
255,188,50235,1,8,0:0:0:0:
255,188,50551,1,0,0:0:0:0:
255,188,50709,1,8,0:0:0:0:
255,188,50866,1,8,0:0:0:0:
255,188,51182,1,8,0:0:0:0:
255,188,51498,1,8,0:0:0:0:
255,188,51656,1,8,0:0:0:0:
255,188,51814,1,4,0:0:0:0:
255,188,52445,1,0,0:0:0:0:
255,188,52603,1,8,0:0:0:0:
255,188,52919,1,0,0:0:0:0:
255,188,53235,1,8,0:0:0:0:
255,188,53393,1,0,0:0:0:0:
255,188,53709,1,8,0:0:0:0:
255,188,53866,1,0,0:0:0:0:
255,188,54024,1,8,0:0:0:0:
255,188,54340,1,4,0:0:0:0:
255,188,54972,1,8,0:0:0:0:
255,188,55130,1,0,0:0:0:0:
255,188,55445,1,8,0:0:0:0:
255,188,55761,1,8,0:0:0:0:
255,188,55919,1,0,0:0:0:0:
255,188,56235,1,0,0:0:0:0:
255,188,56393,1,0,0:0:0:0:
255,188,56551,1,8,0:0:0:0:
255,188,56866,1,4,0:0:0:0:
255,188,57498,1,8,0:0:0:0:
255,188,57814,1,8,0:0:0:0:
255,188,57972,1,8,0:0:0:0:
255,188,58130,1,4,0:0:0:0:
255,188,58445,1,4,0:0:0:0:
255,188,58761,1,8,0:0:0:0:
255,188,58919,1,8,0:0:0:0:
255,188,59077,1,0,0:0:0:0:
255,188,59235,1,12,0:0:0:0:
255,188,59551,1,8,0:0:0:0:
255,188,59709,1,0,0:0:0:0:
255,188,59866,1,0,0:0:0:0:
255,188,60024,1,8,0:0:0:0:
255,188,60340,1,8,0:0:0:0:
255,188,60656,1,0,0:0:0:0:
255,188,60972,1,8,0:0:0:0:
255,188,61130,1,0,0:0:0:0:
255,188,61445,1,0,0:0:0:0:
255,188,61761,1,12,0:0:0:0:
255,188,62235,1,8,0:0:0:0:
255,188,62393,1,8,0:0:0:0:
255,188,62551,1,0,0:0:0:0:
255,188,62866,1,8,0:0:0:0:
255,188,63182,1,0,0:0:0:0:
255,188,63498,1,8,0:0:0:0:
255,188,63656,1,8,0:0:0:0:
255,188,63972,1,0,0:0:0:0:
255,188,64288,1,12,0:0:0:0:
255,188,64761,1,8,0:0:0:0:
255,188,64919,1,8,0:0:0:0:
255,188,65077,1,0,0:0:0:0:
255,188,65393,1,8,0:0:0:0:
255,188,66024,1,0,0:0:0:0:
255,188,66340,1,0,0:0:0:0:
255,188,66498,1,8,0:0:0:0:
255,188,66656,1,0,0:0:0:0:
255,188,66814,1,12,0:0:0:0:
255,188,67288,1,8,0:0:0:0:
255,188,67445,1,0,0:0:0:0:
255,188,67603,1,8,0:0:0:0:
255,188,67919,1,0,0:0:0:0:
255,188,68551,1,8,0:0:0:0:
254,167,68866,1,4,0:0:0:0:
255,188,69024,1,4,0:0:0:0:
254,167,69340,1,12,0:0:0:0:
255,189,69656,1,8,0:0:0:0:
255,189,69814,1,0,0:0:0:0:
255,188,69972,1,8,0:0:0:0:
256,189,70130,1,0,0:0:0:0:
255,189,70445,1,8,0:0:0:0:
255,189,70761,1,0,0:0:0:0:
256,189,71077,1,8,0:0:0:0:
255,189,71235,1,0,0:0:0:0:
255,189,71551,1,8,0:0:0:0:
256,198,71866,1,4,0:0:0:0:
256,198,72340,1,8,0:0:0:0:
256,198,72656,1,0,0:0:0:0:
256,198,72814,1,8,0:0:0:0:
256,198,72972,1,0,0:0:0:0:
256,198,73130,1,0,0:0:0:0:
256,198,73288,1,8,0:0:0:0:
256,198,73603,1,8,0:0:0:0:
256,198,73761,1,0,0:0:0:0:
256,198,74077,1,0,0:0:0:0:
256,198,74393,1,12,0:0:0:0:
250,197,74866,1,8,0:0:0:0:
250,197,75024,1,8,0:0:0:0:
250,197,75182,1,0,0:0:0:0:
250,197,75498,1,8,0:0:0:0:
250,197,76130,1,0,0:0:0:0:
250,197,76445,1,8,0:0:0:0:
250,197,76603,1,0,0:0:0:0:
250,197,76761,1,8,0:0:0:0:
250,197,76919,1,4,0:0:0:0:
250,197,77393,1,8,0:0:0:0:
250,197,77551,1,0,0:0:0:0:
250,197,77709,1,8,0:0:0:0:
250,197,78024,1,8,0:0:0:0:
250,197,78498,1,8,0:0:0:0:
250,197,78814,1,0,0:0:0:0:
250,197,78972,1,8,0:0:0:0:
250,197,79130,1,8,0:0:0:0:
250,197,79445,1,4,0:0:0:0:
250,197,79761,1,0,0:0:0:0:
250,197,79919,1,8,0:0:0:0:
250,197,80077,1,0,0:0:0:0:
250,197,80235,1,8,0:0:0:0:
250,197,80551,1,8,0:0:0:0:
254,167,80866,5,4,0:0:0:0:
254,167,81024,1,4,0:0:0:0:
254,167,81498,1,4,0:0:0:0:
254,167,81656,1,4,0:0:0:0:
254,167,82130,1,8,0:0:0:0:
254,167,83393,1,0,0:0:0:0:
254,167,84340,1,8,0:0:0:0:
254,167,84498,1,0,0:0:0:0:
254,167,84656,1,8,0:0:0:0:
254,167,85919,1,8,0:0:0:0:
254,167,86235,1,8,0:0:0:0:
254,167,86551,1,0,0:0:0:0:
254,167,87182,1,0,0:0:0:0:
254,167,88445,1,0,0:0:0:0:
254,167,88761,1,0,0:0:0:0:
254,167,89393,1,0,0:0:0:0:
254,167,89551,1,12,0:0:0:0:
254,167,89866,1,8,0:0:0:0:
254,167,90024,1,8,0:0:0:0:
254,167,90340,1,0,0:0:0:0:
254,167,90498,1,0,0:0:0:0:
254,167,90656,1,8,0:0:0:0:
254,167,90972,1,8,0:0:0:0:
254,167,91288,1,8,0:0:0:0:
254,167,91445,1,0,0:0:0:0:
254,167,91603,1,8,0:0:0:0:
254,167,91761,1,0,0:0:0:0:
254,167,93498,1,12,0:0:0:0:
254,167,93814,1,8,0:0:0:0:
254,167,93972,1,0,0:0:0:0:
254,167,94288,1,0,0:0:0:0:
254,167,94603,1,8,0:0:0:0:
254,167,95393,1,8,0:0:0:0:
254,167,95709,1,0,0:0:0:0:
254,167,96024,1,8,0:0:0:0:
254,167,96340,1,0,0:0:0:0:
254,167,96498,1,8,0:0:0:0:
254,167,96814,1,0,0:0:0:0:
254,167,97130,1,8,0:0:0:0:
254,167,97919,1,0,0:0:0:0:
254,167,98235,1,0,0:0:0:0:
254,167,98551,1,12,0:0:0:0:
254,167,98866,1,0,0:0:0:0:
254,167,99024,1,8,0:0:0:0:
254,167,99182,1,0,0:0:0:0:
254,167,99498,1,8,0:0:0:0:
254,167,99656,1,0,0:0:0:0:
254,167,100130,1,8,0:0:0:0:
254,167,100445,1,0,0:0:0:0:
254,167,100761,1,0,0:0:0:0:
254,167,101077,1,12,0:0:0:0:
254,167,101393,1,8,0:0:0:0:
254,167,101551,1,0,0:0:0:0:
254,167,101709,1,8,0:0:0:0:
279,162,101866,1,0,0:0:0:0:
254,167,102024,1,8,0:0:0:0:
254,167,102340,1,4,0:0:0:0:
254,167,102656,1,4,0:0:0:0:
254,167,103445,1,12,0:0:0:0:
254,167,103761,1,0,0:0:0:0:
254,167,103919,1,8,0:0:0:0:
254,167,104077,1,8,0:0:0:0:
254,167,104235,1,0,0:0:0:0:
254,167,104551,1,8,0:0:0:0:
254,167,104866,1,8,0:0:0:0:
254,167,105024,1,0,0:0:0:0:
254,167,105182,1,8,0:0:0:0:
254,167,105498,1,8,0:0:0:0:
254,167,106130,1,4,0:0:0:0:
254,167,106761,1,8,0:0:0:0:
254,167,106919,1,0,0:0:0:0:
254,167,107235,1,0,0:0:0:0:
254,167,107551,1,8,0:0:0:0:
254,167,107709,1,0,0:0:0:0:
254,167,108024,1,8,0:0:0:0:
254,167,108340,1,8,0:0:0:0:
254,167,108656,1,0,0:0:0:0:
254,167,109288,1,8,0:0:0:0:
254,167,109445,1,0,0:0:0:0:
254,167,109761,1,8,0:0:0:0:
254,167,110077,1,0,0:0:0:0:
254,167,110235,1,0,0:0:0:0:
254,167,110551,1,8,0:0:0:0:
254,167,110866,1,8,0:0:0:0:
254,167,111182,1,4,0:0:0:0:
254,167,111814,1,8,0:0:0:0:
254,167,111972,1,8,0:0:0:0:
254,167,112288,1,0,0:0:0:0:
254,167,112603,1,8,0:0:0:0:
254,167,112761,1,0,0:0:0:0:
254,167,113077,1,8,0:0:0:0:
254,167,113393,1,8,0:0:0:0:
254,167,113709,1,0,0:0:0:0:
254,167,114340,1,8,0:0:0:0:
254,167,114656,1,8,0:0:0:0:
254,167,114972,1,8,0:0:0:0:
254,167,115130,1,8,0:0:0:0:
254,167,115288,1,0,0:0:0:0:
254,167,115603,1,8,0:0:0:0:
254,167,115919,1,8,0:0:0:0:
254,167,116077,1,0,0:0:0:0:
254,167,116235,1,12,0:0:0:0:
254,167,116866,1,0,0:0:0:0:
254,167,117024,1,8,0:0:0:0:
254,167,117340,1,8,0:0:0:0:
254,167,117656,1,8,0:0:0:0:
254,167,117814,1,0,0:0:0:0:
254,167,118130,1,8,0:0:0:0:
254,167,118288,1,0,0:0:0:0:
254,167,118445,1,8,0:0:0:0:
254,167,118761,1,12,0:0:0:0:
254,167,119393,1,0,0:0:0:0:
254,167,119551,1,0,0:0:0:0:
254,167,119866,1,8,0:0:0:0:
254,167,120182,1,0,0:0:0:0:
254,167,120340,1,8,0:0:0:0:
254,167,120656,1,8,0:0:0:0:
254,167,120814,1,0,0:0:0:0:
254,167,120972,1,8,0:0:0:0:
254,167,121288,1,12,0:0:0:0:
254,167,121919,1,0,0:0:0:0:
254,167,122235,1,0,0:0:0:0:
254,167,122393,1,8,0:0:0:0:
254,167,122551,1,4,0:0:0:0:
254,167,122866,1,4,0:0:0:0:
254,167,123182,1,8,0:0:0:0:
254,167,123340,1,8,0:0:0:0:
254,167,123498,1,0,0:0:0:0:
255,188,123656,1,12,0:0:0:0:
255,188,123972,1,8,0:0:0:0:
255,188,124130,1,0,0:0:0:0:
255,188,124287,1,0,0:0:0:0:
255,188,124445,1,8,0:0:0:0:
255,188,124761,1,8,0:0:0:0:
255,188,125077,1,0,0:0:0:0:
255,188,125393,1,8,0:0:0:0:
255,188,125551,1,0,0:0:0:0:
255,188,125866,1,0,0:0:0:0:
255,188,126182,1,12,0:0:0:0:
255,188,126656,1,8,0:0:0:0:
255,188,126814,1,8,0:0:0:0:
255,188,126972,1,0,0:0:0:0:
255,188,127287,1,8,0:0:0:0:
255,188,127603,1,0,0:0:0:0:
255,188,127919,1,8,0:0:0:0:
255,188,128077,1,8,0:0:0:0:
255,188,128393,1,0,0:0:0:0:
255,188,128709,1,12,0:0:0:0:
255,188,129182,1,8,0:0:0:0:
255,188,129340,1,8,0:0:0:0:
255,188,129498,1,0,0:0:0:0:
255,188,129814,1,8,0:0:0:0:
255,188,130445,1,0,0:0:0:0:
255,188,130761,1,0,0:0:0:0:
255,188,130919,1,8,0:0:0:0:
255,188,131077,1,0,0:0:0:0:
255,188,131235,1,12,0:0:0:0:
255,188,131709,1,8,0:0:0:0:
255,188,131866,1,0,0:0:0:0:
255,188,132024,1,8,0:0:0:0:
255,188,132340,1,0,0:0:0:0:
255,188,132972,1,8,0:0:0:0:
254,167,133287,1,4,0:0:0:0:
255,188,133445,1,4,0:0:0:0:
254,167,133761,1,12,0:0:0:0:
255,189,134077,1,8,0:0:0:0:
255,188,134235,1,8,0:0:0:0:
255,189,134393,1,0,0:0:0:0:
256,189,134551,1,0,0:0:0:0:
255,189,134866,1,8,0:0:0:0:
255,189,135182,1,0,0:0:0:0:
256,189,135498,1,8,0:0:0:0:
255,189,135656,1,0,0:0:0:0:
256,198,135972,1,0,0:0:0:0:
255,189,136287,1,12,0:0:0:0:
256,198,136761,1,8,0:0:0:0:
256,198,137077,1,0,0:0:0:0:
256,198,137235,1,8,0:0:0:0:
256,198,137393,1,0,0:0:0:0:
256,198,137551,1,0,0:0:0:0:
256,198,137709,1,8,0:0:0:0:
256,198,138024,1,8,0:0:0:0:
256,198,138182,1,0,0:0:0:0:
256,198,138498,1,0,0:0:0:0:
256,198,138814,1,12,0:0:0:0:
250,197,139287,1,8,0:0:0:0:
250,197,139445,1,8,0:0:0:0:
250,197,139603,1,0,0:0:0:0:
250,197,139919,1,8,0:0:0:0:
250,197,140551,1,0,0:0:0:0:
250,197,140866,1,8,0:0:0:0:
250,197,141024,1,0,0:0:0:0:
250,197,141182,1,8,0:0:0:0:
250,197,141340,1,4,0:0:0:0:
250,197,141814,1,8,0:0:0:0:
250,197,141972,1,0,0:0:0:0:
250,197,142130,1,8,0:0:0:0:
250,197,142445,1,8,0:0:0:0:
250,197,143077,1,8,0:0:0:0:
250,197,143235,1,0,0:0:0:0:
250,197,143393,1,8,0:0:0:0:
250,197,143551,1,0,0:0:0:0:
250,197,143866,1,4,0:0:0:0:
250,197,144182,1,0,0:0:0:0:
250,197,144340,1,8,0:0:0:0:
250,197,144498,1,0,0:0:0:0:
250,197,144656,1,8,0:0:0:0:
250,197,144972,1,8,0:0:0:0:
254,167,145287,5,4,0:0:0:0:
254,167,145445,1,4,0:0:0:0:
254,167,145919,1,4,0:0:0:0:
254,167,146077,1,4,0:0:0:0:
255,186,146393,5,12,0:0:0:0:
255,186,146866,1,8,0:0:0:0:
255,186,147182,1,8,0:0:0:0:
264,177,147340,1,0,0:0:0:0:
267,179,147656,1,8,0:0:0:0:
259,181,148130,1,8,0:0:0:0:
259,181,148445,1,0,0:0:0:0:
259,181,148603,1,0,0:0:0:0:
259,181,148919,1,12,0:0:0:0:
259,181,149393,1,0,0:0:0:0:
259,181,149709,1,0,0:0:0:0:
259,181,149866,1,8,0:0:0:0:
259,181,150024,1,0,0:0:0:0:
259,181,150182,1,8,0:0:0:0:
259,181,150498,1,0,0:0:0:0:
259,181,150656,1,8,0:0:0:0:
259,181,150814,1,0,0:0:0:0:
259,181,151445,1,4,0:0:0:0:
259,181,151919,1,8,0:0:0:0:
259,181,152235,1,8,0:0:0:0:
259,181,152393,1,0,0:0:0:0:
259,181,152551,1,0,0:0:0:0:
259,181,152709,1,8,0:0:0:0:
259,181,153024,1,0,0:0:0:0:
259,181,153182,1,8,0:0:0:0:
259,181,153498,1,8,0:0:0:0:
259,181,153656,1,8,0:0:0:0:
259,181,153814,1,0,0:0:0:0:
259,181,153972,1,4,0:0:0:0:
259,181,154445,1,8,0:0:0:0:
259,181,154761,1,8,0:0:0:0:
259,181,155077,1,8,0:0:0:0:
259,181,155393,1,0,0:0:0:0:
259,181,155551,1,0,0:0:0:0:
259,181,155709,1,8,0:0:0:0:
259,181,156024,1,4,0:0:0:0:
259,181,156182,1,4,0:0:0:0:
259,181,156498,1,12,0:0:0:0:
259,181,157130,1,0,0:0:0:0:
259,181,157288,1,0,0:0:0:0:
259,181,157603,1,8,0:0:0:0:
259,181,157919,1,8,0:0:0:0:
259,181,158077,1,0,0:0:0:0:
259,181,158235,1,8,0:0:0:0:
259,181,158551,1,0,0:0:0:0:
259,181,158866,1,8,0:0:0:0:
259,181,159024,1,4,0:0:0:0:
259,181,159340,1,8,0:0:0:0:
259,181,159498,1,0,0:0:0:0:
259,181,159814,1,0,0:0:0:0:
259,181,160288,1,8,0:0:0:0:
259,181,160761,1,8,0:0:0:0:
259,181,161077,1,0,0:0:0:0:
259,181,161235,1,0,0:0:0:0:
259,181,161551,1,12,0:0:0:0:
259,181,162024,1,8,0:0:0:0:
259,181,162340,1,0,0:0:0:0:
259,181,162498,1,0,0:0:0:0:
259,181,162814,1,8,0:0:0:0:
259,181,163130,1,0,0:0:0:0:
259,181,163445,1,8,0:0:0:0:
259,181,164077,1,4,0:0:0:0:
259,181,164393,1,8,0:0:0:0:
259,181,164709,1,0,0:0:0:0:
259,181,165024,1,8,0:0:0:0:
259,181,165498,1,4,0:0:0:0:
259,181,165656,1,4,0:0:0:0:
259,181,166130,1,4,0:0:0:0:
259,181,166288,1,4,0:0:0:0:
259,181,166603,1,12,0:0:0:0:
259,181,167077,1,0,0:0:0:0:
259,181,167393,1,8,0:0:0:0:
259,181,167551,1,8,0:0:0:0:
259,181,167866,1,4,0:0:0:0:
259,181,168340,1,8,0:0:0:0:
259,181,168972,1,8,0:0:0:0:
259,181,169130,1,4,0:0:0:0:
259,181,169603,1,8,0:0:0:0:
259,181,169919,1,0,0:0:0:0:
259,181,170077,1,0,0:0:0:0:
246,182,170393,1,12,0:0:0:0:
246,182,170709,1,8,0:0:0:0:
246,182,170866,1,8,0:0:0:0:
246,182,171024,1,8,0:0:0:0:
246,182,171182,1,0,0:0:0:0:
246,182,171340,1,0,0:0:0:0:
255,188,171656,1,12,0:0:0:0:
255,188,171972,1,0,0:0:0:0:
255,188,172130,1,8,0:0:0:0:
255,188,172287,1,0,0:0:0:0:
255,188,172445,1,8,0:0:0:0:
255,188,172761,1,8,0:0:0:0:
255,188,173077,1,0,0:0:0:0:
246,182,173235,1,0,0:0:0:0:
255,188,173393,1,8,0:0:0:0:
255,188,173551,1,0,0:0:0:0:
255,188,173866,1,0,0:0:0:0:
255,188,174182,1,12,0:0:0:0:
255,188,174656,1,8,0:0:0:0:
255,188,174814,1,8,0:0:0:0:
255,188,174972,1,0,0:0:0:0:
246,182,175130,1,0,0:0:0:0:
255,188,175287,1,8,0:0:0:0:
255,188,175603,1,8,0:0:0:0:
246,182,175761,1,0,0:0:0:0:
255,188,175919,1,8,0:0:0:0:
255,188,176077,1,0,0:0:0:0:
255,188,176393,1,8,0:0:0:0:
255,188,176709,1,4,0:0:0:0:
255,188,177182,1,8,0:0:0:0:
255,188,177340,1,8,0:0:0:0:
255,188,177498,1,0,0:0:0:0:
255,188,177814,1,8,0:0:0:0:
255,188,178445,1,8,0:0:0:0:
255,188,178761,1,0,0:0:0:0:
255,188,178919,1,0,0:0:0:0:
255,188,179077,1,8,0:0:0:0:
255,188,179235,1,4,0:0:0:0:
255,188,179709,1,8,0:0:0:0:
255,188,179866,1,0,0:0:0:0:
255,188,180024,1,8,0:0:0:0:
246,182,180182,1,0,0:0:0:0:
255,188,180340,1,8,0:0:0:0:
255,188,180972,1,8,0:0:0:0:
254,167,181287,1,4,0:0:0:0:
255,188,181445,1,4,0:0:0:0:
254,167,181761,1,12,0:0:0:0:
255,189,182077,1,8,0:0:0:0:
255,189,182235,1,0,0:0:0:0:
255,188,182393,1,8,0:0:0:0:
256,189,182551,1,8,0:0:0:0:
255,189,182866,1,0,0:0:0:0:
255,189,183182,1,0,0:0:0:0:
246,182,183340,1,0,0:0:0:0:
256,189,183498,1,8,0:0:0:0:
255,189,183656,1,8,0:0:0:0:
255,189,183972,1,8,0:0:0:0:
256,198,184287,1,4,0:0:0:0:
256,198,184761,1,8,0:0:0:0:
256,198,185077,1,8,0:0:0:0:
256,198,185235,1,0,0:0:0:0:
256,198,185393,1,8,0:0:0:0:
256,198,185551,1,8,0:0:0:0:
256,198,185709,1,0,0:0:0:0:
256,198,186024,1,8,0:0:0:0:
256,198,186182,1,0,0:0:0:0:
256,198,186498,1,8,0:0:0:0:
256,198,186814,1,4,0:0:0:0:
250,197,187288,1,8,0:0:0:0:
250,197,187445,1,0,0:0:0:0:
250,197,187603,1,8,0:0:0:0:
250,197,187919,1,8,0:0:0:0:
250,197,188551,1,0,0:0:0:0:
250,197,188866,1,8,0:0:0:0:
250,197,189024,1,0,0:0:0:0:
250,197,189182,1,0,0:0:0:0:
250,197,189340,1,12,0:0:0:0:
250,197,189814,1,8,0:0:0:0:
250,197,189972,1,0,0:0:0:0:
250,197,190130,1,8,0:0:0:0:
254,191,190288,1,0,0:0:0:0:
250,197,190445,1,8,0:0:0:0:
250,197,191077,1,0,0:0:0:0:
250,197,191235,1,8,0:0:0:0:
250,197,191393,1,0,0:0:0:0:
250,197,191551,1,0,0:0:0:0:
250,197,191866,1,12,0:0:0:0:
250,197,192182,1,0,0:0:0:0:
250,197,192340,1,8,0:0:0:0:
250,197,192498,1,0,0:0:0:0:
250,197,192656,1,8,0:0:0:0:
250,197,192972,1,8,0:0:0:0:
254,167,193287,5,4,0:0:0:0:
254,167,193445,1,4,0:0:0:0:
250,172,193919,1,4,0:0:0:0:
252,174,194077,1,4,0:0:0:0:
256,192,194235,12,0,196130,0:0:0:0:
