osu file format v14

[General]
AudioFilename: audio.mp3
AudioLeadIn: 0
PreviewTime: 123551
Countdown: 0
SampleSet: Normal
StackLeniency: 0.7
Mode: 1
LetterboxInBreaks: 0
WidescreenStoryboard: 1

[Editor]
Bookmarks: 34124,39492,39808,40124,40439,40597,41229,60492,60808,61282,62387,63334,63808,64439,64913,66018,66966,68545,69176,82124,93492,106124,116229,123650,146387,147176,148124,148913,151439,153966,156492,159018,161545,166597,172124,186018,188545
DistanceSpacing: 0.5
BeatDivisor: 2
GridSize: 32
TimelineZoom: 1.436

[Metadata]
Title:Donna Ketsumatsu ga Onozomi dai?
TitleUnicode:どんな結末がお望みだい?
Artist:TUYU
ArtistUnicode:ツユ
Creator:FabriGamer84
Version:arc's Kantan
Source:プロジェクトセカイ カラフルステージ! feat. 初音ミク
Tags:tsuyu 礼衣 Rei ぷす Pusu ミロ miro 双葉陽 Haru Futaba ドンケツ donketsu What Sort of Ending Are You Wishing For? pop jpop j-pop japanese j-rock jrock rock Project SEKAI COLORFUL STAGE! feat. Hatsune Miku ワンダーランズ×ショウタイム wandasho wxs Wonderlands x Showtime A Sorrowful Farewell at the Curtain Call proseka puroseka プロセカ prsk pjsk arcpotato Cryceptio yurishe
BeatmapID:3876851
BeatmapSetID:1881138

[Difficulty]
HPDrainRate:8
CircleSize:3
OverallDifficulty:3
ApproachRate:8
SliderMultiplier:1.4
SliderTickRate:1

[Events]
//Background and Video events
Video,-90,"video.avi"
0,0,"bg.png",0,0
//Break Periods
//Storyboard Layer 0 (Background)
//Storyboard Layer 1 (Fail)
//Storyboard Layer 2 (Pass)
//Storyboard Layer 3 (Foreground)
//Storyboard Layer 4 (Overlay)
//Storyboard Sound Samples

[TimingPoints]
1288,315.789473684211,4,1,0,70,1,0
1288,-125,4,1,0,70,0,0
11388,-111.111111111111,4,1,0,80,0,0
16756,-111.111111111111,4,1,0,70,0,0
18967,-111.111111111111,4,1,0,80,0,0
59235,-100,4,1,0,90,0,1
68866,-100,4,1,0,90,0,0
69340,-100,4,1,0,90,0,1
80866,-100,4,1,0,80,0,0
82125,-125,4,1,0,60,0,0
89388,-111.111111111111,4,1,0,80,0,0
91598,-111.111111111111,4,1,0,80,0,0
92230,-111.111111111111,4,1,0,60,0,0
93493,-125,4,1,0,80,0,0
98551,-111.111111111111,4,1,0,80,0,0
123656,-100,4,1,0,90,0,1
133288,-100,4,1,0,90,0,0
133761,-100,4,1,0,90,0,1
145288,-100,4,1,0,90,0,0
146388,-100,4,1,0,80,0,0
171656,-100,4,1,0,90,0,1
181288,-100,4,1,0,80,0,0
181761,-100,4,1,0,90,0,1
193288,-100,4,1,0,80,0,0
194230,-100,4,1,0,60,0,0
194445,-100,4,1,0,55,0,0
194656,-100,4,1,0,50,0,0
194866,-100,4,1,0,45,0,0
195077,-100,4,1,0,40,0,0
195288,-100,4,1,0,35,0,0
195498,-100,4,1,0,30,0,0
195709,-100,4,1,0,25,0,0
195919,-100,4,1,0,20,0,0

[HitObjects]
256,192,1288,5,8,0:0:0:0:
256,192,3814,1,0,0:0:0:0:
256,192,5077,1,0,0:0:0:0:
256,192,6340,1,8,0:0:0:0:
256,192,7603,1,8,0:0:0:0:
256,192,8866,1,0,0:0:0:0:
256,192,11393,1,8,0:0:0:0:
256,192,12024,1,0,0:0:0:0:
256,192,12656,1,8,0:0:0:0:
256,192,12972,1,8,0:0:0:0:
256,192,13288,1,0,0:0:0:0:
256,192,13919,1,8,0:0:0:0:
256,192,14235,1,8,0:0:0:0:
256,192,14866,1,0,0:0:0:0:
256,192,15498,1,8,0:0:0:0:
256,192,15814,1,0,0:0:0:0:
256,192,16130,1,8,0:0:0:0:
256,192,18340,1,0,0:0:0:0:
256,192,18656,1,0,0:0:0:0:
256,192,18972,1,12,0:0:0:0:
256,192,19445,1,0,0:0:0:0:
256,192,19919,1,8,0:0:0:0:
256,192,20235,1,0,0:0:0:0:
256,192,20709,1,8,0:0:0:0:
256,192,21182,1,0,0:0:0:0:
256,192,21498,1,12,0:0:0:0:
256,192,22130,1,0,0:0:0:0:
256,192,22445,1,0,0:0:0:0:
256,192,22761,1,12,0:0:0:0:
256,192,24024,1,12,0:0:0:0:
256,192,24656,1,0,0:0:0:0:
256,192,25130,1,8,0:0:0:0:
256,192,25603,1,0,0:0:0:0:
256,192,25919,1,8,0:0:0:0:
256,192,26551,1,0,0:0:0:0:
256,192,27182,1,8,0:0:0:0:
256,192,27656,1,0,0:0:0:0:
256,192,28130,1,8,0:0:0:0:
256,192,28445,1,0,0:0:0:0:
256,192,29077,1,8,0:0:0:0:
256,192,29709,1,0,0:0:0:0:
256,192,30340,1,8,0:0:0:0:
256,192,31603,1,0,0:0:0:0:
256,192,32235,1,8,0:0:0:0:
256,192,32866,1,0,0:0:0:0:
256,192,34130,1,4,0:0:0:0:
256,192,34761,1,8,0:0:0:0:
256,192,35077,1,8,0:0:0:0:
256,192,35393,1,0,0:0:0:0:
256,192,36024,1,8,0:0:0:0:
256,192,36656,1,4,0:0:0:0:
256,192,36972,1,8,0:0:0:0:
256,192,37288,1,8,0:0:0:0:
256,192,37603,1,8,0:0:0:0:
256,192,37919,1,4,0:0:0:0:
256,192,39024,1,12,0:0:0:0:
256,192,39498,1,8,0:0:0:0:
256,192,39814,1,0,0:0:0:0:
256,192,40445,1,12,0:0:0:0:
256,192,41077,1,0,0:0:0:0:
256,192,41709,1,12,0:0:0:0:
224,192,42814,1,8,0:0:0:0:
256,192,43288,1,0,0:0:0:0:
256,192,43603,1,8,0:0:0:0:
256,192,43919,1,8,0:0:0:0:
256,192,44235,1,0,0:0:0:0:
256,192,45340,1,0,0:0:0:0:
256,224,45814,1,0,0:0:0:0:
256,224,46130,1,0,0:0:0:0:
256,224,46445,1,8,0:0:0:0:
256,224,46761,1,4,0:0:0:0:
256,224,47393,1,0,0:0:0:0:
256,224,47866,1,8,0:0:0:0:
256,224,48340,1,0,0:0:0:0:
256,224,48656,1,8,0:0:0:0:
256,224,48972,1,0,0:0:0:0:
256,224,49288,1,8,0:0:0:0:
256,224,49919,1,0,0:0:0:0:
256,224,50551,1,0,0:0:0:0:
256,224,50866,1,0,0:0:0:0:
256,224,51182,1,8,0:0:0:0:
256,224,51498,1,8,0:0:0:0:
288,224,51814,1,4,0:0:0:0:
256,192,53077,1,8,0:0:0:0:
256,192,53709,1,0,0:0:0:0:
256,192,54024,1,0,0:0:0:0:
256,192,54340,1,12,0:0:0:0:
256,192,54972,1,8,0:0:0:0:
256,192,55445,1,0,0:0:0:0:
224,192,55919,1,8,0:0:0:0:
256,192,56235,1,8,0:0:0:0:
256,192,56551,1,8,0:0:0:0:
256,192,56866,1,4,0:0:0:0:
256,192,57498,1,8,0:0:0:0:
256,192,57814,1,0,0:0:0:0:
256,192,58130,1,12,0:0:0:0:
256,192,59235,1,4,0:0:0:0:
256,192,59709,1,8,0:0:0:0:
256,192,60024,1,8,0:0:0:0:
256,192,60340,1,0,0:0:0:0:
256,192,60656,1,0,0:0:0:0:
256,192,61130,1,8,0:0:0:0:
256,192,61445,1,0,0:0:0:0:
288,192,61761,1,12,0:0:0:0:
256,192,62235,1,0,0:0:0:0:
256,192,62551,1,8,0:0:0:0:
256,192,62866,1,8,0:0:0:0:
256,192,63182,1,0,0:0:0:0:
256,192,63656,1,0,0:0:0:0:
256,192,63972,1,8,0:0:0:0:
256,192,64288,1,4,0:0:0:0:
256,192,64761,1,8,0:0:0:0:
256,192,65077,1,8,0:0:0:0:
256,192,65393,1,0,0:0:0:0:
256,192,65866,1,8,0:0:0:0:
288,192,66814,1,4,0:0:0:0:
288,192,67288,1,8,0:0:0:0:
288,192,67603,1,8,0:0:0:0:
288,192,67919,1,8,0:0:0:0:
288,160,68393,1,0,0:0:0:0:
288,192,69340,1,12,0:0:0:0:
288,192,69814,1,0,0:0:0:0:
288,192,70130,1,0,0:0:0:0:
288,192,70445,1,8,0:0:0:0:
288,192,70761,1,0,0:0:0:0:
288,192,71235,1,8,0:0:0:0:
288,192,71551,1,0,0:0:0:0:
288,192,71866,1,12,0:0:0:0:
256,192,72340,1,0,0:0:0:0:
288,192,72656,1,8,0:0:0:0:
288,192,72972,1,8,0:0:0:0:
288,192,73288,1,0,0:0:0:0:
288,192,73761,1,8,0:0:0:0:
288,192,74077,1,0,0:0:0:0:
288,192,74393,1,12,0:0:0:0:
288,192,74866,1,0,0:0:0:0:
288,192,75182,1,8,0:0:0:0:
288,192,75498,1,0,0:0:0:0:
288,192,75972,1,8,0:0:0:0:
288,192,76919,1,4,0:0:0:0:
288,192,77393,1,8,0:0:0:0:
288,192,77709,1,0,0:0:0:0:
288,192,78024,1,8,0:0:0:0:
256,192,78498,1,0,0:0:0:0:
288,192,79445,1,4,0:0:0:0:
288,192,79919,1,8,0:0:0:0:
288,192,80235,1,8,0:0:0:0:
288,192,80551,1,8,0:0:0:0:
288,192,80866,1,4,0:0:0:0:
256,192,81498,1,12,0:0:0:0:
256,192,82130,1,0,0:0:0:0:
256,192,83393,1,8,0:0:0:0:
256,192,84656,1,0,0:0:0:0:
256,192,85288,1,0,0:0:0:0:
288,160,85919,1,8,0:0:0:0:
288,160,86551,1,0,0:0:0:0:
288,160,87182,1,8,0:0:0:0:
288,160,88445,1,0,0:0:0:0:
288,160,89551,1,12,0:0:0:0:
288,160,90024,1,0,0:0:0:0:
288,160,90340,1,8,0:0:0:0:
288,160,90656,1,8,0:0:0:0:
288,160,90972,1,0,0:0:0:0:
288,160,91288,1,8,0:0:0:0:
288,160,91603,1,0,0:0:0:0:
288,160,93498,1,12,0:0:0:0:
288,160,94130,1,0,0:0:0:0:
288,160,94761,1,8,0:0:0:0:
288,160,95393,1,8,0:0:0:0:
288,160,96024,1,0,0:0:0:0:
288,160,96656,1,0,0:0:0:0:
288,160,97288,1,8,0:0:0:0:
288,160,97919,1,0,0:0:0:0:
288,160,98551,1,12,0:0:0:0:
288,160,99182,1,0,0:0:0:0:
288,160,99498,1,0,0:0:0:0:
288,160,99814,1,8,0:0:0:0:
288,160,100445,1,0,0:0:0:0:
288,160,100761,1,8,0:0:0:0:
288,160,101077,1,4,0:0:0:0:
288,160,101709,1,8,0:0:0:0:
288,160,102024,1,8,0:0:0:0:
288,160,102340,1,4,0:0:0:0:
288,160,103445,1,12,0:0:0:0:
288,160,103919,1,0,0:0:0:0:
288,160,104235,1,8,0:0:0:0:
288,160,104866,1,0,0:0:0:0:
288,160,105498,1,8,0:0:0:0:
288,160,106130,1,4,0:0:0:0:
288,192,107235,1,0,0:0:0:0:
288,192,107709,1,8,0:0:0:0:
288,192,108024,1,8,0:0:0:0:
288,192,108340,1,0,0:0:0:0:
288,192,108656,1,0,0:0:0:0:
288,192,109288,1,8,0:0:0:0:
256,192,109761,1,0,0:0:0:0:
256,192,110235,1,8,0:0:0:0:
256,192,110551,1,8,0:0:0:0:
256,192,110866,1,0,0:0:0:0:
256,192,111182,1,12,0:0:0:0:
256,192,112288,1,0,0:0:0:0:
256,192,112761,1,8,0:0:0:0:
256,192,113077,1,0,0:0:0:0:
256,192,113393,1,8,0:0:0:0:
256,192,113709,1,8,0:0:0:0:
256,192,114340,1,0,0:0:0:0:
256,192,114972,1,8,0:0:0:0:
256,192,115288,1,8,0:0:0:0:
256,192,115603,1,0,0:0:0:0:
256,192,115919,1,0,0:0:0:0:
256,192,116235,1,12,0:0:0:0:
256,192,117498,1,0,0:0:0:0:
256,192,118130,1,8,0:0:0:0:
256,192,118445,1,8,0:0:0:0:
256,192,118761,1,4,0:0:0:0:
256,192,119393,1,8,0:0:0:0:
256,192,120024,1,0,0:0:0:0:
256,192,120340,1,0,0:0:0:0:
256,192,120656,1,8,0:0:0:0:
256,192,120972,1,0,0:0:0:0:
256,192,121288,1,12,0:0:0:0:
256,192,121919,1,0,0:0:0:0:
256,192,122235,1,8,0:0:0:0:
256,192,122551,1,4,0:0:0:0:
256,192,123656,1,12,0:0:0:0:
256,192,124130,1,0,0:0:0:0:
256,192,124445,1,8,0:0:0:0:
256,192,124761,1,8,0:0:0:0:
256,192,125077,1,0,0:0:0:0:
256,192,125551,1,8,0:0:0:0:
256,160,125866,1,0,0:0:0:0:
256,192,126182,1,12,0:0:0:0:
256,192,126656,1,0,0:0:0:0:
256,192,126972,1,0,0:0:0:0:
256,192,127288,1,8,0:0:0:0:
256,160,127603,1,8,0:0:0:0:
256,160,128077,1,0,0:0:0:0:
256,192,128393,1,0,0:0:0:0:
256,192,128709,1,12,0:0:0:0:
256,192,129182,1,8,0:0:0:0:
256,192,129498,1,0,0:0:0:0:
256,192,129814,1,8,0:0:0:0:
256,192,130288,1,0,0:0:0:0:
256,192,131235,1,12,0:0:0:0:
256,192,131709,1,8,0:0:0:0:
256,192,132024,1,0,0:0:0:0:
256,192,132340,1,8,0:0:0:0:
288,192,132814,1,0,0:0:0:0:
288,192,133761,1,12,0:0:0:0:
288,192,134235,1,0,0:0:0:0:
288,192,134551,1,8,0:0:0:0:
320,192,134866,1,8,0:0:0:0:
320,224,135182,1,0,0:0:0:0:
288,192,135656,1,0,0:0:0:0:
288,192,135972,1,8,0:0:0:0:
288,192,136288,1,4,0:0:0:0:
256,224,136761,1,8,0:0:0:0:
288,224,137077,1,0,0:0:0:0:
256,192,137393,1,8,0:0:0:0:
288,192,137709,1,0,0:0:0:0:
288,192,138182,1,8,0:0:0:0:
288,192,138498,1,8,0:0:0:0:
288,192,138814,1,4,0:0:0:0:
288,192,139288,1,8,0:0:0:0:
288,192,139603,1,0,0:0:0:0:
288,192,139919,1,8,0:0:0:0:
288,192,140393,1,0,0:0:0:0:
288,192,141340,1,4,0:0:0:0:
288,192,141814,1,8,0:0:0:0:
288,192,142130,1,8,0:0:0:0:
288,192,142445,1,0,0:0:0:0:
288,192,142919,1,8,0:0:0:0:
256,192,143866,1,12,0:0:0:0:
256,192,144340,1,0,0:0:0:0:
256,192,144656,1,0,0:0:0:0:
256,192,144972,1,0,0:0:0:0:
256,192,145288,1,12,0:0:0:0:
256,192,145919,1,4,0:0:0:0:
256,192,146393,1,12,0:0:0:0:
256,192,146866,1,8,0:0:0:0:
256,192,147182,1,0,0:0:0:0:
256,192,147656,1,0,0:0:0:0:
256,192,148130,1,0,0:0:0:0:
256,192,148445,1,8,0:0:0:0:
256,192,148919,1,4,0:0:0:0:
256,192,149393,1,8,0:0:0:0:
256,192,149709,1,0,0:0:0:0:
256,192,150024,1,8,0:0:0:0:
256,192,151130,1,0,0:0:0:0:
256,192,151445,1,12,0:0:0:0:
256,192,151919,1,0,0:0:0:0:
256,192,152235,1,8,0:0:0:0:
256,192,152551,1,8,0:0:0:0:
256,192,152866,1,0,0:0:0:0:
256,192,153182,1,0,0:0:0:0:
256,192,153498,1,8,0:0:0:0:
256,192,153972,1,4,0:0:0:0:
256,192,154445,1,8,0:0:0:0:
256,192,154761,1,0,0:0:0:0:
256,192,155077,1,8,0:0:0:0:
256,192,155393,1,8,0:0:0:0:
256,192,155709,1,0,0:0:0:0:
256,192,156024,1,8,0:0:0:0:
256,192,156498,1,4,0:0:0:0:
320,192,157130,1,8,0:0:0:0:
256,192,158235,1,8,0:0:0:0:
256,192,158551,1,0,0:0:0:0:
256,192,159024,1,12,0:0:0:0:
256,192,159498,1,0,0:0:0:0:
256,192,159814,1,8,0:0:0:0:
256,192,160288,1,8,0:0:0:0:
256,192,160603,1,0,0:0:0:0:
256,192,161551,1,4,0:0:0:0:
256,192,162024,1,8,0:0:0:0:
256,192,162340,1,0,0:0:0:0:
256,192,162814,1,8,0:0:0:0:
256,192,163130,1,0,0:0:0:0:
256,192,163445,1,8,0:0:0:0:
256,224,163761,1,0,0:0:0:0:
256,224,164077,1,12,0:0:0:0:
288,192,165024,1,0,0:0:0:0:
288,192,165498,1,12,0:0:0:0:
288,192,166130,1,4,0:0:0:0:
256,224,166603,1,12,0:0:0:0:
320,224,167077,1,0,0:0:0:0:
320,224,167393,1,8,0:0:0:0:
320,192,167866,1,4,0:0:0:0:
320,192,168340,1,8,0:0:0:0:
320,192,168656,1,0,0:0:0:0:
320,192,169130,1,12,0:0:0:0:
256,192,169603,1,8,0:0:0:0:
256,192,169919,1,8,0:0:0:0:
256,192,170393,1,4,0:0:0:0:
256,192,171656,1,4,0:0:0:0:
256,192,172130,1,8,0:0:0:0:
288,160,172445,1,0,0:0:0:0:
256,192,172761,1,0,0:0:0:0:
288,192,173077,1,8,0:0:0:0:
288,192,173551,1,0,0:0:0:0:
256,192,173866,1,8,0:0:0:0:
256,192,174182,1,4,0:0:0:0:
288,192,174656,1,8,0:0:0:0:
288,192,174972,1,8,0:0:0:0:
288,192,175288,1,0,0:0:0:0:
288,192,175603,1,8,0:0:0:0:
288,192,176077,1,0,0:0:0:0:
288,192,176393,1,8,0:0:0:0:
288,192,176709,1,4,0:0:0:0:
288,192,177182,1,8,0:0:0:0:
288,192,177498,1,0,0:0:0:0:
256,192,177814,1,8,0:0:0:0:
256,192,178288,1,8,0:0:0:0:
256,192,179235,1,4,0:0:0:0:
256,192,179709,1,8,0:0:0:0:
256,192,180024,1,8,0:0:0:0:
256,192,180340,1,0,0:0:0:0:
256,192,180814,1,8,0:0:0:0:
256,192,181761,1,4,0:0:0:0:
256,192,182235,1,8,0:0:0:0:
256,192,182551,1,8,0:0:0:0:
256,192,182866,1,8,0:0:0:0:
256,192,183182,1,0,0:0:0:0:
256,192,183656,1,8,0:0:0:0:
256,192,183972,1,0,0:0:0:0:
256,192,184288,1,12,0:0:0:0:
256,192,184761,1,0,0:0:0:0:
224,160,185077,1,0,0:0:0:0:
224,160,185393,1,8,0:0:0:0:
256,192,185709,1,0,0:0:0:0:
256,192,186182,1,8,0:0:0:0:
256,192,186498,1,8,0:0:0:0:
256,192,186814,1,4,0:0:0:0:
256,192,187288,1,8,0:0:0:0:
256,192,187603,1,0,0:0:0:0:
256,192,187919,1,8,0:0:0:0:
256,192,188393,1,0,0:0:0:0:
256,192,189340,1,12,0:0:0:0:
256,192,189814,1,0,0:0:0:0:
256,192,190130,1,8,0:0:0:0:
256,192,190445,1,8,0:0:0:0:
224,192,190919,1,0,0:0:0:0:
224,192,191866,1,12,0:0:0:0:
256,192,192340,1,8,0:0:0:0:
256,192,192656,1,8,0:0:0:0:
256,192,192972,1,8,0:0:0:0:
256,192,193288,1,4,0:0:0:0:
256,192,193919,1,4,0:0:0:0:
256,192,194235,12,0,196130,0:0:0:0:
