osu file format v14

[General]
AudioFilename: audio.mp3
AudioLeadIn: 0
PreviewTime: 123551
Countdown: 0
SampleSet: Normal
StackLeniency: 0.7
Mode: 1
LetterboxInBreaks: 0
WidescreenStoryboard: 1

[Editor]
Bookmarks: 34124,39492,39808,40124,40439,40597,41229,60492,60808,61282,62387,63334,63808,64439,64913,66018,66966,68545,69176,82124,93492,106124,116229,123650,146387,147176,148124,148913,151439,153966,156492,159018,161545,166597,172124,186018,188545
DistanceSpacing: 0.5
BeatDivisor: 4
GridSize: 32
TimelineZoom: 2.539998

[Metadata]
Title:Donna Ketsumatsu ga Onozomi dai?
TitleUnicode:どんな結末がお望みだい?
Artist:TUYU
ArtistUnicode:ツユ
Creator:FabriGamer84
Version:Separation
Source:プロジェクトセカイ カラフルステージ! feat. 初音ミク
Tags:tsuyu 礼衣 Rei ぷす Pusu ミロ miro 双葉陽 Haru Futaba ドンケツ donketsu What Sort of Ending Are You Wishing For? pop jpop j-pop japanese j-rock jrock rock Project SEKAI COLORFUL STAGE! feat. Hatsune Miku ワンダーランズ×ショウタイム wandasho wxs Wonderlands x Showtime A Sorrowful Farewell at the Curtain Call proseka puroseka プロセカ prsk pjsk arcpotato Cryceptio yurishe
BeatmapID:3872910
BeatmapSetID:1881138

[Difficulty]
HPDrainRate:6
CircleSize:3
OverallDifficulty:6.5
ApproachRate:8
SliderMultiplier:1.4
SliderTickRate:1

[Events]
//Background and Video events
Video,-90,"video.avi"
0,0,"bg.png",0,0
//Break Periods
//Storyboard Layer 0 (Background)
//Storyboard Layer 1 (Fail)
//Storyboard Layer 2 (Pass)
//Storyboard Layer 3 (Foreground)
//Storyboard Layer 4 (Overlay)
//Storyboard Sound Samples

[TimingPoints]
1288,315.789473684211,4,1,0,70,1,0
1288,-133.333333333333,4,1,0,70,0,0
10967,-129.87012987013,4,1,0,70,0,0
11177,-126.582278481013,4,1,0,70,0,0
11388,-121.951219512195,4,1,0,80,0,0
15177,-125,4,1,0,80,0,0
15809,-128.205128205128,4,1,0,80,0,0
15967,-131.578947368421,4,1,0,80,0,0
16046,-133.333333333333,4,1,0,80,0,0
16125,-135.135135135135,4,1,0,80,0,0
16440,-136.986301369863,4,1,0,80,0,0
16756,-136.986301369863,4,1,0,70,0,0
17072,-138.888888888889,4,1,0,70,0,0
17388,-140.845070422535,4,1,0,70,0,0
17704,-140.845070422535,4,1,0,70,0,0
18019,-142.857142857143,4,1,0,70,0,0
18651,-119.047619047619,4,1,0,70,0,0
18809,-114.942528735632,4,1,0,70,0,0
18967,-111.111111111111,4,1,0,80,0,0
19283,-111.111111111111,4,1,0,80,0,0
21493,-92.5925925925926,4,1,0,80,0,0
21809,-108.695652173913,4,1,0,80,0,0
21967,-106.382978723404,4,1,0,80,0,0
22125,-104.166666666667,4,1,0,80,0,0
22204,-103.092783505155,4,1,0,80,0,0
22283,-102.040816326531,4,1,0,80,0,0
22440,-100,4,1,0,80,0,0
22519,-98.0392156862745,4,1,0,80,0,0
22598,-96.1538461538461,4,1,0,80,0,0
22756,-90.9090909090909,4,1,0,80,0,0
23388,-84.7457627118644,4,1,0,80,0,0
24019,-105.263157894737,4,1,0,80,0,0
28046,-106.382978723404,4,1,0,80,0,0
28125,-107.52688172043,4,1,0,80,0,0
28283,-109.89010989011,4,1,0,80,0,0
28440,-112.359550561798,4,1,0,80,0,0
28756,-117.647058823529,4,1,0,80,0,0
29072,-125,4,1,0,70,0,0
33177,-123.456790123457,4,1,0,70,0,0
33493,-121.951219512195,4,1,0,70,0,0
33809,-120.481927710843,4,1,0,70,0,0
33967,-116.279069767442,4,1,0,70,0,0
34125,-105.263157894737,4,1,0,80,0,0
34440,-113.636363636364,4,1,0,80,0,0
36019,-112.359550561798,4,1,0,80,0,0
36177,-111.111111111111,4,1,0,80,0,0
36335,-109.89010989011,4,1,0,80,0,0
36493,-108.695652173913,4,1,0,80,0,0
36651,-102.040816326531,4,1,0,80,0,0
36967,-105.263157894737,4,1,0,80,0,0
37125,-104.166666666667,4,1,0,80,0,0
37283,-103.092783505155,4,1,0,80,0,0
37361,-102.040816326531,4,1,0,80,0,0
37440,-101.010101010101,4,1,0,80,0,0
37598,-99.009900990099,4,1,0,80,0,0
37677,-98.0392156862745,4,1,0,80,0,0
37756,-97.0873786407767,4,1,0,80,0,0
37835,-96.1538461538461,4,1,0,80,0,0
37914,-86.9565217391304,4,1,0,80,0,0
39019,-75.7575757575758,4,1,0,80,0,0
39177,-100,4,1,0,80,0,0
39493,-99.009900990099,4,1,0,80,0,0
39572,-98.0392156862745,4,1,0,80,0,0
39651,-97.0873786407767,4,1,0,80,0,0
39730,-96.1538461538461,4,1,0,80,0,0
39809,-95.2380952380952,4,1,0,80,0,0
39967,-93.4579439252336,4,1,0,80,0,0
40125,-91.743119266055,4,1,0,80,0,0
40204,-90.9090909090909,4,1,0,80,0,0
40283,-90.0900900900901,4,1,0,80,0,0
40361,-89.2857142857143,4,1,0,80,0,0
40440,-88.4955752212389,4,1,0,80,0,0
40598,-86.9565217391304,4,1,0,80,0,0
40677,-86.2068965517241,4,1,0,80,0,0
40756,-85.4700854700855,4,1,0,80,0,0
40835,-84.7457627118644,4,1,0,80,0,0
40914,-84.0336134453781,4,1,0,80,0,0
40993,-83.3333333333333,4,1,0,80,0,0
41072,-82.6446280991736,4,1,0,80,0,0
41151,-81.9672131147541,4,1,0,80,0,0
41230,-81.3008130081301,4,1,0,80,0,0
41704,-78.7401574803149,4,1,0,80,0,0
42335,-125,4,1,0,80,0,0
46125,-123.456790123457,4,1,0,80,0,0
46283,-120.481927710843,4,1,0,80,0,0
46361,-119.047619047619,4,1,0,80,0,0
46440,-117.647058823529,4,1,0,80,0,0
46598,-114.942528735632,4,1,0,80,0,0
46756,-105.263157894737,4,1,0,80,0,0
47072,-125,4,1,0,80,0,0
51493,-119.047619047619,4,1,0,80,0,0
51651,-116.279069767442,4,1,0,80,0,0
51809,-89.2857142857143,4,1,0,80,0,0
52125,-97.0873786407767,4,1,0,80,0,0
54335,-84.7457627118644,4,1,0,80,0,0
54651,-97.0873786407767,4,1,0,80,0,0
56861,-84.7457627118644,4,1,0,80,0,0
57177,-95.2380952380954,4,1,0,80,0,0
57493,-94.3396226415097,4,1,0,80,0,0
57651,-92.5925925925929,4,1,0,80,0,0
57809,-90.9090909090909,4,1,0,80,0,0
57888,-88.4955752212389,4,1,0,80,0,0
57967,-86.9565217391304,4,1,0,80,0,0
58046,-84.7457627118644,4,1,0,80,0,0
58125,-81.9672131147541,4,1,0,80,0,0
58598,-82.6446280991736,4,1,0,80,0,0
58677,-83.3333333333333,4,1,0,80,0,0
58756,-84.0336134453781,4,1,0,80,0,0
58835,-84.7457627118644,4,1,0,80,0,0
58914,-85.4700854700855,4,1,0,80,0,0
58993,-86.2068965517241,4,1,0,80,0,0
59072,-86.9565217391304,4,1,0,80,0,0
59151,-87.719298245614,4,1,0,80,0,0
59235,-80,4,1,0,90,0,1
59388,-95.2380952380952,4,1,0,90,0,1
61756,-84.7457627118644,4,1,0,90,0,1
61914,-95.2380952380952,4,1,0,90,0,1
64283,-84.7457627118644,4,1,0,90,0,1
64440,-95.2380952380952,4,1,0,90,0,1
65704,-94.3396226415094,4,1,0,90,0,1
65861,-92.5925925925926,4,1,0,90,0,1
65940,-91.743119266055,4,1,0,90,0,1
66019,-90.9090909090909,4,1,0,90,0,1
66098,-90.0900900900901,4,1,0,90,0,1
66177,-89.2857142857143,4,1,0,90,0,1
66256,-88.4955752212389,4,1,0,90,0,1
66335,-87.719298245614,4,1,0,90,0,1
66493,-86.2068965517241,4,1,0,90,0,1
66572,-85.4700854700855,4,1,0,90,0,1
66651,-84.7457627118644,4,1,0,90,0,1
66809,-76.9230769230769,4,1,0,90,0,1
66967,-88.4955752212389,4,1,0,90,0,1
68230,-89.2857142857143,4,1,0,90,0,1
68309,-90.0900900900901,4,1,0,90,0,1
68388,-90.9090909090909,4,1,0,90,0,1
68546,-91.743119266055,4,1,0,90,0,1
68625,-92.5925925925926,4,1,0,90,0,1
68704,-93.4579439252336,4,1,0,90,0,1
68783,-94.3396226415094,4,1,0,90,0,1
68866,-84.7457627118644,4,1,0,90,0,0
69340,-78.125,4,1,0,90,0,1
69493,-95.2380952380952,4,1,0,90,0,1
71861,-84.7457627118644,4,1,0,90,0,1
72019,-95.2380952380952,4,1,0,90,0,1
74388,-84.7457627118644,4,1,0,90,0,1
74546,-95.2380952380952,4,1,0,90,0,1
75809,-94.3396226415094,4,1,0,90,0,1
75967,-92.5925925925926,4,1,0,90,0,1
76046,-91.743119266055,4,1,0,90,0,1
76125,-90.9090909090909,4,1,0,90,0,1
76204,-90.0900900900901,4,1,0,90,0,1
76283,-89.2857142857143,4,1,0,90,0,1
76361,-88.4955752212389,4,1,0,90,0,1
76440,-87.719298245614,4,1,0,90,0,1
76598,-86.2068965517241,4,1,0,90,0,1
76677,-85.4700854700855,4,1,0,90,0,1
76756,-84.7457627118644,4,1,0,90,0,1
76914,-76.9230769230769,4,1,0,90,0,1
77072,-88.4955752212389,4,1,0,90,0,1
78651,-89.2857142857143,4,1,0,90,0,1
78809,-90.0900900900901,4,1,0,90,0,1
78888,-90.9090909090909,4,1,0,90,0,1
78967,-91.743119266055,4,1,0,90,0,1
79046,-92.5925925925926,4,1,0,90,0,1
79125,-93.4579439252336,4,1,0,90,0,1
79756,-93.4579439252336,4,1,0,90,0,1
79914,-92.5925925925926,4,1,0,90,0,1
79993,-91.743119266055,4,1,0,90,0,1
80072,-90.9090909090909,4,1,0,90,0,1
80230,-89.2857142857143,4,1,0,90,0,1
80309,-88.4955752212389,4,1,0,90,0,1
80388,-87.719298245614,4,1,0,90,0,1
80546,-86.2068965517241,4,1,0,90,0,1
80625,-85.4700854700855,4,1,0,90,0,1
80704,-84.7457627118644,4,1,0,90,0,1
80783,-84.0336134453781,4,1,0,90,0,1
80866,-78.125,4,1,0,80,0,0
82120,-117.647058823529,4,1,0,60,0,0
89546,-86.9565217391304,4,1,0,80,0,0
89704,-111.111111111111,4,1,0,80,0,0
90019,-109.89010989011,4,1,0,80,0,0
90098,-108.695652173913,4,1,0,80,0,0
90177,-107.52688172043,4,1,0,80,0,0
90256,-106.382978723404,4,1,0,80,0,0
90335,-105.263157894737,4,1,0,80,0,0
90493,-103.092783505155,4,1,0,80,0,0
90651,-102.040816326531,4,1,0,80,0,0
90730,-101.010101010101,4,1,0,80,0,0
90809,-100,4,1,0,80,0,0
90967,-98.0392156862745,4,1,0,80,0,0
91125,-96.1538461538461,4,1,0,80,0,0
91204,-94.3396226415094,4,1,0,80,0,0
91283,-93.4579439252336,4,1,0,80,0,0
91361,-91.743119266055,4,1,0,80,0,0
91440,-90.9090909090909,4,1,0,80,0,0
91519,-89.2857142857143,4,1,0,60,0,0
91598,-88.4955752212389,4,1,0,80,0,0
91756,-86.9565217391304,4,1,0,80,0,0
92230,-111.111111111111,4,1,0,60,0,0
93493,-125,4,1,0,80,0,0
97598,-123.456790123457,4,1,0,80,0,0
97914,-121.951219512195,4,1,0,80,0,0
98230,-120.481927710843,4,1,0,80,0,0
98388,-117.647058823529,4,1,0,80,0,0
98546,-105.263157894737,4,1,0,80,0,0
98861,-113.636363636364,4,1,0,80,0,0
100440,-112.359550561798,4,1,0,80,0,0
100598,-111.111111111111,4,1,0,80,0,0
100756,-109.89010989011,4,1,0,80,0,0
100914,-108.695652173913,4,1,0,80,0,0
101072,-102.040816326531,4,1,0,80,0,0
101388,-105.263157894737,4,1,0,80,0,0
101546,-104.166666666667,4,1,0,80,0,0
101704,-103.092783505155,4,1,0,80,0,0
101783,-102.040816326531,4,1,0,80,0,0
101861,-101.010101010101,4,1,0,80,0,0
102019,-99.009900990099,4,1,0,80,0,0
102098,-98.0392156862745,4,1,0,80,0,0
102177,-97.0873786407767,4,1,0,80,0,0
102256,-96.1538461538461,4,1,0,80,0,0
102335,-86.9565217391304,4,1,0,80,0,0
103440,-75.7575757575758,4,1,0,80,0,0
103598,-100,4,1,0,80,0,0
103914,-99.009900990099,4,1,0,80,0,0
103993,-98.0392156862745,4,1,0,80,0,0
104072,-97.0873786407767,4,1,0,80,0,0
104151,-96.1538461538461,4,1,0,80,0,0
104230,-95.2380952380952,4,1,0,80,0,0
104388,-93.4579439252336,4,1,0,80,0,0
104546,-91.743119266055,4,1,0,80,0,0
104625,-90.9090909090909,4,1,0,80,0,0
104704,-90.0900900900901,4,1,0,80,0,0
104783,-89.2857142857143,4,1,0,80,0,0
104861,-88.4955752212389,4,1,0,80,0,0
105019,-86.9565217391304,4,1,0,80,0,0
105098,-86.2068965517241,4,1,0,80,0,0
105177,-85.4700854700855,4,1,0,80,0,0
105256,-84.7457627118644,4,1,0,80,0,0
105335,-84.0336134453781,4,1,0,80,0,0
105414,-83.3333333333333,4,1,0,80,0,0
105493,-82.6446280991736,4,1,0,80,0,0
105572,-81.9672131147541,4,1,0,80,0,0
105651,-81.3008130081301,4,1,0,80,0,0
106125,-78.7401574803149,4,1,0,80,0,0
106756,-125,4,1,0,80,0,0
110546,-123.456790123457,4,1,0,80,0,0
110704,-120.481927710843,4,1,0,80,0,0
110783,-119.047619047619,4,1,0,80,0,0
110861,-117.647058823529,4,1,0,80,0,0
111019,-114.942528735632,4,1,0,80,0,0
111177,-105.263157894737,4,1,0,80,0,0
111493,-125,4,1,0,80,0,0
115914,-119.047619047619,4,1,0,80,0,0
116072,-116.279069767442,4,1,0,80,0,0
116230,-89.2857142857143,4,1,0,80,0,0
116546,-97.0873786407767,4,1,0,80,0,0
118756,-84.7457627118644,4,1,0,80,0,0
119072,-97.0873786407767,4,1,0,80,0,0
121283,-84.7457627118644,4,1,0,80,0,0
121598,-95.2380952380954,4,1,0,80,0,0
121914,-94.3396226415097,4,1,0,80,0,0
122072,-92.5925925925929,4,1,0,80,0,0
122230,-90.9090909090909,4,1,0,80,0,0
122309,-88.4955752212389,4,1,0,80,0,0
122388,-86.9565217391304,4,1,0,80,0,0
122467,-84.7457627118644,4,1,0,80,0,0
122546,-81.9672131147541,4,1,0,80,0,0
123019,-82.6446280991736,4,1,0,80,0,0
123098,-83.3333333333333,4,1,0,80,0,0
123177,-84.0336134453781,4,1,0,80,0,0
123256,-84.7457627118644,4,1,0,80,0,0
123335,-85.4700854700855,4,1,0,80,0,0
123414,-86.2068965517241,4,1,0,80,0,0
123493,-86.9565217391304,4,1,0,80,0,0
123572,-87.719298245614,4,1,0,80,0,0
123656,-78.125,4,1,0,90,0,1
123809,-95.2380952380952,4,1,0,90,0,1
126177,-84.7457627118644,4,1,0,90,0,1
126335,-95.2380952380952,4,1,0,90,0,1
128704,-84.7457627118644,4,1,0,90,0,1
128861,-95.2380952380952,4,1,0,90,0,1
130125,-94.3396226415094,4,1,0,90,0,1
130283,-92.5925925925926,4,1,0,90,0,1
130361,-91.743119266055,4,1,0,90,0,1
130440,-90.9090909090909,4,1,0,90,0,1
130519,-90.0900900900901,4,1,0,90,0,1
130598,-89.2857142857143,4,1,0,90,0,1
130677,-88.4955752212389,4,1,0,90,0,1
130756,-87.719298245614,4,1,0,90,0,1
130914,-86.2068965517241,4,1,0,90,0,1
130993,-85.4700854700855,4,1,0,90,0,1
131072,-84.7457627118644,4,1,0,90,0,1
131230,-76.9230769230769,4,1,0,90,0,1
131388,-88.4955752212389,4,1,0,90,0,1
132651,-89.2857142857143,4,1,0,90,0,1
132730,-90.0900900900901,4,1,0,90,0,1
132809,-90.9090909090909,4,1,0,90,0,1
132967,-91.743119266055,4,1,0,90,0,1
133046,-92.5925925925926,4,1,0,90,0,1
133125,-93.4579439252336,4,1,0,90,0,1
133204,-94.3396226415094,4,1,0,90,0,1
133288,-84.7457627118644,4,1,0,90,0,0
133761,-78.125,4,1,0,90,0,1
133914,-95.2380952380952,4,1,0,90,0,1
136283,-84.7457627118644,4,1,0,90,0,1
136440,-95.2380952380952,4,1,0,90,0,1
138809,-84.7457627118644,4,1,0,90,0,1
138967,-95.2380952380952,4,1,0,90,0,1
140230,-94.3396226415094,4,1,0,90,0,1
140388,-92.5925925925926,4,1,0,90,0,1
140467,-91.743119266055,4,1,0,90,0,1
140546,-90.9090909090909,4,1,0,90,0,1
140625,-90.0900900900901,4,1,0,90,0,1
140704,-89.2857142857143,4,1,0,90,0,1
140783,-88.4955752212389,4,1,0,90,0,1
140861,-87.719298245614,4,1,0,90,0,1
141019,-86.2068965517241,4,1,0,90,0,1
141098,-85.4700854700855,4,1,0,90,0,1
141177,-84.7457627118644,4,1,0,90,0,1
141335,-76.9230769230769,4,1,0,90,0,1
141493,-88.4955752212389,4,1,0,90,0,1
143072,-89.2857142857143,4,1,0,90,0,1
143230,-90.0900900900901,4,1,0,90,0,1
143309,-90.9090909090909,4,1,0,90,0,1
143388,-91.743119266055,4,1,0,90,0,1
143467,-92.5925925925926,4,1,0,90,0,1
143546,-93.4579439252336,4,1,0,90,0,1
144177,-93.4579439252336,4,1,0,90,0,1
144335,-92.5925925925926,4,1,0,90,0,1
144414,-91.743119266055,4,1,0,90,0,1
144493,-90.9090909090909,4,1,0,90,0,1
144651,-89.2857142857143,4,1,0,90,0,1
144730,-88.4955752212389,4,1,0,90,0,1
144809,-87.719298245614,4,1,0,90,0,1
144967,-86.2068965517241,4,1,0,90,0,1
145046,-85.4700854700855,4,1,0,90,0,1
145125,-84.7457627118644,4,1,0,90,0,1
145204,-84.0336134453781,4,1,0,90,0,1
145288,-78.125,4,1,0,80,0,0
146388,-74.0740740740741,4,1,0,90,0,0
146546,-95.2380952380952,4,1,0,80,0,0
154440,-94.3396226415094,4,1,0,80,0,0
154598,-93.4579439252336,4,1,0,80,0,0
154677,-92.5925925925926,4,1,0,80,0,0
154756,-91.743119266055,4,1,0,80,0,0
154914,-90.9090909090909,4,1,0,80,0,0
154993,-90.0900900900901,4,1,0,80,0,0
155072,-89.2857142857143,4,1,0,80,0,0
155230,-88.4955752212389,4,1,0,80,0,0
155388,-87.719298245614,4,1,0,80,0,0
155467,-86.9565217391304,4,1,0,80,0,0
155546,-86.2068965517241,4,1,0,80,0,0
155625,-85.4700854700855,4,1,0,80,0,0
155704,-84.7457627118644,4,1,0,80,0,0
155783,-84.0336134453781,4,1,0,80,0,0
155861,-83.3333333333333,4,1,0,80,0,0
155940,-82.6446280991736,4,1,0,80,0,0
156019,-79.3650793650794,4,1,0,80,0,0
156493,-75.7575757575758,4,1,0,80,0,0
156651,-95.2380952380952,4,1,0,80,0,0
164388,-94.3396226415094,4,1,0,80,0,0
164467,-93.4579439252336,4,1,0,80,0,0
164546,-92.5925925925926,4,1,0,80,0,0
164704,-91.743119266055,4,1,0,80,0,0
164783,-90.9090909090909,4,1,0,80,0,0
164861,-90.0900900900901,4,1,0,80,0,0
165019,-89.2857142857143,4,1,0,80,0,0
165098,-88.4955752212389,4,1,0,80,0,0
165177,-87.719298245614,4,1,0,80,0,0
165256,-86.9565217391304,4,1,0,80,0,0
165335,-86.2068965517241,4,1,0,80,0,0
165414,-85.4700854700855,4,1,0,80,0,0
165493,-81.3008130081301,4,1,0,80,0,0
166598,-72.463768115942,4,1,0,80,0,0
166751,-95.2380952380952,4,1,0,80,0,0
167067,-96.1538461538461,4,1,0,80,0,0
167146,-97.0873786407767,4,1,0,80,0,0
167225,-98.0392156862745,4,1,0,80,0,0
167383,-100,4,1,0,80,0,0
167541,-102.040816326531,4,1,0,80,0,0
167620,-103.092783505155,4,1,0,80,0,0
167699,-104.166666666667,4,1,0,80,0,0
167861,-86.9565217391304,4,1,0,80,0,0
168019,-94.3396226415094,4,1,0,80,0,0
168177,-95.2380952380952,4,1,0,80,0,0
168335,-97.0873786407767,4,1,0,80,0,0
168414,-98.0392156862745,4,1,0,80,0,0
168493,-99.009900990099,4,1,0,80,0,0
168572,-100,4,1,0,80,0,0
168651,-101.010101010101,4,1,0,80,0,0
168809,-103.092783505155,4,1,0,80,0,0
168888,-104.166666666667,4,1,0,80,0,0
168967,-105.263157894737,4,1,0,80,0,0
169125,-86.9565217391304,4,1,0,80,0,0
169283,-94.3396226415094,4,1,0,80,0,0
169440,-95.2380952380952,4,1,0,80,0,0
169519,-96.1538461538461,4,1,0,80,0,0
169598,-97.0873786407767,4,1,0,80,0,0
169677,-98.0392156862745,4,1,0,80,0,0
169756,-99.009900990099,4,1,0,80,0,0
169914,-100,4,1,0,80,0,0
170072,-101.010101010101,4,1,0,80,0,0
170151,-102.040816326531,4,1,0,80,0,0
170230,-103.092783505155,4,1,0,80,0,0
170388,-84.7457627118644,4,1,0,80,0,0
170546,-100,4,1,0,80,0,0
170704,-100,4,1,0,80,0,0
170783,-98.0392156862745,4,1,0,80,0,0
170861,-97.0873786407767,4,1,0,80,0,0
170940,-95.2380952380952,4,1,0,80,0,0
171019,-94.3396226415094,4,1,0,80,0,0
171098,-92.5925925925926,4,1,0,80,0,0
171177,-91.743119266055,4,1,0,80,0,0
171230,-90.9090909090909,4,1,0,80,0,0
171283,-90.0900900900901,4,1,0,80,0,0
171335,-89.2857142857143,4,1,0,80,0,0
171656,-78.125,4,1,0,90,0,1
171809,-89.2857142857143,4,1,0,90,0,1
174177,-78.125,4,1,0,90,0,1
174335,-89.2857142857143,4,1,0,90,0,1
176704,-78.125,4,1,0,90,0,1
176861,-89.2857142857143,4,1,0,90,0,1
178125,-88.4955752212389,4,1,0,90,0,1
178283,-86.9565217391304,4,1,0,90,0,1
178361,-86.2068965517241,4,1,0,90,0,1
178440,-85.4700854700855,4,1,0,90,0,1
178519,-84.7457627118644,4,1,0,90,0,1
178598,-84.0336134453781,4,1,0,90,0,1
178677,-83.3333333333333,4,1,0,90,0,1
178756,-82.6446280991736,4,1,0,90,0,1
178914,-81.3008130081301,4,1,0,90,0,1
178993,-80.6451612903226,4,1,0,90,0,1
179072,-80,4,1,0,90,0,1
179230,-70.4225352112676,4,1,0,90,0,1
179388,-83.3333333333333,4,1,0,90,0,1
180493,-84.0336134453781,4,1,0,90,0,1
180651,-84.7457627118644,4,1,0,90,0,1
180730,-85.4700854700855,4,1,0,90,0,1
180809,-86.2068965517241,4,1,0,90,0,1
180888,-86.9565217391304,4,1,0,90,0,1
180967,-87.719298245614,4,1,0,90,0,1
181046,-88.4955752212389,4,1,0,90,0,1
181125,-89.2857142857143,4,1,0,90,0,1
181204,-90.0900900900901,4,1,0,90,0,1
181288,-80,4,1,0,90,0,0
181761,-75.7575757575758,4,1,0,90,0,1
181914,-89.2857142857143,4,1,0,90,0,1
184283,-78.125,4,1,0,90,0,1
184440,-89.2857142857143,4,1,0,90,0,1
186809,-78.125,4,1,0,90,0,1
186967,-89.2857142857143,4,1,0,90,0,1
188230,-88.4955752212389,4,1,0,90,0,1
188388,-86.9565217391304,4,1,0,90,0,1
188467,-86.2068965517241,4,1,0,90,0,1
188546,-85.4700854700855,4,1,0,90,0,1
188625,-84.7457627118644,4,1,0,90,0,1
188704,-84.0336134453781,4,1,0,90,0,1
188783,-83.3333333333333,4,1,0,90,0,1
188861,-82.6446280991736,4,1,0,90,0,1
188940,-81.9672131147541,4,1,0,90,0,1
189019,-81.3008130081301,4,1,0,90,0,1
189098,-80.6451612903226,4,1,0,90,0,1
189177,-80,4,1,0,90,0,1
189335,-70.4225352112676,4,1,0,90,0,1
189493,-83.3333333333333,4,1,0,90,0,1
191072,-83.3333333333333,4,1,0,90,0,1
191151,-84.0336134453781,4,1,0,90,0,1
191230,-84.7457627118644,4,1,0,90,0,1
191309,-85.4700854700855,4,1,0,90,0,1
191388,-86.2068965517241,4,1,0,90,0,1
191467,-86.9565217391304,4,1,0,90,0,1
191546,-87.719298245614,4,1,0,90,0,1
191625,-88.4955752212389,4,1,0,90,0,1
192335,-88.4955752212389,4,1,0,90,0,1
192414,-87.719298245614,4,1,0,90,0,1
192493,-86.9565217391304,4,1,0,90,0,1
192651,-85.4700854700855,4,1,0,90,0,1
192730,-84.7457627118644,4,1,0,90,0,1
192809,-84.0336134453781,4,1,0,90,0,1
192967,-82.6446280991736,4,1,0,90,0,1
193046,-81.9672131147541,4,1,0,90,0,1
193125,-81.3008130081301,4,1,0,90,0,1
193204,-80.6451612903226,4,1,0,90,0,1
193288,-76.9230769230769,4,1,0,80,0,0
194230,-78.125,4,1,0,60,0,0
194445,-80,4,1,0,55,0,0
194656,-81.9672131147541,4,1,0,50,0,0
194866,-84.0336134453781,4,1,0,45,0,0
195077,-86.2068965517241,4,1,0,40,0,0
195288,-88.4955752212389,4,1,0,35,0,0
195498,-90.9090909090909,4,1,0,30,0,0
195709,-93.4579439252336,4,1,0,25,0,0
195919,-96.1538461538461,4,1,0,20,0,0

[HitObjects]
256,192,1288,5,8,0:0:0:0:
256,192,3709,1,0,0:0:0:0:
256,192,3761,1,0,0:0:0:0:
256,192,3814,1,8,0:0:0:0:
256,192,4919,1,8,0:0:0:0:
256,192,4972,1,8,0:0:0:0:
256,192,5024,1,8,0:0:0:0:
256,192,5077,1,0,0:0:0:0:
256,192,5919,1,8,0:0:0:0:
256,192,6130,1,8,0:0:0:0:
256,192,6340,1,0,0:0:0:0:
256,192,7182,1,8,0:0:0:0:
256,192,7393,1,0,0:0:0:0:
256,192,7603,1,0,0:0:0:0:
256,192,8709,1,8,0:0:0:0:
256,192,8787,1,0,0:0:0:0:
256,192,8866,1,0,0:0:0:0:
256,192,10972,1,8,0:0:0:0:
256,192,11182,1,8,0:0:0:0:
256,192,11393,1,0,0:0:0:0:
256,192,12024,1,8,0:0:0:0:
288,192,12182,1,8,0:0:0:0:
256,192,12340,1,0,0:0:0:0:
256,192,12656,1,8,0:0:0:0:
256,192,12814,1,8,0:0:0:0:
256,192,12972,1,8,0:0:0:0:
256,192,13130,1,0,0:0:0:0:
256,192,13288,1,8,0:0:0:0:
256,192,13445,1,0,0:0:0:0:
256,192,13603,1,8,0:0:0:0:
256,192,13761,1,8,0:0:0:0:
256,192,13919,1,0,0:0:0:0:
256,192,14235,1,0,0:0:0:0:
256,192,14866,1,8,0:0:0:0:
256,192,15498,1,0,0:0:0:0:
256,192,15814,1,8,0:0:0:0:
256,192,15972,1,0,0:0:0:0:
256,192,16051,1,0,0:0:0:0:
256,192,16130,1,8,0:0:0:0:
256,192,16761,1,0,0:0:0:0:
256,192,17077,1,0,0:0:0:0:
256,192,17393,1,8,0:0:0:0:
256,192,17709,1,0,0:0:0:0:
256,192,18024,1,8,0:0:0:0:
256,192,18340,1,8,0:0:0:0:
256,192,18656,1,0,0:0:0:0:
256,192,18814,1,8,0:0:0:0:
256,192,18972,1,4,0:0:0:0:
256,192,19288,1,8,0:0:0:0:
256,192,19603,1,0,0:0:0:0:
256,192,19761,1,0,0:0:0:0:
256,192,19919,1,8,0:0:0:0:
256,192,20077,1,8,0:0:0:0:
256,192,20235,1,0,0:0:0:0:
256,192,20551,1,8,0:0:0:0:
256,192,20709,1,8,0:0:0:0:
256,192,20866,1,0,0:0:0:0:
256,192,21182,1,8,0:0:0:0:
256,192,21498,1,12,0:0:0:0:
256,192,21814,1,8,0:0:0:0:
256,192,21972,1,0,0:0:0:0:
256,192,22130,1,8,0:0:0:0:
256,192,22209,1,8,0:0:0:0:
256,192,22288,1,0,0:0:0:0:
256,192,22445,1,8,0:0:0:0:
256,192,22524,1,8,0:0:0:0:
256,192,22603,1,8,0:0:0:0:
256,192,22761,1,4,0:0:0:0:
256,192,23393,1,0,0:0:0:0:
256,192,24024,1,8,0:0:0:0:
256,192,24182,1,0,0:0:0:0:
256,192,24340,1,8,0:0:0:0:
256,192,24498,1,8,0:0:0:0:
256,192,24656,1,0,0:0:0:0:
256,192,24814,1,8,0:0:0:0:
256,192,25130,1,8,0:0:0:0:
256,192,25445,1,0,0:0:0:0:
256,192,25524,1,0,0:0:0:0:
256,192,25603,1,8,0:0:0:0:
256,192,25761,1,0,0:0:0:0:
256,192,25919,1,8,0:0:0:0:
256,192,26235,1,0,0:0:0:0:
256,192,26551,1,8,0:0:0:0:
256,192,26709,1,0,0:0:0:0:
256,192,26866,1,8,0:0:0:0:
256,192,27024,1,8,0:0:0:0:
256,192,27182,1,0,0:0:0:0:
256,192,27340,1,0,0:0:0:0:
256,192,27656,1,8,0:0:0:0:
256,192,27972,1,8,0:0:0:0:
256,192,28051,1,8,0:0:0:0:
256,192,28130,1,0,0:0:0:0:
256,192,28288,1,8,0:0:0:0:
256,192,28445,1,0,0:0:0:0:
256,192,28761,1,8,0:0:0:0:
256,192,29077,1,0,0:0:0:0:
256,192,29709,1,8,0:0:0:0:
256,192,30340,1,0,0:0:0:0:
256,192,30972,1,8,0:0:0:0:
256,192,31445,1,0,0:0:0:0:
256,192,31524,1,0,0:0:0:0:
256,192,31603,1,8,0:0:0:0:
256,192,32235,1,8,0:0:0:0:
256,192,32866,1,0,0:0:0:0:
256,192,33182,1,8,0:0:0:0:
256,192,33498,1,0,0:0:0:0:
256,192,33814,1,8,0:0:0:0:
256,192,33972,1,8,0:0:0:0:
256,192,34130,1,4,0:0:0:0:
256,192,34445,1,0,0:0:0:0:
256,192,34603,1,8,0:0:0:0:
256,192,34761,1,0,0:0:0:0:
256,192,35077,1,8,0:0:0:0:
256,224,35235,1,8,0:0:0:0:
256,192,35393,1,0,0:0:0:0:
256,192,35708,1,8,0:0:0:0:
256,192,36024,1,0,0:0:0:0:
256,192,36182,1,0,0:0:0:0:
256,192,36340,1,8,0:0:0:0:
256,192,36498,1,8,0:0:0:0:
256,192,36656,1,4,0:0:0:0:
256,192,36972,1,8,0:0:0:0:
256,192,37130,1,0,0:0:0:0:
256,192,37288,1,8,0:0:0:0:
256,192,37366,1,8,0:0:0:0:
256,192,37445,1,0,0:0:0:0:
256,192,37603,1,8,0:0:0:0:
256,192,37682,1,8,0:0:0:0:
256,192,37761,1,8,0:0:0:0:
256,192,37840,1,8,0:0:0:0:
256,192,37919,1,4,0:0:0:0:
256,192,38235,1,4,0:0:0:0:
288,192,39024,1,12,0:0:0:0:
256,192,39340,1,0,0:0:0:0:
256,192,39498,1,8,0:0:0:0:
256,192,39577,1,0,0:0:0:0:
256,192,39656,1,8,0:0:0:0:
256,192,39735,1,8,0:0:0:0:
256,192,39814,1,0,0:0:0:0:
256,192,39972,1,0,0:0:0:0:
256,192,40130,1,8,0:0:0:0:
256,192,40209,1,8,0:0:0:0:
256,192,40288,1,0,0:0:0:0:
256,192,40366,1,0,0:0:0:0:
256,192,40445,1,8,0:0:0:0:
224,192,40603,1,0,0:0:0:0:
256,192,40682,1,8,0:0:0:0:
224,192,40761,1,8,0:0:0:0:
256,192,40840,1,8,0:0:0:0:
224,192,40919,1,0,0:0:0:0:
224,192,40998,1,0,0:0:0:0:
224,192,41077,1,8,0:0:0:0:
256,192,41156,1,8,0:0:0:0:
224,192,41235,1,0,0:0:0:0:
256,192,41709,1,4,0:0:0:0:
256,192,42340,1,8,0:0:0:0:
256,192,42498,1,8,0:0:0:0:
256,192,42577,1,8,0:0:0:0:
256,192,42656,1,0,0:0:0:0:
256,192,42814,1,8,0:0:0:0:
256,192,43130,1,8,0:0:0:0:
256,192,43288,1,0,0:0:0:0:
256,192,43603,1,8,0:0:0:0:
256,192,43761,1,0,0:0:0:0:
256,192,43919,1,8,0:0:0:0:
256,192,44077,1,8,0:0:0:0:
256,192,44156,1,8,0:0:0:0:
256,192,44235,1,0,0:0:0:0:
256,192,44551,1,0,0:0:0:0:
256,192,44865,1,8,0:0:0:0:
256,192,45024,1,0,0:0:0:0:
256,192,45181,1,0,0:0:0:0:
256,192,45260,1,0,0:0:0:0:
256,192,45339,1,8,0:0:0:0:
256,192,45497,1,0,0:0:0:0:
256,192,45655,1,8,0:0:0:0:
256,192,45813,1,0,0:0:0:0:
256,192,46130,1,8,0:0:0:0:
256,192,46288,1,0,0:0:0:0:
256,192,46366,1,0,0:0:0:0:
256,192,46445,1,8,0:0:0:0:
288,192,46603,1,8,0:0:0:0:
256,192,46761,1,4,0:0:0:0:
288,160,47077,1,0,0:0:0:0:
288,160,47393,1,8,0:0:0:0:
288,160,47551,1,8,0:0:0:0:
288,160,47630,1,8,0:0:0:0:
288,160,47709,1,0,0:0:0:0:
288,160,47866,1,8,0:0:0:0:
288,160,48182,1,8,0:0:0:0:
288,160,48340,1,0,0:0:0:0:
288,160,48498,1,0,0:0:0:0:
288,160,48577,1,0,0:0:0:0:
288,160,48656,1,8,0:0:0:0:
288,160,48814,1,0,0:0:0:0:
288,160,48972,1,8,0:0:0:0:
256,192,49129,1,8,0:0:0:0:
256,192,49208,1,8,0:0:0:0:
256,192,49288,1,0,0:0:0:0:
288,160,49603,1,0,0:0:0:0:
288,192,49919,1,8,0:0:0:0:
288,192,50235,1,0,0:0:0:0:
288,192,50393,1,8,0:0:0:0:
288,192,50551,1,0,0:0:0:0:
288,160,50630,1,0,0:0:0:0:
288,192,50709,1,8,0:0:0:0:
288,192,50866,1,0,0:0:0:0:
288,160,51024,1,0,0:0:0:0:
288,192,51182,1,8,0:0:0:0:
288,192,51498,1,8,0:0:0:0:
288,192,51656,1,8,0:0:0:0:
256,192,51814,1,4,0:0:0:0:
288,192,52130,1,8,0:0:0:0:
288,192,52445,1,0,0:0:0:0:
288,192,52603,1,0,0:0:0:0:
288,192,52682,1,0,0:0:0:0:
288,192,52761,1,8,0:0:0:0:
288,192,52919,1,0,0:0:0:0:
288,192,53077,1,8,0:0:0:0:
288,192,53156,1,0,0:0:0:0:
288,192,53235,1,8,0:0:0:0:
288,192,53314,1,8,0:0:0:0:
288,192,53393,1,0,0:0:0:0:
288,192,53551,1,8,0:0:0:0:
288,192,53709,1,0,0:0:0:0:
288,192,53788,1,0,0:0:0:0:
288,192,53866,1,8,0:0:0:0:
288,192,53945,1,0,0:0:0:0:
288,192,54024,1,8,0:0:0:0:
288,192,54182,1,8,0:0:0:0:
288,192,54340,1,4,0:0:0:0:
288,192,54656,1,0,0:0:0:0:
288,192,54814,1,8,0:0:0:0:
288,192,54972,1,0,0:0:0:0:
288,192,55051,1,8,0:0:0:0:
288,192,55130,1,0,0:0:0:0:
288,192,55209,1,0,0:0:0:0:
288,192,55288,1,8,0:0:0:0:
288,192,55445,1,0,0:0:0:0:
288,192,55524,1,0,0:0:0:0:
288,192,55603,1,8,0:0:0:0:
288,192,55761,1,0,0:0:0:0:
288,192,55919,1,8,0:0:0:0:
288,192,55998,1,8,0:0:0:0:
288,192,56077,1,8,0:0:0:0:
288,192,56156,1,8,0:0:0:0:
288,192,56235,1,0,0:0:0:0:
288,192,56393,1,0,0:0:0:0:
288,192,56551,1,8,0:0:0:0:
288,192,56866,1,4,0:0:0:0:
288,192,57182,1,8,0:0:0:0:
288,192,57498,1,0,0:0:0:0:
288,192,57656,1,0,0:0:0:0:
288,192,57814,1,8,0:0:0:0:
288,192,57893,1,8,0:0:0:0:
288,192,57972,1,8,0:0:0:0:
288,192,58051,1,8,0:0:0:0:
288,192,58130,1,4,0:0:0:0:
288,192,58445,1,4,0:0:0:0:
256,192,58603,5,8,0:0:0:0:
256,192,58682,5,8,0:0:0:0:
256,192,58761,1,0,0:0:0:0:
256,192,58840,1,0,0:0:0:0:
256,192,58919,1,8,0:0:0:0:
256,192,58998,1,8,0:0:0:0:
256,192,59077,1,8,0:0:0:0:
256,192,59156,1,8,0:0:0:0:
256,192,59235,5,4,0:0:0:0:
256,192,59551,1,0,0:0:0:0:
256,192,59709,1,8,0:0:0:0:
256,192,59788,1,0,0:0:0:0:
256,192,59866,1,8,0:0:0:0:
256,192,59945,1,8,0:0:0:0:
256,192,60024,1,0,0:0:0:0:
256,192,60182,1,0,0:0:0:0:
256,192,60340,1,8,0:0:0:0:
256,192,60419,1,8,0:0:0:0:
256,192,60498,1,8,0:0:0:0:
256,192,60656,1,0,0:0:0:0:
256,192,60735,1,0,0:0:0:0:
256,192,60814,1,8,0:0:0:0:
224,192,60893,1,0,0:0:0:0:
256,192,60972,1,8,0:0:0:0:
256,192,61130,1,0,0:0:0:0:
256,192,61288,1,8,0:0:0:0:
256,192,61445,1,0,0:0:0:0:
256,192,61524,1,0,0:0:0:0:
256,192,61603,1,8,0:0:0:0:
256,192,61761,1,4,0:0:0:0:
256,192,62077,1,0,0:0:0:0:
256,192,62235,1,8,0:0:0:0:
256,192,62314,1,8,0:0:0:0:
256,192,62393,1,0,0:0:0:0:
256,192,62551,1,8,0:0:0:0:
256,192,62709,1,0,0:0:0:0:
256,192,62866,1,8,0:0:0:0:
256,192,62945,1,0,0:0:0:0:
256,192,63024,1,8,0:0:0:0:
256,192,63103,1,8,0:0:0:0:
256,192,63182,1,0,0:0:0:0:
256,192,63340,1,0,0:0:0:0:
256,192,63498,1,8,0:0:0:0:
256,192,63577,1,8,0:0:0:0:
256,192,63656,1,0,0:0:0:0:
256,192,63735,1,0,0:0:0:0:
256,192,63814,1,0,0:0:0:0:
256,192,63893,1,0,0:0:0:0:
256,192,63972,1,8,0:0:0:0:
256,192,64130,1,8,0:0:0:0:
256,192,64288,1,4,0:0:0:0:
288,192,64603,1,0,0:0:0:0:
288,192,64761,1,8,0:0:0:0:
288,192,64840,1,8,0:0:0:0:
288,192,64919,1,0,0:0:0:0:
256,192,65077,1,8,0:0:0:0:
256,192,65235,1,0,0:0:0:0:
288,192,65314,1,0,0:0:0:0:
256,192,65393,1,8,0:0:0:0:
256,160,65472,1,0,0:0:0:0:
256,192,65551,1,8,0:0:0:0:
256,192,65709,1,0,0:0:0:0:
256,192,65866,1,8,0:0:0:0:
256,192,65945,1,0,0:0:0:0:
256,192,66024,1,8,0:0:0:0:
256,192,66103,1,8,0:0:0:0:
256,192,66182,1,0,0:0:0:0:
256,192,66261,1,0,0:0:0:0:
256,192,66340,1,8,0:0:0:0:
256,192,66498,1,0,0:0:0:0:
256,192,66577,1,0,0:0:0:0:
256,192,66656,1,8,0:0:0:0:
256,192,66814,1,12,0:0:0:0:
256,192,67130,1,0,0:0:0:0:
256,192,67288,1,8,0:0:0:0:
288,192,67366,1,8,0:0:0:0:
256,192,67445,1,0,0:0:0:0:
256,192,67603,1,8,0:0:0:0:
256,192,67682,1,0,0:0:0:0:
256,192,67761,1,8,0:0:0:0:
256,192,67840,1,8,0:0:0:0:
256,192,67919,1,0,0:0:0:0:
256,192,68077,1,0,0:0:0:0:
256,192,68235,1,8,0:0:0:0:
256,192,68314,1,8,0:0:0:0:
256,192,68393,1,0,0:0:0:0:
256,192,68551,1,8,0:0:0:0:
256,192,68630,1,0,0:0:0:0:
288,192,68709,1,0,0:0:0:0:
256,192,68788,1,0,0:0:0:0:
256,192,68866,1,12,0:0:0:0:
256,192,69024,5,12,0:0:0:0:
288,192,69340,1,4,0:0:0:0:
288,192,69656,1,0,0:0:0:0:
288,192,69814,1,8,0:0:0:0:
288,192,69893,1,8,0:0:0:0:
288,192,69972,1,0,0:0:0:0:
288,192,70051,1,0,0:0:0:0:
288,192,70130,1,8,0:0:0:0:
288,192,70288,1,0,0:0:0:0:
288,192,70445,1,8,0:0:0:0:
288,192,70524,1,0,0:0:0:0:
288,192,70603,1,8,0:0:0:0:
288,192,70761,1,0,0:0:0:0:
288,192,70840,1,8,0:0:0:0:
288,192,70919,1,0,0:0:0:0:
288,192,70998,1,0,0:0:0:0:
288,192,71077,1,8,0:0:0:0:
288,192,71235,1,0,0:0:0:0:
288,192,71393,1,8,0:0:0:0:
288,192,71551,1,0,0:0:0:0:
288,192,71630,1,0,0:0:0:0:
288,192,71709,1,8,0:0:0:0:
288,192,71867,1,4,0:0:0:0:
288,192,72182,1,0,0:0:0:0:
288,192,72340,1,8,0:0:0:0:
288,192,72419,1,8,0:0:0:0:
288,192,72498,1,0,0:0:0:0:
288,192,72577,1,0,0:0:0:0:
288,192,72656,1,8,0:0:0:0:
288,192,72814,1,0,0:0:0:0:
288,192,72972,1,8,0:0:0:0:
288,192,73051,1,0,0:0:0:0:
288,192,73130,1,0,0:0:0:0:
288,192,73288,1,8,0:0:0:0:
288,192,73367,1,8,0:0:0:0:
288,192,73445,1,8,0:0:0:0:
288,192,73524,1,0,0:0:0:0:
288,192,73603,1,8,0:0:0:0:
288,192,73761,1,0,0:0:0:0:
288,192,73919,1,8,0:0:0:0:
288,192,74077,1,0,0:0:0:0:
288,192,74156,1,0,0:0:0:0:
288,192,74235,1,8,0:0:0:0:
288,192,74393,1,4,0:0:0:0:
288,192,74709,1,0,0:0:0:0:
288,192,74867,1,8,0:0:0:0:
288,192,74945,1,8,0:0:0:0:
288,192,75024,1,8,0:0:0:0:
288,192,75103,1,8,0:0:0:0:
288,192,75182,1,0,0:0:0:0:
288,192,75340,1,0,0:0:0:0:
256,192,75419,1,0,0:0:0:0:
288,192,75498,1,8,0:0:0:0:
288,192,75656,1,0,0:0:0:0:
288,192,75814,1,8,0:0:0:0:
288,192,75972,1,0,0:0:0:0:
288,192,76051,1,0,0:0:0:0:
288,192,76130,1,8,0:0:0:0:
288,192,76209,1,0,0:0:0:0:
288,192,76288,1,0,0:0:0:0:
288,192,76367,1,0,0:0:0:0:
288,192,76445,1,8,0:0:0:0:
288,192,76603,1,0,0:0:0:0:
288,192,76682,1,0,0:0:0:0:
288,192,76761,1,8,0:0:0:0:
288,192,76919,1,12,0:0:0:0:
288,192,77235,1,0,0:0:0:0:
288,192,77393,1,8,0:0:0:0:
288,192,77472,1,0,0:0:0:0:
288,192,77551,1,8,0:0:0:0:
288,192,77709,1,0,0:0:0:0:
288,192,77788,1,8,0:0:0:0:
288,192,77867,1,0,0:0:0:0:
288,192,77945,1,0,0:0:0:0:
288,192,78024,1,8,0:0:0:0:
288,192,78182,1,0,0:0:0:0:
288,192,78340,1,8,0:0:0:0:
288,192,78419,1,8,0:0:0:0:
288,192,78498,1,0,0:0:0:0:
288,192,78656,1,8,0:0:0:0:
288,192,78814,1,0,0:0:0:0:
256,192,78893,1,0,0:0:0:0:
288,192,78972,1,8,0:0:0:0:
288,192,79051,5,8,0:0:0:0:
288,192,79130,1,0,0:0:0:0:
288,192,79288,1,8,0:0:0:0:
288,192,79340,1,8,0:0:0:0:
288,192,79393,1,8,0:0:0:0:
288,192,79445,1,0,0:0:0:0:
288,192,79761,1,0,0:0:0:0:
288,192,79919,1,8,0:0:0:0:
288,192,79998,1,8,0:0:0:0:
288,192,80077,1,0,0:0:0:0:
288,192,80235,5,8,0:0:0:0:
288,192,80314,1,8,0:0:0:0:
288,192,80393,1,0,0:0:0:0:
256,192,80551,1,8,0:0:0:0:
288,192,80630,1,8,0:0:0:0:
256,192,80709,1,8,0:0:0:0:
288,192,80788,5,8,0:0:0:0:
256,192,80866,5,4,0:0:0:0:
256,192,81024,1,4,0:0:0:0:
256,192,81498,5,4,0:0:0:0:
256,192,81656,1,4,0:0:0:0:
256,192,82130,5,8,0:0:0:0:
256,192,82445,1,8,0:0:0:0:
256,192,82761,1,0,0:0:0:0:
256,192,83077,1,0,0:0:0:0:
256,192,83393,1,8,0:0:0:0:
256,192,84024,1,0,0:0:0:0:
256,192,84340,1,8,0:0:0:0:
256,192,84498,1,8,0:0:0:0:
256,192,84656,1,0,0:0:0:0:
256,192,85288,1,8,0:0:0:0:
256,192,85603,1,0,0:0:0:0:
256,192,85761,1,0,0:0:0:0:
256,192,85919,1,8,0:0:0:0:
256,192,86235,1,0,0:0:0:0:
256,192,86551,1,8,0:0:0:0:
256,192,87182,1,0,0:0:0:0:
256,192,87814,1,8,0:0:0:0:
256,192,88130,1,8,0:0:0:0:
256,192,88445,1,0,0:0:0:0:
256,192,88761,1,0,0:0:0:0:
256,192,89393,1,0,0:0:0:0:
256,192,89551,1,12,0:0:0:0:
256,192,89866,1,0,0:0:0:0:
256,192,90024,1,8,0:0:0:0:
256,192,90103,1,8,0:0:0:0:
256,192,90182,1,8,0:0:0:0:
256,192,90261,1,8,0:0:0:0:
256,192,90340,1,0,0:0:0:0:
256,192,90498,1,8,0:0:0:0:
256,192,90656,1,0,0:0:0:0:
256,192,90735,1,0,0:0:0:0:
256,192,90814,1,8,0:0:0:0:
256,192,90972,1,0,0:0:0:0:
256,192,91130,1,0,0:0:0:0:
256,192,91209,1,0,0:0:0:0:
256,192,91288,1,8,0:0:0:0:
256,192,91366,1,0,0:0:0:0:
256,192,91445,1,0,0:0:0:0:
256,192,91524,1,0,0:0:0:0:
256,192,91603,1,8,0:0:0:0:
256,192,91761,1,0,0:0:0:0:
256,192,93498,1,4,0:0:0:0:
256,192,94130,1,8,0:0:0:0:
256,192,94761,1,0,0:0:0:0:
256,192,95077,1,8,0:0:0:0:
256,192,95393,1,0,0:0:0:0:
256,192,95709,1,0,0:0:0:0:
256,192,96024,1,8,0:0:0:0:
256,192,96656,1,0,0:0:0:0:
256,192,97288,1,8,0:0:0:0:
256,192,97603,1,8,0:0:0:0:
256,192,97919,1,0,0:0:0:0:
256,192,98235,1,8,0:0:0:0:
256,192,98393,1,8,0:0:0:0:
256,192,98551,1,4,0:0:0:0:
256,192,98866,1,0,0:0:0:0:
256,192,99024,1,0,0:0:0:0:
256,192,99182,1,8,0:0:0:0:
256,192,99498,1,8,0:0:0:0:
256,192,99656,1,0,0:0:0:0:
256,192,99814,1,0,0:0:0:0:
256,192,100130,1,8,0:0:0:0:
256,192,100445,1,0,0:0:0:0:
256,192,100603,1,0,0:0:0:0:
256,192,100761,1,8,0:0:0:0:
256,192,100919,1,8,0:0:0:0:
256,192,101077,1,4,0:0:0:0:
256,192,101393,1,8,0:0:0:0:
256,192,101551,1,0,0:0:0:0:
256,192,101709,1,8,0:0:0:0:
224,192,101788,1,8,0:0:0:0:
256,192,101866,1,0,0:0:0:0:
256,192,102024,1,8,0:0:0:0:
256,192,102103,1,8,0:0:0:0:
256,192,102182,1,8,0:0:0:0:
256,192,102261,1,8,0:0:0:0:
256,192,102340,1,4,0:0:0:0:
256,192,102656,1,4,0:0:0:0:
288,192,103445,1,12,0:0:0:0:
256,192,103761,1,0,0:0:0:0:
256,192,103919,1,8,0:0:0:0:
256,192,103998,1,0,0:0:0:0:
256,192,104077,1,8,0:0:0:0:
256,192,104156,1,8,0:0:0:0:
256,192,104235,1,0,0:0:0:0:
256,192,104393,1,0,0:0:0:0:
256,192,104551,1,8,0:0:0:0:
256,192,104630,1,8,0:0:0:0:
256,192,104709,1,0,0:0:0:0:
256,192,104788,1,0,0:0:0:0:
256,192,104866,1,8,0:0:0:0:
224,192,105024,1,0,0:0:0:0:
256,192,105103,1,8,0:0:0:0:
224,192,105182,1,8,0:0:0:0:
256,192,105261,1,8,0:0:0:0:
224,192,105340,1,0,0:0:0:0:
224,192,105419,1,0,0:0:0:0:
256,192,105498,1,8,0:0:0:0:
224,192,105577,1,8,0:0:0:0:
224,192,105656,1,0,0:0:0:0:
256,192,106130,1,4,0:0:0:0:
256,192,106761,1,8,0:0:0:0:
256,192,106918,1,8,0:0:0:0:
256,192,106997,1,8,0:0:0:0:
256,192,107076,1,0,0:0:0:0:
256,192,107234,1,8,0:0:0:0:
256,192,107550,1,8,0:0:0:0:
256,192,107709,1,0,0:0:0:0:
256,192,108023,1,8,0:0:0:0:
256,192,108181,1,0,0:0:0:0:
256,192,108339,1,8,0:0:0:0:
256,192,108497,1,8,0:0:0:0:
256,192,108577,1,8,0:0:0:0:
256,192,108655,1,0,0:0:0:0:
256,192,108971,1,0,0:0:0:0:
256,192,109288,1,8,0:0:0:0:
256,192,109445,1,0,0:0:0:0:
256,192,109602,1,0,0:0:0:0:
256,192,109681,1,0,0:0:0:0:
256,192,109760,1,8,0:0:0:0:
256,192,109918,1,0,0:0:0:0:
256,192,110076,1,8,0:0:0:0:
256,192,110234,1,0,0:0:0:0:
256,192,110551,1,8,0:0:0:0:
256,192,110709,1,0,0:0:0:0:
256,192,110788,1,0,0:0:0:0:
256,192,110866,1,8,0:0:0:0:
288,192,111024,1,8,0:0:0:0:
256,192,111182,1,4,0:0:0:0:
288,160,111498,1,0,0:0:0:0:
288,160,111814,1,8,0:0:0:0:
288,160,111972,1,8,0:0:0:0:
288,160,112051,1,8,0:0:0:0:
288,160,112130,1,0,0:0:0:0:
288,160,112287,1,8,0:0:0:0:
288,160,112603,1,8,0:0:0:0:
288,160,112761,1,0,0:0:0:0:
288,160,112919,1,0,0:0:0:0:
288,160,112998,1,0,0:0:0:0:
288,160,113077,1,8,0:0:0:0:
288,160,113235,1,0,0:0:0:0:
288,160,113393,1,8,0:0:0:0:
256,192,113550,1,8,0:0:0:0:
256,192,113629,1,8,0:0:0:0:
256,192,113709,1,0,0:0:0:0:
288,160,114024,1,0,0:0:0:0:
288,192,114340,1,8,0:0:0:0:
288,192,114656,1,0,0:0:0:0:
288,192,114814,1,8,0:0:0:0:
288,192,114972,1,0,0:0:0:0:
288,160,115051,1,0,0:0:0:0:
288,192,115130,1,8,0:0:0:0:
288,192,115287,1,0,0:0:0:0:
288,192,115445,1,0,0:0:0:0:
288,192,115603,1,8,0:0:0:0:
288,192,115919,1,8,0:0:0:0:
288,192,116077,1,8,0:0:0:0:
256,192,116235,1,4,0:0:0:0:
288,192,116551,1,8,0:0:0:0:
288,192,116709,1,0,0:0:0:0:
288,192,116866,1,8,0:0:0:0:
288,192,116945,1,8,0:0:0:0:
288,192,117024,1,0,0:0:0:0:
288,192,117103,1,0,0:0:0:0:
288,192,117182,1,8,0:0:0:0:
288,192,117340,1,0,0:0:0:0:
288,192,117498,1,8,0:0:0:0:
288,192,117577,1,0,0:0:0:0:
288,192,117656,1,8,0:0:0:0:
288,192,117735,1,8,0:0:0:0:
288,192,117814,1,0,0:0:0:0:
288,192,117972,1,8,0:0:0:0:
288,192,118130,1,0,0:0:0:0:
288,192,118209,1,0,0:0:0:0:
288,192,118287,1,8,0:0:0:0:
288,192,118366,1,0,0:0:0:0:
288,192,118445,1,8,0:0:0:0:
288,192,118603,1,8,0:0:0:0:
288,192,118761,1,4,0:0:0:0:
288,192,119077,1,0,0:0:0:0:
288,192,119235,1,8,0:0:0:0:
288,192,119393,1,0,0:0:0:0:
288,192,119472,1,8,0:0:0:0:
288,192,119551,1,0,0:0:0:0:
288,192,119630,1,0,0:0:0:0:
288,192,119709,1,8,0:0:0:0:
288,192,119866,1,0,0:0:0:0:
288,192,119945,1,0,0:0:0:0:
288,192,120024,1,8,0:0:0:0:
288,192,120182,1,8,0:0:0:0:
288,192,120261,1,0,0:0:0:0:
288,192,120340,1,8,0:0:0:0:
288,192,120419,1,0,0:0:0:0:
288,192,120498,1,8,0:0:0:0:
288,192,120577,1,8,0:0:0:0:
288,192,120656,1,0,0:0:0:0:
288,192,120814,1,0,0:0:0:0:
288,192,120972,1,8,0:0:0:0:
288,192,121288,1,4,0:0:0:0:
288,192,121603,1,8,0:0:0:0:
288,192,121919,1,0,0:0:0:0:
288,192,122077,1,0,0:0:0:0:
288,192,122235,1,8,0:0:0:0:
288,192,122314,1,8,0:0:0:0:
288,192,122393,1,8,0:0:0:0:
288,192,122472,1,8,0:0:0:0:
288,192,122551,1,4,0:0:0:0:
288,192,122866,1,4,0:0:0:0:
256,192,123024,5,8,0:0:0:0:
256,192,123103,5,8,0:0:0:0:
256,192,123182,1,0,0:0:0:0:
256,192,123261,1,0,0:0:0:0:
256,192,123340,1,8,0:0:0:0:
256,192,123419,1,8,0:0:0:0:
256,192,123498,1,8,0:0:0:0:
256,192,123577,1,8,0:0:0:0:
256,192,123656,5,4,0:0:0:0:
256,192,123972,1,0,0:0:0:0:
256,192,124130,1,8,0:0:0:0:
256,192,124209,1,0,0:0:0:0:
256,192,124288,1,8,0:0:0:0:
256,192,124366,1,8,0:0:0:0:
256,192,124445,1,0,0:0:0:0:
256,192,124603,1,0,0:0:0:0:
256,192,124761,1,8,0:0:0:0:
256,192,124840,1,8,0:0:0:0:
256,192,124919,1,8,0:0:0:0:
256,192,125077,1,0,0:0:0:0:
256,192,125156,1,0,0:0:0:0:
256,192,125235,1,8,0:0:0:0:
224,192,125314,1,0,0:0:0:0:
256,192,125393,1,8,0:0:0:0:
256,192,125551,1,0,0:0:0:0:
256,192,125709,1,8,0:0:0:0:
256,192,125866,1,0,0:0:0:0:
256,192,125945,1,0,0:0:0:0:
256,192,126024,1,8,0:0:0:0:
256,192,126182,1,4,0:0:0:0:
256,192,126498,1,0,0:0:0:0:
256,192,126656,1,8,0:0:0:0:
256,192,126735,1,8,0:0:0:0:
256,192,126814,1,0,0:0:0:0:
256,192,126972,1,8,0:0:0:0:
256,192,127130,1,0,0:0:0:0:
256,192,127288,1,8,0:0:0:0:
256,192,127366,1,8,0:0:0:0:
256,192,127445,1,8,0:0:0:0:
256,192,127524,1,8,0:0:0:0:
256,192,127603,1,0,0:0:0:0:
256,192,127761,1,0,0:0:0:0:
256,192,127919,1,8,0:0:0:0:
256,192,127998,1,8,0:0:0:0:
256,192,128077,1,0,0:0:0:0:
256,192,128156,1,8,0:0:0:0:
256,192,128235,1,0,0:0:0:0:
256,192,128314,1,0,0:0:0:0:
256,192,128393,1,8,0:0:0:0:
256,192,128551,1,8,0:0:0:0:
256,192,128709,1,4,0:0:0:0:
288,192,129024,1,0,0:0:0:0:
288,192,129182,1,8,0:0:0:0:
288,192,129261,1,8,0:0:0:0:
288,192,129340,1,0,0:0:0:0:
256,192,129498,1,8,0:0:0:0:
256,192,129656,1,0,0:0:0:0:
288,192,129735,1,0,0:0:0:0:
256,192,129814,1,8,0:0:0:0:
256,160,129893,1,8,0:0:0:0:
256,192,129972,1,8,0:0:0:0:
256,192,130130,1,0,0:0:0:0:
256,192,130288,1,8,0:0:0:0:
256,192,130366,1,0,0:0:0:0:
256,192,130445,1,8,0:0:0:0:
256,192,130524,1,8,0:0:0:0:
256,192,130603,1,0,0:0:0:0:
256,192,130682,1,0,0:0:0:0:
256,192,130761,1,8,0:0:0:0:
256,192,130919,1,0,0:0:0:0:
256,192,130998,1,0,0:0:0:0:
256,192,131077,1,8,0:0:0:0:
256,192,131235,1,12,0:0:0:0:
256,192,131551,1,0,0:0:0:0:
256,192,131709,1,8,0:0:0:0:
288,192,131788,1,8,0:0:0:0:
256,192,131866,1,0,0:0:0:0:
256,192,132024,1,8,0:0:0:0:
256,192,132103,1,0,0:0:0:0:
256,192,132182,1,8,0:0:0:0:
256,192,132261,1,8,0:0:0:0:
256,192,132340,1,0,0:0:0:0:
256,192,132498,1,0,0:0:0:0:
256,192,132656,1,8,0:0:0:0:
256,192,132735,1,8,0:0:0:0:
256,192,132814,1,0,0:0:0:0:
256,192,132972,1,8,0:0:0:0:
256,192,133051,1,0,0:0:0:0:
288,192,133130,1,0,0:0:0:0:
256,192,133209,1,0,0:0:0:0:
256,192,133288,1,12,0:0:0:0:
256,192,133445,5,12,0:0:0:0:
288,192,133761,1,4,0:0:0:0:
288,192,134077,1,0,0:0:0:0:
288,192,134235,1,8,0:0:0:0:
288,192,134314,1,8,0:0:0:0:
288,192,134393,1,0,0:0:0:0:
288,192,134472,1,0,0:0:0:0:
288,192,134551,1,8,0:0:0:0:
288,192,134709,1,0,0:0:0:0:
288,192,134866,1,8,0:0:0:0:
288,192,134945,1,0,0:0:0:0:
288,192,135024,1,8,0:0:0:0:
288,192,135182,1,0,0:0:0:0:
288,192,135261,1,8,0:0:0:0:
288,192,135340,1,0,0:0:0:0:
288,192,135419,1,0,0:0:0:0:
288,192,135498,1,8,0:0:0:0:
288,192,135656,1,0,0:0:0:0:
288,192,135814,1,8,0:0:0:0:
288,192,135972,1,0,0:0:0:0:
288,192,136051,1,0,0:0:0:0:
288,192,136130,1,8,0:0:0:0:
288,192,136288,1,4,0:0:0:0:
288,192,136603,1,0,0:0:0:0:
288,192,136761,1,8,0:0:0:0:
288,192,136840,1,8,0:0:0:0:
288,192,136919,1,0,0:0:0:0:
288,192,136998,1,0,0:0:0:0:
288,192,137077,1,8,0:0:0:0:
288,192,137235,1,0,0:0:0:0:
288,192,137393,1,8,0:0:0:0:
288,192,137472,1,0,0:0:0:0:
288,192,137551,1,0,0:0:0:0:
288,192,137709,1,8,0:0:0:0:
288,192,137788,1,0,0:0:0:0:
288,192,137866,1,0,0:0:0:0:
288,192,137945,1,0,0:0:0:0:
288,192,138024,1,8,0:0:0:0:
288,192,138182,1,0,0:0:0:0:
288,192,138340,1,8,0:0:0:0:
288,192,138498,1,0,0:0:0:0:
288,192,138577,1,0,0:0:0:0:
288,192,138656,1,8,0:0:0:0:
288,192,138814,1,4,0:0:0:0:
288,192,139130,1,0,0:0:0:0:
288,192,139288,1,8,0:0:0:0:
288,192,139366,1,8,0:0:0:0:
288,192,139445,1,0,0:0:0:0:
288,192,139524,1,0,0:0:0:0:
288,192,139603,1,8,0:0:0:0:
288,192,139761,1,0,0:0:0:0:
256,192,139840,1,0,0:0:0:0:
288,192,139919,1,8,0:0:0:0:
288,192,140077,1,0,0:0:0:0:
288,192,140235,1,8,0:0:0:0:
288,192,140393,1,0,0:0:0:0:
288,192,140472,1,0,0:0:0:0:
288,192,140551,1,8,0:0:0:0:
288,192,140630,1,8,0:0:0:0:
288,192,140709,1,0,0:0:0:0:
288,192,140788,1,0,0:0:0:0:
288,192,140866,1,8,0:0:0:0:
288,192,141024,1,0,0:0:0:0:
288,192,141103,1,0,0:0:0:0:
288,192,141182,1,8,0:0:0:0:
288,192,141340,1,12,0:0:0:0:
288,192,141656,1,0,0:0:0:0:
288,192,141814,1,8,0:0:0:0:
288,192,141893,1,8,0:0:0:0:
288,192,141972,1,0,0:0:0:0:
288,192,142130,1,8,0:0:0:0:
288,192,142209,1,0,0:0:0:0:
288,192,142288,1,0,0:0:0:0:
288,192,142366,1,0,0:0:0:0:
288,192,142445,1,8,0:0:0:0:
288,192,142603,1,0,0:0:0:0:
288,192,142761,1,8,0:0:0:0:
288,192,142840,1,0,0:0:0:0:
288,192,142919,1,8,0:0:0:0:
288,192,143077,1,8,0:0:0:0:
288,192,143235,1,0,0:0:0:0:
256,192,143314,1,0,0:0:0:0:
288,192,143393,1,8,0:0:0:0:
288,192,143472,5,8,0:0:0:0:
288,192,143551,1,0,0:0:0:0:
288,192,143709,1,8,0:0:0:0:
288,192,143761,1,8,0:0:0:0:
288,192,143814,1,8,0:0:0:0:
288,192,143866,1,0,0:0:0:0:
288,192,144182,1,0,0:0:0:0:
288,192,144340,1,8,0:0:0:0:
288,192,144419,1,8,0:0:0:0:
288,192,144498,1,0,0:0:0:0:
288,192,144656,5,8,0:0:0:0:
288,192,144735,1,8,0:0:0:0:
288,192,144814,1,0,0:0:0:0:
256,192,144972,1,8,0:0:0:0:
288,192,145051,1,8,0:0:0:0:
256,192,145130,1,8,0:0:0:0:
288,192,145209,1,8,0:0:0:0:
256,192,145288,5,4,0:0:0:0:
256,192,145445,1,4,0:0:0:0:
288,192,145919,1,4,0:0:0:0:
288,192,146077,1,4,0:0:0:0:
256,192,146393,5,12,0:0:0:0:
256,192,146709,1,0,0:0:0:0:
256,192,146866,1,8,0:0:0:0:
256,192,146945,1,8,0:0:0:0:
256,192,147024,1,0,0:0:0:0:
256,192,147182,1,0,0:0:0:0:
256,192,147340,1,8,0:0:0:0:
256,192,147498,1,0,0:0:0:0:
256,192,147656,1,8,0:0:0:0:
256,192,147735,1,8,0:0:0:0:
256,192,147814,1,8,0:0:0:0:
256,192,147893,1,8,0:0:0:0:
256,192,147972,1,0,0:0:0:0:
256,192,148130,1,8,0:0:0:0:
256,192,148288,1,0,0:0:0:0:
256,192,148445,1,0,0:0:0:0:
256,192,148524,1,0,0:0:0:0:
256,192,148603,1,8,0:0:0:0:
256,192,148761,1,8,0:0:0:0:
256,192,148919,1,4,0:0:0:0:
256,192,149235,1,0,0:0:0:0:
256,192,149393,1,8,0:0:0:0:
256,192,149472,1,8,0:0:0:0:
256,192,149551,1,0,0:0:0:0:
256,192,149709,1,0,0:0:0:0:
256,192,149866,1,8,0:0:0:0:
256,192,150024,1,8,0:0:0:0:
256,192,150103,1,0,0:0:0:0:
256,192,150182,1,8,0:0:0:0:
256,192,150261,1,8,0:0:0:0:
256,192,150340,1,0,0:0:0:0:
256,192,150498,1,0,0:0:0:0:
256,192,150656,1,8,0:0:0:0:
256,192,150814,1,0,0:0:0:0:
256,192,150972,1,0,0:0:0:0:
256,192,151051,1,0,0:0:0:0:
256,192,151130,1,8,0:0:0:0:
256,192,151288,1,8,0:0:0:0:
256,192,151445,1,4,0:0:0:0:
256,192,151761,1,0,0:0:0:0:
256,192,151919,1,8,0:0:0:0:
256,192,152235,1,0,0:0:0:0:
256,192,152393,1,0,0:0:0:0:
256,192,152472,1,0,0:0:0:0:
256,192,152551,1,8,0:0:0:0:
256,192,152709,1,8,0:0:0:0:
256,192,152866,1,0,0:0:0:0:
256,160,153024,1,8,0:0:0:0:
256,160,153077,1,8,0:0:0:0:
256,160,153130,1,8,0:0:0:0:
256,192,153182,1,0,0:0:0:0:
256,192,153261,1,0,0:0:0:0:
256,192,153340,1,8,0:0:0:0:
256,192,153498,1,0,0:0:0:0:
256,192,153656,1,8,0:0:0:0:
256,192,153735,1,8,0:0:0:0:
256,192,153814,1,0,0:0:0:0:
256,192,153972,1,4,0:0:0:0:
256,192,154288,1,0,0:0:0:0:
256,192,154445,1,8,0:0:0:0:
256,192,154603,1,0,0:0:0:0:
256,192,154682,1,0,0:0:0:0:
256,192,154761,1,8,0:0:0:0:
256,192,154919,1,0,0:0:0:0:
256,192,154998,1,0,0:0:0:0:
256,192,155077,1,8,0:0:0:0:
256,192,155235,1,0,0:0:0:0:
256,192,155393,1,8,0:0:0:0:
256,192,155472,1,0,0:0:0:0:
256,192,155551,1,0,0:0:0:0:
256,192,155630,1,0,0:0:0:0:
256,192,155709,1,8,0:0:0:0:
256,192,155788,1,8,0:0:0:0:
256,192,155866,1,0,0:0:0:0:
256,192,155945,1,0,0:0:0:0:
256,192,156024,1,12,0:0:0:0:
256,192,156182,1,12,0:0:0:0:
256,192,156498,1,4,0:0:0:0:
256,192,156814,1,0,0:0:0:0:
256,192,156972,1,8,0:0:0:0:
256,192,157051,1,0,0:0:0:0:
256,192,157130,1,8,0:0:0:0:
256,192,157209,1,8,0:0:0:0:
256,192,157288,1,0,0:0:0:0:
256,192,157445,1,0,0:0:0:0:
256,192,157603,1,8,0:0:0:0:
256,192,157682,1,8,0:0:0:0:
256,192,157761,1,0,0:0:0:0:
256,192,157919,1,0,0:0:0:0:
256,192,157998,1,0,0:0:0:0:
256,192,158077,1,8,0:0:0:0:
256,192,158156,1,0,0:0:0:0:
256,192,158235,1,8,0:0:0:0:
256,192,158314,1,8,0:0:0:0:
256,192,158393,1,0,0:0:0:0:
256,192,158472,1,0,0:0:0:0:
256,192,158551,1,8,0:0:0:0:
256,192,158709,1,0,0:0:0:0:
256,192,158866,1,8,0:0:0:0:
256,192,158945,1,8,0:0:0:0:
256,192,159024,1,4,0:0:0:0:
256,192,159340,1,0,0:0:0:0:
256,192,159498,1,8,0:0:0:0:
256,192,159577,1,8,0:0:0:0:
288,192,159656,1,0,0:0:0:0:
256,192,159735,1,0,0:0:0:0:
288,192,159814,1,8,0:0:0:0:
288,192,159972,1,0,0:0:0:0:
288,192,160130,1,0,0:0:0:0:
288,192,160288,1,8,0:0:0:0:
288,192,160603,1,8,0:0:0:0:
288,192,160761,1,0,0:0:0:0:
288,192,160919,1,0,0:0:0:0:
288,192,160998,1,0,0:0:0:0:
288,192,161077,1,0,0:0:0:0:
288,224,161156,1,0,0:0:0:0:
288,192,161235,1,8,0:0:0:0:
288,192,161393,1,8,0:0:0:0:
256,192,161551,1,4,0:0:0:0:
256,192,161866,1,0,0:0:0:0:
256,192,162024,1,8,0:0:0:0:
256,192,162340,1,0,0:0:0:0:
256,192,162498,1,0,0:0:0:0:
256,192,162577,1,0,0:0:0:0:
256,192,162656,1,8,0:0:0:0:
256,192,162735,1,8,0:0:0:0:
256,192,162814,1,0,0:0:0:0:
256,192,162972,1,8,0:0:0:0:
256,192,163130,1,0,0:0:0:0:
288,192,163209,1,0,0:0:0:0:
256,192,163288,1,8,0:0:0:0:
256,192,163445,1,0,0:0:0:0:
256,160,163603,1,8,0:0:0:0:
256,160,163761,1,0,0:0:0:0:
256,192,163840,1,0,0:0:0:0:
256,192,163919,1,8,0:0:0:0:
256,192,164077,5,4,0:0:0:0:
256,192,164393,1,0,0:0:0:0:
256,192,164472,1,0,0:0:0:0:
256,192,164551,1,8,0:0:0:0:
256,192,164709,1,0,0:0:0:0:
256,192,164788,1,0,0:0:0:0:
256,192,164866,1,8,0:0:0:0:
256,192,165024,1,0,0:0:0:0:
256,192,165103,1,0,0:0:0:0:
256,192,165182,1,8,0:0:0:0:
256,192,165261,1,8,0:0:0:0:
256,192,165340,5,0,0:0:0:0:
256,192,165419,1,0,0:0:0:0:
256,192,165498,5,12,0:0:0:0:
256,192,165656,1,12,0:0:0:0:
256,192,166130,5,12,0:0:0:0:
256,192,166288,1,12,0:0:0:0:
256,192,166603,1,4,0:0:0:0:
256,192,166919,1,0,0:0:0:0:
256,192,167077,1,8,0:0:0:0:
256,192,167156,1,8,0:0:0:0:
256,192,167235,1,0,0:0:0:0:
256,192,167393,1,8,0:0:0:0:
256,192,167551,1,0,0:0:0:0:
256,192,167630,1,0,0:0:0:0:
256,192,167709,1,8,0:0:0:0:
256,192,167866,1,4,0:0:0:0:
256,192,168182,1,0,0:0:0:0:
256,192,168340,1,8,0:0:0:0:
256,192,168419,1,8,0:0:0:0:
256,192,168498,1,0,0:0:0:0:
256,192,168577,1,8,0:0:0:0:
256,192,168656,1,0,0:0:0:0:
256,192,168814,1,8,0:0:0:0:
288,192,168893,1,8,0:0:0:0:
256,192,168972,1,8,0:0:0:0:
256,192,169130,1,4,0:0:0:0:
256,192,169445,1,0,0:0:0:0:
256,192,169524,1,0,0:0:0:0:
256,192,169603,1,8,0:0:0:0:
288,192,169682,1,8,0:0:0:0:
256,192,169761,1,0,0:0:0:0:
288,192,169919,1,8,0:0:0:0:
288,192,170077,1,0,0:0:0:0:
256,160,170156,1,0,0:0:0:0:
256,192,170235,1,8,0:0:0:0:
288,192,170393,1,12,0:0:0:0:
256,192,170709,5,0,0:0:0:0:
256,192,170788,1,0,0:0:0:0:
256,192,170866,1,8,0:0:0:0:
256,192,170945,1,8,0:0:0:0:
256,192,171024,1,0,0:0:0:0:
256,192,171103,1,0,0:0:0:0:
256,192,171182,1,8,0:0:0:0:
288,192,171235,1,8,0:0:0:0:
288,192,171288,1,8,0:0:0:0:
288,192,171340,1,0,0:0:0:0:
256,192,171656,5,4,0:0:0:0:
256,192,171972,1,0,0:0:0:0:
256,192,172130,1,8,0:0:0:0:
256,192,172209,1,0,0:0:0:0:
256,192,172287,1,8,0:0:0:0:
256,192,172366,1,8,0:0:0:0:
256,192,172445,1,0,0:0:0:0:
256,192,172603,1,0,0:0:0:0:
256,192,172761,1,8,0:0:0:0:
256,192,172840,1,8,0:0:0:0:
256,192,172919,1,8,0:0:0:0:
256,192,173077,1,0,0:0:0:0:
256,192,173156,1,0,0:0:0:0:
256,192,173235,1,8,0:0:0:0:
224,192,173314,1,0,0:0:0:0:
256,192,173393,1,8,0:0:0:0:
256,192,173472,1,8,0:0:0:0:
256,192,173551,1,0,0:0:0:0:
256,192,173709,1,8,0:0:0:0:
256,192,173866,1,0,0:0:0:0:
256,192,173945,1,0,0:0:0:0:
256,192,174024,1,8,0:0:0:0:
256,192,174182,1,4,0:0:0:0:
256,192,174498,1,0,0:0:0:0:
256,192,174656,1,8,0:0:0:0:
256,192,174735,1,8,0:0:0:0:
256,192,174814,1,0,0:0:0:0:
256,192,174893,1,0,0:0:0:0:
256,192,174972,1,8,0:0:0:0:
256,192,175130,1,0,0:0:0:0:
256,192,175287,1,8,0:0:0:0:
256,192,175366,1,8,0:0:0:0:
256,192,175445,1,8,0:0:0:0:
256,192,175524,1,8,0:0:0:0:
256,192,175603,1,0,0:0:0:0:
256,192,175761,1,0,0:0:0:0:
256,192,175919,1,8,0:0:0:0:
256,192,175998,1,8,0:0:0:0:
256,192,176077,1,0,0:0:0:0:
256,192,176156,1,8,0:0:0:0:
256,192,176235,1,0,0:0:0:0:
256,192,176314,1,0,0:0:0:0:
256,192,176393,1,8,0:0:0:0:
256,192,176551,1,8,0:0:0:0:
256,192,176709,1,4,0:0:0:0:
288,192,177024,1,0,0:0:0:0:
288,192,177182,1,8,0:0:0:0:
288,192,177261,1,8,0:0:0:0:
288,192,177340,1,0,0:0:0:0:
256,192,177498,1,8,0:0:0:0:
288,192,177577,1,8,0:0:0:0:
256,192,177656,1,0,0:0:0:0:
288,192,177735,1,0,0:0:0:0:
256,192,177814,1,8,0:0:0:0:
256,160,177893,1,0,0:0:0:0:
256,192,177972,1,8,0:0:0:0:
256,192,178130,1,0,0:0:0:0:
256,192,178288,1,8,0:0:0:0:
256,192,178366,1,0,0:0:0:0:
256,192,178445,1,8,0:0:0:0:
256,192,178524,1,8,0:0:0:0:
256,192,178603,1,0,0:0:0:0:
224,192,178682,1,0,0:0:0:0:
256,192,178761,1,8,0:0:0:0:
256,192,178919,1,0,0:0:0:0:
256,192,178998,1,0,0:0:0:0:
256,192,179077,1,8,0:0:0:0:
256,192,179235,1,12,0:0:0:0:
256,192,179551,1,0,0:0:0:0:
256,192,179709,1,8,0:0:0:0:
288,192,179787,1,8,0:0:0:0:
256,192,179866,1,0,0:0:0:0:
256,192,179945,1,0,0:0:0:0:
256,192,180024,1,8,0:0:0:0:
256,192,180103,1,0,0:0:0:0:
256,192,180182,1,8,0:0:0:0:
256,192,180261,1,8,0:0:0:0:
256,192,180340,1,0,0:0:0:0:
256,192,180498,1,0,0:0:0:0:
256,192,180656,1,8,0:0:0:0:
256,192,180735,1,8,0:0:0:0:
256,192,180814,1,0,0:0:0:0:
256,192,180893,1,0,0:0:0:0:
256,192,180972,1,8,0:0:0:0:
256,192,181051,1,0,0:0:0:0:
288,192,181130,1,0,0:0:0:0:
256,192,181209,1,0,0:0:0:0:
256,192,181288,1,12,0:0:0:0:
256,192,181445,5,12,0:0:0:0:
288,192,181761,1,4,0:0:0:0:
288,192,182077,1,0,0:0:0:0:
288,192,182235,1,8,0:0:0:0:
288,192,182314,1,8,0:0:0:0:
288,192,182393,1,0,0:0:0:0:
288,192,182472,1,0,0:0:0:0:
288,192,182551,1,8,0:0:0:0:
288,192,182709,1,0,0:0:0:0:
288,192,182866,1,8,0:0:0:0:
288,192,182945,1,0,0:0:0:0:
288,192,183024,1,8,0:0:0:0:
288,192,183182,1,0,0:0:0:0:
288,192,183261,1,8,0:0:0:0:
288,192,183340,1,0,0:0:0:0:
288,192,183419,1,0,0:0:0:0:
288,192,183498,1,8,0:0:0:0:
288,192,183577,1,8,0:0:0:0:
288,192,183656,1,0,0:0:0:0:
288,192,183814,1,8,0:0:0:0:
288,192,183972,1,0,0:0:0:0:
288,192,184051,1,0,0:0:0:0:
288,192,184130,1,8,0:0:0:0:
288,192,184288,1,4,0:0:0:0:
288,192,184603,1,0,0:0:0:0:
288,192,184761,1,8,0:0:0:0:
288,192,184840,1,8,0:0:0:0:
288,192,184919,1,0,0:0:0:0:
288,192,184998,1,0,0:0:0:0:
288,192,185077,1,8,0:0:0:0:
288,192,185235,1,0,0:0:0:0:
288,192,185393,1,8,0:0:0:0:
288,192,185472,1,0,0:0:0:0:
288,192,185551,1,0,0:0:0:0:
288,192,185709,1,8,0:0:0:0:
288,192,185788,1,8,0:0:0:0:
288,192,185866,1,8,0:0:0:0:
288,192,185945,1,0,0:0:0:0:
288,192,186024,1,8,0:0:0:0:
288,192,186103,1,8,0:0:0:0:
288,192,186182,1,0,0:0:0:0:
288,192,186261,1,0,0:0:0:0:
288,192,186340,1,8,0:0:0:0:
288,192,186498,1,0,0:0:0:0:
288,192,186577,1,0,0:0:0:0:
288,192,186656,1,8,0:0:0:0:
288,192,186814,1,4,0:0:0:0:
288,192,187130,1,0,0:0:0:0:
288,192,187288,1,8,0:0:0:0:
288,192,187366,1,8,0:0:0:0:
288,192,187445,1,8,0:0:0:0:
288,192,187524,1,8,0:0:0:0:
288,192,187603,1,0,0:0:0:0:
288,192,187761,1,0,0:0:0:0:
256,192,187840,1,0,0:0:0:0:
288,192,187919,1,8,0:0:0:0:
288,192,188077,1,0,0:0:0:0:
288,192,188235,1,8,0:0:0:0:
288,192,188393,1,0,0:0:0:0:
288,192,188472,1,0,0:0:0:0:
288,192,188551,1,8,0:0:0:0:
288,192,188630,1,0,0:0:0:0:
288,192,188709,1,0,0:0:0:0:
288,192,188788,1,0,0:0:0:0:
288,192,188866,1,8,0:0:0:0:
288,192,188945,1,8,0:0:0:0:
288,192,189024,1,0,0:0:0:0:
288,192,189103,1,0,0:0:0:0:
288,192,189182,1,8,0:0:0:0:
288,192,189340,1,12,0:0:0:0:
288,192,189656,1,0,0:0:0:0:
288,192,189814,1,8,0:0:0:0:
288,192,189893,1,0,0:0:0:0:
288,192,189972,1,8,0:0:0:0:
288,192,190051,1,8,0:0:0:0:
288,192,190130,1,0,0:0:0:0:
288,192,190209,1,8,0:0:0:0:
288,192,190288,1,0,0:0:0:0:
288,192,190366,1,0,0:0:0:0:
288,192,190445,1,8,0:0:0:0:
288,192,190603,1,0,0:0:0:0:
288,192,190682,1,0,0:0:0:0:
288,192,190761,1,8,0:0:0:0:
288,192,190919,1,0,0:0:0:0:
288,192,191077,1,8,0:0:0:0:
288,192,191156,1,0,0:0:0:0:
288,192,191235,1,0,0:0:0:0:
256,192,191314,1,0,0:0:0:0:
288,192,191393,1,8,0:0:0:0:
288,192,191472,1,8,0:0:0:0:
288,192,191551,1,0,0:0:0:0:
288,192,191630,1,0,0:0:0:0:
288,192,191709,1,8,0:0:0:0:
288,192,191761,1,8,0:0:0:0:
288,192,191814,1,8,0:0:0:0:
288,192,191866,1,0,0:0:0:0:
288,192,192182,1,0,0:0:0:0:
288,192,192340,1,8,0:0:0:0:
288,192,192419,1,8,0:0:0:0:
288,192,192498,1,0,0:0:0:0:
288,192,192656,1,8,0:0:0:0:
288,192,192735,1,8,0:0:0:0:
288,192,192814,1,0,0:0:0:0:
256,192,192972,1,8,0:0:0:0:
288,192,193051,1,8,0:0:0:0:
256,192,193130,1,8,0:0:0:0:
288,192,193209,1,8,0:0:0:0:
256,192,193288,5,4,0:0:0:0:
256,192,193445,1,4,0:0:0:0:
256,192,193919,1,4,0:0:0:0:
256,192,194077,1,4,0:0:0:0:
256,192,194235,12,0,196130,0:0:0:0:
