osu file format v14

[General]
AudioFilename: audio.mp3
AudioLeadIn: 0
PreviewTime: 123551
Countdown: 0
SampleSet: Normal
StackLeniency: 0.7
Mode: 1
LetterboxInBreaks: 0
WidescreenStoryboard: 1

[Editor]
Bookmarks: 34124,39492,39808,40124,40439,40597,41229,60492,60808,61282,62387,63334,63808,64439,64913,66018,66966,68545,69176,82124,93492,106124,116229,123650,146387,147176,148124,148913,151439,153966,156492,159018,161545,166597,172124,186018,188545
DistanceSpacing: 0.5
BeatDivisor: 4
GridSize: 32
TimelineZoom: 2.42

[Metadata]
Title:Donna Ketsumatsu ga Onozomi dai?
TitleUnicode:どんな結末がお望みだい?
Artist:TUYU
ArtistUnicode:ツユ
Creator:FabriGamer84
Version:Cry's Muzukashii
Source:プロジェクトセカイ カラフルステージ! feat. 初音ミク
Tags:tsuyu 礼衣 Rei ぷす Pusu ミロ miro 双葉陽 Haru Futaba ドンケツ donketsu What Sort of Ending Are You Wishing For? pop jpop j-pop japanese j-rock jrock rock Project SEKAI COLORFUL STAGE! feat. Hatsune Miku ワンダーランズ×ショウタイム wandasho wxs Wonderlands x Showtime A Sorrowful Farewell at the Curtain Call proseka puroseka プロセカ prsk pjsk arcpotato Cryceptio yurishe
BeatmapID:3883672
BeatmapSetID:1881138

[Difficulty]
HPDrainRate:6
CircleSize:3
OverallDifficulty:5
ApproachRate:8
SliderMultiplier:1.4
SliderTickRate:1

[Events]
//Background and Video events
Video,-90,"video.avi"
0,0,"bg.png",0,0
//Break Periods
//Storyboard Layer 0 (Background)
//Storyboard Layer 1 (Fail)
//Storyboard Layer 2 (Pass)
//Storyboard Layer 3 (Foreground)
//Storyboard Layer 4 (Overlay)
//Storyboard Sound Samples

[TimingPoints]
1288,315.789473684211,4,1,0,70,1,0
1288,-125,4,1,0,70,0,0
11393,-111.111111111111,4,1,0,80,0,0
16761,-111.111111111111,4,1,0,70,0,0
18972,-111.111111111111,4,1,0,80,0,0
59235,-100,4,1,0,90,0,1
68866,-100,4,1,0,90,0,0
69340,-100,4,1,0,90,0,1
80866,-100,4,1,0,80,0,0
82130,-125,4,1,0,60,0,0
89393,-111.111111111111,4,1,0,80,0,0
91603,-111.111111111111,4,1,0,80,0,0
92235,-111.111111111111,4,1,0,60,0,0
93498,-125,4,1,0,80,0,0
98551,-111.111111111111,4,1,0,80,0,0
123656,-100,4,1,0,90,0,1
133288,-100,4,1,0,90,0,0
133761,-100,4,1,0,90,0,1
145288,-100,4,1,0,90,0,0
146393,-100,4,1,0,80,0,0
171656,-100,4,1,0,90,0,1
181288,-100,4,1,0,90,0,0
181761,-100,4,1,0,90,0,1
193288,-100,4,1,0,80,0,0
194230,-100,4,1,0,60,0,0
194445,-100,4,1,0,55,0,0
194656,-100,4,1,0,50,0,0
194866,-100,4,1,0,45,0,0
195077,-100,4,1,0,40,0,0
195288,-100,4,1,0,35,0,0
195498,-100,4,1,0,30,0,0
195709,-100,4,1,0,25,0,0
195919,-100,4,1,0,20,0,0

[HitObjects]
448,64,1288,5,8,0:0:0:0:
448,64,3814,1,8,0:0:0:0:
64,64,5077,1,8,0:0:0:0:
448,64,5920,1,8,0:0:0:0:
448,64,6130,1,8,0:0:0:0:
64,64,6341,1,0,0:0:0:0:
448,64,7183,1,8,0:0:0:0:
64,64,7393,1,0,0:0:0:0:
64,64,7604,1,0,0:0:0:0:
64,64,8709,1,0,0:0:0:0:
64,64,8788,1,0,0:0:0:0:
64,64,8867,1,0,0:0:0:0:
448,64,10972,1,8,0:0:0:0:
448,64,11183,1,8,0:0:0:0:
64,64,11393,1,0,0:0:0:0:
448,64,12025,1,8,0:0:0:0:
64,64,12341,1,0,0:0:0:0:
448,64,12656,1,8,0:0:0:0:
448,64,12972,1,8,0:0:0:0:
64,64,13130,1,0,0:0:0:0:
448,64,13288,1,8,0:0:0:0:
64,64,13446,1,0,0:0:0:0:
448,64,13604,1,8,0:0:0:0:
448,64,13762,1,8,0:0:0:0:
64,64,13920,1,0,0:0:0:0:
64,64,14235,1,0,0:0:0:0:
448,64,14867,1,8,0:0:0:0:
64,64,15499,1,0,0:0:0:0:
448,64,15814,1,8,0:0:0:0:
448,64,16130,1,8,0:0:0:0:
64,64,16762,1,0,0:0:0:0:
64,64,17077,1,0,0:0:0:0:
448,64,17393,1,8,0:0:0:0:
64,64,17709,1,0,0:0:0:0:
448,64,18025,1,8,0:0:0:0:
448,64,18341,1,8,0:0:0:0:
64,64,18656,1,0,0:0:0:0:
64,64,18814,1,0,0:0:0:0:
448,320,18972,1,12,0:0:0:0:
64,64,19445,1,0,0:0:0:0:
448,64,19920,1,8,0:0:0:0:
448,64,20077,1,8,0:0:0:0:
64,64,20235,1,0,0:0:0:0:
64,64,20709,1,0,0:0:0:0:
448,64,21183,1,8,0:0:0:0:
448,320,21499,1,12,0:0:0:0:
448,64,21814,1,8,0:0:0:0:
64,64,21972,1,0,0:0:0:0:
448,64,22130,1,8,0:0:0:0:
64,64,22288,1,0,0:0:0:0:
448,64,22446,1,8,0:0:0:0:
448,64,22604,1,8,0:0:0:0:
64,320,22762,1,4,0:0:0:0:
64,64,23393,1,0,0:0:0:0:
448,64,24025,1,8,0:0:0:0:
64,64,24183,1,0,0:0:0:0:
448,64,24341,1,8,0:0:0:0:
448,64,24499,1,8,0:0:0:0:
64,64,24656,1,0,0:0:0:0:
448,64,24814,1,8,0:0:0:0:
448,64,25130,1,8,0:0:0:0:
448,64,25446,1,8,0:0:0:0:
64,64,25604,1,0,0:0:0:0:
448,64,25762,1,8,0:0:0:0:
448,64,25920,1,8,0:0:0:0:
64,64,26235,1,0,0:0:0:0:
448,64,26551,1,8,0:0:0:0:
64,64,26709,1,0,0:0:0:0:
448,64,26867,1,8,0:0:0:0:
448,64,27025,1,8,0:0:0:0:
64,64,27183,1,0,0:0:0:0:
64,64,27341,1,0,0:0:0:0:
448,64,27656,1,8,0:0:0:0:
448,64,27972,1,8,0:0:0:0:
64,64,28130,1,0,0:0:0:0:
448,64,28288,1,8,0:0:0:0:
64,64,28446,1,0,0:0:0:0:
448,64,28762,1,8,0:0:0:0:
64,64,29077,1,0,0:0:0:0:
448,64,29709,1,8,0:0:0:0:
64,64,30341,1,0,0:0:0:0:
448,64,31604,1,8,0:0:0:0:
448,64,32235,1,8,0:0:0:0:
64,64,32867,1,0,0:0:0:0:
64,64,33499,1,0,0:0:0:0:
448,64,33814,1,8,0:0:0:0:
448,320,34130,1,12,0:0:0:0:
64,64,34446,1,0,0:0:0:0:
448,64,34604,1,8,0:0:0:0:
64,64,34762,1,0,0:0:0:0:
448,64,35077,1,8,0:0:0:0:
448,64,35235,1,8,0:0:0:0:
64,64,35393,1,0,0:0:0:0:
448,64,35709,1,8,0:0:0:0:
64,64,36025,1,0,0:0:0:0:
64,64,36183,1,0,0:0:0:0:
448,64,36341,1,8,0:0:0:0:
64,64,36499,1,0,0:0:0:0:
448,320,36656,1,12,0:0:0:0:
448,64,36972,1,8,0:0:0:0:
64,64,37130,1,0,0:0:0:0:
448,64,37288,1,8,0:0:0:0:
448,64,37604,1,8,0:0:0:0:
448,64,37762,1,8,0:0:0:0:
448,64,37841,1,8,0:0:0:0:
448,64,37920,1,8,0:0:0:0:
448,64,38235,1,8,0:0:0:0:
64,64,39025,1,0,0:0:0:0:
64,64,39341,1,0,0:0:0:0:
448,64,39499,1,8,0:0:0:0:
448,64,39577,1,8,0:0:0:0:
448,64,39656,1,8,0:0:0:0:
64,64,39814,1,0,0:0:0:0:
64,64,39972,1,0,0:0:0:0:
448,64,40130,1,8,0:0:0:0:
64,64,40288,1,0,0:0:0:0:
64,64,40367,1,0,0:0:0:0:
64,64,40446,1,0,0:0:0:0:
448,64,40762,1,8,0:0:0:0:
448,64,40920,1,8,0:0:0:0:
448,64,40999,1,8,0:0:0:0:
448,64,41077,1,8,0:0:0:0:
64,64,41235,1,0,0:0:0:0:
448,320,41709,1,12,0:0:0:0:
448,64,42341,1,8,0:0:0:0:
448,64,42499,1,8,0:0:0:0:
64,64,42656,1,0,0:0:0:0:
448,64,42814,1,8,0:0:0:0:
448,64,43130,1,8,0:0:0:0:
64,64,43288,1,0,0:0:0:0:
448,64,43604,1,8,0:0:0:0:
64,64,43920,1,0,0:0:0:0:
64,64,44235,1,0,0:0:0:0:
448,64,44867,1,8,0:0:0:0:
64,64,45025,1,0,0:0:0:0:
64,64,45183,1,0,0:0:0:0:
448,64,45341,1,8,0:0:0:0:
448,64,45656,1,8,0:0:0:0:
64,64,45814,1,0,0:0:0:0:
448,64,46130,1,8,0:0:0:0:
64,64,46288,1,0,0:0:0:0:
64,64,46446,1,0,0:0:0:0:
448,320,46762,1,12,0:0:0:0:
448,64,47393,1,8,0:0:0:0:
448,64,47551,1,8,0:0:0:0:
64,64,47709,1,0,0:0:0:0:
448,64,47867,1,8,0:0:0:0:
448,64,48183,1,8,0:0:0:0:
64,64,48341,1,0,0:0:0:0:
448,64,48656,1,8,0:0:0:0:
448,64,48972,1,8,0:0:0:0:
64,64,49288,1,0,0:0:0:0:
448,64,49920,1,8,0:0:0:0:
64,64,50235,1,0,0:0:0:0:
64,64,50551,1,0,0:0:0:0:
448,64,50709,1,8,0:0:0:0:
64,64,50867,1,0,0:0:0:0:
64,64,51025,1,0,0:0:0:0:
448,64,51183,1,8,0:0:0:0:
448,64,51499,1,8,0:0:0:0:
64,64,51656,1,0,0:0:0:0:
448,320,51814,1,12,0:0:0:0:
64,64,52130,1,0,0:0:0:0:
64,64,52446,1,0,0:0:0:0:
448,64,52604,1,8,0:0:0:0:
448,64,52919,1,8,0:0:0:0:
448,64,53235,1,8,0:0:0:0:
64,64,53393,1,0,0:0:0:0:
64,64,53551,1,0,0:0:0:0:
448,64,53709,1,8,0:0:0:0:
64,64,53867,1,0,0:0:0:0:
448,64,54025,1,8,0:0:0:0:
448,64,54183,1,8,0:0:0:0:
64,64,54341,1,0,0:0:0:0:
64,64,54972,1,0,0:0:0:0:
64,64,55130,1,0,0:0:0:0:
448,64,55288,1,8,0:0:0:0:
64,64,55446,1,0,0:0:0:0:
448,64,55761,1,8,0:0:0:0:
448,64,55920,1,8,0:0:0:0:
448,64,56077,1,8,0:0:0:0:
448,64,56156,1,8,0:0:0:0:
448,64,56235,1,8,0:0:0:0:
64,64,56393,1,0,0:0:0:0:
448,64,56551,1,8,0:0:0:0:
64,64,56867,1,4,0:0:0:0:
64,64,57499,1,0,0:0:0:0:
448,64,57814,1,8,0:0:0:0:
64,64,58130,1,0,0:0:0:0:
448,64,58446,1,8,0:0:0:0:
64,64,58604,1,0,0:0:0:0:
64,64,58762,1,0,0:0:0:0:
64,64,58920,1,0,0:0:0:0:
64,64,58999,1,0,0:0:0:0:
64,64,59077,1,0,0:0:0:0:
448,320,59235,1,12,0:0:0:0:
64,64,59551,1,0,0:0:0:0:
448,64,59709,1,8,0:0:0:0:
448,64,59867,1,8,0:0:0:0:
64,64,60025,1,0,0:0:0:0:
448,64,60341,1,8,0:0:0:0:
448,64,60498,1,8,0:0:0:0:
64,64,60656,1,0,0:0:0:0:
64,64,60814,1,0,0:0:0:0:
448,64,60972,1,8,0:0:0:0:
448,64,61130,1,8,0:0:0:0:
64,64,61446,1,0,0:0:0:0:
64,64,61525,1,0,0:0:0:0:
64,64,61604,1,0,0:0:0:0:
448,320,61762,1,12,0:0:0:0:
448,64,62235,1,8,0:0:0:0:
64,64,62393,1,0,0:0:0:0:
448,64,62551,1,8,0:0:0:0:
64,64,62709,1,0,0:0:0:0:
448,64,62867,1,8,0:0:0:0:
64,64,63182,1,0,0:0:0:0:
64,64,63341,1,0,0:0:0:0:
448,64,63499,1,8,0:0:0:0:
64,64,63656,1,0,0:0:0:0:
64,64,63735,1,0,0:0:0:0:
64,64,63814,1,0,0:0:0:0:
448,64,63972,1,8,0:0:0:0:
64,64,64130,1,0,0:0:0:0:
448,320,64288,1,12,0:0:0:0:
448,64,64762,1,8,0:0:0:0:
448,64,64920,1,8,0:0:0:0:
64,64,65077,1,0,0:0:0:0:
64,64,65235,1,0,0:0:0:0:
448,64,65393,1,8,0:0:0:0:
448,64,65867,1,8,0:0:0:0:
448,64,66025,1,8,0:0:0:0:
64,64,66183,1,0,0:0:0:0:
64,64,66340,1,0,0:0:0:0:
64,64,66499,1,0,0:0:0:0:
64,64,66577,1,0,0:0:0:0:
64,64,66656,1,0,0:0:0:0:
448,320,66814,1,12,0:0:0:0:
64,64,67288,1,0,0:0:0:0:
64,64,67445,1,0,0:0:0:0:
448,64,67603,1,8,0:0:0:0:
64,64,67761,1,0,0:0:0:0:
448,64,67919,1,8,0:0:0:0:
64,64,68393,1,0,0:0:0:0:
448,64,68551,1,8,0:0:0:0:
448,64,68709,1,8,0:0:0:0:
64,64,68867,1,0,0:0:0:0:
64,64,69025,1,0,0:0:0:0:
448,320,69341,1,12,0:0:0:0:
64,64,69656,1,0,0:0:0:0:
448,64,69814,1,8,0:0:0:0:
64,64,69972,1,0,0:0:0:0:
64,64,70051,1,0,0:0:0:0:
64,64,70130,1,0,0:0:0:0:
64,64,70288,1,0,0:0:0:0:
448,64,70446,1,8,0:0:0:0:
64,64,70762,1,0,0:0:0:0:
64,64,70919,1,0,0:0:0:0:
64,64,71077,1,0,0:0:0:0:
448,64,71235,1,8,0:0:0:0:
64,64,71551,1,0,0:0:0:0:
64,64,71630,1,0,0:0:0:0:
64,64,71709,1,0,0:0:0:0:
448,320,71867,1,12,0:0:0:0:
448,64,72341,1,8,0:0:0:0:
64,64,72498,1,0,0:0:0:0:
448,64,72656,1,8,0:0:0:0:
448,64,72814,1,8,0:0:0:0:
64,64,72972,1,0,0:0:0:0:
64,64,73130,1,0,0:0:0:0:
448,64,73288,1,8,0:0:0:0:
448,64,73604,1,8,0:0:0:0:
448,64,73762,1,8,0:0:0:0:
64,64,73919,1,0,0:0:0:0:
64,64,74077,1,0,0:0:0:0:
64,64,74156,1,0,0:0:0:0:
64,64,74235,1,0,0:0:0:0:
448,320,74393,1,12,0:0:0:0:
448,64,74867,1,8,0:0:0:0:
64,64,75025,1,0,0:0:0:0:
448,64,75183,1,8,0:0:0:0:
448,64,75340,1,8,0:0:0:0:
448,64,75499,1,8,0:0:0:0:
64,64,75972,1,0,0:0:0:0:
448,64,76130,1,8,0:0:0:0:
64,64,76288,1,0,0:0:0:0:
64,64,76445,1,0,0:0:0:0:
64,64,76604,1,0,0:0:0:0:
64,64,76682,1,0,0:0:0:0:
64,64,76761,1,0,0:0:0:0:
448,320,76920,1,12,0:0:0:0:
448,64,77393,1,8,0:0:0:0:
448,64,77551,1,8,0:0:0:0:
64,64,77709,1,0,0:0:0:0:
64,64,77866,1,0,0:0:0:0:
448,64,78025,1,8,0:0:0:0:
64,64,78499,1,0,0:0:0:0:
448,64,78656,1,8,0:0:0:0:
64,64,78814,1,0,0:0:0:0:
448,64,78972,1,8,0:0:0:0:
448,64,79130,1,8,0:0:0:0:
64,64,79288,1,0,0:0:0:0:
448,320,79446,1,12,0:0:0:0:
64,64,79761,1,0,0:0:0:0:
448,64,79920,1,8,0:0:0:0:
65,70,80077,1,0,0:0:0:0:
448,64,80235,1,8,0:0:0:0:
64,64,80393,1,0,0:0:0:0:
448,64,80551,1,8,0:0:0:0:
448,64,80630,1,8,0:0:0:0:
448,64,80709,1,8,0:0:0:0:
64,320,80867,1,4,0:0:0:0:
64,320,81025,1,4,0:0:0:0:
64,320,81499,1,4,0:0:0:0:
64,320,81656,1,4,0:0:0:0:
448,64,82130,1,8,0:0:0:0:
64,64,82762,1,0,0:0:0:0:
64,64,83077,1,0,0:0:0:0:
448,64,83393,1,8,0:0:0:0:
64,64,84341,1,0,0:0:0:0:
64,64,84499,1,0,0:0:0:0:
448,64,84656,1,8,0:0:0:0:
448,64,85604,1,8,0:0:0:0:
448,64,85920,1,8,0:0:0:0:
448,64,86551,1,8,0:0:0:0:
64,64,87183,1,0,0:0:0:0:
64,64,88446,1,0,0:0:0:0:
64,64,88762,1,0,0:0:0:0:
64,64,89393,1,0,0:0:0:0:
448,320,89551,1,12,0:0:0:0:
448,64,90025,1,8,0:0:0:0:
448,64,90183,1,8,0:0:0:0:
64,64,90341,1,0,0:0:0:0:
448,64,90499,1,8,0:0:0:0:
64,64,90656,1,0,0:0:0:0:
64,64,90814,1,0,0:0:0:0:
448,64,90972,1,8,0:0:0:0:
64,64,91288,1,0,0:0:0:0:
64,64,91446,1,0,0:0:0:0:
448,64,91604,1,8,0:0:0:0:
64,64,91762,1,0,0:0:0:0:
64,64,93498,1,4,0:0:0:0:
448,64,94130,1,8,0:0:0:0:
64,64,94762,1,0,0:0:0:0:
64,64,95393,1,0,0:0:0:0:
64,64,95709,1,0,0:0:0:0:
448,64,96025,1,8,0:0:0:0:
64,64,96656,1,0,0:0:0:0:
448,64,97288,1,8,0:0:0:0:
448,64,97604,1,8,0:0:0:0:
64,64,97920,1,0,0:0:0:0:
448,64,98235,1,8,0:0:0:0:
64,64,98393,1,0,0:0:0:0:
448,320,98551,1,12,0:0:0:0:
448,64,98867,1,8,0:0:0:0:
448,64,99025,1,8,0:0:0:0:
64,64,99183,1,0,0:0:0:0:
448,64,99499,1,8,0:0:0:0:
64,64,99656,1,0,0:0:0:0:
64,64,99814,1,0,0:0:0:0:
448,64,100130,1,8,0:0:0:0:
64,64,100446,1,0,0:0:0:0:
448,64,100762,1,8,0:0:0:0:
448,320,101077,1,12,0:0:0:0:
448,64,101393,1,8,0:0:0:0:
64,64,101551,1,0,0:0:0:0:
448,64,101709,1,8,0:0:0:0:
64,64,101867,1,0,0:0:0:0:
448,64,102025,1,8,0:0:0:0:
448,320,102341,1,12,0:0:0:0:
448,320,102656,1,12,0:0:0:0:
448,320,103446,1,12,0:0:0:0:
64,64,103762,1,0,0:0:0:0:
448,64,103920,1,8,0:0:0:0:
448,64,104077,1,8,0:0:0:0:
64,64,104235,1,0,0:0:0:0:
64,64,104393,1,0,0:0:0:0:
448,64,104551,1,8,0:0:0:0:
448,64,104709,1,8,0:0:0:0:
64,64,104866,1,0,0:0:0:0:
64,64,105025,1,0,0:0:0:0:
64,64,105182,1,0,0:0:0:0:
448,64,105499,1,8,0:0:0:0:
448,64,105656,1,8,0:0:0:0:
448,320,106130,1,12,0:0:0:0:
448,64,106762,1,8,0:0:0:0:
64,64,106919,1,0,0:0:0:0:
448,64,107235,1,8,0:0:0:0:
448,64,107551,1,8,0:0:0:0:
64,64,107709,1,0,0:0:0:0:
448,64,108025,1,8,0:0:0:0:
64,64,108183,1,0,0:0:0:0:
64,64,108341,1,0,0:0:0:0:
64,64,108656,1,0,0:0:0:0:
448,64,109288,1,8,0:0:0:0:
64,64,109445,1,0,0:0:0:0:
448,64,109762,1,8,0:0:0:0:
448,64,110077,1,8,0:0:0:0:
64,64,110235,1,0,0:0:0:0:
448,64,110551,1,8,0:0:0:0:
64,64,110709,1,0,0:0:0:0:
64,64,110788,1,0,0:0:0:0:
64,64,110867,1,0,0:0:0:0:
64,64,111025,1,0,0:0:0:0:
448,320,111183,1,12,0:0:0:0:
448,64,111814,1,8,0:0:0:0:
64,64,111972,1,0,0:0:0:0:
448,64,112288,1,8,0:0:0:0:
448,64,112604,1,8,0:0:0:0:
64,64,112762,1,0,0:0:0:0:
64,64,112919,1,0,0:0:0:0:
448,64,113077,1,8,0:0:0:0:
64,64,113393,1,0,0:0:0:0:
448,64,113709,1,8,0:0:0:0:
448,64,114341,1,8,0:0:0:0:
64,64,114656,1,0,0:0:0:0:
64,64,114814,1,0,0:0:0:0:
64,64,114972,1,0,0:0:0:0:
448,64,115288,1,8,0:0:0:0:
448,64,115604,1,8,0:0:0:0:
64,64,115920,1,0,0:0:0:0:
64,64,116077,1,0,0:0:0:0:
448,320,116235,1,12,0:0:0:0:
64,64,116551,1,0,0:0:0:0:
64,64,116867,1,0,0:0:0:0:
64,64,117025,1,0,0:0:0:0:
448,64,117340,1,8,0:0:0:0:
448,64,117656,1,8,0:0:0:0:
448,64,117814,1,8,0:0:0:0:
64,64,117972,1,0,0:0:0:0:
448,64,118130,1,8,0:0:0:0:
64,64,118288,1,0,0:0:0:0:
448,64,118446,1,8,0:0:0:0:
448,64,118604,1,8,0:0:0:0:
64,64,118762,1,4,0:0:0:0:
64,64,119393,1,0,0:0:0:0:
64,64,119551,1,0,0:0:0:0:
448,64,119709,1,8,0:0:0:0:
448,64,119867,1,8,0:0:0:0:
448,64,120182,1,8,0:0:0:0:
64,64,120341,1,0,0:0:0:0:
448,64,120499,1,8,0:0:0:0:
448,64,120578,1,8,0:0:0:0:
448,64,120656,1,8,0:0:0:0:
64,64,120814,1,0,0:0:0:0:
448,64,120972,1,8,0:0:0:0:
64,64,121288,1,4,0:0:0:0:
64,64,121920,1,0,0:0:0:0:
64,64,122077,1,0,0:0:0:0:
448,64,122235,1,8,0:0:0:0:
64,64,122551,1,0,0:0:0:0:
448,64,122867,1,8,0:0:0:0:
64,64,123025,1,0,0:0:0:0:
64,64,123183,1,0,0:0:0:0:
64,64,123341,1,0,0:0:0:0:
64,64,123420,1,0,0:0:0:0:
64,64,123499,1,0,0:0:0:0:
448,320,123656,1,12,0:0:0:0:
64,64,123972,1,0,0:0:0:0:
448,64,124130,1,8,0:0:0:0:
448,64,124288,1,8,0:0:0:0:
64,64,124446,1,0,0:0:0:0:
448,64,124762,1,8,0:0:0:0:
64,64,124919,1,0,0:0:0:0:
64,64,125077,1,0,0:0:0:0:
64,64,125235,1,0,0:0:0:0:
448,64,125393,1,8,0:0:0:0:
64,64,125551,1,0,0:0:0:0:
64,64,125867,1,0,0:0:0:0:
64,64,125946,1,0,0:0:0:0:
64,64,126025,1,0,0:0:0:0:
448,320,126183,1,12,0:0:0:0:
448,64,126656,1,8,0:0:0:0:
64,64,126814,1,0,0:0:0:0:
64,64,126972,1,0,0:0:0:0:
64,64,127130,1,0,0:0:0:0:
448,64,127288,1,8,0:0:0:0:
64,64,127603,1,0,0:0:0:0:
64,64,127762,1,0,0:0:0:0:
448,64,127920,1,8,0:0:0:0:
64,64,128077,1,0,0:0:0:0:
64,64,128156,1,0,0:0:0:0:
64,64,128235,1,0,0:0:0:0:
448,64,128393,1,8,0:0:0:0:
64,64,128551,1,0,0:0:0:0:
448,320,128709,1,12,0:0:0:0:
448,64,129183,1,8,0:0:0:0:
448,64,129340,1,8,0:0:0:0:
64,64,129498,1,0,0:0:0:0:
64,64,129656,1,0,0:0:0:0:
448,64,129814,1,8,0:0:0:0:
448,64,130288,1,8,0:0:0:0:
448,64,130446,1,8,0:0:0:0:
64,64,130604,1,0,0:0:0:0:
64,64,130761,1,0,0:0:0:0:
64,64,130920,1,0,0:0:0:0:
64,64,130999,1,0,0:0:0:0:
64,64,131077,1,0,0:0:0:0:
448,320,131235,1,12,0:0:0:0:
448,64,131709,1,8,0:0:0:0:
64,64,131867,1,0,0:0:0:0:
448,64,132025,1,8,0:0:0:0:
64,64,132183,1,0,0:0:0:0:
448,64,132341,1,8,0:0:0:0:
64,64,132814,1,0,0:0:0:0:
448,64,132972,1,8,0:0:0:0:
64,64,133130,1,0,0:0:0:0:
448,64,133288,1,8,0:0:0:0:
448,64,133446,1,8,0:0:0:0:
64,64,133604,1,0,0:0:0:0:
448,320,133762,1,12,0:0:0:0:
448,64,134235,1,8,0:0:0:0:
64,64,134393,1,0,0:0:0:0:
448,64,134551,1,8,0:0:0:0:
448,64,134709,1,8,0:0:0:0:
448,64,134867,1,8,0:0:0:0:
64,64,135183,1,0,0:0:0:0:
64,64,135340,1,0,0:0:0:0:
448,64,135499,1,8,0:0:0:0:
64,64,135656,1,0,0:0:0:0:
64,64,135972,1,0,0:0:0:0:
64,64,136051,1,0,0:0:0:0:
64,64,136130,1,0,0:0:0:0:
448,320,136288,1,12,0:0:0:0:
448,64,136762,1,8,0:0:0:0:
64,64,136919,1,0,0:0:0:0:
448,64,137077,1,8,0:0:0:0:
448,64,137235,1,8,0:0:0:0:
64,64,137393,1,0,0:0:0:0:
64,64,137551,1,0,0:0:0:0:
448,64,137709,1,8,0:0:0:0:
448,64,138025,1,8,0:0:0:0:
64,64,138183,1,0,0:0:0:0:
64,64,138340,1,0,0:0:0:0:
64,64,138499,1,0,0:0:0:0:
64,64,138577,1,0,0:0:0:0:
64,64,138656,1,0,0:0:0:0:
448,320,138814,1,12,0:0:0:0:
448,64,139288,1,8,0:0:0:0:
448,64,139446,1,8,0:0:0:0:
64,64,139604,1,0,0:0:0:0:
64,64,139761,1,0,0:0:0:0:
448,64,139920,1,8,0:0:0:0:
64,64,140393,1,0,0:0:0:0:
448,64,140551,1,8,0:0:0:0:
64,64,140709,1,0,0:0:0:0:
62,89,140866,1,0,0:0:0:0:
64,64,141025,1,0,0:0:0:0:
64,64,141103,1,0,0:0:0:0:
64,64,141182,1,0,0:0:0:0:
448,320,141341,1,12,0:0:0:0:
448,64,141814,1,8,0:0:0:0:
448,64,141972,1,0,0:0:0:0:
64,64,142130,1,0,0:0:0:0:
448,64,142288,1,8,0:0:0:0:
448,64,142446,1,8,0:0:0:0:
64,64,142920,1,0,0:0:0:0:
448,64,143077,1,8,0:0:0:0:
64,64,143235,1,0,0:0:0:0:
64,64,143314,1,0,0:0:0:0:
64,64,143393,1,0,0:0:0:0:
448,64,143551,1,8,0:0:0:0:
64,64,143709,1,0,0:0:0:0:
448,320,143866,1,12,0:0:0:0:
64,64,144182,1,0,0:0:0:0:
448,64,144341,1,8,0:0:0:0:
64,64,144498,1,0,0:0:0:0:
448,64,144656,1,8,0:0:0:0:
64,64,144814,1,0,0:0:0:0:
448,64,144972,1,8,0:0:0:0:
448,64,145051,1,8,0:0:0:0:
448,64,145130,1,8,0:0:0:0:
64,320,145288,1,4,0:0:0:0:
64,320,145446,1,4,0:0:0:0:
64,320,145920,1,4,0:0:0:0:
64,320,146077,1,4,0:0:0:0:
448,320,146393,1,12,0:0:0:0:
448,64,146709,1,8,0:0:0:0:
64,64,146867,1,0,0:0:0:0:
64,64,147024,1,0,0:0:0:0:
448,64,147183,1,8,0:0:0:0:
64,64,147340,1,0,0:0:0:0:
448,64,147656,1,8,0:0:0:0:
64,64,147972,1,0,0:0:0:0:
448,64,148130,1,8,0:0:0:0:
448,64,148288,1,8,0:0:0:0:
64,64,148446,1,0,0:0:0:0:
64,64,148604,1,0,0:0:0:0:
448,320,148920,1,12,0:0:0:0:
448,64,149393,1,8,0:0:0:0:
64,64,149551,1,0,0:0:0:0:
64,64,149630,1,0,0:0:0:0:
64,64,149709,1,0,0:0:0:0:
64,64,149866,1,0,0:0:0:0:
448,64,150025,1,8,0:0:0:0:
64,64,150182,1,8,0:0:0:0:
64,64,150261,1,8,0:0:0:0:
64,64,150341,1,8,0:0:0:0:
64,64,150498,1,0,0:0:0:0:
448,64,150656,1,8,0:0:0:0:
64,64,150814,1,0,0:0:0:0:
64,64,151130,1,0,0:0:0:0:
64,64,151288,1,0,0:0:0:0:
448,320,151446,1,12,0:0:0:0:
448,64,151920,1,8,0:0:0:0:
64,64,152077,1,0,0:0:0:0:
64,64,152235,1,0,0:0:0:0:
64,64,152314,1,0,0:0:0:0:
64,64,152393,1,0,0:0:0:0:
448,64,152551,1,8,0:0:0:0:
64,64,152709,1,0,0:0:0:0:
448,64,153024,1,8,0:0:0:0:
448,64,153103,1,8,0:0:0:0:
448,64,153182,1,8,0:0:0:0:
448,64,153340,1,8,0:0:0:0:
64,64,153499,1,0,0:0:0:0:
64,64,153656,1,0,0:0:0:0:
448,64,153814,1,8,0:0:0:0:
64,320,153972,1,4,0:0:0:0:
448,64,154446,1,8,0:0:0:0:
64,64,154603,1,0,0:0:0:0:
448,64,154762,1,8,0:0:0:0:
64,64,154919,1,0,0:0:0:0:
448,64,155077,1,8,0:0:0:0:
64,64,155235,1,0,0:0:0:0:
448,64,155393,1,8,0:0:0:0:
64,64,155551,1,0,0:0:0:0:
64,64,155630,1,0,0:0:0:0:
64,64,155709,1,0,0:0:0:0:
448,64,156025,1,8,0:0:0:0:
448,64,156183,1,8,0:0:0:0:
64,64,156340,1,0,0:0:0:0:
448,320,156499,1,12,0:0:0:0:
64,64,156972,1,0,0:0:0:0:
448,64,157130,1,8,0:0:0:0:
64,64,157288,1,0,0:0:0:0:
64,64,157445,1,0,0:0:0:0:
448,64,157604,1,8,0:0:0:0:
64,64,157761,1,0,0:0:0:0:
448,64,158077,1,8,0:0:0:0:
448,64,158235,1,8,0:0:0:0:
64,64,158393,1,0,0:0:0:0:
448,64,158551,1,8,0:0:0:0:
64,64,158709,1,0,0:0:0:0:
64,64,158867,1,0,0:0:0:0:
448,320,159025,1,12,0:0:0:0:
64,64,159340,1,0,0:0:0:0:
448,64,159499,1,8,0:0:0:0:
256,192,159577,1,8,0:0:0:0:
64,64,159656,1,8,0:0:0:0:
448,64,159814,1,8,0:0:0:0:
64,64,159972,1,0,0:0:0:0:
64,64,160130,1,0,0:0:0:0:
448,64,160288,1,8,0:0:0:0:
64,64,160604,1,0,0:0:0:0:
448,64,160762,1,8,0:0:0:0:
64,64,160920,1,0,0:0:0:0:
64,64,160998,1,0,0:0:0:0:
64,64,161077,1,0,0:0:0:0:
448,64,161235,1,8,0:0:0:0:
64,64,161393,1,0,0:0:0:0:
448,320,161551,1,12,0:0:0:0:
448,64,162025,1,8,0:0:0:0:
64,64,162341,1,0,0:0:0:0:
64,64,162499,1,0,0:0:0:0:
448,64,162814,1,8,0:0:0:0:
64,64,163130,1,0,0:0:0:0:
448,64,163446,1,8,0:0:0:0:
64,64,163762,1,0,0:0:0:0:
448,320,164077,1,12,0:0:0:0:
64,64,164393,1,0,0:0:0:0:
64,64,164551,1,0,0:0:0:0:
448,64,164709,1,8,0:0:0:0:
64,64,164866,1,0,0:0:0:0:
448,64,165025,1,8,0:0:0:0:
64,64,165340,1,0,0:0:0:0:
448,320,165499,1,12,0:0:0:0:
448,320,165656,1,12,0:0:0:0:
64,320,166130,1,4,0:0:0:0:
64,320,166288,1,4,0:0:0:0:
448,320,166604,1,12,0:0:0:0:
448,64,167077,1,8,0:0:0:0:
64,64,167235,1,0,0:0:0:0:
448,64,167393,1,8,0:0:0:0:
64,64,167551,1,0,0:0:0:0:
64,64,167630,1,0,0:0:0:0:
64,64,167709,1,0,0:0:0:0:
448,320,167867,1,12,0:0:0:0:
448,64,168341,1,8,0:0:0:0:
64,64,168498,1,0,0:0:0:0:
64,64,168656,1,0,0:0:0:0:
64,64,168814,1,0,0:0:0:0:
64,64,168893,1,0,0:0:0:0:
64,64,168972,1,0,0:0:0:0:
448,320,169130,1,12,0:0:0:0:
448,64,169604,1,8,0:0:0:0:
64,64,169761,1,0,0:0:0:0:
448,64,169920,1,8,0:0:0:0:
64,64,170077,1,0,0:0:0:0:
64,64,170156,1,0,0:0:0:0:
64,64,170235,1,0,0:0:0:0:
448,320,170393,1,12,0:0:0:0:
64,64,170709,1,0,0:0:0:0:
448,64,170867,1,8,0:0:0:0:
448,64,171025,1,8,0:0:0:0:
64,64,171183,1,0,0:0:0:0:
64,64,171262,1,0,0:0:0:0:
64,64,171341,1,0,0:0:0:0:
448,320,171656,1,12,0:0:0:0:
64,64,171972,1,0,0:0:0:0:
448,64,172130,1,8,0:0:0:0:
64,64,172288,1,0,0:0:0:0:
64,64,172446,1,0,0:0:0:0:
448,64,172762,1,8,0:0:0:0:
64,64,172919,1,0,0:0:0:0:
64,64,173077,1,0,0:0:0:0:
64,64,173235,1,0,0:0:0:0:
448,64,173393,1,8,0:0:0:0:
64,64,173551,1,0,0:0:0:0:
64,64,173867,1,0,0:0:0:0:
64,64,173946,1,0,0:0:0:0:
64,64,174025,1,0,0:0:0:0:
448,320,174183,1,12,0:0:0:0:
448,64,174656,1,8,0:0:0:0:
64,64,174814,1,0,0:0:0:0:
64,64,174972,1,0,0:0:0:0:
64,64,175130,1,0,0:0:0:0:
448,64,175288,1,8,0:0:0:0:
448,64,175445,1,8,0:0:0:0:
64,64,175604,1,0,0:0:0:0:
448,64,175920,1,8,0:0:0:0:
64,64,176077,1,0,0:0:0:0:
64,64,176235,1,0,0:0:0:0:
64,64,176393,1,0,0:0:0:0:
64,64,176472,1,0,0:0:0:0:
64,64,176551,1,0,0:0:0:0:
448,320,176709,1,12,0:0:0:0:
448,64,177183,1,8,0:0:0:0:
64,64,177340,1,0,0:0:0:0:
448,64,177499,1,8,0:0:0:0:
64,64,177656,1,0,0:0:0:0:
64,64,177814,1,0,0:0:0:0:
448,64,178288,1,8,0:0:0:0:
64,64,178446,1,0,0:0:0:0:
448,64,178604,1,8,0:0:0:0:
64,64,178761,1,0,0:0:0:0:
64,64,178920,1,0,0:0:0:0:
64,64,178999,1,0,0:0:0:0:
64,64,179077,1,0,0:0:0:0:
448,320,179235,1,12,0:0:0:0:
64,64,179709,1,0,0:0:0:0:
59,59,179866,1,0,0:0:0:0:
448,64,180025,1,8,0:0:0:0:
59,59,180182,1,0,0:0:0:0:
448,64,180341,1,8,0:0:0:0:
64,64,180814,1,0,0:0:0:0:
448,64,180972,1,8,0:0:0:0:
64,64,181130,1,0,0:0:0:0:
448,64,181288,1,8,0:0:0:0:
448,64,181367,1,8,0:0:0:0:
448,64,181446,1,8,0:0:0:0:
64,64,181604,1,0,0:0:0:0:
448,320,181762,1,12,0:0:0:0:
448,64,182235,1,8,0:0:0:0:
69,70,182393,1,0,0:0:0:0:
64,64,182472,1,0,0:0:0:0:
64,64,182551,1,0,0:0:0:0:
69,70,182709,1,0,0:0:0:0:
448,64,182867,1,8,0:0:0:0:
448,64,183183,1,8,0:0:0:0:
69,70,183340,1,0,0:0:0:0:
69,70,183419,1,0,0:0:0:0:
64,64,183499,1,0,0:0:0:0:
448,64,183656,1,8,0:0:0:0:
64,64,183972,1,0,0:0:0:0:
64,64,184051,1,0,0:0:0:0:
64,64,184130,1,0,0:0:0:0:
448,320,184288,1,12,0:0:0:0:
448,64,184762,1,8,0:0:0:0:
69,70,184919,1,0,0:0:0:0:
448,64,185077,1,8,0:0:0:0:
448,64,185235,1,8,0:0:0:0:
64,64,185393,1,0,0:0:0:0:
64,64,185551,1,0,0:0:0:0:
448,64,185709,1,8,0:0:0:0:
448,64,186025,1,8,0:0:0:0:
69,70,186182,1,0,0:0:0:0:
64,64,186340,1,0,0:0:0:0:
64,64,186499,1,0,0:0:0:0:
64,64,186577,1,0,0:0:0:0:
64,64,186656,1,0,0:0:0:0:
448,320,186814,1,12,0:0:0:0:
448,64,187288,1,8,0:0:0:0:
448,64,187446,1,8,0:0:0:0:
64,64,187604,1,0,0:0:0:0:
69,70,187761,1,0,0:0:0:0:
448,64,187920,1,8,0:0:0:0:
64,64,188393,1,0,0:0:0:0:
448,64,188551,1,8,0:0:0:0:
448,64,188709,1,8,0:0:0:0:
64,64,188866,1,0,0:0:0:0:
64,64,189025,1,0,0:0:0:0:
64,64,189103,1,0,0:0:0:0:
64,64,189182,1,0,0:0:0:0:
448,320,189341,1,12,0:0:0:0:
448,64,189814,1,8,0:0:0:0:
69,70,189972,1,0,0:0:0:0:
64,64,190130,1,0,0:0:0:0:
69,70,190288,1,0,0:0:0:0:
448,64,190446,1,8,0:0:0:0:
64,64,190920,1,0,0:0:0:0:
448,64,191077,1,8,0:0:0:0:
64,64,191235,1,0,0:0:0:0:
62,80,191393,1,0,0:0:0:0:
64,64,191551,1,0,0:0:0:0:
64,64,191630,1,0,0:0:0:0:
64,64,191709,1,0,0:0:0:0:
448,320,191867,1,12,0:0:0:0:
64,64,192182,1,0,0:0:0:0:
64,64,192341,1,0,0:0:0:0:
64,64,192498,1,0,0:0:0:0:
448,64,192656,1,8,0:0:0:0:
64,64,192814,1,0,0:0:0:0:
448,64,192972,1,8,0:0:0:0:
448,64,193051,1,8,0:0:0:0:
448,64,193130,1,8,0:0:0:0:
64,320,193288,1,4,0:0:0:0:
64,320,193446,1,4,0:0:0:0:
64,320,193920,1,4,0:0:0:0:
64,320,194077,1,4,0:0:0:0:
256,192,194235,12,0,196130,0:0:0:0:
