osu file format v14

[General]
AudioFilename: audio.mp3
AudioLeadIn: 0
PreviewTime: 125932
Countdown: 0
SampleSet: Soft
StackLeniency: 0.7
Mode: 3
LetterboxInBreaks: 0
SpecialStyle: 0
WidescreenStoryboard: 1

[Editor]
DistanceSpacing: 0.8
BeatDivisor: 4
GridSize: 32
TimelineZoom: 2.4

[Metadata]
Title:Daemonisch
TitleUnicode:デモーニッシュ
Artist:TUYU
ArtistUnicode:ツユ
Creator:deta5859
Version:Yukarin's Normal
Source:
Tags:FAMoss _Rokii Yukari_Sama atian540 貴方を不幸に誘いますね ぷす Pusu 礼衣 Rei あじゅん AzyuN おむたつ Omutatsu dämonisch demonish Japanese Rock J-Rock Jrock J-Pop Jpop Pop I'll put you in misery TUYU-0002 Tsuyu
BeatmapID:2971005
BeatmapSetID:1444121

[Difficulty]
HPDrainRate:7
CircleSize:4
OverallDifficulty:7.5
ApproachRate:5
SliderMultiplier:1.4
SliderTickRate:1

[Events]
//Background and Video events
0,0,"human.jpg",0,0
//Break Periods
//Storyboard Layer 0 (Background)
//Storyboard Layer 1 (Fail)
//Storyboard Layer 2 (Pass)
//Storyboard Layer 3 (Foreground)
//Storyboard Layer 4 (Overlay)
//Storyboard Sound Samples
Sample,13170,0,"snare.wav",60
Sample,13504,0,"snare.wav",60
Sample,16504,0,"ClapHand.wav",60
Sample,19170,0,"ClapHand.wav",60
Sample,21837,0,"ClapHand.wav",60
Sample,23837,0,"snare.wav",60
Sample,24170,0,"snare.wav",60
Sample,36604,0,"snare.wav",70
Sample,39454,0,"snare.wav",60
Sample,39754,0,"snare.wav",60
Sample,41854,0,"snare.wav",60
Sample,42154,0,"snare.wav",60
Sample,50104,0,"ClapHand.wav",60
Sample,50404,0,"ClapHand.wav",60
Sample,50704,0,"ClapHand.wav",60
Sample,51004,0,"ClapHand.wav",60
Sample,51304,0,"ClapHand.wav",60
Sample,51529,0,"ClapHand.wav",60
Sample,51754,0,"ClapHand.wav",60
Sample,52204,0,"ClapHand.wav",60
Sample,52504,0,"ClapHand.wav",60
Sample,52804,0,"ClapHand.wav",60
Sample,53104,0,"ClapHand.wav",60
Sample,53404,0,"ClapHand.wav",60
Sample,54004,0,"ClapHand.wav",60
Sample,67398,0,"snare.wav",60
Sample,67732,0,"snare.wav",60
Sample,76065,0,"ClapHand.wav",60
Sample,78065,0,"snare.wav",60
Sample,78398,0,"snare.wav",60
Sample,93682,0,"snare.wav",60
Sample,93982,0,"snare.wav",60
Sample,96082,0,"snare.wav",60
Sample,96382,0,"snare.wav",60
Sample,123232,0,"ClapHand.wav",60
Sample,127882,0,"snare.wav",60
Sample,128182,0,"snare.wav",60
Sample,130582,0,"snare.wav",60
Sample,139882,0,"snare.wav",60
Sample,140182,0,"snare.wav",60
Sample,142282,0,"snare.wav",60
Sample,142582,0,"snare.wav",60
Sample,147082,0,"snare.wav",60
Sample,151582,0,"snare.wav",60
Sample,151882,0,"snare.wav",60
Sample,152182,0,"snare.wav",60
Sample,156232,0,"snare.wav",60
Sample,156682,0,"snare.wav",70
Sample,156832,0,"snare.wav",60
Sample,156982,0,"snare.wav",60

[TimingPoints]
76,428.571428571429,4,2,1,80,1,0
76,-70.4225352112676,4,2,1,80,0,0
3504,333.333333333334,4,2,1,80,1,0
3504,-90.0900900900901,4,2,1,80,0,0
25504,300,4,2,1,80,1,1
49504,-100,4,2,1,80,0,0
54304,428.571428571429,4,2,1,80,1,0
54304,-70.4225352112676,4,2,1,80,0,0
57732,333.333333333334,4,2,1,80,1,0
57732,-90.0900900900901,4,2,1,80,0,0
79732,300.000000000001,4,2,1,80,1,1
103732,-100,4,2,1,80,0,0
113932,300.000000000001,4,2,1,80,1,0
125932,-100,4,2,1,80,0,1
157132,-100,4,2,1,80,0,0

[HitObjects]
64,192,76,1,0,0:0:0:0:
192,192,290,1,0,0:0:0:0:
320,192,504,1,0,0:0:0:0:
448,192,718,1,0,0:0:0:0:
64,192,933,128,0,1361:0:0:0:0:
192,192,1361,128,0,1790:0:0:0:0:
448,192,1790,1,0,0:0:0:0:
320,192,2004,1,0,0:0:0:0:
192,192,2218,1,0,0:0:0:0:
64,192,2433,1,0,0:0:0:0:
448,192,2647,128,0,2861:0:0:0:0:
192,192,2861,128,0,3076:0:0:0:0:
320,192,3076,128,0,3290:0:0:0:0:
64,192,3290,128,0,3504:0:0:0:0:
320,192,3504,1,2,0:0:0:0:
448,192,3504,1,0,0:0:0:0:
64,192,3837,1,2,0:0:0:0:
320,192,3837,1,0,0:0:0:0:
64,192,4170,1,2,0:0:0:0:
192,192,4170,1,0,0:0:0:0:
192,192,4504,1,2,0:0:0:0:
448,192,4504,1,0,0:0:0:0:
320,192,4837,1,2,0:0:0:0:
448,192,4837,1,0,0:0:0:0:
64,192,5170,1,2,0:0:0:0:
320,192,5170,1,0,0:0:0:0:
64,192,5504,1,2,0:0:0:0:
192,192,5504,1,0,0:0:0:0:
192,192,5837,1,2,0:0:0:0:
448,192,5837,1,0,0:0:0:0:
64,192,6170,1,2,0:0:0:0:
448,192,6170,1,0,0:0:0:0:
64,192,6504,1,2,0:0:0:0:
320,192,6504,1,0,0:0:0:0:
192,192,6837,1,2,0:0:0:0:
320,192,6837,1,0,0:0:0:0:
192,192,7170,1,2,0:0:0:0:
448,192,7170,1,0,0:0:0:0:
320,192,7504,1,2,0:0:0:0:
448,192,7504,1,0,0:0:0:0:
192,192,7837,1,2,0:0:0:0:
320,192,7837,1,0,0:0:0:0:
64,192,8170,1,2,0:0:0:0:
192,192,8170,1,0,0:0:0:0:
64,192,8504,1,2,0:0:0:0:
448,192,8504,1,0,0:0:0:0:
320,192,8837,1,2,0:0:0:0:
448,192,8837,1,0,0:0:0:0:
192,192,9170,1,2,0:0:0:0:
320,192,9170,1,0,0:0:0:0:
64,192,9504,1,2,0:0:0:0:
192,192,9504,1,0,0:0:0:0:
64,192,9837,1,2,0:0:0:0:
448,192,9837,1,0,0:0:0:0:
192,192,10170,1,2,0:0:0:0:
448,192,10170,1,0,0:0:0:0:
192,192,10504,1,2,0:0:0:0:
320,192,10504,1,0,0:0:0:0:
320,192,10837,1,2,0:0:0:0:
448,192,10837,1,0,0:0:0:0:
64,192,11170,1,2,0:0:0:0:
448,192,11170,1,0,0:0:0:0:
64,192,11504,1,2,0:0:0:0:
192,192,11504,1,0,0:0:0:0:
320,192,11837,1,8,0:0:0:0:
448,192,11837,1,0,0:0:0:60:snare.wav
64,192,12004,1,2,0:0:0:0:
192,192,12170,1,0,0:0:0:0:
320,192,12337,1,2,0:0:0:0:
64,192,12504,1,8,0:0:0:0:
448,192,12504,1,0,0:0:0:60:snare.wav
64,192,12837,1,2,0:0:0:0:
192,192,12837,1,0,0:0:0:0:
448,192,13004,1,2,0:0:0:0:
320,192,13087,1,2,0:0:0:0:
192,192,13170,1,8,0:0:0:0:
448,192,13337,1,2,0:0:0:0:
64,192,13504,1,8,0:0:0:0:
320,192,13670,1,2,0:0:0:0:
64,192,13837,1,8,0:0:0:0:
192,192,13837,1,0,0:0:0:60:snare.wav
448,192,14004,1,2,0:0:0:0:
64,192,14170,1,2,0:0:0:0:
320,192,14170,1,4,0:0:0:0:
192,192,14504,1,2,0:0:0:0:
320,192,14504,1,0,0:0:0:70:ClapHand.wav
192,192,14837,1,2,0:0:0:0:
448,192,14837,1,0,0:0:0:0:
64,192,15170,1,2,0:0:0:0:
448,192,15170,1,0,0:0:0:70:ClapHand.wav
64,192,15504,1,2,0:0:0:0:
320,192,15504,1,0,0:0:0:0:
320,192,15837,1,2,0:0:0:0:
448,192,15837,1,0,0:0:0:70:ClapHand.wav
64,192,16170,1,2,0:0:0:0:
448,192,16170,1,0,0:0:0:0:
192,192,16337,1,0,0:0:0:0:
320,192,16504,1,2,0:0:0:0:
192,192,16670,1,0,0:0:0:0:
64,192,16837,1,2,0:0:0:0:
448,192,16837,1,0,0:0:0:0:
320,192,17170,1,2,0:0:0:0:
448,192,17170,1,0,0:0:0:60:ClapHand.wav
192,192,17504,1,2,0:0:0:0:
320,192,17504,1,0,0:0:0:0:
64,192,17837,1,2,0:0:0:0:
192,192,17837,1,0,0:0:0:60:ClapHand.wav
64,192,18170,1,2,0:0:0:0:
320,192,18170,1,0,0:0:0:0:
320,192,18504,1,2,0:0:0:0:
448,192,18504,1,0,0:0:0:60:ClapHand.wav
64,192,18837,1,2,0:0:0:0:
448,192,18837,1,0,0:0:0:0:
320,192,19004,1,0,0:0:0:0:
192,192,19170,1,2,0:0:0:0:
320,192,19337,1,0,0:0:0:0:
64,192,19504,1,2,0:0:0:0:
448,192,19504,1,4,0:0:0:0:
64,192,19837,1,2,0:0:0:0:
192,192,19837,1,0,0:0:0:60:ClapHand.wav
192,192,20170,1,2,0:0:0:0:
320,192,20170,1,0,0:0:0:0:
320,192,20504,1,2,0:0:0:0:
448,192,20504,1,0,0:0:0:60:ClapHand.wav
192,192,20837,1,2,0:0:0:0:
448,192,20837,1,0,0:0:0:0:
64,192,21170,1,2,0:0:0:0:
192,192,21170,1,0,0:0:0:60:ClapHand.wav
320,192,21504,1,2,0:0:0:0:
448,192,21504,1,0,0:0:0:0:
192,192,21670,1,0,0:0:0:0:
320,192,21837,1,2,0:0:0:0:
64,192,22004,1,0,0:0:0:0:
192,192,22170,1,2,0:0:0:0:
448,192,22170,1,4,0:0:0:0:
320,192,22504,1,8,0:0:0:0:
448,192,22504,1,0,0:0:0:60:snare.wav
192,192,22670,1,2,0:0:0:0:
64,192,22837,1,0,0:0:0:0:
320,192,23004,1,2,0:0:0:0:
64,192,23170,1,8,0:0:0:0:
448,192,23170,1,0,0:0:0:60:snare.wav
320,192,23504,1,2,0:0:0:0:
448,192,23504,1,4,0:0:0:0:
64,192,23670,1,2,0:0:0:0:
192,192,23754,1,2,0:0:0:0:
320,192,23837,1,8,0:0:0:0:
448,192,24004,1,2,0:0:0:0:
192,192,24170,1,8,0:0:0:0:
320,192,24337,1,2,0:0:0:0:
64,192,24504,1,8,0:0:0:0:
192,192,24504,1,0,0:0:0:60:snare.wav
448,192,24670,1,2,0:0:0:0:
64,192,25504,1,2,0:0:0:0:
192,192,25504,1,4,0:0:0:0:
192,192,25804,1,10,0:0:0:0:
448,192,25804,1,0,0:0:0:60:snare.wav
320,192,25954,1,0,0:0:0:0:
64,192,26104,1,2,0:0:0:0:
192,192,26254,1,0,0:0:0:0:
320,192,26404,1,10,0:0:0:0:
448,192,26404,1,0,0:0:0:60:snare.wav
64,192,26704,1,2,0:0:0:0:
448,192,26704,1,0,0:0:0:0:
64,192,27004,1,10,0:0:0:0:
192,192,27004,1,0,0:0:0:60:snare.wav
320,192,27154,1,0,0:0:0:0:
448,192,27304,1,2,0:0:0:0:
192,192,27454,1,0,0:0:0:0:
64,192,27604,1,10,0:0:0:0:
320,192,27604,1,0,0:0:0:60:snare.wav
320,192,27904,1,2,0:0:0:0:
448,192,27904,1,0,0:0:0:0:
64,192,28204,1,10,0:0:0:0:
448,192,28204,1,0,0:0:0:60:snare.wav
192,192,28354,1,0,0:0:0:0:
320,192,28504,1,2,0:0:0:0:
448,192,28654,1,0,0:0:0:0:
192,192,28804,1,10,0:0:0:0:
320,192,28804,1,0,0:0:0:60:snare.wav
64,192,29104,1,2,0:0:0:0:
192,192,29104,1,0,0:0:0:0:
64,192,29404,1,10,0:0:0:0:
448,192,29404,1,0,0:0:0:60:snare.wav
320,192,29554,1,0,0:0:0:0:
192,192,29704,1,2,0:0:0:0:
64,192,29854,1,0,0:0:0:0:
192,192,30004,1,10,0:0:0:0:
320,192,30004,1,0,0:0:0:60:snare.wav
320,192,30304,1,2,0:0:0:0:
448,192,30304,1,0,0:0:0:0:
192,192,30604,1,10,0:0:0:0:
448,192,30604,1,0,0:0:0:60:snare.wav
320,192,30754,1,0,0:0:0:0:
64,192,30904,1,2,0:0:0:0:
192,192,31054,1,0,0:0:0:0:
320,192,31204,1,10,0:0:0:0:
448,192,31204,1,0,0:0:0:60:snare.wav
64,192,31504,1,2,0:0:0:0:
192,192,31504,1,0,0:0:0:0:
64,192,31804,1,10,0:0:0:0:
320,192,31804,1,0,0:0:0:60:snare.wav
192,192,31954,1,0,0:0:0:0:
448,192,32104,1,2,0:0:0:0:
320,192,32254,1,0,0:0:0:0:
64,192,32404,1,10,0:0:0:0:
192,192,32404,1,0,0:0:0:60:snare.wav
448,192,32704,1,2,0:0:0:0:
320,192,32854,1,0,0:0:0:0:
64,192,33004,128,10,33304:0:0:0:0:
192,192,33004,1,0,0:0:0:60:snare.wav
320,192,33304,1,2,0:0:0:0:
192,192,33454,1,0,0:0:0:0:
64,192,33604,1,10,0:0:0:0:
448,192,33604,128,0,33904:0:0:0:60:snare.wav
192,192,33904,1,2,0:0:0:0:
320,192,34054,1,0,0:0:0:0:
64,192,34204,128,10,34504:0:0:0:0:
448,192,34204,1,0,0:0:0:60:snare.wav
448,192,34504,1,2,0:0:0:0:
320,192,34654,1,0,0:0:0:0:
64,192,34804,1,10,0:0:0:0:
192,192,34804,128,0,35104:0:0:0:60:snare.wav
448,192,35104,1,2,0:0:0:0:
64,192,35404,1,10,0:0:0:0:
192,192,35404,1,0,0:0:0:60:snare.wav
320,192,35554,1,0,0:0:0:0:
64,192,35704,1,2,0:0:0:0:
192,192,35854,1,0,0:0:0:0:
320,192,36004,1,10,0:0:0:0:
448,192,36004,1,0,0:0:0:60:snare.wav
64,192,36304,1,2,0:0:0:0:
64,192,36604,1,2,0:0:0:0:
448,192,36904,1,0,0:0:0:0:
192,192,37054,1,0,0:0:0:0:
320,192,37354,1,0,0:0:0:0:
64,192,37504,1,2,0:0:0:0:
448,192,37504,1,4,0:0:0:0:
192,192,37654,1,2,0:0:0:0:
320,192,37804,1,8,0:0:0:0:
448,192,37804,1,0,0:0:0:60:snare.wav
64,192,37954,1,2,0:0:0:0:
192,192,38104,1,2,0:0:0:0:
320,192,38254,1,2,0:0:0:0:
64,192,38404,1,8,0:0:0:0:
192,192,38404,1,0,0:0:0:60:snare.wav
448,192,38704,1,2,0:0:0:0:
64,192,38854,1,8,0:0:0:0:
192,192,38854,1,0,0:0:0:60:snare.wav
448,192,39004,1,2,0:0:0:0:
64,192,39154,1,8,0:0:0:0:
192,192,39154,1,0,0:0:0:60:snare.wav
320,192,39304,1,2,0:0:0:0:
448,192,39454,1,8,0:0:0:0:
64,192,39604,1,2,0:0:0:0:
192,192,39754,1,8,0:0:0:0:
448,192,39904,1,2,0:0:0:0:
64,192,40054,1,2,0:0:0:0:
192,192,40204,1,8,0:0:0:0:
448,192,40204,1,0,0:0:0:60:snare.wav
320,192,40354,1,2,0:0:0:0:
192,192,40504,1,2,0:0:0:0:
64,192,40654,1,2,0:0:0:0:
320,192,40804,1,8,0:0:0:0:
448,192,40804,1,0,0:0:0:60:snare.wav
448,192,41104,1,2,0:0:0:0:
64,192,41254,1,8,0:0:0:0:
192,192,41254,1,0,0:0:0:60:snare.wav
448,192,41404,1,2,0:0:0:0:
64,192,41554,1,8,0:0:0:0:
192,192,41554,1,0,0:0:0:60:snare.wav
320,192,41704,1,2,0:0:0:0:
448,192,41854,1,8,0:0:0:0:
192,192,42004,1,2,0:0:0:0:
320,192,42154,1,8,0:0:0:0:
64,192,42304,1,2,0:0:0:0:
448,192,42304,1,0,0:0:0:0:
320,192,42604,1,2,0:0:0:0:
192,192,42754,1,0,0:0:0:0:
448,192,42904,1,2,0:0:0:0:
64,192,43054,1,0,0:0:0:0:
192,192,43204,1,2,0:0:0:0:
448,192,43354,128,0,44104:0:0:0:0:
64,192,43504,1,2,0:0:0:0:
320,192,43804,1,2,0:0:0:0:
64,192,44104,1,2,0:0:0:0:
192,192,44104,1,0,0:0:0:0:
192,192,44404,1,2,0:0:0:0:
448,192,44404,1,0,0:0:0:0:
64,192,44704,1,2,0:0:0:0:
448,192,44704,128,0,45004:0:0:0:0:
64,192,45004,128,2,45304:0:0:0:0:
320,192,45004,1,0,0:0:0:0:
192,192,45304,1,2,0:0:0:0:
320,192,45304,128,0,45604:0:0:0:0:
192,192,45604,128,8,45904:0:0:0:0:
448,192,45604,1,0,0:0:0:60:snare.wav
64,192,45904,1,2,0:0:0:0:
448,192,45904,128,0,46204:0:0:0:0:
64,192,46204,1,8,0:0:0:0:
320,192,46204,128,0,46504:0:0:0:60:snare.wav
192,192,46504,1,2,0:0:0:0:
64,192,46654,1,2,0:0:0:0:
320,192,46804,1,8,0:0:0:0:
448,192,46804,128,0,47104:0:0:0:60:snare.wav
192,192,47104,128,0,47554:0:0:0:0:
320,192,47554,1,0,0:0:0:0:
64,192,47704,128,0,48304:0:0:0:0:
320,192,48304,1,2,0:0:0:0:
448,192,48754,128,0,49054:0:0:0:0:
192,192,49054,1,0,0:0:0:0:
320,192,49204,128,0,49504:0:0:0:0:
64,192,49504,1,2,0:0:0:0:
192,192,49504,128,4,49654:0:0:0:0:
320,192,49654,128,2,49804:0:0:0:0:
64,192,49804,128,2,49954:0:0:0:0:
448,192,49954,128,2,50104:0:0:0:0:
192,192,50104,128,2,50254:0:0:0:0:
320,192,50254,128,2,50404:0:0:0:0:
64,192,50404,128,2,50554:0:0:0:0:
448,192,50554,128,2,50704:0:0:0:0:
64,192,50704,128,2,50854:0:0:0:0:
192,192,50854,128,2,51004:0:0:0:0:
320,192,51004,128,2,51154:0:0:0:0:
448,192,51154,128,2,51304:0:0:0:0:
64,192,51304,1,2,0:0:0:0:
320,192,51529,1,2,0:0:0:0:
192,192,51754,1,2,0:0:0:0:
320,192,51904,128,6,52054:0:0:0:0:
448,192,51904,1,0,0:0:0:60:ClapHand.wav
192,192,52054,128,2,52204:0:0:0:0:
448,192,52204,128,2,52354:0:0:0:0:
64,192,52354,128,2,52504:0:0:0:0:
320,192,52504,128,2,52654:0:0:0:0:
192,192,52654,128,2,52804:0:0:0:0:
448,192,52804,128,2,52954:0:0:0:0:
64,192,52954,128,2,53104:0:0:0:0:
448,192,53104,128,2,53254:0:0:0:0:
320,192,53254,128,2,53404:0:0:0:0:
192,192,53404,128,2,53554:0:0:0:0:
64,192,53554,128,2,53704:0:0:0:0:
448,192,53704,1,2,0:0:0:0:
192,192,53854,1,0,0:0:0:60:ClapHand.wav
320,192,54004,1,2,0:0:0:0:
64,192,54304,1,2,0:0:0:0:
192,192,54304,1,4,0:0:0:0:
448,192,54518,1,0,0:0:0:0:
320,192,54732,1,0,0:0:0:0:
192,192,54946,1,0,0:0:0:0:
64,192,55161,128,2,55589:0:0:0:0:
320,192,55161,1,0,0:0:0:0:
448,192,55589,128,0,56018:0:0:0:0:
64,192,56018,1,2,0:0:0:0:
320,192,56018,1,0,0:0:0:0:
192,192,56232,1,0,0:0:0:0:
448,192,56446,1,2,0:0:0:0:
320,192,56661,1,0,0:0:0:0:
64,192,56875,128,2,57089:0:0:0:0:
192,192,56875,1,0,0:0:0:0:
320,192,57089,128,2,57304:0:0:0:0:
64,192,57304,1,8,0:0:0:0:
448,192,57304,128,0,57518:0:0:0:60:snare.wav
192,192,57518,128,0,57732:0:0:0:0:
320,192,57732,1,2,0:0:0:0:
448,192,57732,1,4,0:0:0:0:
192,192,58065,1,2,0:0:0:0:
320,192,58065,1,0,0:0:0:0:
64,192,58398,1,2,0:0:0:0:
192,192,58398,1,0,0:0:0:0:
64,192,58732,1,2,0:0:0:0:
448,192,58732,1,0,0:0:0:0:
320,192,59065,1,2,0:0:0:0:
448,192,59065,1,0,0:0:0:0:
64,192,59398,1,2,0:0:0:0:
320,192,59398,1,0,0:0:0:0:
64,192,59732,1,2,0:0:0:0:
192,192,59732,1,0,0:0:0:0:
192,192,60065,1,2,0:0:0:0:
448,192,60065,1,0,0:0:0:0:
64,192,60398,1,2,0:0:0:0:
448,192,60398,1,0,0:0:0:0:
64,192,60732,1,2,0:0:0:0:
320,192,60732,1,0,0:0:0:0:
192,192,61065,1,2,0:0:0:0:
320,192,61065,1,0,0:0:0:0:
192,192,61398,1,2,0:0:0:0:
448,192,61398,1,0,0:0:0:0:
320,192,61732,1,2,0:0:0:0:
448,192,61732,1,0,0:0:0:0:
192,192,62065,1,2,0:0:0:0:
320,192,62065,1,0,0:0:0:0:
64,192,62398,1,2,0:0:0:0:
192,192,62398,1,0,0:0:0:0:
64,192,62732,1,2,0:0:0:0:
448,192,62732,1,0,0:0:0:0:
320,192,63065,1,2,0:0:0:0:
448,192,63065,1,0,0:0:0:0:
192,192,63398,1,2,0:0:0:0:
320,192,63398,1,0,0:0:0:0:
64,192,63732,1,2,0:0:0:0:
192,192,63732,1,0,0:0:0:0:
64,192,64065,1,2,0:0:0:0:
448,192,64065,1,0,0:0:0:0:
192,192,64398,1,2,0:0:0:0:
448,192,64398,1,0,0:0:0:0:
192,192,64732,1,2,0:0:0:0:
320,192,64732,1,0,0:0:0:0:
320,192,65065,1,2,0:0:0:0:
448,192,65065,1,0,0:0:0:0:
64,192,65398,1,2,0:0:0:0:
448,192,65398,1,0,0:0:0:0:
64,192,65732,1,2,0:0:0:0:
192,192,65732,1,0,0:0:0:0:
320,192,66065,1,8,0:0:0:0:
448,192,66065,1,0,0:0:0:60:snare.wav
64,192,66232,1,2,0:0:0:0:
192,192,66398,1,0,0:0:0:0:
320,192,66565,1,2,0:0:0:0:
64,192,66732,1,8,0:0:0:0:
448,192,66732,1,0,0:0:0:60:snare.wav
64,192,67065,1,2,0:0:0:0:
192,192,67065,1,0,0:0:0:0:
448,192,67232,1,2,0:0:0:0:
320,192,67315,1,2,0:0:0:0:
192,192,67398,1,8,0:0:0:0:
448,192,67565,1,2,0:0:0:0:
64,192,67732,1,8,0:0:0:0:
320,192,67898,1,2,0:0:0:0:
64,192,68065,1,8,0:0:0:0:
192,192,68065,1,0,0:0:0:60:snare.wav
448,192,68232,1,2,0:0:0:0:
64,192,68398,1,2,0:0:0:0:
320,192,68398,1,4,0:0:0:0:
192,192,68732,1,2,0:0:0:0:
320,192,68732,1,0,0:0:0:60:ClapHand.wav
192,192,69065,1,2,0:0:0:0:
448,192,69065,1,0,0:0:0:0:
64,192,69398,1,2,0:0:0:0:
448,192,69398,1,0,0:0:0:60:ClapHand.wav
64,192,69732,1,2,0:0:0:0:
320,192,69732,1,0,0:0:0:0:
320,192,70065,1,2,0:0:0:0:
448,192,70065,1,0,0:0:0:60:ClapHand.wav
64,192,70398,1,2,0:0:0:0:
448,192,70398,1,0,0:0:0:0:
64,192,70732,1,2,0:0:0:0:
192,192,70732,1,0,0:0:0:60:ClapHand.wav
192,192,71065,1,2,0:0:0:0:
448,192,71065,1,0,0:0:0:0:
320,192,71398,1,2,0:0:0:0:
448,192,71398,1,0,0:0:0:60:ClapHand.wav
192,192,71732,1,2,0:0:0:0:
320,192,71732,1,0,0:0:0:0:
64,192,72065,1,2,0:0:0:0:
192,192,72065,1,0,0:0:0:60:ClapHand.wav
64,192,72398,1,2,0:0:0:0:
320,192,72398,1,0,0:0:0:0:
320,192,72732,1,2,0:0:0:0:
448,192,72732,1,0,0:0:0:60:ClapHand.wav
64,192,73065,1,2,0:0:0:0:
448,192,73065,1,0,0:0:0:0:
64,192,73398,1,2,0:0:0:0:
320,192,73398,1,0,0:0:0:60:ClapHand.wav
192,192,73732,1,2,0:0:0:0:
320,192,73732,1,4,0:0:0:0:
64,192,74065,1,2,0:0:0:0:
192,192,74065,1,0,0:0:0:60:ClapHand.wav
64,192,74398,1,2,0:0:0:0:
320,192,74398,1,0,0:0:0:0:
320,192,74732,1,2,0:0:0:0:
448,192,74732,1,0,0:0:0:60:ClapHand.wav
192,192,75065,1,2,0:0:0:0:
448,192,75065,1,0,0:0:0:0:
64,192,75398,1,2,0:0:0:0:
192,192,75398,1,0,0:0:0:60:ClapHand.wav
320,192,75732,1,2,0:0:0:0:
448,192,75732,1,0,0:0:0:0:
192,192,75898,1,0,0:0:0:0:
320,192,76065,1,2,0:0:0:0:
64,192,76232,1,0,0:0:0:0:
192,192,76398,1,2,0:0:0:0:
448,192,76398,1,4,0:0:0:0:
64,192,76732,1,8,0:0:0:0:
320,192,76732,1,0,0:0:0:60:snare.wav
192,192,76898,1,2,0:0:0:0:
320,192,77065,1,0,0:0:0:0:
448,192,77232,1,2,0:0:0:0:
64,192,77398,1,8,0:0:0:0:
192,192,77398,1,0,0:0:0:60:snare.wav
320,192,77732,1,2,0:0:0:0:
448,192,77732,1,4,0:0:0:0:
64,192,77898,1,2,0:0:0:0:
192,192,77982,1,2,0:0:0:0:
320,192,78065,1,8,0:0:0:0:
448,192,78232,1,2,0:0:0:0:
192,192,78398,1,8,0:0:0:0:
320,192,78565,1,2,0:0:0:0:
64,192,78732,1,8,0:0:0:0:
448,192,78732,1,0,0:0:0:60:snare.wav
192,192,78898,1,2,0:0:0:0:
64,192,79732,1,2,0:0:0:0:
448,192,79732,1,4,0:0:0:0:
320,192,80032,1,10,0:0:0:0:
448,192,80032,1,0,0:0:0:60:snare.wav
192,192,80182,1,0,0:0:0:0:
64,192,80332,1,2,0:0:0:0:
320,192,80482,1,0,0:0:0:0:
192,192,80632,1,10,0:0:0:0:
448,192,80632,1,0,0:0:0:60:snare.wav
64,192,80932,1,2,0:0:0:0:
448,192,80932,1,0,0:0:0:0:
64,192,81232,1,10,0:0:0:0:
192,192,81232,1,0,0:0:0:60:snare.wav
320,192,81382,1,0,0:0:0:0:
448,192,81532,1,2,0:0:0:0:
192,192,81682,1,0,0:0:0:0:
64,192,81832,1,10,0:0:0:0:
320,192,81832,1,0,0:0:0:60:snare.wav
192,192,82132,1,2,0:0:0:0:
320,192,82132,1,0,0:0:0:0:
192,192,82432,1,10,0:0:0:0:
448,192,82432,1,0,0:0:0:60:snare.wav
320,192,82582,1,0,0:0:0:0:
64,192,82732,1,2,0:0:0:0:
192,192,82882,1,0,0:0:0:0:
320,192,83032,1,10,0:0:0:0:
448,192,83032,1,0,0:0:0:60:snare.wav
192,192,83332,1,2,0:0:0:0:
320,192,83332,1,0,0:0:0:0:
64,192,83632,1,10,0:0:0:0:
192,192,83632,1,0,0:0:0:60:snare.wav
448,192,83782,1,0,0:0:0:0:
320,192,83932,1,2,0:0:0:0:
192,192,84082,1,0,0:0:0:0:
64,192,84232,1,10,0:0:0:0:
448,192,84232,1,0,0:0:0:60:snare.wav
192,192,84532,1,2,0:0:0:0:
448,192,84532,1,0,0:0:0:0:
192,192,84832,1,10,0:0:0:0:
320,192,84832,1,0,0:0:0:60:snare.wav
64,192,84982,1,0,0:0:0:0:
448,192,85132,1,2,0:0:0:0:
192,192,85282,1,0,0:0:0:0:
320,192,85432,1,10,0:0:0:0:
448,192,85432,1,0,0:0:0:60:snare.wav
64,192,85732,1,2,0:0:0:0:
320,192,85732,1,0,0:0:0:0:
64,192,86032,1,10,0:0:0:0:
448,192,86032,1,0,0:0:0:60:snare.wav
320,192,86182,1,0,0:0:0:0:
192,192,86332,1,2,0:0:0:0:
448,192,86482,1,0,0:0:0:0:
64,192,86632,1,10,0:0:0:0:
192,192,86632,1,0,0:0:0:60:snare.wav
320,192,86932,1,2,0:0:0:0:
192,192,87082,1,0,0:0:0:0:
320,192,87232,128,10,87532:0:0:0:0:
448,192,87232,1,0,0:0:0:60:snare.wav
192,192,87532,1,2,0:0:0:0:
320,192,87682,1,0,0:0:0:0:
64,192,87832,1,10,0:0:0:0:
192,192,87832,128,0,88132:0:0:0:60:snare.wav
448,192,88132,1,2,0:0:0:0:
320,192,88282,1,0,0:0:0:0:
192,192,88432,1,10,0:0:0:0:
448,192,88432,128,0,88732:0:0:0:60:snare.wav
64,192,88732,1,2,0:0:0:0:
192,192,88882,1,0,0:0:0:0:
64,192,89032,128,10,89332:0:0:0:0:
320,192,89032,1,0,0:0:0:60:snare.wav
448,192,89332,1,2,0:0:0:0:
64,192,89632,1,10,0:0:0:0:
320,192,89632,1,0,0:0:0:60:snare.wav
448,192,89782,1,0,0:0:0:0:
192,192,89932,1,2,0:0:0:0:
320,192,90082,1,0,0:0:0:0:
64,192,90232,1,10,0:0:0:0:
192,192,90232,1,0,0:0:0:60:snare.wav
448,192,90532,1,2,0:0:0:0:
448,192,90832,1,2,0:0:0:0:
64,192,91132,1,0,0:0:0:0:
320,192,91282,1,0,0:0:0:0:
192,192,91582,1,0,0:0:0:0:
64,192,91732,1,2,0:0:0:0:
448,192,91732,1,4,0:0:0:0:
320,192,91882,1,2,0:0:0:0:
64,192,92032,1,8,0:0:0:0:
192,192,92032,1,0,0:0:0:60:snare.wav
448,192,92182,1,2,0:0:0:0:
320,192,92332,1,2,0:0:0:0:
192,192,92482,1,2,0:0:0:0:
320,192,92632,1,8,0:0:0:0:
448,192,92632,1,0,0:0:0:60:snare.wav
64,192,92932,1,2,0:0:0:0:
320,192,93082,1,8,0:0:0:0:
448,192,93082,1,0,0:0:0:60:snare.wav
64,192,93232,1,2,0:0:0:0:
320,192,93382,1,8,0:0:0:0:
448,192,93382,1,0,0:0:0:60:snare.wav
192,192,93532,1,2,0:0:0:0:
64,192,93682,1,8,0:0:0:0:
448,192,93832,1,2,0:0:0:0:
320,192,93982,1,8,0:0:0:0:
64,192,94132,1,2,0:0:0:0:
448,192,94282,1,2,0:0:0:0:
64,192,94432,1,8,0:0:0:0:
320,192,94432,1,0,0:0:0:60:snare.wav
192,192,94582,1,2,0:0:0:0:
320,192,94732,1,2,0:0:0:0:
448,192,94882,1,2,0:0:0:0:
64,192,95032,1,8,0:0:0:0:
192,192,95032,1,0,0:0:0:60:snare.wav
64,192,95332,1,2,0:0:0:0:
320,192,95482,1,8,0:0:0:0:
448,192,95482,1,0,0:0:0:60:snare.wav
64,192,95632,1,2,0:0:0:0:
320,192,95782,1,8,0:0:0:0:
448,192,95782,1,0,0:0:0:60:snare.wav
192,192,95932,1,2,0:0:0:0:
64,192,96082,1,8,0:0:0:0:
320,192,96232,1,2,0:0:0:0:
192,192,96382,1,8,0:0:0:0:
64,192,96532,1,2,0:0:0:0:
448,192,96532,1,0,0:0:0:0:
192,192,96832,1,2,0:0:0:0:
320,192,96982,1,0,0:0:0:0:
64,192,97132,1,2,0:0:0:0:
448,192,97282,1,0,0:0:0:0:
320,192,97432,1,2,0:0:0:0:
64,192,97582,128,0,98332:0:0:0:0:
448,192,97732,1,2,0:0:0:0:
192,192,98032,1,2,0:0:0:0:
320,192,98332,1,2,0:0:0:0:
448,192,98332,1,0,0:0:0:0:
64,192,98632,1,2,0:0:0:0:
320,192,98632,1,0,0:0:0:0:
64,192,98932,128,2,99232:0:0:0:0:
448,192,98932,1,0,0:0:0:0:
192,192,99232,1,2,0:0:0:0:
448,192,99232,128,0,99532:0:0:0:0:
192,192,99532,128,2,99832:0:0:0:0:
320,192,99532,1,0,0:0:0:0:
64,192,99832,1,8,0:0:0:0:
320,192,99832,128,0,100132:0:0:0:60:snare.wav
64,192,100132,128,2,100432:0:0:0:0:
448,192,100132,1,0,0:0:0:0:
192,192,100432,128,8,100732:0:0:0:0:
448,192,100432,1,0,0:0:0:60:snare.wav
320,192,100732,1,2,0:0:0:0:
448,192,100882,1,2,0:0:0:0:
64,192,101032,128,8,101332:0:0:0:0:
192,192,101032,1,0,0:0:0:60:snare.wav
320,192,101332,128,0,101782:0:0:0:0:
192,192,101782,1,0,0:0:0:0:
448,192,101932,128,0,102532:0:0:0:0:
192,192,102532,1,2,0:0:0:0:
64,192,102982,128,0,103282:0:0:0:0:
320,192,103282,1,0,0:0:0:0:
192,192,103432,128,0,103732:0:0:0:0:
320,192,103732,1,2,0:0:0:0:
448,192,103732,128,4,103882:0:0:0:0:
192,192,103882,128,0,104032:0:0:0:0:
320,192,104032,128,2,104182:0:0:0:0:
64,192,104182,128,0,104332:0:0:0:0:
448,192,104332,128,2,104482:0:0:0:0:
320,192,104482,128,0,104632:0:0:0:0:
192,192,104632,128,2,104782:0:0:0:0:
64,192,104782,128,0,104932:0:0:0:0:
448,192,104932,128,2,105082:0:0:0:0:
192,192,105082,128,0,105232:0:0:0:0:
320,192,105232,128,2,105382:0:0:0:0:
64,192,105382,128,0,105532:0:0:0:0:
448,192,105532,128,2,105757:0:0:0:0:
320,192,105757,128,8,105982:0:0:0:0:
192,192,105982,128,2,106132:0:0:0:0:
448,192,106132,128,2,106282:0:0:0:0:
64,192,106282,128,0,106432:0:0:0:0:
320,192,106432,128,2,106582:0:0:0:0:
192,192,106582,128,0,106732:0:0:0:0:
448,192,106732,128,2,106882:0:0:0:0:
320,192,106882,128,0,107032:0:0:0:0:
64,192,107032,128,2,107182:0:0:0:0:
192,192,107182,128,0,107332:0:0:0:0:
448,192,107332,128,2,107482:0:0:0:0:
64,192,107482,128,0,107632:0:0:0:0:
320,192,107632,128,2,107782:0:0:0:0:
192,192,107782,128,0,107932:0:0:0:0:
448,192,107932,128,2,108157:0:0:0:0:
64,192,108157,128,2,108382:0:0:0:0:
192,192,108382,128,2,108532:0:0:0:0:
320,192,108532,1,2,0:0:0:0:
448,192,108532,1,4,0:0:0:0:
320,192,108832,1,2,0:0:0:0:
192,192,108982,1,2,0:0:0:0:
64,192,109132,1,2,0:0:0:0:
320,192,109282,1,0,0:0:0:0:
448,192,109432,1,0,0:0:0:0:
192,192,109582,128,2,109882:0:0:0:0:
320,192,109882,1,2,0:0:0:0:
448,192,110032,1,2,0:0:0:0:
64,192,110182,1,2,0:0:0:0:
192,192,110332,128,2,110557:0:0:0:0:
320,192,110557,128,2,110782:0:0:0:0:
64,192,110782,1,2,0:0:0:0:
448,192,110932,128,2,111382:0:0:0:0:
192,192,111082,1,2,0:0:0:0:
64,192,111232,1,2,0:0:0:0:
320,192,111382,1,2,0:0:0:0:
192,192,111532,128,2,111832:0:0:0:0:
64,192,111832,128,0,112132:0:0:0:0:
320,192,112132,128,2,112432:0:0:0:0:
192,192,112432,1,0,0:0:0:0:
448,192,112582,128,2,112882:0:0:0:0:
64,192,112882,1,0,0:0:0:0:
192,192,112957,1,2,0:0:0:0:
320,192,113032,1,0,0:0:0:0:
64,192,113182,128,2,113632:0:0:0:0:
320,192,113932,1,2,0:0:0:0:
448,192,113932,128,4,115132:0:0:0:0:
64,192,115132,1,2,0:0:0:0:
192,192,115132,128,0,116332:0:0:0:0:
320,192,116332,128,2,117532:0:0:0:0:
448,192,116332,1,0,0:0:0:0:
64,192,117532,128,2,118432:0:0:0:0:
448,192,117532,1,0,0:0:0:0:
192,192,118432,128,0,118732:0:0:0:0:
320,192,118732,1,2,0:0:0:0:
448,192,118732,1,4,0:0:0:0:
64,192,119032,1,2,0:0:0:0:
192,192,119032,1,0,0:0:0:60:ClapHand.wav
320,192,119332,1,2,0:0:0:0:
192,192,119632,1,2,0:0:0:0:
448,192,119632,1,0,0:0:0:60:ClapHand.wav
64,192,119932,1,2,0:0:0:0:
320,192,120232,1,2,0:0:0:0:
448,192,120232,1,0,0:0:0:60:ClapHand.wav
192,192,120532,1,2,0:0:0:0:
64,192,120832,1,2,0:0:0:0:
320,192,120832,1,0,0:0:0:60:ClapHand.wav
448,192,121132,128,2,121432:0:0:0:0:
64,192,121432,1,2,0:0:0:0:
320,192,121432,1,0,0:0:0:60:ClapHand.wav
192,192,121582,1,0,0:0:0:0:
320,192,121732,128,2,122032:0:0:0:0:
192,192,122032,1,2,0:0:0:0:
448,192,122032,1,0,0:0:0:60:ClapHand.wav
64,192,122182,1,0,0:0:0:0:
192,192,122332,128,2,122632:0:0:0:0:
64,192,122632,1,2,0:0:0:0:
448,192,122632,1,0,0:0:0:60:ClapHand.wav
320,192,122782,1,0,0:0:0:0:
64,192,122932,128,2,123232:0:0:0:0:
448,192,123232,128,2,123532:0:0:0:0:
64,192,123532,1,2,0:0:0:0:
192,192,123532,1,0,0:0:0:0:
320,192,123682,1,2,0:0:0:0:
64,192,123832,1,2,0:0:0:0:
448,192,123982,1,2,0:0:0:0:
192,192,124132,1,2,0:0:0:0:
320,192,124282,1,2,0:0:0:0:
64,192,124432,1,2,0:0:0:0:
448,192,124582,1,2,0:0:0:0:
192,192,124732,1,2,0:0:0:0:
320,192,125032,1,2,0:0:0:0:
64,192,125332,1,0,0:0:0:0:
448,192,125482,1,0,0:0:0:0:
320,192,125782,1,0,0:0:0:0:
64,192,125932,1,2,0:0:0:0:
448,192,125932,1,4,0:0:0:0:
192,192,126082,1,2,0:0:0:0:
320,192,126232,1,8,0:0:0:0:
448,192,126232,1,0,0:0:0:60:snare.wav
192,192,126382,1,2,0:0:0:0:
64,192,126532,1,2,0:0:0:0:
320,192,126682,1,2,0:0:0:0:
192,192,126832,1,8,0:0:0:0:
448,192,126832,1,0,0:0:0:60:snare.wav
320,192,127132,1,2,0:0:0:0:
64,192,127282,1,8,0:0:0:0:
192,192,127282,1,0,0:0:0:60:snare.wav
320,192,127432,1,2,0:0:0:0:
64,192,127582,1,8,0:0:0:0:
192,192,127582,1,0,0:0:0:60:snare.wav
448,192,127732,1,2,0:0:0:0:
320,192,127882,1,8,0:0:0:0:
192,192,128032,1,2,0:0:0:0:
64,192,128182,1,8,0:0:0:0:
448,192,128332,1,2,0:0:0:0:
64,192,128482,1,2,0:0:0:0:
192,192,128632,1,8,0:0:0:0:
320,192,128632,1,0,0:0:0:60:snare.wav
448,192,128782,1,2,0:0:0:0:
192,192,128932,1,2,0:0:0:0:
320,192,129082,1,2,0:0:0:0:
64,192,129232,1,8,0:0:0:0:
448,192,129232,1,0,0:0:0:60:snare.wav
192,192,129532,1,2,0:0:0:0:
320,192,129682,1,8,0:0:0:0:
448,192,129682,1,0,0:0:0:60:snare.wav
192,192,129832,1,2,0:0:0:0:
320,192,129982,1,8,0:0:0:0:
448,192,129982,1,0,0:0:0:0:
192,192,130132,1,2,0:0:0:0:
64,192,130282,1,8,0:0:0:0:
448,192,130282,1,0,0:0:0:60:snare.wav
320,192,130432,1,2,0:0:0:0:
192,192,130582,1,8,0:0:0:0:
64,192,130732,1,2,0:0:0:0:
320,192,130732,1,0,0:0:0:0:
448,192,131032,1,2,0:0:0:0:
192,192,131182,1,0,0:0:0:0:
320,192,131332,1,2,0:0:0:0:
64,192,131482,1,0,0:0:0:0:
192,192,131632,1,2,0:0:0:0:
320,192,131782,128,0,132532:0:0:0:0:
64,192,131932,1,2,0:0:0:0:
192,192,132232,1,2,0:0:0:0:
64,192,132532,1,2,0:0:0:0:
448,192,132532,1,0,0:0:0:0:
192,192,132832,1,2,0:0:0:0:
448,192,132832,1,0,0:0:0:0:
192,192,133132,128,2,133432:0:0:0:0:
320,192,133132,1,0,0:0:0:0:
64,192,133432,1,2,0:0:0:0:
320,192,133432,128,0,133732:0:0:0:0:
64,192,133732,128,2,134032:0:0:0:0:
448,192,133732,1,0,0:0:0:0:
192,192,134032,1,8,0:0:0:0:
448,192,134032,128,0,134332:0:0:0:60:snare.wav
192,192,134332,128,2,134632:0:0:0:0:
320,192,134332,1,0,0:0:0:0:
320,192,134632,128,8,134932:0:0:0:0:
448,192,134632,1,0,0:0:0:60:snare.wav
192,192,134932,1,2,0:0:0:0:
448,192,135082,1,2,0:0:0:0:
64,192,135232,1,8,0:0:0:0:
192,192,135232,128,0,135532:0:0:0:60:snare.wav
320,192,135532,128,2,135832:0:0:0:0:
448,192,135532,1,0,0:0:0:0:
192,192,135832,1,2,0:0:0:0:
64,192,135982,1,0,0:0:0:0:
320,192,136132,1,2,0:0:0:0:
448,192,136132,128,0,136732:0:0:0:0:
64,192,136432,1,2,0:0:0:0:
192,192,136732,1,2,0:0:0:0:
320,192,136882,1,2,0:0:0:0:
64,192,137032,1,2,0:0:0:0:
448,192,137182,1,2,0:0:0:0:
192,192,137332,1,2,0:0:0:0:
320,192,137482,1,2,0:0:0:0:
192,192,137632,128,0,137932:0:0:0:0:
64,192,137932,1,4,0:0:0:0:
448,192,137932,1,2,0:0:0:0:
320,192,138082,1,2,0:0:0:0:
192,192,138232,1,8,0:0:0:0:
448,192,138232,1,0,0:0:0:60:snare.wav
64,192,138382,1,2,0:0:0:0:
320,192,138532,1,2,0:0:0:0:
192,192,138682,1,2,0:0:0:0:
64,192,138832,1,8,0:0:0:0:
320,192,138832,1,0,0:0:0:60:snare.wav
192,192,139132,1,2,0:0:0:0:
64,192,139282,1,8,0:0:0:0:
448,192,139282,1,0,0:0:0:60:snare.wav
320,192,139432,1,2,0:0:0:0:
64,192,139582,1,8,0:0:0:0:
448,192,139582,1,0,0:0:0:60:snare.wav
192,192,139732,1,2,0:0:0:0:
320,192,139882,1,8,0:0:0:0:
64,192,140032,1,2,0:0:0:0:
192,192,140182,1,8,0:0:0:0:
320,192,140332,1,2,0:0:0:0:
448,192,140482,1,2,0:0:0:0:
64,192,140632,1,8,0:0:0:0:
192,192,140632,1,0,0:0:0:60:snare.wav
320,192,140782,1,2,0:0:0:0:
448,192,140932,1,2,0:0:0:0:
192,192,141082,1,2,0:0:0:0:
64,192,141232,1,8,0:0:0:0:
320,192,141232,1,0,0:0:0:60:snare.wav
320,192,141532,1,2,0:0:0:0:
64,192,141682,1,8,0:0:0:0:
448,192,141682,1,0,0:0:0:60:snare.wav
192,192,141832,1,2,0:0:0:0:
64,192,141982,1,8,0:0:0:0:
448,192,141982,1,0,0:0:0:60:snare.wav
320,192,142132,1,2,0:0:0:0:
192,192,142282,1,8,0:0:0:0:
320,192,142432,1,2,0:0:0:0:
448,192,142582,1,8,0:0:0:0:
192,192,142732,1,2,0:0:0:0:
64,192,142882,1,2,0:0:0:0:
320,192,143032,1,8,0:0:0:0:
448,192,143032,1,0,0:0:0:60:snare.wav
192,192,143182,1,2,0:0:0:0:
448,192,143332,1,2,0:0:0:0:
64,192,143482,1,2,0:0:0:0:
192,192,143632,1,8,0:0:0:0:
320,192,143632,1,0,0:0:0:60:snare.wav
64,192,143932,1,2,0:0:0:0:
320,192,144082,1,8,0:0:0:0:
448,192,144082,1,0,0:0:0:60:snare.wav
192,192,144232,1,2,0:0:0:0:
320,192,144382,1,8,0:0:0:0:
448,192,144382,1,0,0:0:0:60:snare.wav
192,192,144532,1,2,0:0:0:0:
64,192,144682,1,8,0:0:0:0:
448,192,144682,1,0,0:0:0:60:snare.wav
320,192,144832,1,2,0:0:0:0:
64,192,144982,1,8,0:0:0:0:
192,192,144982,1,0,0:0:0:60:snare.wav
448,192,145132,128,2,145432:0:0:0:0:
64,192,145432,1,8,0:0:0:0:
320,192,145432,128,0,145732:0:0:0:60:snare.wav
64,192,145732,128,2,146032:0:0:0:0:
192,192,146032,128,8,146332:0:0:0:0:
320,192,146032,1,0,0:0:0:60:snare.wav
448,192,146332,1,2,0:0:0:0:
64,192,146482,1,8,0:0:0:0:
320,192,146482,1,0,0:0:0:60:snare.wav
192,192,146632,1,2,0:0:0:0:
320,192,146782,1,8,0:0:0:0:
448,192,146782,1,0,0:0:0:60:snare.wav
64,192,146932,1,2,0:0:0:0:
192,192,147082,1,8,0:0:0:0:
320,192,147232,1,8,0:0:0:0:
448,192,147232,1,0,0:0:0:60:snare.wav
192,192,147382,1,0,0:0:0:0:
64,192,147532,128,2,147832:0:0:0:0:
448,192,147532,1,0,0:0:0:0:
192,192,147832,1,10,0:0:0:0:
320,192,147832,128,0,148132:0:0:0:60:snare.wav
192,192,148132,128,2,148432:0:0:0:0:
448,192,148132,1,0,0:0:0:0:
64,192,148432,1,10,0:0:0:0:
448,192,148432,128,0,148732:0:0:0:60:snare.wav
64,192,148732,128,2,149032:0:0:0:0:
320,192,148732,1,0,0:0:0:0:
320,192,149032,1,10,0:0:0:0:
448,192,149032,1,0,0:0:0:60:snare.wav
192,192,149182,1,0,0:0:0:0:
448,192,149332,128,2,149632:0:0:0:0:
64,192,149632,1,10,0:0:0:0:
192,192,149632,1,0,0:0:0:60:snare.wav
320,192,149782,1,0,0:0:0:0:
64,192,149932,128,2,150232:0:0:0:0:
192,192,150232,1,8,0:0:0:0:
448,192,150232,1,0,0:0:0:60:snare.wav
320,192,150382,1,2,0:0:0:0:
192,192,150532,128,2,150832:0:0:0:0:
64,192,150832,1,8,0:0:0:0:
448,192,150832,1,0,0:0:0:60:snare.wav
192,192,150982,1,2,0:0:0:0:
320,192,151132,128,2,151432:0:0:0:0:
64,192,151432,1,2,0:0:0:0:
448,192,151432,1,0,0:0:0:0:
192,192,151582,1,8,0:0:0:0:
448,192,151732,128,2,152332:0:0:0:0:
64,192,151882,1,8,0:0:0:0:
192,192,152032,1,2,0:0:0:0:
320,192,152182,1,8,0:0:0:0:
64,192,152332,128,2,152932:0:0:0:0:
192,192,152332,1,0,0:0:0:0:
448,192,152632,1,2,0:0:0:0:
192,192,152932,1,2,0:0:0:0:
320,192,152932,128,0,153532:0:0:0:0:
64,192,153232,1,2,0:0:0:0:
192,192,153532,1,2,0:0:0:0:
448,192,153532,128,0,154132:0:0:0:0:
320,192,153832,1,2,0:0:0:0:
64,192,154132,1,2,0:0:0:0:
192,192,154132,128,0,154732:0:0:0:0:
320,192,154432,1,2,0:0:0:0:
64,192,154732,128,2,155182:0:0:0:0:
448,192,154732,1,0,0:0:0:0:
320,192,155032,1,2,0:0:0:0:
192,192,155182,1,0,0:0:0:0:
320,192,155257,1,0,0:0:0:0:
448,192,155332,128,2,155632:0:0:0:0:
64,192,155632,1,8,0:0:0:0:
192,192,155632,1,0,0:0:0:60:snare.wav
320,192,155932,1,2,0:0:0:0:
448,192,155932,1,0,0:0:0:0:
192,192,156082,128,0,156232:0:0:0:0:
320,192,156232,128,10,156382:0:0:0:0:
64,192,156382,128,0,156532:0:0:0:0:
448,192,156532,128,2,156682:0:0:0:0:
320,192,156682,128,2,156832:0:0:0:0:
192,192,156832,128,10,156982:0:0:0:0:
64,192,156982,128,8,157132:0:0:0:0:
